osu file format v14

[General]
AudioFilename: audio.mp3
AudioLeadIn: 0
PreviewTime: 52452
Countdown: 0
SampleSet: Soft
StackLeniency: 0.7
Mode: 0
LetterboxInBreaks: 0
WidescreenStoryboard: 1

[Editor]
Bookmarks: 5276,17711,27659,37607,52529,62478,78022
DistanceSpacing: 1
BeatDivisor: 2
GridSize: 32
TimelineZoom: 1.6

[Metadata]
Title:RE-ILLUSION (TV Size)
TitleUnicode:RE-ILLUSION (TV Size)
Artist:Iguchi Yuka
ArtistUnicode:井口裕香
Creator:EnuHQ
Version:Sayu's Easy
Source:ソード・オラトリア ダンジョンに出会いを求めるのは間違っているだろうか 外伝
Tags:Opening op J-pop Jpop pop Anime Japanese DanMachi Dungeon ni Deai wo Motomeru no wa Machigatteiru Darou ka Gaiden: Sword Oratoria Is it Wrong to Try to Pick Up Girls in a Dungeon? On the Side J.C.Staff majk00 twil_furano koyorin-sama koyorin sayucat_
BeatmapID:4093769
BeatmapSetID:1938336

[Difficulty]
HPDrainRate:2
CircleSize:2.7
OverallDifficulty:3
ApproachRate:4
SliderMultiplier:0.899999999999999
SliderTickRate:1

[Events]
//Background and Video events
0,0,"wp6364813-danmachi-4k-wallpapers.jpg",0,0
Video,-210,"oratoria_opening.avi"
//Break Periods
//Storyboard Layer 0 (Background)
//Storyboard Layer 1 (Fail)
//Storyboard Layer 2 (Pass)
//Storyboard Layer 3 (Foreground)
//Storyboard Layer 4 (Overlay)
//Storyboard Sound Samples

[TimingPoints]
302,310.880829015544,4,2,1,50,1,0
2789,-100,4,2,1,65,0,0
5276,-100,4,2,1,75,0,0
9006,-100,4,2,1,50,0,0
9472,-100,4,2,1,75,0,0
15068,-100,4,2,1,55,0,0
17711,310.880829015544,4,2,1,50,1,0
17711,-100,4,2,1,65,0,0
37607,-100,4,2,1,60,0,0
40094,-100,4,2,1,65,0,0
42581,-100,4,2,1,60,0,0
45068,-100,4,2,1,65,0,0
47555,-100,4,2,1,50,0,0
48176,-100,4,2,1,55,0,0
48799,-100,4,2,1,60,0,0
49420,-100,4,2,1,65,0,0
50042,-100,4,2,1,45,0,0
50664,-100,4,2,1,75,0,0
52529,-100,4,2,1,80,0,1
61234,-100,4,2,1,85,0,1
62477,-100,4,2,1,80,0,1
69939,310.880829015544,4,2,1,50,1,0
69939,-100,4,2,1,85,0,1
74913,-100,4,2,1,30,0,0
78022,-100,4,2,1,55,0,0
79887,-100,4,2,1,75,0,0
81752,-100,4,2,1,50,0,0
82062,-100,4,2,1,75,0,0
85794,-100,4,2,1,50,0,0
86105,-100,4,2,1,75,0,0

[Colours]
Combo1 : 179,171,250
Combo2 : 239,183,251
Combo3 : 179,213,255
Combo4 : 226,213,180

[HitObjects]
356,325,2789,6,0,P|303:332|252:340,1,89.9999999999999,8|8,2:0|2:0,2:0:0:0:
177,353,3410,2,0,P|92:372|25:316,1,180,2|10,1:2|2:0,2:0:0:0:
95,150,4654,1,0,1:0:0:0:
181,126,4965,1,10,2:0:0:0:
264,160,5276,6,0,P|297:216|285:281,1,135,6|2,1:2|2:0,2:0:0:0:
384,376,6208,2,0,P|454:343|466:232,1,180,10|8,2:0|2:0,2:0:0:0:
403,191,7141,2,0,P|350:198|299:206,1,89.9999999999999,2|10,2:0|2:0,2:0:0:0:
227,176,7763,2,0,B|206:108|206:108|237:41,2,135,2|2|10,1:2|2:0|2:0,2:0:0:0:
244,264,9006,2,0,P|237:322|179:371,1,135,2|2,1:2|1:2,2:0:0:0:
58,314,9939,1,8,2:0:0:0:
11,238,10250,6,0,P|21:159|33:84,1,135,6|2,1:2|2:0,2:0:0:0:
136,21,11182,2,0,P|198:15|277:111,1,180,10|8,2:0|2:0,2:0:0:0:
255,182,12115,2,0,P|202:189|151:197,1,89.9999999999999,2|10,1:2|2:0,2:0:0:0:
81,163,12737,2,0,B|74:238|74:238|80:272|80:272|74:367,1,180,6|2,1:2|1:2,2:0:0:0:
160,372,13669,1,8,2:0:0:0:
248,355,13980,2,0,P|272:292|255:250,1,89.9999999999999,14|8,2:0|2:0,2:0:0:0:
206,205,14602,2,0,L|156:210,1,45,10|10,2:0|2:0,2:0:0:0:
71,202,15068,6,0,P|72:147|349:65,1,405,6|0,1:2|1:2,2:0:0:0:
435,298,17711,6,0,B|452:351|405:375|405:375|351:372|341:319,1,180,2|2,1:2|1:2,2:0:0:0:
276,261,18643,1,10,2:0:0:0:
307,176,18954,2,0,P|309:112|252:54,1,135,0|2,1:0|2:0,2:0:0:0:
151,133,19887,1,8,2:0:0:0:
70,172,20198,2,0,B|36:123|36:123|66:80|77:8,2,180,2|2|2,1:2|1:2|1:2,2:0:0:0:
247,196,22063,2,0,P|240:249|232:300,1,89.9999999999999,2|10,1:2|2:0,2:0:0:0:
193,365,22685,6,0,B|299:393|273:318|380:343,1,180,6|2,1:2|1:2,2:0:0:0:
451,366,23618,1,10,2:0:0:0:
494,287,23928,2,0,P|498:230|442:165,1,135,0|2,1:0|3:0,2:0:0:0:
364,149,24706,1,2,1:2:0:0:
233,181,25172,6,0,B|168:194|168:194|91:159,2,135,6|2|2,1:2|2:0|2:0,2:0:0:0:
245,270,26415,1,14,2:0:0:0:
255,359,26726,1,10,2:0:0:0:
121,377,27193,2,0,P|55:364|10:308,1,135,14|2,2:0|1:2,2:0:0:0:
20,224,27970,5,10,2:0:0:0:
102,189,28281,2,0,P|148:189|194:214,1,89.9999999999999,2|10,1:2|2:0,2:0:0:0:
271,238,28903,2,0,P|261:313|249:385,2,135,0|2|8,1:0|2:0|2:0,2:0:0:0:
258,148,30146,2,0,P|265:100|303:55,1,89.9999999999999,2|8,1:2|2:0,2:0:0:0:
370,28,30768,2,0,P|418:35|463:73,1,89.9999999999999,2|8,1:2|2:0,2:0:0:0:
469,146,31390,1,2,1:2:0:0:
373,298,32011,2,0,P|314:290|259:280,1,89.9999999999999,2|10,1:2|2:0,2:0:0:0:
195,266,32633,6,0,P|143:309|135:398,2,135,6|4|10,1:2|1:2|2:0,2:0:0:0:
157,183,33877,2,0,P|90:194|39:267,2,135,6|6|10,1:2|1:2|2:0,2:0:0:0:
246,187,35120,2,0,P|314:195|442:209,1,180,6|10,1:2|2:0,2:0:0:0:
497,42,36364,1,10,2:0:0:0:
407,33,36675,1,10,2:0:0:0:
317,25,36985,2,0,P|287:69|283:128,1,89.9999999999999,10|10,2:0|2:0,2:0:0:0:
305,191,37607,6,0,B|204:211|232:128|113:154,1,180,6|10,1:2|2:0,2:0:0:0:
94,325,38851,2,0,B|195:305|167:388|286:362,1,180,2|10,1:2|2:0,2:0:0:0:
348,207,40094,2,0,B|418:193|418:193|486:234,2,135,6|6|6,1:2|1:2|1:2,2:0:0:0:
268,369,41649,1,2,2:0:0:0:
178,359,41960,1,10,2:0:0:0:
120,189,42581,6,0,B|122:139|59:132|59:132|0:170|26:209,1,180,6|10,1:2|2:0,2:0:0:0:
161,316,43825,2,0,B|158:365|221:372|221:372|280:334|254:295,1,180,2|10,1:2|2:0,2:0:0:0:
360,154,45068,2,0,B|415:149|415:149|449:159|449:159|507:155,2,135,6|6|14,1:2|1:2|2:0,2:0:0:0:
101,233,46934,2,0,P|74:186|90:133,1,89.9999999999999,2|2,1:2|2:0,2:0:0:0:
139,85,47555,6,0,B|227:74|227:74|320:111,1,180,4|4,1:2|1:2,2:0:0:0:
465,201,48799,2,0,B|476:289|476:289|439:382,2,180,4|4|2,1:2|1:2|2:0,2:0:0:0:
292,150,50664,2,0,P|304:246|320:339,2,180,6|10|2,1:2|2:0|1:2,2:0:0:0:
276,60,52219,1,10,2:0:0:0:
194,21,52529,5,6,1:2:0:0:
105,42,52840,2,0,P|78:77|66:121,1,89.9999999999999,10|2,2:0|1:2,2:0:0:0:
94,207,53462,1,10,2:0:0:0:
141,285,53773,2,0,P|67:295|12:243,2,135,6|2|10,1:2|1:2|2:0,2:0:0:0:
222,246,55017,1,4,1:2:0:0:
308,269,55327,2,0,P|316:208|325:151,2,89.9999999999999,10|2|10,2:0|1:2|2:0,2:0:0:0:
334,355,56260,2,0,P|408:365|463:313,1,135,6|2,1:2|1:2,2:0:0:0:
490,201,57193,1,10,2:0:0:0:
400,193,57504,1,4,1:2:0:0:
311,180,57814,6,0,P|319:119|328:62,2,89.9999999999999,10|2|8,2:0|1:2|2:0,2:0:0:0:
226,212,58747,1,4,1:2:0:0:
147,168,59058,2,0,P|155:107|164:50,2,89.9999999999999,10|2|8,2:0|1:2|2:0,2:0:0:0:
58,185,59991,2,0,P|69:99|81:19,2,135,2|2|10,1:2|2:0|2:0,2:0:0:0:
101,263,61234,2,0,B|147:274|147:274|191:260,1,89.9999999999999,10|10,2:0|2:0,2:0:0:0:
270,224,61856,2,0,B|316:213|316:213|360:227,2,89.9999999999999,10|10|4,2:0|2:0|1:2,2:0:0:0:
197,170,62789,5,10,2:0:0:0:
261,108,63099,2,0,P|311:101|358:94,1,89.9999999999999,2|10,1:2|2:0,2:0:0:0:
429,139,63721,2,0,P|436:66|382:8,2,135,6|2|10,1:2|1:2|2:0,2:0:0:0:
386,218,64965,1,4,1:2:0:0:
412,304,65276,2,0,P|462:297|509:290,2,89.9999999999999,10|2|10,2:0|1:2|2:0,2:0:0:0:
352,371,66208,2,0,B|302:366|302:366|261:350|261:350|202:344,1,135,6|6,1:2|1:2,2:0:0:0:
161,224,67141,1,10,2:0:0:0:
236,174,67452,6,0,P|282:160|335:163,2,89.9999999999999,4|8|2,1:2|2:0|1:2,2:0:0:0:
161,224,68384,1,10,2:0:0:0:
73,203,68695,2,0,B|52:162|52:162|74:58,1,135,2|2,1:2|2:0,2:0:0:0:
191,15,69628,1,8,2:0:0:0:
277,40,69939,6,0,P|327:33|374:26,1,89.9999999999999,6|10,1:2|2:0,2:0:0:0:
377,116,70561,2,0,P|332:122|287:128,1,89.9999999999999,10|10,2:0|2:0,2:0:0:0:
201,103,71182,1,10,1:2:0:0:
112,118,71493,1,10,2:0:0:0:
23,135,71804,1,10,2:0:0:0:
15,314,72426,6,0,B|77:334|77:334|202:312,1,180,6|6,1:2|1:2,2:0:0:0:
263,262,73358,1,2,1:2:0:0:
333,318,73669,2,0,B|446:337|446:337|508:317,2,180,6|6|2,1:2|1:2|2:0,2:0:0:0:
362,75,78022,6,0,B|215:112|264:7|101:37,1,270,2|2,1:0|2:0,2:0:0:0:
21,71,79265,1,2,1:2:0:0:
25,160,79576,1,10,2:0:0:0:
109,191,79887,6,0,B|171:170|171:170|264:187,1,135,6|2,1:2|2:0,2:0:0:0:
327,285,80820,2,0,P|299:344|181:364,1,180,10|8,2:0|2:0,2:0:0:0:
111,333,81752,2,0,P|66:339|21:345,1,89.9999999999999,0|10,1:2|2:0,2:0:0:0:
8,256,82374,2,0,P|48:189|159:178,1,180,6|2,1:2|1:2,2:0:0:0:
230,192,83307,1,8,2:0:0:0:
310,232,83618,2,0,P|303:276|297:321,1,89.9999999999999,10|8,2:0|2:0,2:0:0:0:
375,365,84239,2,0,B|427:369|427:369|474:337,1,89.9999999999999,10|10,2:0|2:0,2:0:0:0:
490,315,84706,6,0,P|488:242|279:122,1,315,6|0,1:2|2:0,2:0:0:0:
240,178,86105,2,0,P|233:222|227:267,1,89.9999999999999,10|10,2:0|2:0,2:0:0:0:
137,256,86726,2,0,P|143:211|149:166,1,89.9999999999999,2|2,1:2|1:2,2:0:0:0:
60,180,87348,2,0,P|56:202|53:224,1,45,14|14,2:0|2:0,2:0:0:0:
