osu file format v14

[General]
AudioFilename: audio.mp3
AudioLeadIn: 0
PreviewTime: 52452
Countdown: 0
SampleSet: Soft
StackLeniency: 0.7
Mode: 0
LetterboxInBreaks: 0
WidescreenStoryboard: 1

[Editor]
DistanceSpacing: 2.5
BeatDivisor: 4
GridSize: 8
TimelineZoom: 1.6

[Metadata]
Title:RE-ILLUSION (TV Size)
TitleUnicode:RE-ILLUSION (TV Size)
Artist:Iguchi Yuka
ArtistUnicode:井口裕香
Creator:EnuHQ
Version:Normal
Source:ソード・オラトリア ダンジョンに出会いを求めるのは間違っているだろうか 外伝
Tags:Opening op J-pop Jpop pop Anime Japanese DanMachi Dungeon ni Deai wo Motomeru no wa Machigatteiru Darou ka Gaiden: Sword Oratoria Is it Wrong to Try to Pick Up Girls in a Dungeon? On the Side J.C.Staff majk00 twil_furano koyorin-sama koyorin sayucat_
BeatmapID:4045445
BeatmapSetID:1938336

[Difficulty]
HPDrainRate:3
CircleSize:3.2
OverallDifficulty:4
ApproachRate:5.5
SliderMultiplier:0.999999999999999
SliderTickRate:1

[Events]
//Background and Video events
0,0,"wp6364813-danmachi-4k-wallpapers.jpg",0,0
Video,-210,"oratoria_opening.avi"
//Break Periods
2,15268,16586
2,75113,76897
//Storyboard Layer 0 (Background)
//Storyboard Layer 1 (Fail)
//Storyboard Layer 2 (Pass)
//Storyboard Layer 3 (Foreground)
//Storyboard Layer 4 (Overlay)
//Storyboard Sound Samples

[TimingPoints]
302,310.880829015544,4,2,1,50,1,0
2789,-100,4,2,1,65,0,0
5276,-100,4,2,1,75,0,0
15068,-100,4,2,1,55,0,0
17711,310.880829015544,4,2,1,50,1,0
17711,-111.111111111111,4,2,1,65,0,0
27193,-100,4,2,1,65,0,0
37607,-111.111111111111,4,2,1,60,0,0
40094,-111.111111111111,4,2,1,65,0,0
42581,-111.111111111111,4,2,1,60,0,0
45068,-111.111111111111,4,2,1,65,0,0
47555,-111.111111111111,4,2,1,50,0,0
48177,-111.111111111111,4,2,1,55,0,0
48799,-111.111111111111,4,2,1,60,0,0
49575,-111.111111111111,4,2,1,65,0,0
50042,-111.111111111111,4,2,1,45,0,0
50664,-111.111111111111,4,2,1,75,0,0
52219,-100,4,2,1,75,0,0
52529,-90.9090909090909,4,2,1,80,0,0
61234,-90.9090909090909,4,2,1,85,0,0
62478,-90.9090909090909,4,2,1,80,0,0
69939,310.880829015544,4,2,1,50,1,0
69939,-90.9090909090909,4,2,1,85,0,0
74913,-90.9090909090909,4,2,1,30,0,0
78022,-90.9090909090909,4,2,1,55,0,0
79265,-111.111111111111,4,2,1,55,0,0
79887,-100,4,2,1,75,0,0

[Colours]
Combo1 : 179,171,250
Combo2 : 239,183,251
Combo3 : 179,213,255
Combo4 : 226,213,180

[HitObjects]
0,0,2789,6,0,P|15:47|33:94,1,99.9999999999999,8|8,2:0|2:0,2:0:0:0:
4,193,3410,1,2,1:2:0:0:
4,193,3566,2,0,P|51:208|98:226,1,99.9999999999999,8|0,2:0|1:0,2:0:0:0:
144,244,4032,1,10,2:0:0:0:
234,200,4343,1,8,2:3:0:0:
324,244,4654,2,0,P|368:227|418:211,1,99.9999999999999,0|10,1:0|2:0,2:0:0:0:
471,203,5120,5,10,2:0:0:0:
471,203,5276,2,0,P|497:251|472:306,1,99.9999999999999,6|8,1:2|2:0,2:0:0:0:
450,329,5742,1,2,2:0:0:0:
366,375,6053,1,0,1:0:0:0:
366,375,6208,2,0,L|314:357,1,50,10|0,2:0|2:0,2:0:0:0:
273,337,6519,1,0,1:0:0:0:
190,384,6830,1,8,2:0:0:0:
190,384,6985,2,0,L|152:279,1,99.9999999999999,2|0,1:2|1:0,2:0:0:0:
141,242,7452,1,10,2:0:0:0:
203,163,7763,6,0,L|187:116,2,50,2|2|10,1:2|2:0|2:0,2:0:0:0:
240,195,8229,1,2,2:0:0:0:
335,165,8540,2,0,P|382:181|429:197,1,99.9999999999999,2|2,1:2|2:0,2:0:0:0:
495,122,9162,2,0,P|490:99|478:74,1,50,2|10,2:0|2:0,2:0:0:0:
431,58,9472,2,0,P|383:42|336:25,1,99.9999999999999,2|0,1:2|1:0,2:0:0:0:
291,48,9939,1,8,2:0:0:0:
356,123,10250,6,0,P|367:170|341:212,1,99.9999999999999,6|8,1:2|2:0,2:0:0:0:
309,250,10716,1,2,2:0:0:0:
355,344,11027,1,0,1:0:0:0:
355,344,11182,2,0,L|307:360,1,50,10|0,2:0|2:0,2:0:0:0:
261,379,11493,1,0,1:0:0:0:
185,322,11804,1,8,2:0:0:0:
185,322,11960,2,0,L|80:359,1,99.9999999999999,2|0,1:2|1:0,2:0:0:0:
49,326,12426,1,10,2:0:0:0:
92,235,12737,6,0,P|74:188|59:140,1,99.9999999999999,6|8,1:2|2:0,2:0:0:0:
31,107,13203,1,8,2:0:0:0:
31,107,13358,2,0,L|47:59,1,50,2|0,1:2|1:0,2:0:0:0:
65,13,13669,1,8,2:0:0:0:
147,69,13980,2,0,P|169:60|195:53,1,50,14|0,2:0|1:0,2:0:0:0:
235,23,14291,1,8,2:0:0:0:
316,89,14602,1,10,2:0:0:0:
316,89,14757,1,10,2:0:0:0:
391,23,15068,1,6,1:2:0:0:
42,0,17711,6,0,P|58:44|71:85,1,90,2|10,1:2|2:0,2:0:0:0:
118,162,18333,2,0,P|102:206|89:247,1,90,2|10,1:2|2:0,2:0:0:0:
76,290,18799,1,2,2:0:0:0:
134,358,19110,1,2,2:0:0:0:
204,302,19421,2,0,L|189:259,2,45,2|0|0,2:0|1:0|1:0,2:0:0:0:
218,344,19887,1,8,2:0:0:0:
291,292,20198,6,0,P|335:294|369:323,1,90,2|8,1:2|2:0,2:0:0:0:
408,355,20664,1,2,3:0:0:0:
408,355,20820,2,0,P|421:312|437:269,1,90,2|8,1:2|2:0,2:0:0:0:
465,184,21441,2,0,P|421:170|379:155,1,90,2|8,1:2|2:0,2:0:0:0:
318,89,22063,1,2,1:2:0:0:
238,134,22374,1,10,2:0:0:0:
172,71,22685,6,0,P|143:104|141:148,1,90,6|10,1:2|2:0,2:0:0:0:
103,230,23307,2,0,P|121:270|160:290,1,90,2|10,1:2|2:0,2:0:0:0:
201,271,23773,1,2,2:0:0:0:
267,331,24084,1,2,2:0:0:0:
333,270,24395,2,0,P|317:227|304:184,1,90,2|2,3:0|1:2,2:0:0:0:
277,148,24861,1,8,0:2:0:0:
309,63,25172,6,0,P|372:76|442:42,1,135,6|2,1:2|2:0,2:0:0:0:
499,111,25949,2,0,P|483:153|470:196,1,90,10|2,2:0|1:2,2:0:0:0:
496,239,26415,1,14,2:0:0:0:
430,314,26726,1,10,2:0:0:0:
350,266,27037,1,0,1:0:0:0:
350,266,27193,2,0,L|242:303,1,99.9999999999999,14|0,2:0|2:0,2:0:0:0:
216,330,27659,5,2,1:2:0:0:
138,266,27970,1,10,2:0:0:0:
204,190,28281,2,0,P|223:145|202:102,1,99.9999999999999,2|10,1:2|2:0,2:0:0:0:
170,63,28747,1,2,2:0:0:0:
74,92,29058,2,0,L|37:200,1,99.9999999999999,2|2,2:0|2:0,2:0:0:0:
7,222,29524,2,0,P|15:244|22:269,1,50,0|0,1:0|1:0,2:0:0:0:
0,314,29835,1,8,2:0:0:0:
83,369,30146,6,0,P|131:372|164:337,1,99.9999999999999,2|8,1:2|2:0,2:0:0:0:
206,308,30612,1,2,2:0:0:0:
206,308,30768,2,0,L|314:345,1,99.9999999999999,2|8,1:2|2:0,2:0:0:0:
352,328,31234,1,2,2:0:0:0:
352,328,31390,1,2,1:2:0:0:
427,262,31700,1,8,2:0:0:0:
363,184,32011,2,0,P|371:161|378:136,1,50,2|0,1:2|1:0,2:0:0:0:
356,92,32322,1,10,2:0:0:0:
297,10,32633,6,0,L|202:42,1,99.9999999999999,6|8,1:2|2:0,2:0:0:0:
154,26,33099,1,4,1:2:0:0:
106,110,33410,1,0,1:0:0:0:
106,110,33566,1,10,2:0:0:0:
188,166,33877,2,0,L|220:260,1,99.9999999999999,6|8,1:2|2:0,2:0:0:0:
205,308,34343,1,6,1:2:0:0:
136,381,34654,1,0,1:0:0:0:
136,381,34809,1,10,2:0:0:0:
52,325,35120,6,0,L|3:183,1,150,6|2,1:2|1:2,2:0:0:0:
23,136,35742,1,10,2:0:0:0:
85,57,36053,1,0,1:0:0:0:
161,121,36364,2,0,P|184:113|209:106,1,50,10|0,2:0|1:0,2:0:0:0:
249,77,36675,2,0,P|272:85|297:92,1,50,10|0,2:0|1:0,2:0:0:0:
340,68,36985,1,10,2:0:0:0:
409,140,37296,1,10,2:0:0:0:
343,201,37607,6,0,P|366:264|386:328,1,135,6|2,1:2|1:2,2:0:0:0:
368,369,38229,1,10,2:0:0:0:
292,320,38540,1,2,2:0:0:0:
218,371,38851,2,0,P|170:329|166:261,1,135,2|2,1:2|1:2,2:0:0:0:
193,225,39472,1,10,2:0:0:0:
316,93,40094,6,0,B|368:105|368:105|386:131|386:131|440:144,2,135,6|6|6,1:2|1:2|1:2,2:0:0:0:
207,21,41493,1,10,2:0:0:0:
207,21,41649,2,0,L|189:73,1,45,2|0,2:0|1:0,2:0:0:0:
158,93,41960,1,10,2:0:0:0:
16,203,42581,6,0,P|79:226|143:246,1,135,6|2,1:2|1:2,2:0:0:0:
188,246,43203,1,10,2:0:0:0:
247,313,43514,1,2,2:0:0:0:
316,256,43825,2,0,B|341:219|344:176|344:176|312:125,1,135,2|2,1:2|1:2,2:0:0:0:
290,98,44447,1,10,2:0:0:0:
146,205,45068,6,0,P|78:184|16:165,2,135,6|6|14,1:2|1:2|2:0,2:0:0:0:
268,144,46467,1,0,1:0:0:0:
268,144,46623,2,0,L|299:234,1,90,2|2,2:0|1:2,2:0:0:0:
325,314,47245,1,2,2:0:0:0:
250,363,47555,6,0,P|184:359|140:310,1,135,4|0,1:2|2:0,2:0:0:0:
124,268,48177,1,4,1:2:0:0:
4,133,48799,2,0,P|47:117|89:103,1,90,4|2,1:2|2:0,2:0:0:0:
120,70,49265,2,0,P|163:86|205:99,1,90,2|2,2:0|2:0,2:0:0:0:
247,114,49732,1,2,2:0:0:0:
319,61,50042,5,2,2:0:0:0:
443,191,50664,2,0,B|470:226|475:269|475:269|440:320,1,135,6|0,1:2|1:0,2:0:0:0:
422,347,51286,1,10,2:0:0:0:
344,300,51597,1,2,2:0:0:0:
265,362,51908,1,2,1:2:0:0:
201,284,52219,2,0,P|209:261|218:237,1,50,10|8,2:0|2:0,2:0:0:0:
252,194,52529,6,0,P|233:142|214:90,1,110,6|10,1:2|2:0,2:0:0:0:
246,46,52996,1,2,2:0:0:0:
246,46,53151,2,0,P|271:55|297:64,1,55,2|2,1:2|1:2,2:0:0:0:
346,38,53462,1,10,2:0:0:0:
438,97,53773,2,0,P|464:189|451:203,1,110,6|8,1:2|2:0,2:0:0:0:
418,222,54239,2,0,P|437:274|456:326,1,110,2|0,1:2|1:0,2:0:0:0:
439,378,54706,1,10,2:0:0:0:
342,324,55017,6,0,P|290:343|238:362,1,110,4|10,1:2|2:0,2:0:0:0:
196,336,55483,1,2,2:0:0:0:
196,336,55638,2,0,P|205:311|214:285,1,55,2|2,1:2|1:2,2:0:0:0:
188,236,55949,1,10,2:0:0:0:
265,158,56260,2,0,P|289:110|267:61,1,110,6|8,1:2|2:0,2:0:0:0:
230,21,56726,2,0,P|178:40|126:59,1,110,2|0,1:2|1:0,2:0:0:0:
78,30,57193,1,10,2:0:0:0:
8,115,57504,5,4,1:2:0:0:
85,193,57814,2,0,P|76:218|67:244,1,55,10|2,2:0|2:0,2:0:0:0:
93,293,58125,1,2,1:2:0:0:
170,370,58436,2,0,P|195:361|221:352,1,55,8|0,2:0|3:0,2:0:0:0:
262,314,58747,2,0,P|314:333|366:352,1,110,4|10,1:2|2:0,2:0:0:0:
421,336,59213,1,2,2:0:0:0:
421,336,59369,2,0,P|402:284|383:232,1,110,2|8,1:2|2:0,2:0:0:0:
430,132,59991,6,0,L|486:151,2,55,2|2|10,1:2|2:0|2:0,2:0:0:0:
399,85,60457,2,0,P|363:44|309:46,1,110,2|2,2:0|1:2,2:0:0:0:
266,79,60923,1,10,2:0:0:0:
169,25,61234,1,10,2:0:0:0:
102,112,61545,1,10,2:0:0:0:
175,193,61856,1,10,2:0:0:0:
113,284,62167,1,10,2:0:0:0:
195,356,62478,6,0,P|247:337|299:318,1,110,4|10,1:2|2:0,2:0:0:0:
352,297,62944,1,2,2:0:0:0:
352,297,63099,2,0,P|343:272|334:246,1,55,2|2,1:2|1:2,2:0:0:0:
360,197,63410,1,10,2:0:0:0:
279,122,63721,2,0,P|269:69|304:28,1,110,6|8,1:2|2:0,2:0:0:0:
354,5,64188,2,0,P|406:24|458:43,1,110,2|0,1:2|1:0,2:0:0:0:
508,63,64654,1,10,2:0:0:0:
441,150,64965,6,0,P|424:200|454:245,1,110,4|10,1:2|2:0,2:0:0:0:
493,291,65431,1,2,2:0:0:0:
493,291,65586,2,0,P|468:300|442:309,1,55,2|2,1:2|1:2,2:0:0:0:
405,351,65897,1,10,2:0:0:0:
309,296,66208,1,6,1:2:0:0:
222,362,66519,1,8,2:0:0:0:
222,362,66675,2,0,P|203:310|184:258,1,110,6|0,1:2|1:0,2:0:0:0:
198,205,67141,1,10,2:0:0:0:
110,137,67452,6,0,P|60:144|24:189,2,110,4|8|2,1:2|2:0|1:2,2:0:0:0:
161,113,68229,1,2,1:2:0:0:
161,113,68384,2,0,P|152:88|143:62,1,55,10|0,2:0|2:0,2:0:0:0:
171,14,68695,1,2,1:2:0:0:
273,67,69006,1,8,2:0:0:0:
273,67,69162,2,0,P|325:48|377:29,1,110,2|0,2:0|1:0,2:0:0:0:
426,6,69628,1,8,2:0:0:0:
504,83,69939,5,6,1:2:0:0:
438,172,70250,1,10,2:0:0:0:
498,264,70561,2,0,P|489:289|480:315,1,55,10|0,2:0|1:0,2:0:0:0:
456,366,70871,1,10,2:0:0:0:
357,318,71182,2,0,P|305:337|253:356,2,110,10|10|10,1:2|2:0|2:0,2:0:0:0:
390,275,71960,1,0,1:0:0:0:
390,275,72115,2,0,P|381:250|372:224,1,55,8|8,2:0|2:0,2:0:0:0:
400,176,72426,5,6,1:2:0:0:
313,107,72737,2,0,P|288:116|262:125,1,55,10|8,2:0|2:0,2:0:0:0:
221,163,73048,2,0,P|169:144|117:125,1,110,6|2,1:2|1:2,2:0:0:0:
21,178,73669,1,6,1:2:0:0:
81,269,73980,1,0,1:0:0:0:
3,346,74291,2,0,P|55:365|107:384,1,110,6|0,1:2|1:0,2:0:0:0:
199,324,74913,5,2,2:0:0:0:
512,8,78022,5,2,1:0:0:0:
361,168,78643,2,0,L|401:285,1,110,2|2,2:0|2:0,2:0:0:0:
338,340,79265,2,0,L|295:325,1,45,2|10,1:2|2:3,2:0:0:0:
261,295,79576,2,0,L|218:309,1,45,10|10,2:0|2:0,2:0:0:0:
170,324,79887,6,0,P|144:276|169:221,1,99.9999999999999,6|8,1:2|2:0,2:0:0:0:
191,198,80353,1,2,2:0:0:0:
260,126,80664,1,0,1:0:0:0:
260,126,80820,2,0,L|242:74,1,50,10|0,2:0|2:0,2:0:0:0:
222,33,81131,1,0,1:0:0:0:
132,0,81441,1,8,2:0:0:0:
132,0,81597,2,0,L|27:38,1,99.9999999999999,2|0,1:2|1:0,2:0:0:0:
10,76,82063,1,10,2:0:0:0:
81,146,82374,6,0,P|76:194|39:227,1,99.9999999999999,6|8,1:2|2:0,2:0:0:0:
11,270,82840,1,0,2:0:0:0:
11,270,82996,2,0,L|29:322,1,50,2|0,1:2|1:0,2:0:0:0:
68,345,83307,1,8,2:0:0:0:
158,300,83618,2,0,P|183:309|209:318,1,50,10|0,2:0|1:0,2:0:0:0:
240,352,83928,1,8,2:0:0:0:
325,300,84239,2,0,L|341:347,2,50,10|10|10,2:0|2:0|2:0,2:0:0:0:
305,253,84706,1,6,1:2:0:0:
41,40,86105,5,10,2:0:0:0:
91,126,86415,2,0,P|82:151|73:177,1,50,10|8,2:0|2:0,2:0:0:0:
39,208,86726,1,2,1:2:0:0:
94,291,87037,1,2,1:2:0:0:
35,373,87348,1,14,2:0:0:0:
35,373,87504,1,14,2:0:0:0:
