osu file format v14

[General]
AudioFilename: audio.mp3
AudioLeadIn: 0
PreviewTime: 52452
Countdown: 0
SampleSet: Soft
StackLeniency: 0.7
Mode: 0
LetterboxInBreaks: 0
WidescreenStoryboard: 1

[Editor]
DistanceSpacing: 1.7
BeatDivisor: 4
GridSize: 32
TimelineZoom: 1.6

[Metadata]
Title:RE-ILLUSION (TV Size)
TitleUnicode:RE-ILLUSION (TV Size)
Artist:Iguchi Yuka
ArtistUnicode:井口裕香
Creator:EnuHQ
Version:Insane
Source:ソード・オラトリア ダンジョンに出会いを求めるのは間違っているだろうか 外伝
Tags:Opening op J-pop Jpop pop Anime Japanese DanMachi Dungeon ni Deai wo Motomeru no wa Machigatteiru Darou ka Gaiden: Sword Oratoria Is it Wrong to Try to Pick Up Girls in a Dungeon? On the Side J.C.Staff majk00 twil_furano koyorin-sama koyorin sayucat_
BeatmapID:4055467
BeatmapSetID:1938336

[Difficulty]
HPDrainRate:5
CircleSize:3.8
OverallDifficulty:8.4
ApproachRate:9
SliderMultiplier:1.74
SliderTickRate:1

[Events]
//Background and Video events
0,0,"wp6364813-danmachi-4k-wallpapers.jpg",0,0
Video,-210,"oratoria_opening.avi"
//Break Periods
2,75113,76800
//Storyboard Layer 0 (Background)
//Storyboard Layer 1 (Fail)
//Storyboard Layer 2 (Pass)
//Storyboard Layer 3 (Foreground)
//Storyboard Layer 4 (Overlay)
//Storyboard Sound Samples

[TimingPoints]
302,310.880829015544,4,2,1,50,1,0
2789,-119.047619047619,4,2,1,65,0,0
5276,-100,4,2,1,75,0,0
7218,-100,4,2,1,65,0,0
7296,-100,4,2,1,75,0,0
14213,-100,4,2,1,65,0,0
14291,-100,4,2,1,75,0,0
15068,-100,4,2,1,55,0,0
17711,310.880829015544,4,2,1,50,1,0
17711,-100,4,2,1,65,0,0
18022,-121.951219512195,4,2,1,65,0,0
26415,-108.695652173913,4,2,1,65,0,0
27659,-106.382978723404,4,2,1,65,0,0
35120,-135.135135135135,4,2,1,65,0,0
37607,-128.205128205128,4,2,1,60,0,0
40094,-89.2857142857143,4,2,1,65,0,0
41027,-128.205128205128,4,2,1,65,0,0
42581,-128.205128205128,4,2,1,60,0,0
45068,-89.2857142857143,4,2,1,65,0,0
46001,-128.205128205128,4,2,1,65,0,0
47555,-128.205128205128,4,2,1,50,0,0
48177,-128.205128205128,4,2,1,55,0,0
48799,-119.047619047619,4,2,1,60,0,0
49420,-119.047619047619,4,2,1,65,0,0
50042,-227.272727272727,4,2,1,45,0,0
50663,-227.272727272727,4,2,1,75,0,0
52374,-113.636363636364,4,2,1,75,0,0
52529,-96.1538461538461,4,2,1,80,0,0
61234,-87.719298245614,4,2,1,85,0,0
62478,-96.1538461538461,4,2,1,80,0,0
69939,310.880829015544,4,2,1,50,1,0
69939,-96.1538461538461,4,2,1,85,0,0
71337,-96.1538461538461,4,2,1,80,0,0
71493,-96.1538461538461,4,2,1,85,0,0
74913,-96.1538461538461,4,2,1,30,0,0
78643,-96.1538461538461,4,2,1,55,0,0
79887,-100,4,2,1,75,0,0
81286,-100,4,2,1,65,0,0
81441,-100,4,2,1,75,0,0
82529,-100,4,2,1,65,0,0
82685,-100,4,2,1,75,0,0
84706,-250,4,2,1,75,0,0
85794,-250,4,2,1,65,0,0
86105,-100,4,2,1,75,0,0
87970,-181.818181818182,4,2,1,55,0,0

[Colours]
Combo1 : 179,171,250
Combo2 : 239,183,251
Combo3 : 179,213,255
Combo4 : 226,213,180

[HitObjects]
452,93,2789,6,0,P|460:127|475:162,1,73.08,8|0,2:0|2:0,2:0:0:0:
411,277,3099,2,0,P|402:311|387:346,1,73.08,8|0,2:0|2:0,2:0:0:0:
512,256,3410,1,2,1:2:0:0:
379,186,3566,2,0,P|297:206|217:241,1,146.16,8|0,2:0|1:0,2:0:0:0:
133,384,4032,6,0,P|175:351|184:299,1,109.62,10|0,2:0|2:0,2:0:0:0:
140,236,4343,2,0,P|154:202|163:167,1,73.08,8|8,2:3|2:0,2:0:0:0:
190,85,4654,1,0,1:0:0:0:
65,170,4809,1,10,2:0:0:0:
31,156,4887,1,10,2:0:0:0:
7,129,4965,1,10,2:0:0:0:
0,94,5042,1,10,2:0:0:0:
9,59,5120,2,0,P|26:52|42:44,1,36.54,10|10,2:0|2:0,2:0:0:0:
160,0,5276,6,0,B|222:25|222:25|235:65|235:65|305:93,1,174,6|8,1:2|2:0,2:0:0:0:
390,0,5742,2,0,P|400:42|417:82,1,87,2|0,2:0|1:0,2:0:0:0:
367,199,6053,1,0,1:0:0:0:
512,126,6208,2,0,P|495:166|484:208,1,87,10|0,2:0|2:0,2:0:0:0:
311,307,6519,6,0,P|394:311|437:382,1,174,0|8,1:0|2:0,2:0:0:0:
200,349,6985,2,0,P|226:289|245:226,1,130.5,2|0,1:2|2:0,2:0:0:0:
250,203,7296,1,0,1:0:0:0:
292,75,7452,1,10,2:0:0:0:
167,155,7607,1,2,2:0:0:0:
292,75,7763,6,0,P|331:92|374:102,1,87,2|2,1:2|2:0,2:0:0:0:
504,10,8074,1,10,2:0:0:0:
435,164,8229,2,0,P|397:78|369:-11,1,174,2|2,2:0|1:2,2:0:0:0:
270,158,8695,1,10,2:0:0:0:
191,4,8851,6,0,B|128:29|128:29|115:69|115:69|45:97,1,174,2|2,2:0|2:0,2:0:0:0:
126,250,9317,1,10,2:0:0:0:
26,216,9472,2,0,P|68:225|108:243,1,87,2|0,1:2|2:0,2:0:0:0:
49,338,9783,1,0,1:0:0:0:
224,241,9939,2,0,P|206:280|196:323,1,87,8|8,2:0|2:3,2:0:0:0:
193,349,10172,5,8,2:0:0:0:
193,349,10250,2,0,P|252:289|335:298,1,174,6|8,1:2|2:0,2:0:0:0:
475,171,10716,2,0,P|465:213|448:253,1,87,2|0,2:0|1:0,2:0:0:0:
499,373,11027,1,0,1:0:0:0:
353,297,11182,2,0,P|370:337|381:379,1,87,10|0,2:0|2:0,2:0:0:0:
228,157,11493,6,0,P|288:183|351:202,1,130.5,0|0,1:0|2:0,2:0:0:0:
374,207,11804,1,8,2:0:0:0:
218,281,11960,2,0,B|155:302|155:302|140:357|81:388,1,174,2|0,1:2|1:0,2:0:0:0:
133,171,12426,1,10,2:0:0:0:
57,297,12581,5,2,2:0:0:0:
57,297,12659,1,0,2:0:0:0:
57,297,12737,2,0,P|24:214|-1:124,2,174,6|8|2,1:2|2:0|1:2,2:0:0:0:
219,216,13514,1,0,1:0:0:0:
119,182,13669,2,0,P|161:191|201:209,1,87,8|0,2:0|2:0,2:0:0:0:
325,323,13980,6,0,P|291:270|319:213,1,130.5,14|0,2:0|2:0,2:0:0:0:
372,161,14291,2,0,P|411:178|454:188,1,87,8|0,2:0|1:0,2:0:0:0:
307,64,14602,1,10,2:0:0:0:
393,263,14757,1,10,2:0:0:0:
512,0,15068,5,6,1:2:0:0:
256,192,15224,12,8,17400,2:0:0:0:
405,15,17711,5,2,1:2:0:0:
405,15,17866,1,2,2:0:0:0:
380,91,18022,2,0,P|366:125|356:158,1,71.3400000000001,10|0,2:0|2:0,2:0:0:0:
351,196,18255,1,0,3:0:0:0:
351,196,18333,2,0,P|376:263|401:342,1,142.68,2|10,1:2|2:0,2:0:0:0:
276,262,18799,6,0,P|290:296|300:329,1,71.3400000000001,2|0,2:0|1:0,2:0:0:0:
174,249,19110,2,0,P|188:283|198:316,1,71.3400000000001,2|8,2:0|2:0,2:0:0:0:
75,228,19421,2,0,P|89:262|99:295,2,71.3400000000001,2|0|0,2:0|1:0|1:0,2:0:0:0:
38,155,19887,1,8,2:0:0:0:
267,0,20198,6,0,B|238:39|238:39|240:83|286:125,1,142.68,2|8,1:2|2:0,2:0:0:0:
141,171,20664,1,2,3:0:0:0:
141,171,20742,1,0,3:0:0:0:
141,171,20820,2,0,P|139:136|156:106,1,71.3400000000001,2|0,1:2|1:0,2:0:0:0:
234,192,21131,2,0,P|224:227|210:260,1,71.3400000000001,8|2,2:0|2:0,2:0:0:0:
200,286,21364,5,0,3:0:0:0:
200,286,21441,2,0,P|267:261|346:236,1,142.68,2|8,1:2|2:0,2:0:0:0:
508,384,22063,1,2,1:2:0:0:
421,341,22219,1,0,1:0:0:0:
491,273,22374,2,0,P|492:237|475:207,1,71.3400000000001,10|8,2:0|2:0,2:0:0:0:
458,184,22607,5,8,2:0:0:0:
458,184,22685,2,0,P|471:151|481:116,1,71.3400000000001,6|2,1:2|2:0,2:0:0:0:
433,52,22996,1,10,2:0:0:0:
360,134,23151,1,0,2:0:0:0:
360,134,23229,1,0,3:0:0:0:
360,134,23307,2,0,P|335:67|310:-12,1,142.68,2|10,1:2|2:0,2:0:0:0:
240,84,23773,6,0,P|207:71|172:61,1,71.3400000000001,2|0,2:0|1:0,2:0:0:0:
99,3,24084,2,0,P|66:16|31:26,1,71.3400000000001,2|8,2:0|2:0,2:0:0:0:
75,145,24395,2,0,P|80:128|87:111,2,35.67,2|0|0,3:0|3:0|1:0,2:0:0:0:
48,229,24706,1,2,1:2:0:0:
161,161,24861,1,8,2:0:0:0:
36,235,25017,1,2,2:0:0:0:
213,279,25172,6,0,P|187:212|166:144,1,142.68,6|8,1:2|2:0,2:0:0:0:
324,243,25638,2,0,P|302:311|277:377,1,142.68,2|10,2:0|2:0,2:0:0:0:
417,244,26105,2,0,P|407:209|394:176,1,71.3400000000001,2|2,2:0|1:2,2:0:0:0:
510,357,26415,6,0,P|472:342|434:331,1,80.04,14|0,2:0|1:0,2:0:0:0:
324,243,26726,2,0,P|286:257|248:268,1,80.04,10|0,2:0|2:0,2:0:0:0:
334,362,27037,1,0,1:0:0:0:
235,182,27193,2,0,P|208:263|178:342,1,160.08,14|0,2:0|2:0,2:0:0:0:
30,246,27659,6,0,P|72:236|112:219,1,81.7800000000002,2|0,1:2|2:0,2:0:0:0:
239,153,27970,2,0,P|196:141|155:123,1,81.7800000000002,10|0,2:0|2:0,2:0:0:0:
41,0,28281,2,0,P|15:53|68:135,1,163.56,2|10,1:2|2:0,2:0:0:0:
207,13,28747,6,0,P|165:24|126:43,1,81.7800000000002,2|0,2:0|1:0,2:0:0:0:
306,100,29058,2,0,P|264:111|226:129,1,81.7800000000002,2|8,2:0|2:0,2:0:0:0:
333,2,29369,1,2,2:0:0:0:
405,107,29524,1,0,1:0:0:0:
333,2,29680,1,0,1:0:0:0:
486,106,29835,2,0,P|484:148|430:189,1,81.7800000000002,8|0,2:0|2:0,2:0:0:0:
328,273,30146,6,0,B|387:290|387:290|402:326|402:326|469:346,1,163.56,2|8,1:2|2:0,2:0:0:0:
376,195,30612,1,2,2:0:0:0:
285,348,30768,2,0,P|190:248|207:219,1,163.56,2|8,1:2|2:0,2:0:0:0:
84,168,31234,1,2,2:0:0:0:
72,262,31390,6,0,P|86:220|101:180,1,81.7800000000002,2|0,1:2|2:0,2:0:0:0:
212,79,31700,2,0,P|198:37|183:-3,1,81.7800000000002,8|0,2:0|2:0,2:0:0:0:
240,168,32011,1,2,1:2:0:0:
240,168,32167,1,0,1:0:0:0:
307,59,32322,1,10,2:0:0:0:
307,59,32400,1,8,2:0:0:0:
307,59,32478,1,8,2:0:0:0:
418,147,32633,6,0,B|328:142|353:197|262:197,1,163.56,6|8,1:2|2:0,2:0:0:0:
416,61,33099,2,0,P|511:161|494:190,1,163.56,4|0,1:2|1:0,2:0:0:0:
395,292,33566,1,10,2:0:0:0:
395,292,33721,1,2,2:0:0:0:
454,220,33877,6,0,P|468:258|481:297,1,81.7800000000002,6|0,1:2|2:0,2:0:0:0:
373,382,34188,1,8,2:0:0:0:
361,288,34343,2,0,P|375:330|390:370,1,81.7800000000002,6|0,1:2|2:0,2:0:0:0:
237,276,34654,1,0,1:0:0:0:
285,363,34809,1,10,2:0:0:0:
447,140,35120,6,0,P|411:88|349:78,1,128.76,6|0,1:2|2:0,2:0:0:0:
294,187,35586,1,2,1:2:0:0:
242,48,35742,2,0,P|263:112|287:176,1,128.76,10|0,2:0|1:0,2:0:0:0:
12,318,36364,5,10,2:0:0:0:
143,382,36519,1,0,1:0:0:0:
233,237,36675,1,10,2:0:0:0:
102,301,36830,1,0,1:0:0:0:
227,155,36985,2,0,P|216:185|206:215,1,64.3800000000001,10|0,2:0|1:0,2:0:0:0:
87,111,37296,2,0,P|97:141|107:171,1,64.3800000000001,10|2,2:0|2:0,2:0:0:0:
0,83,37607,6,0,P|60:7|156:24,1,203.58,6|2,1:2|1:2,2:0:0:0:
221,71,38229,1,10,2:0:0:0:
375,0,38540,1,2,2:0:0:0:
432,66,38695,1,2,2:0:0:0:
493,129,38851,1,2,1:2:0:0:
432,66,39006,6,0,P|412:131|385:203,1,135.72,0|2,1:0|1:2,2:0:0:0:
334,252,39472,2,0,P|347:283|360:329,1,67.8600000000001,10|0,2:0|2:0,2:0:0:0:
163,163,39939,5,8,2:0:0:0:
163,163,40094,2,0,L|144:217,1,48.72,6|0,1:2|2:0,2:0:0:0:
315,59,40561,6,0,L|334:113,1,48.72,6|0,1:2|2:0,2:0:0:0:
359,177,40716,1,8,2:0:0:0:
207,5,41027,6,0,P|115:35|10:73,1,203.58,6|10,1:2|2:0,2:0:0:0:
83,136,41649,2,0,P|70:167|57:213,1,67.8600000000001,2|0,2:0|1:0,2:0:0:0:
0,261,41960,2,0,P|67:291|122:260,1,135.72,10|0,2:0|2:0,2:0:0:0:
309,384,42581,6,0,P|233:324|250:228,1,203.58,6|2,1:2|1:2,2:0:0:0:
312,183,43203,1,10,2:0:0:0:
202,0,43514,1,2,2:0:0:0:
282,53,43669,1,2,2:0:0:0:
360,4,43825,1,2,1:2:0:0:
427,76,43980,6,0,P|403:139|383:204,1,135.72,0|2,1:0|1:2,2:0:0:0:
359,280,44447,1,10,2:0:0:0:
332,354,44602,1,0,2:0:0:0:
169,213,44913,5,8,2:0:0:0:
169,213,45068,2,0,L|115:232,1,48.72,6|0,1:2|2:0,2:0:0:0:
273,61,45535,6,0,L|219:42,1,48.72,6|0,1:2|2:0,2:0:0:0:
155,17,45690,1,8,2:0:0:0:
328,226,46001,6,0,P|409:172|403:75,1,203.58,14|0,2:0|1:0,2:0:0:0:
326,32,46623,2,0,P|293:41|262:54,1,67.8600000000001,2|8,2:0|2:3,2:0:0:0:
194,93,46934,2,0,P|162:79|130:71,1,67.8600000000001,2|0,1:2|2:0,2:0:0:0:
55,47,47245,1,2,2:0:0:0:
0,163,47400,5,0,3:0:0:0:
0,163,47478,1,0,3:0:0:0:
0,163,47555,2,0,P|20:229|45:296,1,135.72,4|0,1:2|2:0,2:0:0:0:
206,249,48177,2,0,P|182:312|162:377,1,135.72,4|0,1:2|2:0,2:0:0:0:
394,261,48799,6,0,P|380:227|370:191,1,73.08,4|0,1:2|2:0,2:0:0:0:
316,64,49110,1,2,2:0:0:0:
285,158,49265,2,0,P|298:124|308:88,1,73.08,2|4,2:0|1:2,2:0:0:0:
335,3,49576,1,2,2:0:0:0:
411,106,49732,1,2,2:0:0:0:
167,14,50042,6,0,P|93:41|22:62,2,153.12,2|6|10,2:0|1:2|2:0,2:0:0:0:
167,14,51597,1,2,2:0:0:0:
254,101,51908,5,2,1:2:0:0:
392,0,52063,1,8,2:0:0:0:
356,13,52141,1,8,2:0:0:0:
335,44,52219,1,10,2:0:0:0:
334,81,52296,1,8,2:0:0:0:
355,113,52374,2,0,P|372:119|391:125,1,38.2799999999999,8|8,2:0|2:0,2:0:0:0:
483,52,52529,6,0,B|527:104|527:104|489:210,1,180.96,6|10,1:2|2:0,2:0:0:0:
328,315,52996,1,2,2:0:0:0:
424,384,53151,2,0,P|440:342|423:302,1,90.48,2|2,1:2|1:2,2:0:0:0:
270,174,53462,1,10,2:0:0:0:
328,315,53618,1,2,2:0:0:0:
482,158,53773,6,0,L|381:192,1,90.48,6|0,1:2|2:0,2:0:0:0:
291,35,54084,1,8,2:0:0:0:
408,81,54239,2,0,P|426:40|411:0,1,90.48,2|0,1:2|2:0,2:0:0:0:
238,159,54550,1,0,1:0:0:0:
291,35,54706,2,0,P|308:80|320:120,1,90.48,10|0,2:0|2:0,2:0:0:0:
109,96,55017,6,0,B|74:47|74:47|198:70,1,180.96,4|10,1:2|2:0,2:0:0:0:
121,220,55483,1,2,2:0:0:0:
238,159,55638,2,0,P|254:199|238:240,1,90.48,2|2,1:2|1:2,2:0:0:0:
75,341,55949,1,10,2:0:0:0:
121,220,56105,1,2,2:0:0:0:
220,359,56260,6,0,P|304:327|391:300,1,180.96,6|8,1:2|2:0,2:0:0:0:
338,124,56726,2,0,P|422:155|509:182,1,180.96,2|0,1:2|1:0,2:0:0:0:
380,40,57193,1,10,2:0:0:0:
268,185,57348,5,0,2:0:0:0:
268,185,57426,1,8,2:0:0:0:
268,185,57504,2,0,P|217:156|235:36,1,180.96,4|10,1:2|2:0,2:0:0:0:
102,157,57970,1,2,2:0:0:0:
11,36,58125,2,0,P|52:20|92:38,1,90.48,2|0,1:2|1:0,2:0:0:0:
9,200,58436,1,8,2:0:0:0:
163,98,58592,5,0,3:0:0:0:
163,98,58669,1,0,3:0:0:0:
163,98,58747,2,0,P|194:183|227:285,1,180.96,4|10,1:2|2:0,2:0:0:0:
314,127,59213,1,2,2:0:0:0:
360,231,59369,2,0,P|376:273|389:316,1,90.48,2|0,1:2|1:0,2:0:0:0:
343,379,59602,1,0,3:0:0:0:
343,379,59680,2,0,P|300:362|257:349,1,90.48,8|0,2:0|2:0,2:0:0:0:
61,228,59991,5,2,1:2:0:0:
171,373,60146,1,2,2:0:0:0:
188,173,60301,1,10,2:0:0:0:
85,329,60457,2,0,P|41:342|0:358,1,90.48,2|0,2:0|1:0,2:0:0:0:
188,173,60768,1,2,1:2:0:0:
61,228,60923,2,0,P|42:187|58:146,1,90.48,10|2,2:0|2:0,2:0:0:0:
113,92,61156,5,0,3:0:0:0:
113,92,61234,2,0,P|96:46|79:-4,1,99.18,10|0,2:0|1:0,2:0:0:0:
198,152,61545,2,0,P|213:104|230:58,1,99.18,10|0,2:0|1:0,2:0:0:0:
429,187,61856,6,0,P|446:141|462:90,1,99.18,10|0,2:0|1:0,2:0:0:0:
344,247,62167,2,0,P|328:199|311:153,1,99.18,10|0,2:0|1:0,2:0:0:0:
298,119,62400,5,8,2:0:0:0:
298,119,62478,2,0,B|198:149|236:186|146:217,1,180.96,4|10,1:2|2:0,2:0:0:0:
177,342,62944,1,2,2:0:0:0:
48,193,63099,2,0,P|32:234|51:274,1,90.48,2|2,1:2|1:2,2:0:0:0:
187,90,63410,1,10,2:0:0:0:
149,216,63566,1,2,2:0:0:0:
0,78,63721,6,0,L|101:112,1,90.48,6|0,1:2|2:0,2:0:0:0:
266,0,64032,1,8,2:0:0:0:
187,90,64188,2,0,L|158:4,1,90.48,2|0,1:2|2:0,2:0:0:0:
269,195,64498,1,0,1:0:0:0:
304,92,64654,2,0,L|275:177,1,90.48,10|0,2:0|2:0,2:0:0:0:
438,322,64965,6,0,B|481:268|470:208|470:208|418:164,1,180.96,4|10,1:2|2:0,2:0:0:0:
303,341,65431,1,2,2:0:0:0:
326,169,65586,2,0,L|355:254,1,90.48,2|2,1:2|1:2,2:0:0:0:
194,167,65897,1,10,2:0:0:0:
338,49,66053,1,2,2:0:0:0:
255,231,66208,6,0,P|176:199|83:172,1,180.96,6|8,1:2|2:0,2:0:0:0:
169,1,66675,2,0,B|193:56|193:56|169:107|169:107|201:185,1,180.96,6|0,1:2|1:0,2:0:0:0:
339,20,67141,1,10,2:0:0:0:
285,144,67296,1,2,2:0:0:0:
438,35,67452,6,0,P|493:101|467:184,2,180.96,4|8|2,1:2|2:0|1:2,2:0:0:0:
351,225,68229,1,2,1:2:0:0:
302,91,68384,2,0,L|387:120,1,90.48,10|0,2:0|2:0,2:0:0:0:
223,8,68695,6,0,P|204:69|179:136,1,135.72,2|0,1:2|2:0,2:0:0:0:
172,158,69006,1,8,2:0:0:0:
2,69,69162,2,0,P|33:153|60:239,1,180.96,2|0,2:0|1:0,2:0:0:0:
96,343,69628,1,8,2:0:0:0:
239,221,69783,5,0,2:0:0:0:
239,221,69861,1,0,1:0:0:0:
239,221,69939,2,0,P|206:191|161:190,1,90.48,6|0,1:2|2:0,2:0:0:0:
232,348,70250,2,0,P|276:347|309:317,1,90.48,10|0,2:0|1:0,2:0:0:0:
397,159,70561,5,10,2:0:0:0:
512,340,70716,1,0,1:0:0:0:
498,118,70871,1,10,2:0:0:0:
394,267,71027,1,0,1:0:0:0:
283,42,71182,6,0,L|368:71,1,90.48,10|0,1:2|2:0,2:0:0:0:
207,201,71493,2,0,L|292:172,1,90.48,10|0,2:0|1:0,2:0:0:0:
145,22,71804,5,10,2:0:0:0:
71,217,71960,1,0,1:0:0:0:
211,104,72115,1,8,2:0:0:0:
211,104,72193,1,8,2:0:0:0:
211,104,72270,1,8,2:0:0:0:
0,16,72426,6,0,P|31:100|58:186,1,180.96,6|10,1:2|2:0,2:0:0:0:
187,366,72892,1,8,2:0:0:0:
206,218,73048,2,0,B|110:247|143:282|52:314,1,180.96,6|2,1:2|1:2,2:0:0:0:
145,136,73514,1,0,1:0:0:0:
262,288,73669,6,0,P|292:255|293:210,1,90.48,6|8,1:2|2:3,2:0:0:0:
251,104,73980,1,0,1:0:0:0:
395,265,74136,1,0,3:0:0:0:
395,265,74213,1,0,3:0:0:0:
395,265,74291,2,0,P|411:222|424:180,1,90.48,6|8,1:2|2:3,2:0:0:0:
455,100,74602,1,0,1:0:0:0:
512,384,74913,5,2,2:0:0:0:
256,192,77400,12,2,78643,2:0:0:0:
46,0,79265,5,2,1:2:0:0:
14,30,79343,1,8,2:0:0:0:
0,72,79421,1,10,2:3:0:0:
11,116,79498,1,8,2:3:0:0:
41,148,79576,2,0,L|21:208,1,45.24,10|8,2:0|2:0,2:0:0:0:
101,291,79732,2,0,L|115:248,1,45.24,10|8,2:0|2:0,2:0:0:0:
155,132,79887,6,0,B|217:157|217:157|230:197|230:197|300:225,1,174,6|8,1:2|2:0,2:0:0:0:
385,132,80353,2,0,P|395:174|412:214,1,87,2|0,2:0|1:0,2:0:0:0:
362,331,80664,1,0,1:0:0:0:
507,258,80820,2,0,P|490:298|479:340,1,87,10|0,2:0|2:0,2:0:0:0:
279,359,81131,6,0,P|321:347|361:330,1,87,0|0,1:0|2:0,2:0:0:0:
259,206,81441,1,8,2:0:0:0:
162,314,81597,2,0,P|78:255|80:171,1,174,2|0,1:2|1:0,2:0:0:0:
160,67,82063,1,10,2:0:0:0:
249,188,82219,5,2,2:0:0:0:
249,188,82296,1,2,2:0:0:0:
249,188,82374,2,0,L|163:217,1,87,6|0,1:2|2:0,2:0:0:0:
263,78,82685,2,0,L|345:106,1,87,8|0,2:0|2:0,2:0:0:0:
366,116,82918,1,2,2:0:0:0:
366,116,82996,1,2,1:2:0:0:
496,36,83151,1,0,1:0:0:0:
426,194,83307,1,8,2:0:0:0:
239,31,83618,5,10,2:0:0:0:
180,183,83773,1,0,1:0:0:0:
340,19,83928,1,8,2:0:0:0:
430,226,84239,5,10,2:0:0:0:
285,127,84395,1,10,2:0:0:0:
348,298,84550,1,10,2:0:0:0:
470,109,84706,6,0,P|357:150|231:192,1,243.6,6|0,1:2|2:0,2:0:0:0:
59,57,86105,6,0,P|76:97|87:139,1,87,10|8,2:0|2:0,2:0:0:0:
0,240,86415,2,0,P|42:235|77:261,1,87,10|8,2:0|2:0,2:0:0:0:
104,279,86649,1,8,2:0:0:0:
104,279,86726,2,0,P|144:262|185:250,1,87,2|4,1:2|2:3,2:0:0:0:
317,216,87037,1,2,1:2:0:0:
164,369,87348,5,14,2:0:0:0:
275,114,87504,1,14,2:0:0:0:
275,114,87970,6,0,P|215:42|123:39,1,191.400005841065,2|0,2:0|2:0,0:0:0:0:
