osu file format v14

[General]
AudioFilename: audio.mp3
AudioLeadIn: 0
PreviewTime: 52452
Countdown: 0
SampleSet: Soft
StackLeniency: 0.7
Mode: 0
LetterboxInBreaks: 0
WidescreenStoryboard: 1

[Editor]
DistanceSpacing: 1.7
BeatDivisor: 4
GridSize: 8
TimelineZoom: 2

[Metadata]
Title:RE-ILLUSION (TV Size)
TitleUnicode:RE-ILLUSION (TV Size)
Artist:Iguchi Yuka
ArtistUnicode:井口裕香
Creator:EnuHQ
Version:Expert
Source:ソード・オラトリア ダンジョンに出会いを求めるのは間違っているだろうか 外伝
Tags:Opening op J-pop Jpop pop Anime Japanese DanMachi Dungeon ni Deai wo Motomeru no wa Machigatteiru Darou ka Gaiden: Sword Oratoria Is it Wrong to Try to Pick Up Girls in a Dungeon? On the Side J.C.Staff majk00 twil_furano koyorin-sama koyorin sayucat_
BeatmapID:4081434
BeatmapSetID:1938336

[Difficulty]
HPDrainRate:5.5
CircleSize:4
OverallDifficulty:9.2
ApproachRate:9.2
SliderMultiplier:1.84
SliderTickRate:1

[Events]
//Background and Video events
0,0,"wp6364813-danmachi-4k-wallpapers.jpg",0,0
Video,-210,"oratoria_opening.avi"
//Break Periods
//Storyboard Layer 0 (Background)
//Storyboard Layer 1 (Fail)
//Storyboard Layer 2 (Pass)
//Storyboard Layer 3 (Foreground)
//Storyboard Layer 4 (Overlay)
//Storyboard Sound Samples

[TimingPoints]
302,310.880829015544,4,2,1,50,1,0
302,-185.185185185185,4,2,1,50,0,0
1856,-156.25,4,2,1,50,0,0
2478,-106.382978723404,4,2,1,50,0,0
2789,-119.047619047619,4,2,1,65,0,0
5276,-100,4,2,1,75,0,0
15068,-135.135135135135,4,2,1,55,0,0
17711,310.880829015544,4,2,1,50,1,0
17711,-135.135135135135,4,2,1,65,0,0
18022,-121.951219512195,4,2,1,65,0,0
26415,-108.695652173913,4,2,1,65,0,0
27659,-106.382978723404,4,2,1,65,0,0
35120,-135.135135135135,4,2,1,65,0,0
37607,-128.205128205128,4,2,1,60,0,0
40094,-89.2857142857143,4,2,1,65,0,0
41027,-128.205128205128,4,2,1,65,0,0
42581,-128.205128205128,4,2,1,60,0,0
45068,-89.2857142857143,4,2,1,65,0,0
46001,-128.205128205128,4,2,1,65,0,0
47555,-128.205128205128,4,2,1,50,0,0
48177,-128.205128205128,4,2,1,55,0,0
48799,-119.047619047619,4,2,1,60,0,0
49420,-119.047619047619,4,2,1,65,0,0
50042,-227.272727272727,4,2,1,45,0,0
50586,-227.272727272727,4,2,1,65,0,0
50664,-113.636363636364,4,2,1,75,0,0
52529,-96.1538461538461,4,2,1,80,0,0
61234,-87.719298245614,4,2,1,85,0,0
62478,-96.1538461538461,4,2,1,80,0,0
69939,310.880829015544,4,2,1,50,1,0
69939,-96.1538461538461,4,2,1,85,0,0
74913,-96.1538461538461,4,2,1,30,0,0
78022,-96.1538461538461,4,2,1,55,0,0
79421,-80.6451612903226,4,2,1,55,0,0
79576,-74.6268656716418,4,2,1,55,0,0
79732,-69.4444444444444,4,2,1,55,0,0
79887,-100,4,2,1,75,0,0
84706,-285.714285714286,4,2,1,75,0,0
87970,-153.846153846154,4,2,1,55,0,0

[Colours]
Combo1 : 179,171,250
Combo2 : 239,183,251
Combo3 : 179,213,255
Combo4 : 226,213,180

[HitObjects]
231,107,302,6,0,P|211:151|198:200,1,99.3600000000001,2|0,2:0|2:0,2:0:0:0:
79,59,820,5,2,2:0:0:0:
134,115,923,2,0,P|126:91|115:69,1,49.6800000000001,2|0,1:2|2:0,2:0:0:0:
15,232,1234,1,2,2:0:0:0:
15,232,1390,2,0,P|60:211|108:199,1,99.3600000000001,2|0,2:0|2:0,2:0:0:0:
135,197,1778,5,2,2:0:0:0:
135,197,1856,2,0,P|128:210|123:224,3,29.44,2|2|2|2,2:0|2:0|2:0|2:0,2:0:0:0:
176,96,2167,2,0,P|182:82|187:68,3,29.44,2|2|2|2,1:2|2:0|2:0|2:0,2:0:0:0:
270,187,2478,2,0,P|249:181|229:172,1,43.2400000000001,2|2,2:0|2:0,2:0:0:0:
90,116,2633,2,0,P|70:107|49:101,1,43.2400000000001,2|2,2:0|2:0,2:0:0:0:
313,0,2789,6,0,P|324:36|338:72,1,77.28,8|0,2:0|2:0,2:0:0:0:
407,252,3099,2,0,P|421:287|432:324,1,77.28,8|0,2:0|2:0,2:0:0:0:
229,172,3410,1,2,1:2:0:0:
489,4,3566,2,0,P|460:76|437:149,1,154.56,8|0,2:0|1:0,2:0:0:0:
265,47,4032,6,0,P|301:58|337:72,1,77.28,10|0,2:0|1:0,2:0:0:0:
196,237,4343,2,0,P|231:222|268:211,1,77.28,8|8,2:3|2:0,2:0:0:0:
508,314,4654,1,0,1:0:0:0:
401,141,4809,1,10,2:0:0:0:
378,171,4887,1,10,2:0:0:0:
372,209,4965,1,10,2:0:0:0:
383,246,5042,1,10,2:0:0:0:
411,273,5120,2,0,L|374:285,1,38.64,10|10,2:0|2:0,2:0:0:0:
512,117,5276,6,0,P|466:41|377:39,1,184,6|8,1:2|2:0,2:0:0:0:
235,185,5742,2,0,P|192:167|148:155,1,92,2|0,2:0|1:0,2:0:0:0:
247,40,6053,1,0,1:0:0:0:
325,239,6208,2,0,P|342:281|354:325,1,92,10|0,2:0|2:0,2:0:0:0:
512,117,6519,6,0,P|450:134|381:161,1,138,0|0,1:0|2:0,2:0:0:0:
367,167,6830,1,8,2:0:0:0:
504,269,6985,1,2,1:2:0:0:
504,269,7063,1,2,2:0:0:0:
504,269,7141,1,2,2:0:0:0:
380,41,7296,1,0,1:0:0:0:
303,274,7452,1,10,2:0:0:0:
468,152,7607,1,2,2:0:0:0:
285,0,7763,6,0,L|198:29,1,92,2|2,1:2|2:0,2:0:0:0:
36,198,8074,1,10,2:0:0:0:
195,142,8229,2,0,L|108:112,1,92,2|0,2:0|1:0,2:0:0:0:
221,307,8540,1,2,1:2:0:0:
311,104,8695,1,10,2:0:0:0:
142,233,8851,6,0,B|94:276|94:276|89:340|142:392,1,184,2|2,2:0|2:0,2:0:0:0:
253,192,9317,1,10,2:0:0:0:
321,336,9472,2,0,L|234:306,1,92,2|0,1:2|2:0,2:0:0:0:
357,148,9783,1,0,1:0:0:0:
445,357,9939,2,0,P|427:315|442:273,1,92,8|8,2:0|2:3,2:0:0:0:
512,318,10172,5,8,2:0:0:0:
512,318,10250,2,0,P|423:342|338:377,1,184,6|8,1:2|2:0,2:0:0:0:
160,283,10716,2,0,P|145:325|163:366,1,92,2|0,2:0|1:0,2:0:0:0:
277,154,11027,1,0,1:0:0:0:
292,268,11182,2,0,L|262:181,1,92,10|0,2:0|2:0,2:0:0:0:
91,23,11493,6,0,P|153:40|222:67,1,138,0|0,1:0|2:0,2:0:0:0:
236,73,11804,1,8,2:0:0:0:
409,0,11960,2,0,P|394:42|412:83,1,92,2|0,1:2|2:0,2:0:0:0:
295,0,12270,1,0,1:0:0:0:
512,149,12426,2,0,P|489:155|468:163,1,46,10|0,2:0|2:0,2:0:0:0:
377,194,12581,2,0,P|355:202|333:208,1,46,2|0,2:0|2:0,2:0:0:0:
453,384,12737,6,0,P|485:325|458:264,1,138,6|0,1:2|2:0,2:0:0:0:
446,249,13048,1,8,2:0:0:0:
287,376,13203,1,8,2:0:0:0:
287,376,13281,1,8,2:0:0:0:
287,376,13358,1,2,1:2:0:0:
377,194,13514,1,0,1:0:0:0:
512,356,13669,2,0,P|469:370|428:352,1,92,8|0,2:0|2:0,2:0:0:0:
272,199,13980,6,0,P|227:211|185:228,1,92,14|0,2:0|1:0,2:0:0:0:
7,372,14291,1,8,2:0:0:0:
117,124,14447,1,0,1:0:0:0:
210,342,14602,1,10,2:0:0:0:
0,183,14757,2,0,P|17:225|29:269,1,92,10|0,2:0|2:0,2:0:0:0:
222,105,15068,6,0,P|165:25|68:34,1,204.24,6|8,1:2|2:0,2:0:0:0:
321,200,15846,1,0,1:0:0:0:
228,203,16001,2,0,L|295:179,1,68.0800000000001,8|0,2:3|2:0,2:0:0:0:
401,100,16312,5,0,1:0:0:0:
308,97,16467,2,0,L|375:120,1,68.0800000000001,0|0,1:2|2:0,2:0:0:0:
459,33,16778,1,0,1:0:0:0:
459,33,16934,2,0,P|498:85|479:148,1,136.16,4|0,2:3|1:0,2:0:0:0:
361,10,17400,1,8,2:0:0:0:
425,349,17711,5,2,1:2:0:0:
348,321,17866,1,2,2:0:0:0:
512,380,18022,2,0,P|476:366|440:355,1,75.4400000000001,10|0,2:0|2:0,2:0:0:0:
348,321,18255,1,0,3:0:0:0:
348,321,18333,2,0,P|311:310|276:296,1,75.4400000000001,2|0,1:2|2:0,2:0:0:0:
426,253,18643,5,10,2:0:0:0:
362,187,18799,2,0,P|335:161|331:124,1,75.4400000000001,2|0,2:0|1:0,2:0:0:0:
426,253,19110,2,0,P|452:227|456:190,1,75.4400000000001,2|8,2:0|2:0,2:0:0:0:
331,124,19421,1,2,2:0:0:0:
458,39,19576,1,0,1:0:0:0:
455,189,19732,1,0,1:0:0:0:
344,32,19887,2,0,P|288:35|248:73,1,113.16,8|0,2:0|2:0,2:0:0:0:
236,93,20198,6,0,P|200:79|164:68,1,75.4400000000001,2|0,1:2|2:0,2:0:0:0:
71,175,20509,1,8,2:0:0:0:
32,71,20664,1,2,3:0:0:0:
32,71,20742,1,0,3:0:0:0:
32,71,20820,2,0,P|20:34|7:0,1,75.4400000000001,2|0,1:2|1:0,2:0:0:0:
71,175,21131,2,0,P|82:211|95:246,1,75.4400000000001,8|2,2:0|2:0,2:0:0:0:
52,328,21364,5,0,3:0:0:0:
52,328,21441,2,0,P|109:283|185:291,1,150.88,2|8,1:2|2:0,2:0:0:0:
270,216,21908,1,0,3:0:0:0:
270,216,21985,1,0,3:0:0:0:
270,216,22063,2,0,P|281:252|294:287,1,75.4400000000001,2|0,1:2|1:0,2:0:0:0:
384,379,22374,1,10,2:0:0:0:
458,255,22529,5,8,2:0:0:0:
458,255,22607,1,8,2:0:0:0:
458,255,22685,2,0,P|421:266|386:279,1,75.4400000000001,6|2,1:2|2:0,2:0:0:0:
512,177,22996,2,0,P|476:166|441:153,1,75.4400000000001,10|0,2:0|2:0,2:0:0:0:
319,75,23229,5,0,3:0:0:0:
319,75,23307,2,0,P|338:123|356:182,1,113.16,2|0,1:2|2:0,2:0:0:0:
361,196,23618,1,10,2:0:0:0:
421,71,23773,6,0,P|431:34|445:0,1,75.4400000000001,2|0,2:0|1:0,2:0:0:0:
237,139,24084,2,0,P|200:129|166:115,1,75.4400000000001,2|8,2:0|2:0,2:0:0:0:
31,0,24395,1,2,3:0:0:0:
31,0,24472,1,0,3:0:0:0:
31,0,24550,2,0,P|4:26|0:63,1,75.4400000000001,0|2,1:0|1:2,2:0:0:0:
161,0,24861,1,8,2:0:0:0:
63,141,25017,1,2,2:0:0:0:
275,40,25172,6,0,B|330:64|330:64|347:95|347:95|402:121,1,150.88,6|8,1:2|2:0,2:0:0:0:
238,207,25638,2,0,P|248:170|262:136,1,75.4400000000001,2|0,2:0|1:0,2:0:0:0:
384,235,25949,1,10,2:0:0:0:
227,304,26105,1,2,2:0:0:0:
306,266,26260,1,2,1:2:0:0:
129,139,26415,6,0,P|146:177|156:219,1,84.64,14|0,2:0|1:0,2:0:0:0:
501,343,26726,2,0,P|490:301|473:263,1,84.64,10|0,2:0|2:0,2:0:0:0:
425,171,27037,1,0,1:0:0:0:
300,357,27193,2,0,P|224:326|139:302,1,169.28,14|0,2:0|2:0,2:0:0:0:
0,384,27581,5,0,3:0:0:0:
0,384,27659,2,0,P|33:357|46:317,1,86.4800000000002,2|0,1:2|2:0,2:0:0:0:
203,358,27892,1,0,3:0:0:0:
203,358,27970,2,0,P|157:368|115:387,1,86.4800000000002,10|0,2:0|2:0,2:0:0:0:
296,225,28281,2,0,P|357:274|336:371,1,172.96,2|10,1:2|2:0,2:0:0:0:
172,180,28747,6,0,P|188:221|201:262,1,86.4800000000002,2|0,2:0|1:0,2:0:0:0:
343,114,29058,2,0,P|329:72|314:32,1,86.4800000000002,2|8,2:0|2:0,2:0:0:0:
388,241,29369,1,2,2:0:0:0:
255,146,29524,1,0,1:0:0:0:
404,0,29680,1,0,1:0:0:0:
512,184,29835,2,0,P|471:168|430:155,1,86.4800000000002,8|0,2:0|2:0,2:0:0:0:
252,0,30146,6,0,P|292:72|255:146,1,172.96,2|8,1:2|2:0,2:0:0:0:
388,0,30612,1,2,2:0:0:0:
167,119,30768,2,0,B|228:144|228:144|247:184|247:184|312:213,1,172.96,2|8,1:2|2:0,2:0:0:0:
472,84,31234,5,2,2:0:0:0:
487,183,31390,2,0,P|473:141|458:101,1,86.4800000000002,2|0,1:2|2:0,2:0:0:0:
376,291,31700,2,0,P|391:331|404:372,1,86.4800000000002,8|0,2:0|2:0,2:0:0:0:
505,278,32011,1,2,1:2:0:0:
387,186,32167,1,0,1:0:0:0:
312,360,32322,1,10,2:0:0:0:
312,360,32400,1,8,2:0:0:0:
312,360,32478,1,8,2:0:0:0:
489,176,32633,6,0,P|448:102|366:87,1,172.96,6|8,1:2|2:0,2:0:0:0:
411,284,33099,2,0,P|328:269|287:196,1,172.96,4|0,1:2|1:0,2:0:0:0:
100,78,33566,1,10,2:0:0:0:
169,191,33721,1,2,2:0:0:0:
239,83,33877,6,0,P|251:42|233:4,1,86.4800000000002,6|0,1:2|2:0,2:0:0:0:
52,185,34188,1,8,2:0:0:0:
111,28,34343,2,0,P|142:110|169:192,1,172.96,6|0,1:2|1:0,2:0:0:0:
23,103,34809,2,0,P|38:143|52:185,1,86.4800000000002,10|0,2:0|2:0,2:0:0:0:
112,334,35120,6,0,P|67:284|0:278,1,136.16,6|0,1:2|2:0,2:0:0:0:
143,215,35586,1,2,1:2:0:0:
31,369,35742,2,0,P|75:319|142:313,1,136.16,10|0,2:0|1:0,2:0:0:0:
323,68,36364,5,10,2:0:0:0:
199,237,36519,1,0,1:0:0:0:
424,345,36675,1,10,2:0:0:0:
300,175,36830,1,0,1:0:0:0:
204,384,36985,1,10,2:0:0:0:
374,260,37141,1,0,1:0:0:0:
203,143,37296,1,10,2:0:0:0:
284,273,37452,1,2,2:0:0:0:
510,95,37607,6,0,P|439:113|375:141,1,143.52,6|0,1:2|2:0,2:0:0:0:
340,46,38074,1,2,1:2:0:0:
340,46,38229,2,0,P|412:27|476:-1,1,143.52,10|2,2:0|2:0,2:0:0:0:
374,141,38695,5,2,2:0:0:0:
463,230,38851,1,2,1:2:0:0:
463,230,39006,2,0,P|481:159|509:95,1,143.52,0|2,1:0|1:2,2:0:0:0:
374,141,39472,2,0,P|355:213|327:277,1,143.52,10|0,2:0|2:0,2:0:0:0:
327,276,39939,1,8,2:0:0:0:
451,192,40094,6,0,P|475:198|499:208,1,51.52,6|0,1:2|2:0,2:0:0:0:
291,61,40561,6,0,P|266:67|242:77,1,51.52,6|0,1:2|2:0,2:0:0:0:
169,103,40716,1,8,2:0:0:0:
439,1,41027,6,0,P|477:97|509:204,1,215.28,6|10,1:2|2:0,2:0:0:0:
382,97,41649,2,0,P|395:130|406:164,1,71.7600000000001,2|0,2:0|1:0,2:0:0:0:
465,297,41960,2,0,B|432:271|398:266|398:266|364:289|321:292,1,143.52,10|0,2:0|2:0,2:0:0:0:
109,384,42581,6,0,P|91:314|62:248,1,143.52,6|0,1:2|2:0,2:0:0:0:
205,354,43048,1,2,1:2:0:0:
205,354,43203,2,0,P|176:288|158:218,1,143.52,10|2,2:0|2:0,2:0:0:0:
158,218,43669,5,2,2:0:0:0:
69,129,43825,1,2,1:2:0:0:
69,129,43980,2,0,P|140:111|204:83,1,143.52,0|2,1:0|1:2,2:0:0:0:
158,218,44447,2,0,P|86:237|22:265,1,143.52,10|0,2:0|2:0,2:0:0:0:
22,264,44913,1,8,2:0:0:0:
107,368,45068,6,0,P|113:343|123:319,1,51.52,6|0,1:2|2:0,2:0:0:0:
191,140,45535,6,0,P|197:115|207:91,1,51.52,6|0,1:2|2:0,2:0:0:0:
237,17,45690,1,8,2:0:0:0:
512,221,46001,6,0,B|391:225|431:293|312:300,1,215.28,14|0,2:0|1:0,2:0:0:0:
483,378,46623,2,0,P|496:345|486:311,1,71.7600000000001,2|8,2:0|2:3,2:0:0:0:
333,141,46934,2,0,P|322:174|336:207,1,71.7600000000001,2|0,1:2|2:0,2:0:0:0:
430,48,47245,1,2,2:0:0:0:
216,184,47400,5,0,3:0:0:0:
216,184,47478,1,0,3:0:0:0:
216,184,47555,2,0,P|314:214|419:253,1,215.28,4|0,1:2|2:0,2:0:0:0:
260,91,48177,2,0,P|156:98|104:188,1,215.28,4|0,1:2|2:0,2:0:0:0:
226,280,48799,6,0,P|241:315|251:352,1,77.28,4|0,1:2|2:0,2:0:0:0:
150,342,49110,1,2,2:0:0:0:
287,208,49265,2,0,P|251:192|214:182,1,77.28,2|4,2:0|1:2,2:0:0:0:
336,297,49576,1,2,2:0:0:0:
251,352,49732,1,2,2:0:0:0:
379,19,50042,6,0,P|349:81|373:145,1,141.68,2|0,2:0|2:0,2:0:0:0:
439,86,50664,6,0,B|299:122|367:182|235:219,1,242.879999999999,6|0,1:2|1:0,2:0:0:0:
137,149,51286,2,0,P|97:159|60:175,1,80.9599999999997,10|0,2:0|2:0,2:0:0:0:
203,19,51597,2,0,P|212:58|229:95,1,80.9599999999997,2|0,2:0|2:0,2:0:0:0:
77,27,51908,1,2,1:2:0:0:
187,274,52063,1,8,2:0:0:0:
208,240,52141,1,8,2:0:0:0:
241,216,52219,1,10,2:0:0:0:
279,205,52296,1,8,2:0:0:0:
320,208,52374,2,0,L|338:262,1,40.4799999999999,8|8,2:0|2:0,2:0:0:0:
511,2,52529,6,0,B|440:34|440:34|424:70|424:70|351:106,1,191.36,6|10,1:2|2:0,2:0:0:0:
166,16,52996,5,2,2:0:0:0:
284,188,53151,1,2,1:2:0:0:
65,293,53307,1,2,1:2:0:0:
183,123,53462,1,10,2:0:0:0:
279,331,53618,1,2,2:0:0:0:
85,82,53773,6,0,P|69:126|85:170,1,95.68,6|0,1:2|2:0,2:0:0:0:
247,8,54084,1,8,2:0:0:0:
315,163,54239,2,0,P|273:146|224:131,1,95.68,2|0,1:2|2:0,2:0:0:0:
315,311,54550,1,0,1:0:0:0:
443,95,54706,2,0,P|474:157|449:222,1,143.52,10|0,2:0|2:0,2:0:0:0:
421,294,55017,6,0,L|452:384,1,95.68,4|0,1:2|2:0,2:0:0:0:
300,179,55327,1,10,2:0:0:0:
512,289,55483,1,2,2:0:0:0:
331,372,55638,1,2,1:2:0:0:
443,126,55794,1,2,1:2:0:0:
260,296,55949,2,0,P|215:312|171:296,1,95.68,10|2,2:0|2:0,2:0:0:0:
338,93,56260,6,0,B|449:124|396:166|496:199,1,191.36,6|8,1:2|2:0,2:0:0:0:
243,4,56726,2,0,B|182:45|183:116|183:116|220:168,1,191.36,2|0,1:2|1:0,2:0:0:0:
458,17,57193,2,0,P|440:57|427:107,1,95.68,10|0,2:0|2:0,2:0:0:0:
400,232,57426,5,8,2:0:0:0:
400,232,57504,2,0,P|388:278|368:322,1,95.68,4|0,1:2|2:0,2:0:0:0:
301,133,57814,1,10,2:0:0:0:
464,344,57970,1,2,2:0:0:0:
277,249,58125,2,0,P|241:279|194:280,1,95.68,2|0,1:2|1:0,2:0:0:0:
389,72,58436,1,8,2:0:0:0:
207,182,58592,5,0,3:0:0:0:
207,182,58669,1,0,3:0:0:0:
207,182,58747,2,0,B|157:75|157:75|211:-12,1,191.36,4|10,1:2|2:0,2:0:0:0:
61,240,59213,1,2,2:0:0:0:
268,80,59369,2,0,P|315:92|358:111,1,95.68,2|0,1:2|1:0,2:0:0:0:
433,36,59602,1,0,3:0:0:0:
433,36,59680,2,0,P|470:97|425:172,1,143.52,8|0,2:0|2:0,2:0:0:0:
429,176,59991,5,2,1:2:0:0:
245,318,60146,1,2,2:0:0:0:
357,110,60301,1,10,2:0:0:0:
511,287,60457,2,0,P|463:299|420:318,1,95.68,2|0,2:0|1:0,2:0:0:0:
236,177,60768,1,2,1:2:0:0:
333,384,60923,1,10,2:0:0:0:
429,176,61079,1,2,2:0:0:0:
242,0,61234,6,0,P|262:46|276:99,1,104.88,10|0,2:0|1:0,2:0:0:0:
67,310,61545,2,0,P|53:259|32:211,1,104.88,10|0,2:0|1:0,2:0:0:0:
383,29,61856,6,0,P|403:75|417:128,1,104.88,10|0,2:0|1:0,2:0:0:0:
208,339,62167,2,0,P|194:288|173:240,1,104.88,10|0,2:0|1:0,2:0:0:0:
276,267,62400,5,8,2:0:0:0:
276,267,62478,2,0,B|205:299|205:299|189:335|189:335|116:371,1,191.36,4|10,1:2|2:0,2:0:0:0:
401,180,62944,5,2,2:0:0:0:
230,35,63099,1,2,1:2:0:0:
113,273,63255,1,2,1:2:0:0:
296,155,63410,1,10,2:0:0:0:
93,28,63566,1,2,2:0:0:0:
287,251,63721,6,0,P|331:267|375:250,1,95.68,6|0,1:2|2:0,2:0:0:0:
233,29,64032,1,8,2:0:0:0:
83,183,64188,2,0,P|102:226|115:272,1,95.68,2|0,1:2|2:0,2:0:0:0:
220,131,64498,1,0,1:0:0:0:
54,338,64654,2,0,P|116:369|181:344,1,143.52,10|0,2:0|2:0,2:0:0:0:
253,316,64965,6,0,L|343:347,1,95.68,4|0,1:2|2:0,2:0:0:0:
507,166,65276,1,10,2:0:0:0:
345,58,65431,1,2,2:0:0:0:
473,302,65586,1,2,1:2:0:0:
282,190,65742,1,2,1:2:0:0:
475,47,65897,1,10,2:0:0:0:
367,262,66053,1,2,2:0:0:0:
238,63,66208,6,0,P|193:75|147:94,1,95.68,6|0,1:2|2:0,2:0:0:0:
3,282,66519,1,8,2:0:0:0:
159,218,66675,2,0,P|114:199|68:186,1,95.68,6|0,1:2|2:0,2:0:0:0:
309,380,66985,1,0,1:0:0:0:
236,153,67141,1,10,2:0:0:0:
133,320,67296,1,2,2:0:0:0:
341,126,67452,6,0,P|288:50|196:51,2,191.36,4|8|2,1:2|2:0|1:2,2:0:0:0:
409,331,68229,1,2,1:2:0:0:
512,174,68384,2,0,P|466:187|422:205,1,95.68,10|0,2:0|2:0,2:0:0:0:
252,382,68695,6,0,P|217:322|246:260,1,143.52,2|0,1:2|2:0,2:0:0:0:
262,245,69006,1,8,2:0:0:0:
75,67,69162,2,0,B|99:122|99:122|75:173|75:173|107:251,1,191.36,2|0,2:0|1:0,2:0:0:0:
226,107,69628,2,0,P|270:88|315:75,1,95.68,8|0,2:0|2:0,2:0:0:0:
383,11,69861,5,0,1:0:0:0:
383,11,69939,2,0,P|427:29|472:42,1,95.68,6|0,1:2|2:0,2:0:0:0:
332,272,70250,2,0,P|318:226|300:181,1,95.68,10|0,2:0|1:0,2:0:0:0:
457,332,70561,5,10,2:0:0:0:
155,158,70716,1,0,1:0:0:0:
416,147,70871,5,10,2:0:0:0:
132,318,71027,1,0,1:0:0:0:
283,15,71182,6,0,P|321:76|298:143,1,143.52,10|0,1:2|2:0,2:0:0:0:
270,211,71493,2,0,P|288:255|301:301,1,95.68,10|0,2:0|1:0,2:0:0:0:
181,12,71804,5,10,2:0:0:0:
381,208,71960,1,0,1:0:0:0:
212,381,72115,1,8,2:0:0:0:
212,381,72193,1,8,2:0:0:0:
212,381,72270,1,8,2:0:0:0:
359,65,72426,6,0,B|430:97|430:97|446:133|446:133|519:169,1,191.36,6|10,1:2|2:0,2:0:0:0:
441,2,72892,1,8,2:0:0:0:
254,207,73048,2,0,P|298:188|344:175,1,95.68,6|0,1:2|2:0,2:0:0:0:
133,257,73358,1,2,1:2:0:0:
343,347,73514,1,0,1:0:0:0:
268,94,73669,6,0,P|255:47|236:3,1,95.68,6|8,1:2|2:3,2:0:0:0:
161,245,73980,1,0,1:0:0:0:
365,91,74136,1,0,3:0:0:0:
365,91,74213,1,0,3:0:0:0:
365,91,74291,2,0,P|410:101|442:136,1,95.68,6|8,1:2|2:3,2:0:0:0:
342,369,74602,5,0,1:0:0:0:
446,282,74757,1,2,2:0:0:0:
374,183,74913,1,2,2:0:0:0:
17,3,78022,5,2,1:0:0:0:
17,3,78643,5,2,2:0:0:0:
31,28,78721,1,2,2:0:0:0:
36,56,78799,1,2,2:0:0:0:
32,84,78877,1,2,2:0:0:0:
19,110,78954,1,2,2:0:0:0:
5,135,79032,1,2,2:0:0:0:
0,163,79110,1,2,2:0:0:0:
4,191,79188,1,2,2:0:0:0:
17,217,79265,6,0,L|86:241,1,47.84,2|8,1:2|2:0,2:0:0:0:
158,137,79421,6,0,L|227:161,1,57.04,10|8,2:3|2:3,2:0:0:0:
243,296,79576,6,0,L|312:320,1,61.64,10|8,2:0|2:0,2:0:0:0:
414,139,79732,6,0,L|483:163,1,66.24,10|8,2:0|2:0,2:0:0:0:
184,383,79887,6,0,B|136:340|136:340|131:276|184:224,1,184,6|8,1:2|2:0,2:0:0:0:
292,90,80353,2,0,P|249:72|205:60,1,92,2|0,2:0|1:0,2:0:0:0:
338,273,80664,1,0,1:0:0:0:
434,110,80820,2,0,P|452:68|437:26,1,92,10|0,2:0|2:0,2:0:0:0:
174,267,81131,6,0,B|247:297|247:297|260:333|260:333|328:367,1,184,0|8,1:0|2:0,2:0:0:0:
121,169,81597,2,0,P|48:218|51:306,1,184,2|0,1:2|1:0,2:0:0:0:
218,168,82063,1,10,2:0:0:0:
0,35,82219,5,2,2:0:0:0:
0,35,82296,1,2,2:0:0:0:
0,35,82374,2,0,P|25:99|43:165,1,138,6|0,1:2|2:0,2:0:0:0:
80,229,82685,2,0,P|62:272|50:316,1,92,8|0,2:0|2:0,2:0:0:0:
48,344,82918,1,2,2:0:0:0:
48,344,82996,1,2,1:2:0:0:
194,171,83151,1,0,1:0:0:0:
299,332,83307,2,0,P|257:350|215:335,1,92,8|0,2:0|2:0,2:0:0:0:
368,99,83618,5,10,2:0:0:0:
476,328,83773,1,0,1:0:0:0:
311,183,83928,1,8,2:0:0:0:
512,0,84239,5,10,2:0:0:0:
311,183,84395,1,10,2:0:0:0:
153,0,84550,1,10,2:0:0:0:
351,358,84706,6,0,P|227:361|142:269,1,257.6,6|0,1:2|2:0,2:0:0:0:
244,45,86105,5,10,2:0:0:0:
316,238,86260,1,8,2:0:0:0:
163,121,86415,1,10,2:0:0:0:
245,382,86571,1,8,2:0:0:0:
245,382,86649,1,8,2:0:0:0:
245,382,86726,1,2,1:2:0:0:
422,157,86882,1,4,2:3:0:0:
224,257,87037,1,2,1:2:0:0:
450,383,87193,1,8,2:3:0:0:
247,142,87348,1,14,2:0:0:0:
0,384,87504,1,14,2:0:0:0:
178,26,87970,2,0,B|268:71|247:143|360:205,1,239.2,2|0,2:0|2:0,2:0:0:0:
