osu file format v14

[General]
AudioFilename: audio.mp3
AudioLeadIn: 0
PreviewTime: 55393
Countdown: 0
SampleSet: None
StackLeniency: 0.7
Mode: 1
LetterboxInBreaks: 0
WidescreenStoryboard: 0

[Editor]
Bookmarks: 650,2701,10906,19111,27316,35521,43726,56034,64239,72444,87829
DistanceSpacing: 1
BeatDivisor: 2
GridSize: 32
TimelineZoom: 0.8

[Metadata]
Title:Platinum Disco (TV Size)
TitleUnicode:Platinum Disco (TV Size)
Artist:Iguchi Yuka
ArtistUnicode:Iguchi Yuka
Creator:Roger
Version:Futsuu
Source:偽物語
Tags:taiko opening nisemonogatari meg rock
BeatmapID:2178149
BeatmapSetID:1042193

[Difficulty]
HPDrainRate:8
CircleSize:2
OverallDifficulty:3
ApproachRate:0
SliderMultiplier:1.4
SliderTickRate:1

[Events]
//Background and Video events
0,0,"BG.jpg",0,20
//Break Periods
//Storyboard Layer 0 (Background)
//Storyboard Layer 1 (Fail)
//Storyboard Layer 2 (Pass)
//Storyboard Layer 3 (Foreground)
//Storyboard Layer 4 (Overlay)
//Storyboard Sound Samples

[TimingPoints]
650,512.820512820513,4,1,0,80,1,0
19111,-100,4,1,0,80,0,0
56034,-100,4,1,0,80,0,1
71932,-100,4,1,0,80,0,0
72444,-100,4,1,0,80,0,1
87829,-100,4,1,0,80,0,0

[HitObjects]
256,192,650,5,8,0:0:0:0:
256,192,1162,1,8,0:0:0:0:
256,192,1675,1,8,0:0:0:0:
256,192,1932,1,0,0:0:0:0:
256,192,2188,1,8,0:0:0:0:
256,192,2701,1,4,0:0:0:0:
256,192,3214,1,0,0:0:0:0:
256,192,3726,1,8,0:0:0:0:
256,192,4496,1,0,0:0:0:0:
256,192,4752,1,8,0:0:0:0:
256,192,5265,1,8,0:0:0:0:
256,192,5778,1,0,0:0:0:0:
256,192,6034,1,8,0:0:0:0:
256,192,6291,1,8,0:0:0:0:
256,192,6803,1,0,0:0:0:0:
256,192,7316,1,0,0:0:0:0:
256,192,7829,1,8,0:0:0:0:
256,192,8085,1,8,0:0:0:0:
256,192,8342,1,8,0:0:0:0:
256,192,8855,1,0,0:0:0:0:
256,192,10393,1,8,0:0:0:0:
256,192,10906,1,4,0:0:0:0:
256,192,11419,1,0,0:0:0:0:
256,192,11932,1,8,0:0:0:0:
256,192,12701,1,0,0:0:0:0:
256,192,12957,1,8,0:0:0:0:
256,192,13470,1,8,0:0:0:0:
256,192,13983,1,0,0:0:0:0:
256,192,14239,1,8,0:0:0:0:
256,192,14496,1,8,0:0:0:0:
256,192,15008,1,0,0:0:0:0:
256,192,15521,1,0,0:0:0:0:
256,192,16034,1,8,0:0:0:0:
256,192,16291,1,0,0:0:0:0:
256,192,16547,1,8,0:0:0:0:
256,192,17060,1,0,0:0:0:0:
256,192,17573,1,8,0:0:0:0:
256,192,17829,1,8,0:0:0:0:
256,192,18085,1,0,0:0:0:0:
256,192,19111,1,12,0:0:0:0:
256,192,19624,1,0,0:0:0:0:
256,192,20137,1,8,0:0:0:0:
256,192,20650,1,8,0:0:0:0:
256,192,21162,1,0,0:0:0:0:
256,192,21932,1,0,0:0:0:0:
256,192,22188,1,8,0:0:0:0:
256,192,22701,1,8,0:0:0:0:
256,192,23214,1,0,0:0:0:0:
256,192,23726,1,8,0:0:0:0:
256,192,24752,1,8,0:0:0:0:
256,192,25265,1,0,0:0:0:0:
256,192,25778,1,8,0:0:0:0:
256,192,26034,1,0,0:0:0:0:
256,192,26291,1,8,0:0:0:0:
256,192,27316,1,4,0:0:0:0:
256,192,27829,1,0,0:0:0:0:
256,192,28342,1,8,0:0:0:0:
256,192,28855,1,8,0:0:0:0:
256,192,29367,1,0,0:0:0:0:
256,192,30137,1,8,0:0:0:0:
256,192,30393,1,8,0:0:0:0:
256,192,30906,1,8,0:0:0:0:
256,192,31419,1,0,0:0:0:0:
256,192,31932,1,8,0:0:0:0:
256,192,32444,1,0,0:0:0:0:
256,192,32701,1,8,0:0:0:0:
256,192,32957,1,8,0:0:0:0:
256,192,33470,1,0,0:0:0:0:
256,192,33983,1,8,0:0:0:0:
256,192,34239,1,0,0:0:0:0:
256,192,34496,1,0,0:0:0:0:
256,192,34752,1,8,0:0:0:0:
256,192,35521,1,12,0:0:0:0:
256,192,36034,1,0,0:0:0:0:
256,192,36547,1,8,0:0:0:0:
256,192,37316,1,0,0:0:0:0:
256,192,37573,1,8,0:0:0:0:
256,192,38085,1,8,0:0:0:0:
256,192,38598,1,0,0:0:0:0:
256,192,38855,1,0,0:0:0:0:
256,192,39111,1,8,0:0:0:0:
256,192,39624,1,0,0:0:0:0:
256,192,39880,1,0,0:0:0:0:
256,192,40650,1,12,0:0:0:0:
256,192,41419,1,8,0:0:0:0:
256,192,41675,1,0,0:0:0:0:
256,192,41932,1,0,0:0:0:0:
256,192,42701,1,12,0:0:0:0:
256,192,43726,1,4,0:0:0:0:
256,192,44239,1,8,0:0:0:0:
256,192,44752,1,0,0:0:0:0:
256,192,45521,1,0,0:0:0:0:
256,192,45778,1,8,0:0:0:0:
256,192,46291,1,8,0:0:0:0:
256,192,46803,1,0,0:0:0:0:
256,192,47316,1,8,0:0:0:0:
256,192,47573,1,8,0:0:0:0:
256,192,47829,1,0,0:0:0:0:
256,192,48342,1,12,0:0:0:0:
256,192,48855,1,0,0:0:0:0:
256,192,49367,1,12,0:0:0:0:
256,192,49880,1,4,0:0:0:0:
256,192,50393,1,8,0:0:0:0:
256,192,50906,1,4,0:0:0:0:
256,192,51419,1,8,0:0:0:0:
256,192,51932,1,4,0:0:0:0:
256,192,52188,8,12,53983,0:0:0:0:
256,192,55521,5,0,0:0:0:0:
256,192,56034,1,12,0:0:0:0:
256,192,56547,1,8,0:0:0:0:
256,192,57060,1,0,0:0:0:0:
256,192,57573,1,8,0:0:0:0:
256,192,57829,1,0,0:0:0:0:
256,192,58085,1,8,0:0:0:0:
256,192,58598,1,8,0:0:0:0:
256,192,59111,1,0,0:0:0:0:
256,192,59880,1,0,0:0:0:0:
256,192,60137,1,8,0:0:0:0:
256,192,60650,1,8,0:0:0:0:
256,192,61162,1,0,0:0:0:0:
256,192,61675,1,0,0:0:0:0:
256,192,61932,1,0,0:0:0:0:
256,192,62188,1,8,0:0:0:0:
256,192,63726,1,8,0:0:0:0:
256,192,64239,1,4,0:0:0:0:
256,192,64752,1,0,0:0:0:0:
256,192,65265,1,8,0:0:0:0:
256,192,65778,1,8,0:0:0:0:
256,192,66034,1,8,0:0:0:0:
256,192,66291,1,0,0:0:0:0:
256,192,66803,1,0,0:0:0:0:
256,192,67316,1,8,0:0:0:0:
256,192,68085,1,0,0:0:0:0:
256,192,68342,1,0,0:0:0:0:
256,192,68855,1,0,0:0:0:0:
256,192,69367,1,8,0:0:0:0:
256,192,69880,1,8,0:0:0:0:
256,192,70137,1,0,0:0:0:0:
256,192,70393,1,0,0:0:0:0:
256,192,70906,1,8,0:0:0:0:
256,192,71162,1,8,0:0:0:0:
256,192,71419,1,0,0:0:0:0:
256,192,72444,1,12,0:0:0:0:
256,192,72957,1,0,0:0:0:0:
256,192,73470,1,8,0:0:0:0:
256,192,74239,1,0,0:0:0:0:
256,192,74496,1,8,0:0:0:0:
256,192,75008,1,8,0:0:0:0:
256,192,75521,1,0,0:0:0:0:
256,192,75778,1,8,0:0:0:0:
256,192,76034,1,8,0:0:0:0:
256,192,76547,1,0,0:0:0:0:
256,192,77060,1,8,0:0:0:0:
256,192,77573,1,0,0:0:0:0:
256,192,78342,1,8,0:0:0:0:
256,192,78598,1,0,0:0:0:0:
256,192,79111,1,0,0:0:0:0:
256,192,79624,1,8,0:0:0:0:
256,192,79880,1,0,0:0:0:0:
256,192,80137,1,0,0:0:0:0:
256,192,80650,1,12,0:0:0:0:
256,192,81162,1,0,0:0:0:0:
256,192,81675,1,8,0:0:0:0:
256,192,82444,1,8,0:0:0:0:
256,192,82701,1,0,0:0:0:0:
256,192,83214,1,8,0:0:0:0:
256,192,83726,1,0,0:0:0:0:
256,192,84239,1,8,0:0:0:0:
256,192,84496,1,8,0:0:0:0:
256,192,84752,1,0,0:0:0:0:
256,192,85265,1,12,0:0:0:0:
256,192,85778,1,0,0:0:0:0:
256,192,86291,1,12,0:0:0:0:
256,192,86803,1,0,0:0:0:0:
256,192,87316,1,8,0:0:0:0:
256,192,87573,1,8,0:0:0:0:
256,192,87829,1,0,0:0:0:0:
