osu file format v14

[General]
AudioFilename: Notice me Senpai.mp3
AudioLeadIn: 0
PreviewTime: 55358
Countdown: 0
SampleSet: Soft
StackLeniency: 0.7
Mode: 0
LetterboxInBreaks: 0
WidescreenStoryboard: 0

[Editor]
Bookmarks: 28321,74247
DistanceSpacing: 1
BeatDivisor: 4
GridSize: 4
TimelineZoom: 1

[Metadata]
Title:Little Charm Fang
TitleUnicode:リトルチャームファング
Artist:Iguchi Yuka
ArtistUnicode:井口裕香
Creator:Padge14
Version:Normal
Source:ストライク・ザ・ブラッド ヴァルキュリアの王国篇
Tags:Strike the blood Valkyria no Oukoku hen opening ova tv size
BeatmapID:841199
BeatmapSetID:384694

[Difficulty]
HPDrainRate:4
CircleSize:3.3
OverallDifficulty:4
ApproachRate:4
SliderMultiplier:1.2
SliderTickRate:1

[Events]
//Background and Video events
0,0,"StrikeGround.jpg",0,0
//Break Periods
2,15373,16816
2,54076,55520
2,83706,85149
//Storyboard Layer 0 (Background)
//Storyboard Layer 1 (Fail)
//Storyboard Layer 2 (Pass)
//Storyboard Layer 3 (Foreground)
//Storyboard Sound Samples

[TimingPoints]
544,370.37037037037,4,2,1,30,1,0
3506,-100,4,2,1,60,0,0
40914,-100,4,2,1,35,0,0
41284,-100,4,2,1,60,0,0
41655,-100,4,2,1,35,0,0
42025,-100,4,2,1,60,0,0
56840,-100,4,2,1,60,0,1
65729,-100,4,2,1,60,0,0
68692,-100,4,2,1,60,0,1
80543,-100,4,2,1,60,0,0
86840,-100,4,2,1,55,0,0
87210,-100,4,2,1,50,0,0
87581,-100,4,2,1,45,0,0
87951,-100,4,2,1,40,0,0
88321,-100,4,2,1,35,0,0
88692,-100,4,2,1,30,0,0
89062,-100,4,2,1,25,0,0
89432,-100,4,2,1,5,0,0

[Colours]
Combo1 : 0,0,255
Combo2 : 255,0,0
Combo3 : 0,255,0
Combo4 : 255,0,128

[HitObjects]
469,198,3506,6,0,P|421:190|348:219,1,120,4|8,0:1|0:0,0:0:0:0:
294,317,4247,2,0,P|218:321|171:296,1,120,0|8,0:0|0:0,0:0:0:0:
79,239,4988,2,0,L|72:111,1,120,0|8,0:0|0:0,0:0:0:0:
129,13,5729,1,0,0:0:0:0:
198,110,6099,1,8,0:0:0:0:
311,71,6469,5,0,0:0:0:0:
383,166,6840,2,0,B|393:199|393:199|380:222|390:266,2,90,10|2|0,0:0|0:0|0:0,0:0:0:0:
322,170,7581,2,0,L|236:180,1,60,8|2,0:0|0:0,0:0:0:0:
210,146,7951,2,0,B|200:112|200:112|211:89|208:53,2,90,6|2|2,0:0|0:0|0:0,0:0:0:0:
173,194,8692,2,0,P|156:256|174:316,1,120,0|8,0:0|0:0,0:0:0:0:
277,256,9432,6,0,B|404:252,1,120,4|8,0:1|0:0,0:0:0:0:
454,146,10173,2,0,B|334:149,1,120,0|8,0:0|0:0,0:0:0:0:
396,252,10914,2,0,P|409:309|395:367,1,120,0|8,0:0|0:0,0:0:0:0:
289,310,11655,1,0,0:0:0:0:
177,355,12025,1,8,0:0:0:0:
72,296,12395,5,0,0:0:0:0:
125,188,12766,2,0,B|133:156|133:156|119:115|119:115|125:80,2,90,10|2|0,0:0|0:0|0:0,0:0:0:0:
153,241,13507,2,0,P|182:244|212:240,1,60,8|2,0:0|0:0,0:0:0:0:
264,210,13877,2,0,L|379:197,2,90,6|2|2,0:0|0:0|0:0,0:0:0:0:
204,105,14803,2,0,P|203:71|218:38,1,60,0|0,1:0|1:0,0:0:0:0:
267,25,15173,1,2,0:3:0:0:
396,31,18136,6,0,L|393:215,1,180,4|2,0:1|0:3,0:0:0:0:
286,266,19062,2,0,P|231:251|163:287,1,120,0|2,0:0|0:3,0:0:0:0:
57,299,19803,2,0,L|61:176,1,120,0|2,0:0|0:3,0:0:0:0:
20,134,20358,2,0,P|75:149|145:117,1,120,0|0,0:0|0:0,0:0:0:0:
158,74,20914,1,0,0:0:0:0:
212,98,21099,6,0,B|268:108|268:108|332:95,1,120,2|0,0:3|0:0,0:0:0:0:
370,50,21655,2,0,P|340:116|357:173,1,120,2|0,0:3|0:0,0:0:0:0:
443,234,22395,2,0,P|471:182|463:123,1,120,2|0,0:3|0:0,0:0:0:0:
349,160,23136,2,0,P|303:216|194:84,1,300,0|8,0:0|0:0,0:0:0:0:
367,73,24618,6,0,P|421:104|434:167,1,120,10|0,0:0|0:0,0:0:0:0:
422,276,25358,1,8,0:0:0:0:
378,317,25543,2,0,P|340:330|244:304,1,120,2|0,0:0|0:0,0:0:0:0:
222,271,26099,1,8,0:0:0:0:
249,154,26469,2,0,L|287:91,2,60,2|2|0,0:0|0:0|0:0,0:0:0:0:
146,217,27210,6,0,P|94:238|27:218,1,120,2|8,0:0|0:0,0:0:0:0:
19,164,27766,2,0,L|41:41,1,120,2|0,0:0|0:0,0:0:0:0:
97,29,28321,1,8,0:0:0:0:
131,78,28506,2,0,B|163:89|163:89|268:74,1,120,2|0,0:0|0:0,0:0:0:0:
306,59,29062,1,8,0:0:0:0:
418,17,29432,2,0,P|437:80|423:159,1,120,2|10,0:0|0:0,0:0:0:0:
416,191,29988,1,4,0:0:0:0:
249,258,30543,5,8,0:0:0:0:
305,364,30914,2,0,P|246:376|178:356,1,120,0|8,0:0|0:0,0:0:0:0:
69,347,31655,2,0,L|80:210,1,120,0|8,0:0|0:0,0:0:0:0:
125,190,32210,2,0,B|130:145|130:145|92:154|44:149,1,120,0|2,0:0|0:0,0:0:0:0:
28,35,32951,6,0,P|94:21|169:30,1,120,2|0,1:0|0:0,0:0:0:0:
190,64,33506,2,0,P|254:68|312:56,1,120,8|0,0:0|0:0,0:0:0:0:
417,6,34247,1,8,0:0:0:0:
506,86,34618,1,0,0:0:0:0:
398,139,34988,2,0,B|348:142|334:165|334:165|387:181|414:219|436:297|389:351|351:362,1,300
193,356,36469,5,8,0:0:0:0:
99,280,36840,2,0,B|105:220|105:220|90:162,1,120,8|8,0:0|0:0,0:0:0:0:
31,151,37395,2,0,P|10:94|39:36,1,120,2|0,0:0|0:0,0:0:0:0:
92,37,37951,2,0,L|231:12,2,120,8|0|8,0:0|0:0|0:0,0:0:0:0:
175,123,39062,6,0,L|314:98,1,120,10|8,0:0|0:0,0:0:0:0:
299,218,39803,2,0,L|160:243,1,120,10|8,0:0|0:0,0:0:0:0:
72,188,40543,2,0,P|61:255|85:318,1,120,10|0,0:0|0:0,0:0:0:0:
180,239,41284,2,0,P|191:172|167:109,1,120,10|0,0:0|0:0,0:0:0:0:
264,42,42025,6,0,L|399:42,1,120,10|8,0:0|0:0,0:0:0:0:
440,135,42766,2,0,P|427:184|447:268,1,120,2|10,0:0|0:0,0:0:0:0:
499,354,43506,2,0,P|450:367|366:347,1,120,2|10,0:0|0:0,0:0:0:0:
341,311,44062,2,0,B|279:302|279:302|214:324,2,120,2|2|2,0:0|0:0|0:0,0:0:0:0:
382,355,44988,6,0,L|372:232,1,120,2|8,0:0|0:0,0:0:0:0:
283,155,45729,1,2,0:0:0:0:
209,249,46099,1,10,0:0:0:0:
129,160,46469,2,0,P|66:157|4:204,1,120,2|8,0:0|0:0,0:0:0:0:
99,274,47210,2,0,P|162:277|224:230,1,120,0|8,0:0|0:0,0:0:0:0:
277,149,47951,6,0,L|298:278,1,120,2|8,0:0|0:0,0:0:0:0:
416,280,48692,1,2,0:0:0:0:
476,175,49062,1,10,0:0:0:0:
385,97,49432,1,2,0:0:0:0:
277,149,49803,1,10,0:0:0:0:
277,149,49988,2,0,B|221:156|221:156|141:142,2,120,2|2|8,0:0|0:0|0:0,0:0:0:0:
313,101,50914,6,0,L|308:284,1,180,8|8,0:0|0:0,0:0:0:0:
296,340,51655,2,0,P|379:359|482:348,1,180,2|2,0:0|0:0,0:0:0:0:
438,301,52395,2,0,P|403:230|419:115,1,180,8|2,0:0|0:0,0:0:0:0:
481,34,53321,1,8,0:0:0:0:
481,34,53506,2,0,L|340:32,1,120,8|2,1:2|0:0,0:0:0:0:
341,103,56840,6,0,L|342:238,1,120,2|8,0:0|0:0,0:0:0:0:
249,299,57581,2,0,B|205:313|178:282|125:301,1,120,0|8,0:0|0:0,0:0:0:0:
81,334,58136,2,0,L|81:204,1,120,2|2,0:0|0:0,0:0:0:0:
100,156,58692,1,8,0:0:0:0:
100,156,58877,2,0,P|165:168|238:144,1,120,2|0,0:0|0:0,0:0:0:0:
268,125,59432,1,8,0:0:0:0:
352,210,59803,6,0,L|369:328,1,120,2|10,0:0|0:0,0:0:0:0:
483,290,60544,2,0,L|466:171,1,120,2|8,0:0|0:0,0:0:0:0:
411,147,61099,2,0,P|357:156|274:138,1,120,2|2,0:0|0:0,0:0:0:0:
174,162,61840,2,0,P|184:260|240:324,1,180,2|8,0:0|0:0,0:0:0:0:
336,253,62766,6,0,P|325:192|288:141,1,120,2|10,0:0|0:0,0:0:0:0:
218,50,63506,2,0,P|282:64|349:45,1,120,2|8,0:0|0:0,0:0:0:0:
379,13,64062,1,2,0:0:0:0:
379,13,64247,2,0,P|433:24|456:69,2,90,2|0|0,0:0|0:0|0:0,0:0:0:0:
334,53,64988,2,0,P|340:117|372:171,1,120,0|8,0:0|0:0,0:0:0:0:
448,251,65729,6,0,P|399:279|328:277,1,120,8|8,0:0|0:1,0:0:0:0:
261,186,66469,2,0,P|223:220|215:299,1,120,8|8,0:0|0:1,0:0:0:0:
188,341,67025,2,0,P|124:358|53:341,1,120,2|0,0:0|0:0,0:0:0:0:
27,308,67581,2,0,L|19:182,1,120,8|0,0:0|0:0,0:0:0:0:
206,31,68692,5,2,1:0:0:0:
280,125,69062,1,8,0:0:0:0:
160,136,69433,2,0,P|168:204|193:254,1,120,0|8,0:0|0:0,0:0:0:0:
216,303,69988,2,0,L|71:304,1,120,2|0,0:0|0:0,0:0:0:0:
50,264,70544,1,8,0:0:0:0:
50,264,70729,2,0,P|42:196|17:146,1,120,0|0,0:0|0:0,0:0:0:0:
10,91,71284,6,0,B|45:84|45:84|96:94|96:94|130:89,1,120,8|2,0:0|0:0,0:0:0:0:
226,18,72025,2,0,P|240:75|230:145,1,120,10|2,0:0|0:0,0:0:0:0:
144,216,72766,1,8,0:0:0:0:
144,216,72951,2,0,B|106:221|106:221|62:213|62:213|25:220,1,120,2|2,0:0|0:0,0:0:0:0:
72,332,73692,2,0,B|124:336|124:336|191:323|191:323|256:332,1,180,2|0,0:0|0:0,0:0:0:0:
362,281,74618,5,2,0:0:0:0:
413,248,74803,2,0,P|420:177|399:113,1,120,2|2,0:0|0:0,0:0:0:0:
372,81,75358,2,0,P|313:87|246:65,1,120,2|10,0:0|0:0,0:0:0:0:
223,19,75914,1,2,0:0:0:0:
260,194,76469,6,0,L|284:317,1,120,10|2,0:0|0:0,0:0:0:0:
236,350,77025,2,0,P|175:336|100:351,1,120,2|2,0:0|0:0,0:0:0:0:
59,348,77581,2,0,L|61:207,1,120,0|8,0:0|0:0,0:0:0:0:
150,147,78321,2,0,L|149:267,1,120,2|8,0:0|0:0,0:0:0:0:
236,350,79062,6,0,L|238:231,1,120,2|8,0:0|0:0,0:0:0:0:
328,150,79803,2,0,P|403:155|411:153,2,60,2|8|8,0:0|0:0|0:0,0:0:0:0:
212,121,80543,5,2,0:0:0:0:
212,121,80729,2,0,L|73:131,1,120,2|0,0:0|0:0,0:0:0:0:
33,135,81284,2,0,B|42:179|42:179|61:211|61:211|63:249,1,120,8|10,0:0|0:0,0:0:0:0:
99,297,81840,2,0,P|147:307|210:251,1,120,10|8,0:1|0:1,0:0:0:0:
213,209,82395,6,0,P|268:184|338:212,1,120,2|2,0:0|0:0,0:0:0:0:
358,247,82951,2,0,P|414:261|468:237,1,120,2|2,0:0|0:0,0:0:0:0:
495,183,83506,1,2,1:0:0:0:
256,192,86469,5,4,0:0:0:0:
256,192,86655,12,0,89432,0:0:0:0:
