osu file format v14

[General]
AudioFilename: Notice me Senpai.mp3
AudioLeadIn: 0
PreviewTime: 55358
Countdown: 0
SampleSet: Soft
StackLeniency: 0.7
Mode: 0
LetterboxInBreaks: 0
WidescreenStoryboard: 1

[Editor]
Bookmarks: 8692,48506
DistanceSpacing: 2.8
BeatDivisor: 4
GridSize: 4
TimelineZoom: 1.2

[Metadata]
Title:Little Charm Fang
TitleUnicode:リトルチャームファング
Artist:Iguchi Yuka
ArtistUnicode:井口裕香
Creator:Padge14
Version:Insane
Source:ストライク・ザ・ブラッド ヴァルキュリアの王国篇
Tags:Strike the blood Valkyria no Oukoku hen opening ova tv size
BeatmapID:875937
BeatmapSetID:384694

[Difficulty]
HPDrainRate:7
CircleSize:4.2
OverallDifficulty:8
ApproachRate:9
SliderMultiplier:1.7
SliderTickRate:1

[Events]
//Background and Video events
0,0,"StrikeGround.jpg",0,0
//Break Periods
//Storyboard Layer 0 (Background)
//Storyboard Layer 1 (Fail)
//Storyboard Layer 2 (Pass)
//Storyboard Layer 3 (Foreground)
//Storyboard Sound Samples

[TimingPoints]
544,370.37037037037,4,2,1,30,1,0
544,-100,4,2,1,30,0,0
2025,-100,4,2,1,40,0,0
3506,-100,4,2,1,60,0,0
18136,-117.647058823529,4,2,1,60,0,0
40543,-117.647058823529,4,2,1,40,0,0
42025,-100,4,2,1,60,0,0
50914,-117.647058823529,4,2,1,60,0,0
53877,-100,4,2,1,30,0,0
55358,-100,4,2,1,40,0,0
56840,-100,4,2,1,60,0,1
65729,-117.647058823529,4,2,1,60,0,0
68692,-100,4,2,1,60,0,1
80543,-117.647058823529,4,2,1,60,0,0
84618,-100,4,2,1,60,0,0
86840,-100,4,2,1,55,0,0
87210,-100,4,2,1,50,0,0
87581,-100,4,2,1,45,0,0
87951,-100,4,2,1,40,0,0
88321,-100,4,2,1,35,0,0
88692,-100,4,2,1,30,0,0
89062,-100,4,2,1,25,0,0
89432,-100,4,2,1,5,0,0

[Colours]
Combo1 : 0,0,255
Combo2 : 255,0,0
Combo3 : 0,255,0
Combo4 : 255,0,128

[HitObjects]
130,65,544,6,0,L|136:133,1,42.5,2|0,0:0|0:0,0:0:0:0:
171,286,821,2,0,L|177:218,1,42.5,2|0,0:0|0:0,0:0:0:0:
236,73,1099,2,0,L|242:135,1,42.5,2|0,0:0|0:0,0:0:0:0:
277,288,1377,2,0,L|283:220,1,42.5,2|0,0:0|0:0,0:0:0:0:
362,85,1655,1,0,1:0:0:0:
415,198,1840,1,0,1:0:0:0:
385,327,2025,6,0,L|317:321,1,42.5,2|0,0:0|0:0,0:0:0:0:
139,288,2303,2,0,L|207:282,1,42.5,2|0,0:0|0:0,0:0:0:0:
377,221,2581,2,0,L|315:215,1,42.5,2|0,0:0|0:0,0:0:0:0:
137,182,2858,2,0,L|205:176,1,42.5,2|0,0:0|0:0,0:0:0:0:
365,95,3136,1,0,1:0:0:0:
263,17,3321,1,0,1:0:0:0:
136,58,3506,6,0,L|51:58,1,85,4|0,0:1|0:0,0:0:0:0:
168,184,3877,2,0,L|253:184,1,85,8|0,0:0|0:0,0:0:0:0:
294,152,4155,1,0,0:0:0:0:
294,152,4247,1,0,0:0:0:0:
344,304,4432,1,0,0:0:0:0:
398,165,4618,2,0,P|395:120|356:62,1,85,8|0,0:0|0:0,0:0:0:0:
205,43,4988,6,0,L|314:43,1,85,0|0,0:0|0:0,0:0:0:0:
254,188,5358,2,0,L|169:188,1,85,8|0,0:0|0:0,0:0:0:0:
130,154,5636,1,0,0:0:0:0:
130,154,5729,2,0,P|126:111|132:69,1,85,0|0,0:0|0:0,0:0:0:0:
251,272,6099,2,0,P|256:229|253:187,1,85,8|0,0:0|0:0,0:0:0:0:
226,143,6377,1,0,0:0:0:0:
226,143,6469,6,0,L|322:147,1,85,0|0,0:0|0:0,0:0:0:0:
484,59,6840,2,0,L|388:63,1,85,10|0,0:0|0:0,0:0:0:0:
385,111,7117,2,0,B|388:155|388:155|374:198|374:198|385:251|387:241,1,127.5,2|0,0:0|0:0,0:0:0:0:
328,319,7581,1,8,0:0:0:0:
310,146,7766,1,2,0:0:0:0:
470,215,7951,6,0,B|482:171|482:171|476:79|476:79,2,127.5,6|2|2,0:0|0:0|0:0,0:0:0:0:
304,164,8692,2,0,P|354:174|402:162,1,85
453,14,9062,2,0,P|413:38|405:102,1,85,8|0,0:0|0:0,0:0:0:0:
471,200,9432,6,0,L|476:294,1,85,4|0,0:1|0:0,0:0:0:0:
344,365,9803,2,0,P|358:329|354:244,1,85,8|0,0:0|0:0,0:0:0:0:
338,237,10081,1,0,0:0:0:0:
338,237,10173,2,0,L|253:237,1,85,0|0,0:0|0:0,0:0:0:0:
156,106,10543,1,8,0:0:0:0:
75,237,10729,1,0,0:0:0:0:
257,152,10914,6,0,L|342:152,1,85,0|0,0:0|0:0,0:0:0:0:
157,107,11284,2,0,P|151:155|165:213,1,85,8|0,0:0|0:0,0:0:0:0:
176,238,11562,1,0,0:0:0:0:
176,238,11655,2,0,L|60:240,1,85,0|0,0:0|0:0,0:0:0:0:
266,159,12025,1,8,0:0:0:0:
426,227,12210,1,0,0:0:0:0:
306,88,12395,6,0,P|290:37|298:-6,1,85,0|0,0:0|0:0,0:0:0:0:
432,66,12766,2,0,P|448:117|440:160,1,85,10|0,0:0|0:0,0:0:0:0:
408,183,13043,2,0,P|343:175|271:192,1,127.5,2|0,0:0|0:0,0:0:0:0:
170,304,13506,1,8,0:0:0:0:
171,129,13692,1,2,0:0:0:0:
289,278,13877,6,0,P|354:286|416:267,2,127.5,6|2|2,0:0|0:0|0:0,0:0:0:0:
171,129,14618,1,0,1:0:0:0:
84,270,14803,1,0,1:0:0:0:
84,270,14895,1,0,1:0:0:0:
84,270,14988,1,0,1:0:0:0:
341,192,15173,1,2,0:3:0:0:
256,192,15358,12,4,18136,0:1:0:0:
256,192,18692,6,0,L|163:199,1,72.2500013780594,2|0,0:3|0:0,0:0:0:0:
84,131,19062,1,0,0:0:0:0:
84,131,19432,2,0,P|93:183|86:235,1,72.2500013780594,2|0,0:3|0:0,0:0:0:0:
28,324,19803,2,0,L|26:243,1,72.2500013780594
84,131,20173,1,2,0:3:0:0:
198,184,20358,1,0,0:0:0:0:
198,184,20729,2,0,L|281:185,1,72.2500013780594
461,178,21099,6,0,P|379:200|333:254,1,144.500002756119,2|0,0:3|0:0,0:0:0:0:
434,337,21655,2,0,P|477:319|502:286,1,72.2500013780594,2|0,0:3|0:0,0:0:0:0:
339,241,22025,2,0,L|266:240,1,72.2500013780594
131,170,22395,2,0,L|204:169,1,72.2500013780594,2|0,0:3|0:0,0:0:0:0:
279,64,22766,5,2,0:3:0:0:
339,241,22951,1,2,0:3:0:0:
415,100,23136,1,2,0:3:0:0:
462,308,23321,1,2,0:3:0:0:
241,210,23506,1,2,0:3:0:0:
382,344,23692,1,2,0:3:0:0:
473,168,23877,1,10,0:3:0:0:
312,296,24062,6,0,P|237:320|155:287,1,144.500002756119,8|0,0:0|0:0,0:0:0:0:
91,146,24618,2,0,P|108:177|114:226,1,72.2500013780594,8|0,0:0|0:0,0:0:0:0:
40,376,24988,2,0,L|63:273,1,72.2500013780594,8|0,0:0|0:0,0:0:0:0:
114,213,25358,1,8,0:0:0:0:
175,302,25543,6,0,P|244:319|312:296,1,144.500002756119,2|0,0:0|0:0,0:0:0:0:
405,187,26099,1,8,0:0:0:0:
243,233,26284,1,0,0:0:0:0:
402,279,26469,1,8,0:0:0:0:
313,167,26655,2,0,B|337:89|279:90|317:10,1,144.500002756119,2|0,0:0|0:0,0:0:0:0:
229,143,27210,6,0,P|194:150|145:144,1,72.2500013780594,8|0,0:0|0:0,0:0:0:0:
310,25,27581,1,10,0:0:0:0:
310,25,27766,2,0,P|340:48|354:87,1,72.2500013780594,2|8,0:0|0:0,0:0:0:0:
281,262,28136,1,0,0:0:0:0:
363,181,28321,1,8,0:0:0:0:
167,214,28506,6,0,L|79:209,1,72.2500013780594,2|8,0:0|0:0,0:0:0:0:
238,79,28877,2,0,P|236:151|286:213,1,144.500002756119,2|0,0:0|0:0,0:0:0:0:
422,224,29432,1,8,0:0:0:0:
237,295,29618,1,0,0:0:0:0:
426,347,29803,1,8,0:0:0:0:
323,120,29988,1,4,0:0:0:0:
323,120,30543,6,0,L|316:213,1,72.2500013780594,2|0,0:3|0:0,0:0:0:0:
384,292,30913,1,0,0:0:0:0:
384,292,31284,2,0,P|332:283|280:290,1,72.2500013780594,8|0,0:0|0:0,0:0:0:0:
143,262,31655,2,0,P|179:261|214:253,1,72.2500013780594
301,176,32024,1,8,0:0:0:0:
230,81,32209,1,0,0:0:0:0:
230,81,32581,2,0,L|311:79,1,72.2500013780594,2|8,0:0|0:0,0:0:0:0:
494,82,32951,6,0,P|412:104|366:158,1,144.500002756119,2|0,1:0|0:0,0:0:0:0:
305,278,33506,2,0,P|348:260|373:227,1,72.2500013780594,8|0,0:0|0:0,0:0:0:0:
496,156,33877,2,0,P|453:174|428:207,1,72.2500013780594,0|0,0:0|0:0,0:0:0:0:
324,312,34247,2,0,P|367:294|392:261,1,72.2500013780594,8|0,0:0|0:0,0:0:0:0:
365,126,34618,5,8,0:0:0:0:
487,265,34803,1,8,0:0:0:0:
493,79,34988,1,8,0:0:0:0:
387,226,35173,1,8,0:0:0:0:
204,243,35358,1,8,0:0:0:0:
365,126,35543,1,8,0:0:0:0:
377,327,35729,1,8,0:0:0:0:
204,243,35914,6,0,B|165:236|165:236|51:260,1,144.500002756119,8|0,0:0|0:0,0:0:0:0:
10,142,36469,2,0,P|4:103|13:39,1,72.2500013780594,8|0,0:0|0:0,0:0:0:0:
210,49,36840,2,0,P|215:84|214:120,1,72.2500013780594,8|0,0:0|0:0,0:0:0:0:
129,231,37210,1,8,0:0:0:0:
210,49,37395,6,0,B|256:44|256:44|311:61|311:61|353:56,1,144.500002756119,2|0,0:0|0:0,0:0:0:0:
278,204,37951,2,0,P|250:159|251:114,1,72.2500013780594,8|0,0:0|0:0,0:0:0:0:
351,56,38321,1,8,0:0:0:0:
278,204,38506,2,0,B|188:259|188:259|191:213,1,144.500002756119,2|0,0:0|0:0,0:0:0:0:
209,49,39062,6,0,L|201:136,1,72.2500013780594,10|0,0:0|0:0,0:0:0:0:
182,330,39432,2,0,L|188:258,1,72.2500013780594,10|0,0:0|0:0,0:0:0:0:
57,144,39803,2,0,P|94:140|138:146,1,72.2500013780594,10|0,0:0|0:0,0:0:0:0:
348,255,40173,2,0,P|311:261|267:258,1,72.2500013780594,10|0,0:0|0:0,0:0:0:0:
134,341,40543,6,0,L|61:355,2,48.1666675853729,8|8|8,0:0|0:0|0:0,0:0:0:0:
66,268,40914,2,0,L|1:275,2,48.1666675853729,8|8|8,0:0|0:0|0:0,0:0:0:0:
47,174,41284,2,0,L|-25:162,2,48.1666675853729,8|8|8,0:0|0:0|0:0,0:0:0:0:
122,106,41655,6,0,L|114:81,5,24.0833337926865,8|8|8|8|8|8,0:0|0:0|0:0|0:0|0:0|0:0,0:0:0:0:
107,53,42025,6,0,P|187:75|293:47,1,170,6|8,0:1|0:0,0:0:0:0:
427,26,42581,1,0,0:0:0:0:
464,181,42766,2,0,L|466:268,1,85,2|0,0:0|0:0,0:0:0:0:
277,366,43136,2,0,L|285:273,1,85,10|0,0:0|0:0,0:0:0:0:
115,174,43506,6,0,L|125:261,1,85,2|0,0:0|0:0,0:0:0:0:
277,366,43877,1,10,0:0:0:0:
242,186,44062,2,0,P|247:126|269:87,1,85,2|0,0:0|0:0,0:0:0:0:
419,34,44432,2,0,L|514:47,2,85,2|8|2,0:0|0:0|0:0,0:0:0:0:
258,104,44988,6,0,P|200:162|103:172,1,170,2|8,0:0|0:0,0:0:0:0:
24,36,45543,1,0,0:0:0:0:
27,235,45729,1,2,0:0:0:0:
24,36,45914,1,0,0:0:0:0:
27,235,46099,1,10,0:0:0:0:
156,72,46284,1,0,0:0:0:0:
189,274,46469,5,2,0:0:0:0:
309,108,46655,1,0,0:0:0:0:
126,176,46840,1,8,0:0:0:0:
321,232,47025,1,0,0:0:0:0:
321,232,47118,1,0,0:0:0:0:
321,232,47210,1,0,0:0:0:0:
180,309,47395,1,0,0:0:0:0:
209,139,47581,2,0,P|212:190|229:234,1,85,8|0,0:0|0:0,0:0:0:0:
480,249,47951,6,0,P|430:222|315:234,1,170,2|8,0:0|0:0,0:0:0:0:
220,354,48506,1,0,0:0:0:0:
63,238,48692,2,0,L|160:245,1,85,2|0,0:0|0:0,0:0:0:0:
358,146,49062,2,0,L|261:153,1,85,10|0,0:0|0:0,0:0:0:0:
138,57,49432,6,0,L|131:141,1,85,2|0,0:0|0:0,0:0:0:0:
275,277,49803,1,0,0:0:0:0:
67,269,49988,2,0,B|105:245|167:242,1,85,10|0,0:1|0:0,0:0:0:0:
275,277,50358,1,0,1:0:0:0:
297,241,50451,1,0,1:0:0:0:
305,200,50544,1,0,1:0:0:0:
304,158,50636,1,0,1:0:0:0:
290,118,50729,1,2,1:0:0:0:
226,45,50914,6,0,P|285:84|384:81,1,144.500002756119,4|8,0:1|0:0,0:0:0:0:
478,62,51469,1,8,0:0:0:0:
478,62,51655,2,0,L|476:216,1,144.500002756119,2|0,0:0|0:0,0:0:0:0:
472,351,52210,1,2,0:0:0:0:
472,351,52303,1,2,0:0:0:0:
472,351,52395,1,4,0:1:0:0:
320,150,52766,5,2,1:0:0:0:
320,150,52951,2,0,B|259:150|259:150|255:146|255:146|255:154|255:154|251:150|251:150|176:150,1,144.500002756119,2|2,1:0|0:0,0:0:0:0:
69,117,53506,1,8,1:2:0:0:
361,303,53877,6,0,L|293:297,1,42.5,2|0,0:0|0:0,0:0:0:0:
140,262,54155,2,0,L|208:256,1,42.5,2|0,0:0|0:0,0:0:0:0:
353,197,54432,2,0,L|291:191,1,42.5,2|0,0:0|0:0,0:0:0:0:
138,156,54710,2,0,L|206:150,1,42.5,2|0,0:0|0:0,0:0:0:0:
341,71,54988,1,0,1:0:0:0:
228,18,55173,1,0,1:0:0:0:
99,48,55358,6,0,L|105:116,1,42.5,2|0,0:0|0:0,0:0:0:0:
138,294,55636,2,0,L|144:226,1,42.5,2|0,0:0|0:0,0:0:0:0:
205,56,55914,2,0,L|211:118,1,42.5,2|0,0:0|0:0,0:0:0:0:
244,296,56192,2,0,L|250:228,1,42.5,2|0,0:0|0:0,0:0:0:0:
331,68,56469,1,2,0:0:0:0:
192,192,56655,1,2,0:0:0:0:
373,229,56840,6,0,P|431:269|433:369,1,170,6|8,0:1|0:0,0:0:0:0:
342,327,57395,1,0,0:0:0:0:
342,327,57488,1,0,0:0:0:0:
342,327,57581,1,0,0:0:0:0:
258,186,57766,2,0,P|252:146|262:102,1,85,2|8,0:0|0:0,0:0:0:0:
486,175,58136,6,0,P|495:216|489:258,1,85,2|0,0:0|0:0,0:0:0:0:
342,327,58506,1,2,0:0:0:0:
378,151,58692,1,8,0:0:0:0:
240,276,58877,2,0,L|152:272,1,85,2|0,0:0|0:0,0:0:0:0:
40,188,59247,1,0,0:0:0:0:
80,328,59432,1,8,0:0:0:0:
217,187,59618,1,0,0:0:0:0:
217,187,59803,6,0,L|304:184,1,85,2|0,0:0|0:0,0:0:0:0:
480,252,60173,2,0,B|396:252,1,85,10|0,0:0|0:0,0:0:0:0:
208,344,60543,1,2,0:0:0:0:
301,184,60729,1,2,0:0:0:0:
176,256,60914,1,8,0:0:0:0:
316,338,61099,6,0,L|401:337,1,85,2|0,0:0|0:0,0:0:0:0:
176,256,61469,2,0,L|92:258,1,85,2|8,0:0|0:0,0:0:0:0:
301,184,61840,2,0,P|335:111|315:16,1,170,2|0,0:0|0:0,0:0:0:0:
173,180,62395,2,0,P|173:220|192:259,1,85,8|0,0:0|0:0,0:0:0:0:
348,363,62766,6,0,L|360:271,1,85,2|0,0:0|0:0,0:0:0:0:
473,121,63136,2,0,L|481:206,1,85,10|0,0:0|0:0,0:0:0:0:
344,72,63506,2,0,P|260:92|172:74,1,170,2|8,0:0|0:0,0:0:0:0:
243,207,64062,1,2,0:0:0:0:
243,207,64155,1,0,0:0:0:0:
243,207,64247,6,0,P|190:197|112:209,2,127.5,2|0|8,0:0|0:0|0:0,0:0:0:0:
285,244,64895,1,8,0:0:0:0:
285,244,64988,2,0,L|268:338,1,85,8|0,0:0|0:0,0:0:0:0:
91,315,65358,2,0,L|175:300,1,85,8|0,0:0|0:0,0:0:0:0:
357,332,65729,5,8,0:0:0:0:
237,173,65914,1,8,0:0:0:0:
256,362,66099,1,8,0:1:0:0:
357,120,66377,1,0,1:0:0:0:
357,120,66469,5,8,0:0:0:0:
284,276,66655,1,8,0:0:0:0:
453,255,66840,1,8,0:1:0:0:
357,120,67025,6,0,B|285:66|193:116,1,144.500002756119,6|0,0:1|0:0,0:0:0:0:
116,276,67581,1,8,0:0:0:0:
276,200,67766,1,0,0:0:0:0:
92,128,67951,1,8,0:0:0:0:
256,304,68136,5,2,0:0:0:0:
220,103,68321,1,2,0:0:0:0:
411,168,68506,1,2,0:0:0:0:
196,240,68692,6,0,B|142:251|142:251|20:228,1,170,2|8,1:0|0:0,0:0:0:0:
165,121,69247,1,0,0:0:0:0:
165,121,69340,1,0,0:0:0:0:
165,121,69432,2,0,P|242:123|267:140,1,85,0|2,0:0|0:0,0:0:0:0:
336,281,69803,1,8,0:0:0:0:
410,122,69988,2,0,L|408:34,1,85,2|0,0:0|0:0,0:0:0:0:
316,168,70358,5,0,0:0:0:0:
489,140,70543,1,8,0:0:0:0:
327,50,70729,2,0,B|276:45|276:45|160:77,1,170,2|0,0:0|0:0,0:0:0:0:
56,244,71284,1,8,0:0:0:0:
194,172,71469,1,0,0:0:0:0:
40,108,71655,6,0,P|27:59|39:-2,1,85,2|0,0:0|0:0,0:0:0:0:
194,172,72025,2,0,P|206:212|204:255,1,85,10|0,0:0|0:0,0:0:0:0:
96,356,72395,1,2,0:0:0:0:
205,255,72581,1,2,0:0:0:0:
336,328,72766,1,8,0:0:0:0:
336,328,72951,6,0,L|346:232,1,85,2|0,0:0|0:0,0:0:0:0:
382,63,73321,2,0,L|390:178,1,85,2|8,0:0|0:0,0:0:0:0:
438,355,73692,1,2,0:0:0:0:
438,355,73784,1,8,0:0:0:0:
438,355,73877,1,8,0:0:0:0:
472,193,74062,1,0,0:0:0:0:
304,255,74247,1,8,0:0:0:0:
304,255,74340,1,8,0:0:0:0:
304,255,74432,1,8,0:0:0:0:
150,161,74618,5,2,0:0:0:0:
150,161,74803,2,0,L|147:67,1,85,2|8,0:0|0:0,0:0:0:0:
338,36,75174,1,2,0:0:0:0:
338,36,75359,2,0,B|334:120,1,85,2|0,0:0|0:0,0:0:0:0:
233,266,75729,1,10,0:0:0:0:
392,188,75914,6,0,P|436:192|492:316,1,170,2|0,0:0|0:0,0:0:0:0:
335,259,76469,1,10,0:0:0:0:
369,105,76655,1,2,0:0:0:0:
369,105,76747,1,0,0:0:0:0:
369,105,76840,1,2,0:0:0:0:
222,244,77025,2,0,P|178:254|129:244,1,85,2|8,0:0|0:0,0:0:0:0:
74,75,77395,6,0,P|118:65|167:75,1,85,2|0,0:0|0:0,0:0:0:0:
302,167,77766,2,0,L|293:62,1,85,2|8,0:0|0:0,0:0:0:0:
463,162,78136,1,2,0:0:0:0:
463,162,78229,1,0,0:0:0:0:
463,162,78321,2,0,L|448:262,1,85,2|0,0:0|0:0,0:0:0:0:
334,339,78692,1,8,0:0:0:0:
251,213,78877,1,0,0:0:0:0:
251,213,78969,1,0,0:0:0:0:
251,213,79062,6,0,L|242:119,1,85,2|0,0:0|0:0,0:0:0:0:
419,43,79432,2,0,P|421:84|397:128,1,85,8|0,0:0|0:0,0:0:0:0:
251,213,79803,1,10,0:0:0:0:
164,44,79988,1,8,0:0:0:0:
337,65,80173,1,8,0:0:0:0:
337,65,80266,1,8,0:0:0:0:
337,65,80358,1,8,0:0:0:0:
176,172,80543,5,2,0:0:0:0:
176,172,80729,2,0,L|165:255,1,72.2500013780594,2|0,0:0|0:0,0:0:0:0:
291,128,81099,1,0,0:0:0:0:
291,128,81284,2,0,P|213:132|165:72,1,144.500002756119,10|10,0:0|0:0,0:0:0:0:
383,60,81840,6,0,L|455:60,1,72.2500013780594,10|0,0:1|0:0,0:0:0:0:
252,46,82210,1,8,0:1:0:0:
376,172,82395,2,0,P|379:207|374:243,1,72.2500013780594,2|2,0:0|0:0,0:0:0:0:
250,351,82766,1,2,0:0:0:0:
250,351,82951,2,0,L|231:181,1,144.500002756119,2|0,0:0|0:0,0:0:0:0:
213,25,83506,1,4,1:1:0:0:
338,147,84618,5,8,0:0:0:0:
166,187,84803,1,8,0:1:0:0:
337,264,84988,1,0,0:0:0:0:
177,85,85173,1,8,0:0:0:0:
177,85,85266,1,8,0:0:0:0:
177,85,85358,1,8,0:0:0:0:
338,147,85543,1,8,0:0:0:0:
166,187,85729,1,8,0:0:0:0:
338,147,85914,5,8,0:0:0:0:
375,127,86006,1,8,0:0:0:0:
407,99,86099,1,8,0:0:0:0:
435,67,86192,1,8,0:0:0:0:
441,108,86284,1,8,0:0:0:0:
454,148,86377,1,8,0:0:0:0:
476,183,86469,1,12,0:0:0:0:
256,192,86562,12,0,89432,0:0:0:0:
