osu file format v14

[General]
AudioFilename: Notice me Senpai.mp3
AudioLeadIn: 0
PreviewTime: 55358
Countdown: 0
SampleSet: Soft
StackLeniency: 0.7
Mode: 0
LetterboxInBreaks: 0
WidescreenStoryboard: 1

[Editor]
DistanceSpacing: 1.4
BeatDivisor: 4
GridSize: 16
TimelineZoom: 1.3

[Metadata]
Title:Little Charm Fang
TitleUnicode:リトルチャームファング
Artist:Iguchi Yuka
ArtistUnicode:井口裕香
Creator:Padge14
Version:Hard
Source:ストライク・ザ・ブラッド ヴァルキュリアの王国篇
Tags:Strike the blood Valkyria no Oukoku hen opening ova tv size
BeatmapID:879006
BeatmapSetID:384694

[Difficulty]
HPDrainRate:6
CircleSize:4
OverallDifficulty:6
ApproachRate:8
SliderMultiplier:1.5
SliderTickRate:1

[Events]
//Background and Video events
0,0,"StrikeGround.jpg",0,0
//Break Periods
//Storyboard Layer 0 (Background)
//Storyboard Layer 1 (Fail)
//Storyboard Layer 2 (Pass)
//Storyboard Layer 3 (Foreground)
//Storyboard Sound Samples

[TimingPoints]
544,370.37037037037,4,2,1,30,1,0
544,-100,4,2,1,30,0,0
2025,-100,4,2,1,40,0,0
3506,-100,4,2,1,60,0,0
18136,-117.647058823529,4,2,1,60,0,0
40543,-117.647058823529,4,2,1,20,0,0
42025,-100,4,2,1,60,0,0
50914,-117.647058823529,4,2,1,60,0,0
53877,-100,4,2,1,30,0,0
55358,-100,4,2,1,40,0,0
56840,-100,4,2,1,60,0,1
65729,-117.647058823529,4,2,1,60,0,0
68692,-100,4,2,1,60,0,1
80543,-117.647058823529,4,2,1,60,0,0
84618,-100,4,2,1,60,0,0
86840,-100,4,2,1,55,0,0
87210,-100,4,2,1,50,0,0
87581,-100,4,2,1,45,0,0
87951,-100,4,2,1,40,0,0
88321,-100,4,2,1,35,0,0
88692,-100,4,2,1,30,0,0
89062,-100,4,2,1,25,0,0
89432,-100,4,2,1,5,0,0

[Colours]
Combo1 : 0,0,255
Combo2 : 255,0,0
Combo3 : 0,255,0
Combo4 : 255,0,128

[HitObjects]
12,147,544,6,0,L|63:149,1,37.5,2|0,0:0|0:0,0:0:0:0:
124,182,821,2,0,L|161:180,1,37.5,2|0,0:0|0:0,0:0:0:0:
232,219,1099,2,0,L|269:217,1,37.5,2|0,0:0|0:0,0:0:0:0:
341,253,1377,2,0,L|378:254,1,37.5,2|0,0:0|0:0,0:0:0:0:
445,185,1655,1,8,0:0:0:0:
445,185,1840,1,8,0:0:0:0:
380,109,2025,6,0,L|380:55,1,37.5,2|0,0:0|0:0,0:0:0:0:
293,110,2303,2,0,L|293:164,1,37.5,2|0,0:0|0:0,0:0:0:0:
208,106,2581,2,0,L|208:68,1,37.5,2|0,0:0|0:0,0:0:0:0:
120,34,2858,2,0,L|120:72,1,37.5,2|0,0:0|0:0,0:0:0:0:
68,143,3136,1,0,1:0:0:0:
68,143,3321,1,0,1:0:0:0:
128,216,3506,6,0,P|193:221|223:210,1,75,4|0,0:1|0:0,0:0:0:0:
285,170,3877,2,0,B|294:217|294:217|276:274|276:274|292:332,1,150,8|0,0:0|0:0,0:0:0:0:
361,357,4432,1,0,0:0:0:0:
210,341,4618,2,0,L|109:336,1,75,8|0,0:0|0:0,0:0:0:0:
38,290,4988,6,0,P|87:271|116:248,1,75,0|0,0:0|0:0,0:0:0:0:
137,164,5358,2,0,B|150:125|150:125|220:147|280:110,1,150,8|0,0:0|0:0,0:0:0:0:
351,58,5914,1,0,0:0:0:0:
331,171,6099,2,0,P|322:217|330:266,1,75,8|0,0:0|0:0,0:0:0:0:
425,311,6469,2,0,P|434:265|426:216,1,75
331,171,6840,6,0,P|273:187|193:172,2,112.5,2|0|0,0:0|0:0|0:0,0:0:0:0:
411,81,7581,1,8,0:0:0:0:
501,133,7766,1,2,0:0:0:0:
437,216,7951,2,0,P|439:276|460:344,2,112.5,6|2|2,0:0|0:0|0:0,0:0:0:0:
501,133,8692,2,0,L|509:48,1,75,0|0,0:0|0:0,0:0:0:0:
395,58,9062,2,0,L|403:132,1,75,8|0,0:0|0:0,0:0:0:0:
363,237,9432,6,0,P|323:242|274:239,1,75,4|0,0:1|0:0,0:0:0:0:
215,164,9803,2,0,B|202:121|202:121|149:142|70:112,1,150,8|0,0:0|0:0,0:0:0:0:
37,36,10358,1,0,0:0:0:0:
17,158,10543,2,0,L|13:252,1,75,8|0,0:0|0:0,0:0:0:0:
97,310,10914,6,0,L|98:209,1,75,0|0,0:0|0:0,0:0:0:0:
99,121,11284,2,0,P|161:126|247:83,1,150,8|0,0:0|0:0,0:0:0:0:
337,25,11840,1,0,0:0:0:0:
331,141,12025,2,0,L|329:227,1,75,8|0,0:0|0:0,0:0:0:0:
390,301,12395,6,0,P|423:261|435:216,1,75,0|0,0:0|0:0,0:0:0:0:
330,215,12766,2,0,B|289:215|256:199|256:199|199:217,2,112.5,10|2|0,0:0|0:0|0:0,0:0:0:0:
390,301,13506,2,0,P|432:307|483:295,1,75,8|2,0:0|0:0,0:0:0:0:
426,200,13877,6,0,P|419:144|429:89,2,112.5,6|2|2,0:0|0:0|0:0,0:0:0:0:
234,278,14803,2,0,L|176:275,2,37.5,0|0|0,1:0|1:0|1:0,1:0:0:0:
325,343,15173,1,2,0:3:0:0:
256,192,15358,12,4,18136,0:1:0:0:
162,295,18692,6,0,L|155:210,1,63.7500012159348,2|0,0:3|0:0,0:0:0:0:
221,134,19062,1,0,0:0:0:0:
221,134,19432,2,0,P|278:151|355:129,2,127.50000243187,2|0|2,0:3|0:0|0:3,0:0:0:0:
114,71,20358,1,0,0:0:0:0:
114,71,20729,2,0,L|111:152,1,63.7500012159348
200,255,21099,6,0,P|226:197|221:134,1,127.50000243187,2|0,0:3|0:0,0:0:0:0:
111,134,21655,2,0,L|36:135,1,63.7500012159348,2|0,0:3|0:0,0:0:0:0:
19,239,22025,2,0,L|82:238,1,63.7500012159348
206,326,22395,2,0,L|143:327,1,63.7500012159348,2|0,0:3|0:0,0:0:0:0:
264,233,22766,6,0,L|327:233,1,63.7500012159348,2|2,0:3|0:3,0:0:0:0:
480,303,23136,2,0,L|416:303,1,63.7500012159348,2|2,0:3|0:3,0:0:0:0:
327,233,23506,1,2,0:3:0:0:
279,338,23692,1,2,0:3:0:0:
184,273,23877,1,10,0:3:0:0:
184,273,24062,6,0,P|120:279|61:239,1,127.50000243187,8|0,0:0|0:0,0:0:0:0:
125,127,24618,2,0,P|137:159|141:188,1,63.7500012159348,8|0,0:0|0:0,0:0:0:0:
20,150,24988,2,0,P|7:117|3:88,1,63.7500012159348,8|0,0:0|0:0,0:0:0:0:
95,20,25358,1,8,0:0:0:0:
195,77,25543,6,0,P|257:87|327:69,1,127.50000243187,2|0,0:0|0:0,0:0:0:0:
420,2,26099,2,0,L|406:91,1,63.7500012159348,8|0,0:0|0:0,0:0:0:0:
465,172,26469,1,8,0:0:0:0:
465,172,26655,2,0,P|388:169|331:194,1,127.50000243187,2|0,0:0|0:0,0:0:0:0:
213,204,27210,6,0,P|248:224|284:232,1,63.7500012159348,8|0,0:0|0:0,0:0:0:0:
373,267,27581,1,10,0:0:0:0:
273,309,27766,2,0,P|242:318|215:335,1,63.7500012159348,2|8,0:0|0:0,0:0:0:0:
115,376,28136,1,0,0:0:0:0:
154,275,28321,1,8,0:0:0:0:
82,194,28506,6,0,L|77:130,1,63.7500012159348,2|8,0:0|0:0,0:0:0:0:
161,32,28877,2,0,P|153:102|179:158,1,127.50000243187,2|0,0:0|0:0,0:0:0:0:
199,284,29432,2,0,P|219:258|230:228,1,63.7500012159348,8|0,0:0|0:0,0:0:0:0:
329,140,29803,2,0,L|265:146,1,63.7500012159348,8|4,0:0|0:0,0:0:0:0:
65,221,30543,6,0,L|150:228,1,63.7500012159348,8|0,0:0|0:0,0:0:0:0:
249,236,30914,1,0,0:0:0:0:
249,236,31284,2,0,B|262:199|262:199|258:142|258:142|272:109,2,127.50000243187,8|0|8,0:0|0:0|0:0,0:0:0:0:
171,334,32210,1,0,0:0:0:0:
171,334,32581,2,0,L|168:270,1,63.7500012159348,2|8,0:0|0:0,0:0:0:0:
110,143,32951,6,0,P|84:201|89:264,1,127.50000243187,2|0,1:0|0:0,0:0:0:0:
183,187,33506,2,0,L|246:186,1,63.7500012159348,8|0,0:0|0:0,0:0:0:0:
323,104,33877,2,0,L|260:105,1,63.7500012159348
171,28,34247,2,0,L|234:27,1,63.7500012159348,8|0,0:0|0:0,0:0:0:0:
360,24,34618,6,0,L|423:24,1,63.7500012159348,8|8,0:0|0:0,0:0:0:0:
474,158,34988,2,0,L|410:158,1,63.7500012159348,8|8,0:0|0:0,0:0:0:0:
327,233,35358,1,8,0:0:0:0:
390,328,35543,1,8,0:0:0:0:
250,292,35729,1,8,0:0:0:0:
250,292,35914,6,0,B|206:282|206:282|110:292,1,127.50000243187,8|0,0:0|0:0,0:0:0:0:
1,239,36469,2,0,P|32:239|62:228,1,63.7500012159348,8|0,0:0|0:0,0:0:0:0:
197,184,36840,2,0,P|165:183|135:172,1,63.7500012159348,8|0,0:0|0:0,0:0:0:0:
86,87,37210,1,8,0:0:0:0:
182,33,37395,6,0,L|314:41,1,127.50000243187,2|0,0:0|0:0,0:0:0:0:
447,65,37951,2,0,B|414:74|414:74|370:75,1,63.7500012159348,8|0,0:0|0:0,0:0:0:0:
270,122,38321,1,8,0:0:0:0:
270,122,38506,2,0,P|267:199|292:256,1,127.50000243187,2|0,0:0|0:0,0:0:0:0:
405,303,39062,6,0,P|371:308|339:306,1,63.7500012159348,10|0,0:0|0:0,0:0:0:0:
255,384,39432,2,0,P|250:350|252:318,1,63.7500012159348,10|0,0:0|0:0,0:0:0:0:
189,187,39803,2,0,P|194:221|192:253,1,63.7500012159348,10|0,0:0|0:0,0:0:0:0:
70,224,40173,2,0,P|65:190|67:158,1,63.7500012159348,10|0,0:0|0:0,0:0:0:0:
70,79,40543,6,0,L|10:66,2,42.5000008106232,8|8|8,0:0|0:0|0:0,0:0:0:0:
148,44,40914,2,0,L|147:0,2,31.8750006079674,8|8|8,0:0|0:0|0:0,0:0:0:0:
193,119,41284,2,0,L|184:166,2,42.5000008106232,8|8|8,0:0|0:0|0:0,0:0:0:0:
260,60,41655,2,0,L|268:26,5,21.2500004053116,8|8|8|8|8|8,0:0|0:0|0:0|0:0|0:0|0:0,0:0:0:0:
301,36,42025,6,0,P|367:53|456:23,1,150,4|8,0:1|0:0,0:0:0:0:
509,124,42581,1,0,0:0:0:0:
458,216,42766,2,0,B|462:326,1,75,2|0,0:0|0:0,0:0:0:0:
354,344,43136,2,0,B|356:269,1,75,10|0,0:0|0:0,0:0:0:0:
396,150,43506,6,0,P|365:175|326:196,1,75,2|0,0:0|0:0,0:0:0:0:
236,153,43877,1,10,0:0:0:0:
270,251,44062,2,0,P|270:300|241:350,1,75,2|0,0:0|0:0,0:0:0:0:
167,276,44432,2,0,P|132:310|76:325,1,75,2|8,0:0|0:0,0:0:0:0:
13,275,44803,1,2,0:0:0:0:
22,169,44988,6,0,B|34:140|59:130|59:130|101:142|159:126,1,150,2|8,0:0|0:0,0:0:0:0:
234,62,45543,1,0,0:0:0:0:
234,188,45729,2,0,L|235:264,1,75,2|0,0:0|0:0,0:0:0:0:
332,327,46099,2,0,L|331:252,1,75,10|0,0:0|0:0,0:0:0:0:
234,188,46469,6,0,P|194:182|154:189,1,75,2|0,0:0|0:0,0:0:0:0:
101,274,46840,1,8,0:0:0:0:
48,183,47025,2,0,L|-3:177,2,37.5
133,116,47395,1,0,0:0:0:0:
72,29,47581,1,8,0:0:0:0:
72,29,47766,1,0,0:0:0:0:
178,28,47951,6,0,B|218:27|218:27|277:52|277:52|331:47,1,150,2|8,0:0|0:0,0:0:0:0:
424,20,48506,1,0,0:0:0:0:
388,132,48692,2,0,P|383:184|385:209,1,75,2|0,0:0|0:0,0:0:0:0:
289,250,49062,2,0,P|322:290|341:306,1,75,10|0,0:0|0:0,0:0:0:0:
480,350,49432,6,0,L|405:352,1,75,2|0,0:0|0:0,0:0:0:0:
275,355,49803,2,0,L|200:357,1,75,10|2,0:0|0:0,0:0:0:0:
357,219,50358,6,0,L|404:224,2,37.5,2|0|0,1:0|1:2|1:2,1:0:0:0:
246,265,50729,1,0,1:0:0:0:
180,171,50914,6,0,L|51:174,1,127.50000243187,8|8,0:0|0:0,0:0:0:0:
22,65,51469,1,8,0:0:0:0:
22,65,51655,2,0,L|149:62,1,127.50000243187,2|0,0:0|0:0,0:0:0:0:
180,171,52210,2,0,L|176:222,2,31.8750006079674,2|2|8,0:0|0:0|0:0,0:0:0:0:
256,40,52766,5,2,1:0:0:0:
256,40,52951,2,0,B|256:92|256:92|260:96|260:96|252:96|252:96|256:100|256:100|256:168,1,127.50000243187,2|2,1:0|0:0,0:0:0:0:
323,241,53506,1,8,1:2:0:0:
435,206,53877,6,0,L|384:208,1,37.5,2|0,0:0|0:0,0:0:0:0:
323,241,54155,2,0,L|286:239,1,37.5,2|0,0:0|0:0,0:0:0:0:
215,278,54432,2,0,L|178:276,1,37.5,2|0,0:0|0:0,0:0:0:0:
106,312,54710,2,0,L|69:313,1,37.5,2|0,0:0|0:0,0:0:0:0:
2,244,54988,1,0,1:0:0:0:
2,244,55173,1,0,1:0:0:0:
67,168,55358,6,0,L|67:114,1,37.5,2|0,0:0|0:0,0:0:0:0:
154,169,55636,2,0,L|154:223,1,37.5,2|0,0:0|0:0,0:0:0:0:
239,165,55914,2,0,L|239:127,1,37.5,2|0,0:0|0:0,0:0:0:0:
327,167,56192,2,0,L|327:205,1,37.5,2|0,0:0|0:0,0:0:0:0:
407,261,56469,1,2,0:0:0:0:
407,261,56655,1,2,0:0:0:0:
407,261,56840,6,0,P|326:262|254:296,1,150,6|8,0:1|0:0,0:0:0:0:
175,359,57395,1,0,0:0:0:0:
74,305,57581,1,0,0:0:0:0:
74,305,57766,2,0,P|86:269|118:237,1,75,2|8,0:0|0:0,0:0:0:0:
248,223,58136,6,0,P|170:212|117:159,1,150,2|2,0:0|0:0,0:0:0:0:
78,50,58692,1,8,0:0:0:0:
78,50,58877,2,0,L|156:59,1,75,2|0,0:0|0:0,0:0:0:0:
216,140,59247,1,0,0:0:0:0:
281,48,59432,1,8,0:0:0:0:
373,113,59618,1,0,0:0:0:0:
308,204,59803,6,0,L|301:298,1,75,2|0,0:0|0:0,0:0:0:0:
388,351,60173,2,0,L|393:276,1,75,10|0,0:0|0:0,0:0:0:0:
466,190,60543,1,2,0:0:0:0:
466,190,60729,1,2,0:0:0:0:
373,113,60914,1,8,0:0:0:0:
373,113,61099,6,0,B|290:110,1,75,2|0,0:0|0:0,0:0:0:0:
230,229,61469,2,0,L|313:226,1,75,2|8,0:0|0:0,0:0:0:0:
373,113,61840,2,0,B|362:150|362:150|389:213|389:213|385:266,1,150,2|0,0:0|0:0,0:0:0:0:
335,363,62395,2,0,P|324:316|297:280,1,75,8|0,0:0|0:0,0:0:0:0:
175,226,62766,6,0,L|269:227,1,75,2|0,0:0|0:0,0:0:0:0:
276,111,63136,2,0,L|201:110,1,75,10|0,0:0|0:0,0:0:0:0:
84,152,63506,2,0,P|58:216|91:295,1,150,2|8,0:0|0:0,0:0:0:0:
197,355,64062,1,2,0:0:0:0:
197,355,64247,6,0,L|326:354,2,112.5,2|0|0,0:0|0:0|0:0,0:0:0:0:
84,288,64988,2,0,L|161:271,1,75,8|0,0:0|0:0,0:0:0:0:
278,208,65358,2,0,L|203:198,1,75,8|0,0:0|0:0,0:0:0:0:
128,142,65729,6,0,L|118:78,2,63.7500012159348,8|8|8,0:0|0:0|0:1,0:0:0:0:
282,75,66469,2,0,L|283:-1,2,63.7500012159348,8|8|8,0:0|0:0|0:1,0:0:0:0:
347,164,67025,6,0,P|369:247|344:308,1,127.50000243187,2|0,0:1|0:0,0:0:0:0:
238,359,67581,1,8,0:0:0:0:
272,236,67766,1,0,0:0:0:0:
147,311,67951,1,8,0:0:0:0:
178,199,68136,1,2,0:0:0:0:
178,199,68321,1,2,0:0:0:0:
178,199,68506,1,2,0:0:0:0:
178,199,68692,6,0,P|261:196|316:152,1,150,2|8,1:0|0:0,0:0:0:0:
382,59,69247,1,0,0:0:0:0:
463,147,69432,2,0,L|469:235,1,75,0|2,0:0|0:0,0:0:0:0:
478,350,69803,1,8,0:0:0:0:
478,350,69988,6,0,P|405:369|320:345,1,150,2|0,0:0|0:0,0:0:0:0:
266,253,70543,1,8,0:0:0:0:
266,253,70729,2,0,P|193:236|121:255,1,150,2|0,0:0|0:0,0:0:0:0:
19,222,71284,2,0,P|13:182|20:141,1,75,8|0,0:0|0:0,0:0:0:0:
90,21,71655,6,0,L|71:115,1,75,2|0,0:0|0:0,0:0:0:0:
191,60,72025,2,0,L|176:133,1,75,10|0,0:0|0:0,0:0:0:0:
157,242,72395,2,0,P|194:241|230:250,1,75,2|2,0:0|0:0,0:0:0:0:
285,334,72766,1,8,0:0:0:0:
390,248,72951,6,0,P|348:259|287:244,1,75,2|0,0:0|0:0,0:0:0:0:
344,166,73321,2,0,P|349:130|347:92,1,75,2|8,0:0|0:0,0:0:0:0:
201,93,73692,2,0,P|195:138|203:187,1,75,2|0,0:0|0:0,0:0:0:0:
83,219,74062,1,0,0:0:0:0:
94,93,74247,2,0,L|84:52,2,37.5,8|8|8,0:0|0:0|0:0,0:0:0:0:
197,167,74618,5,2,0:0:0:0:
197,167,74804,2,0,P|269:185|369:162,1,150,2|2,0:0|0:0,0:0:0:0:
443,92,75359,2,0,L|443:275,1,150,2|2,0:0|0:0,0:0:0:0:
342,323,75914,2,0,L|342:173,1,150,2|0,0:0|0:0,0:0:0:0:
265,92,76469,6,0,P|216:100|171:92,1,75,10|2,0:0|0:0,0:0:0:0:
70,58,76840,2,0,P|110:44|138:19,1,75,2|2,0:0|0:0,0:0:0:0:
192,98,77210,1,8,0:0:0:0:
109,178,77395,6,0,P|104:231|112:278,1,75,2|0,0:0|0:0,0:0:0:0:
245,258,77766,2,0,P|250:205|242:158,1,75,2|8,0:0|0:0,0:0:0:0:
172,319,78136,1,2,0:0:0:0:
313,315,78321,2,0,B|360:303|360:303|407:320|407:320|467:306,1,150,2|8,0:0|0:0,0:0:0:0:
464,98,79062,2,0,B|413:86|413:86|366:103|366:103|319:91,1,150,2|8,0:0|0:0,0:0:0:0:
148,213,79803,2,0,B|198:224|198:224|245:207|245:207|292:219,1,150,2|8,0:0|0:0,0:0:0:0:
293,220,80543,5,8,0:0:0:0:
293,220,80729,2,0,P|302:146|285:84,1,127.50000243187,2|0,0:0|0:0,0:0:0:0:
207,122,81284,2,0,P|144:137|146:65,1,127.50000243187,8|10,0:0|0:0,0:0:0:0:
194,29,81840,2,0,P|253:40|327:26,1,127.50000243187,10|8,0:1|0:1,0:0:0:0:
393,77,82395,6,0,L|386:163,1,63.7500012159348,2|2,0:0|0:0,0:0:0:0:
312,215,82766,1,2,0:0:0:0:
312,215,82951,2,0,P|255:231|168:220,1,127.50000243187,2|0,0:0|0:0,0:0:0:0:
120,145,83506,5,4,1:0:0:0:
213,107,84618,6,0,P|218:146|213:185,1,75,8|8,0:0|0:1,0:0:0:0:
137,281,84988,1,0,0:0:0:0:
269,240,85173,2,0,L|312:243,2,37.5,8|8|8,0:0|0:0|0:0,0:0:0:0:
121,188,85543,1,8,0:0:0:0:
213,107,85729,1,8,0:0:0:0:
113,32,85914,2,0,L|71:40,6,37.5,8|8|8|8|8|8|12,0:0|0:0|0:0|0:0|0:0|0:0|0:0,0:0:0:0:
256,192,86562,12,0,89432,0:0:0:0:
