osu file format v14

[General]
AudioFilename: audio.mp3
AudioLeadIn: 0
PreviewTime: 54489
Countdown: 0
SampleSet: Soft
StackLeniency: 0.2
Mode: 0
LetterboxInBreaks: 0
WidescreenStoryboard: 1

[Editor]
Bookmarks: 5872,7574,21191,28000,34808,41617,51829,55234,68851,75659,82468,85872
DistanceSpacing: 0.8
BeatDivisor: 4
GridSize: 16
TimelineZoom: 1.8

[Metadata]
Title:Kakumei Zenya (TV Size)
TitleUnicode:革命前夜 (TV Size)
Artist:Iguchi Yuka
ArtistUnicode:井口裕香
Creator:Kazuma
Version:Hope
Source:とある魔術の禁書目録Ⅲ
Tags:toaru majutsu no index iii season 3 ed ending a certain magical japanese jpop j-pop pop anime livermorium
BeatmapID:3171376
BeatmapSetID:1549895

[Difficulty]
HPDrainRate:6
CircleSize:4.5
OverallDifficulty:8
ApproachRate:8.7
SliderMultiplier:2.1
SliderTickRate:1

[Events]
//Background and Video events
0,0,"bg.jpg",0,0
//Break Periods
//Storyboard Layer 0 (Background)
//Storyboard Layer 1 (Fail)
//Storyboard Layer 2 (Pass)
//Storyboard Layer 3 (Foreground)
//Storyboard Layer 4 (Overlay)
//Storyboard Sound Samples

[TimingPoints]
766,425.531914893617,4,2,60,45,1,0
766,-125,4,2,60,45,0,0
1617,-105.263157894737,4,2,60,45,0,0
2680,-125,4,2,60,45,0,0
3319,-111.111111111111,4,2,60,45,0,0
4383,-117.647058823529,4,2,60,45,0,0
5872,-250,4,2,60,45,0,0
7574,-166.666666666667,4,2,2,60,0,0
10127,-166.666666666667,4,2,3,60,0,0
10978,-166.666666666667,4,2,2,60,0,0
15234,-200,4,2,2,60,0,0
16085,-166.666666666667,4,2,2,60,0,0
16936,-250,4,2,3,60,0,0
17787,-166.666666666667,4,2,2,60,0,0
19489,-153.846153846154,4,2,60,60,0,0
20340,-166.666666666667,4,2,60,60,0,0
20765,-166.666666666667,4,2,60,60,0,0
21191,-166.666666666667,4,2,60,50,0,0
23744,-111.111111111111,4,2,60,50,0,0
24489,-111.111111111111,4,2,60,5,0,0
24595,-111.111111111111,4,2,60,50,0,0
28000,-125,4,2,1,65,0,0
28851,-111.111111111111,4,2,1,65,0,0
30127,-125,4,2,1,65,0,0
31404,-111.111111111111,4,2,1,65,0,0
32893,-117.647058823529,4,2,1,65,0,0
33957,-117.647058823529,4,2,1,65,0,0
34808,-142.857142857143,4,2,60,65,0,0
36297,-142.857142857143,4,2,60,40,0,0
38212,-142.857142857143,4,2,60,65,0,0
39702,-142.857142857143,4,2,60,40,0,0
40978,-83.3333333333333,4,2,60,60,0,0
41085,-83.3333333333333,4,2,60,5,0,0
41191,-83.3333333333333,4,2,60,60,0,0
41297,-83.3333333333333,4,2,60,5,0,0
41404,-83.3333333333333,4,2,60,60,0,0
41510,-83.3333333333333,4,2,60,5,0,0
41617,-125,4,2,1,60,0,0
42468,-125,4,2,3,60,0,0
42893,-125,4,2,1,60,0,0
43319,-111.111111111111,4,2,1,60,0,0
43957,-111.111111111111,4,2,3,60,0,0
44170,-100,4,2,3,60,0,0
44595,-111.111111111111,4,2,1,60,0,0
45021,-100,4,2,1,60,0,0
45872,-111.111111111111,4,2,3,60,0,0
46297,-111.111111111111,4,2,1,60,0,0
46723,-100,4,2,1,60,0,0
47361,-100,4,2,3,60,0,0
47574,-95.2380952380952,4,2,3,60,0,0
48000,-95.2380952380952,4,2,1,60,0,0
49276,-95.2380952380952,4,2,3,60,0,0
49702,-95.2380952380952,4,2,1,60,0,0
50127,-100,4,2,1,60,0,0
50978,-100,4,2,3,60,0,0
51191,-100,4,2,1,60,0,0
51829,-76.9230769230769,4,2,2,70,0,0
52255,-76.9230769230769,4,2,1,70,0,0
53319,-66.6666666666667,4,2,2,70,0,0
53957,-66.6666666666667,4,2,60,70,0,0
54063,-66.6666666666667,4,2,60,5,0,0
54170,-66.6666666666667,4,2,60,70,0,0
54276,-66.6666666666667,4,2,60,5,0,0
54595,-66.6666666666667,4,2,60,70,0,0
55234,-71.4285714285714,4,2,1,80,0,1
56510,-83.3333333333333,4,2,1,80,0,1
56936,-71.4285714285714,4,2,1,80,0,1
57574,-83.3333333333333,4,2,1,80,0,1
60127,-83.3333333333333,4,2,3,80,0,1
60340,-71.4285714285714,4,2,1,80,0,1
62042,-83.3333333333333,4,2,2,80,0,1
62255,-83.3333333333333,4,2,1,80,0,1
62680,-83.3333333333333,4,2,3,80,0,1
62893,-76.9230769230769,4,2,1,80,0,1
64170,-83.3333333333333,4,2,1,80,0,1
66085,-76.9230769230769,4,2,1,80,0,1
67361,-66.6666666666667,4,2,1,80,0,1
67787,-58.8235294117647,4,2,1,80,0,1
68106,-58.8235294117647,4,2,3,80,0,1
68212,-58.8235294117647,4,2,1,80,0,1
68638,-58.8235294117647,4,2,90,80,0,1
68851,-71.4285714285714,4,2,1,80,0,1
69489,-71.4285714285714,4,2,3,80,0,1
69702,-71.4285714285714,4,2,1,80,0,1
70127,-83.3333333333333,4,2,1,80,0,1
70553,-71.4285714285714,4,2,1,80,0,1
71829,-83.3333333333333,4,2,1,80,0,1
73106,-76.9230769230769,4,2,1,80,0,1
75659,-71.4285714285714,4,2,2,80,0,1
75872,-71.4285714285714,4,2,1,80,0,1
76085,-83.3333333333333,4,2,1,80,0,1
76297,-83.3333333333333,4,2,3,80,0,1
76510,-83.3333333333333,4,2,1,80,0,1
79276,-71.4285714285714,4,2,1,80,0,1
79914,-71.4285714285714,4,2,1,80,0,1
80127,-71.4285714285714,4,2,3,80,0,1
80340,-71.4285714285714,4,2,1,80,0,1
80553,-71.4285714285714,4,2,3,80,0,1
80766,-71.4285714285714,4,2,2,80,0,1
80978,-71.4285714285714,4,2,1,80,0,1
81404,-71.4285714285714,4,2,3,80,0,1
81617,-71.4285714285714,4,2,1,80,0,1
81829,-71.4285714285714,4,2,90,80,0,1
82042,-71.4285714285714,4,2,1,80,0,1
82255,-71.4285714285714,4,2,90,80,0,1
82468,-100,4,2,80,55,0,0
84170,-90.9090909090909,4,2,80,55,0,0
84914,-90.9090909090909,4,2,80,5,0,0
85021,-80,4,2,80,55,0,0
85766,-80,4,2,80,5,0,0
85872,-80,4,2,2,55,0,0
89276,-80,4,2,1,5,0,0

[Colours]
Combo1 : 208,199,176
Combo2 : 255,147,201
Combo3 : 163,166,201
Combo4 : 200,189,55

[HitObjects]
162,95,766,5,2,0:2:0:0:
220,44,978,2,0,B|265:-13|328:13|328:13|331:45|282:46,1,168,2|0,0:2|0:2,0:2:0:0:
160,171,1617,2,0,P|84:185|172:115,1,299.249992009163,2|0,0:2|0:2,0:2:0:0:
264,171,2468,5,2,0:2:0:0:
320,236,2680,2,0,B|348:257|374:257|404:236|404:236|436:276|407:320,1,168,2|0,0:2|0:2,0:2:0:0:
279,355,3319,2,0,B|218:324|176:398|138:416|106:391|86:362|89:312|137:297|174:311|189:339|166:365|152:358,1,283.499991348267,2|0,0:2|0:2,0:2:0:0:
146,352,4170,5,2,0:2:0:0:
56,286,4383,2,0,P|115:238|220:279,1,178.500003404617,2|0,0:2|0:2,0:2:0:0:
146,352,5021,1,2,0:2:0:0:
56,286,5234,1,2,0:2:0:0:
25,188,5446,1,2,0:2:0:0:
39,100,5659,1,2,0:2:0:0:
93,47,5872,6,0,B|145:-17|208:-16|267:48|267:48|205:65|209:127,1,294,2|0,0:2|0:2,0:2:0:0:
258,260,7574,5,10,0:3:0:0:
326,231,7787,1,0,0:3:0:0:
398,244,8000,1,2,0:3:0:0:
453,295,8212,1,0,0:3:0:0:
453,295,9276,6,0,P|464:324|451:357,2,62.9999980773926,2|0|0,0:3|0:3|0:3,0:3:0:0:
398,244,9914,1,0,0:3:0:0:
462,125,10127,2,0,B|382:72|328:152|328:152|353:191,1,188.999994232178,8|0,0:2|0:3,0:3:0:0:
478,116,10978,5,10,0:3:0:0:
423,65,11190,1,0,0:3:0:0:
351,52,11403,1,2,0:3:0:0:
283,81,11616,1,0,0:3:0:0:
283,81,12680,6,0,P|243:60|190:93,1,94.499997116089,2|0,0:3|0:3,0:3:0:0:
200,77,13106,1,2,0:3:0:0:
105,15,13319,2,0,P|47:63|63:108,1,125.999996154785,0|0,0:3|0:3,0:3:0:0:
1,232,13957,1,2,0:3:0:0:
134,303,14170,1,2,0:3:0:0:
157,277,14276,1,2,0:3:0:0:
161,243,14383,5,10,0:3:0:0:
124,179,14595,1,0,0:3:0:0:
47,176,14808,1,2,0:3:0:0:
1,232,15021,1,0,0:3:0:0:
84,356,15234,2,0,P|136:380|187:350,1,105,0|0,0:3|0:3,0:3:0:0:
266,196,16085,5,2,0:3:0:0:
312,130,16298,1,0,0:3:0:0:
386,161,16510,1,0,0:3:0:0:
377,241,16723,1,0,0:3:0:0:
324,365,16936,2,0,P|282:320|299:263,1,126,8|0,0:2|0:3,0:3:0:0:
437,365,17787,5,10,0:3:0:0:
488,310,17999,1,0,0:3:0:0:
501,238,18212,1,2,0:3:0:0:
472,170,18425,1,0,0:3:0:0:
472,170,19489,6,0,P|406:159|375:214,1,136.499993751526,2|0,0:2|0:3,0:3:0:0:
374,212,20127,1,2,0:2:0:0:
255,183,20340,2,0,P|251:216|267:245,1,62.9999980773926,2|0,0:2|0:3,0:3:0:0:
371,60,20765,1,2,0:2:0:0:
342,19,20871,1,2,0:2:0:0:
294,35,20978,1,2,0:2:0:0:
294,85,21084,1,2,0:2:0:0:
342,101,21191,5,10,0:2:0:0:
255,183,22042,1,2,0:2:0:0:
123,212,22893,5,10,0:2:0:0:
0,55,23744,2,0,B|70:107|136:56|136:56|38:133|140:229,1,330.749989906311,2|0,0:2|0:3,0:3:0:0:
123,212,24595,5,10,0:2:0:0:
228,322,25446,1,2,0:2:0:0:
392,331,26297,5,10,0:2:0:0:
498,173,27148,2,0,B|440:268|323:191|323:191|377:198|407:140,1,283.499991348267,2|0,0:2|0:3,0:3:0:0:
401,142,27893,1,0,0:3:0:0:
411,121,28000,6,0,P|424:79|384:32,1,84,12|0,0:3|0:3,0:3:0:0:
307,7,28425,2,0,P|267:-5|208:29,1,84,8|0,0:2|0:3,0:3:0:0:
97,147,28851,2,0,B|68:123|64:99|64:99|131:58|194:123,1,188.999994232178,8|8,0:3|0:2,0:3:0:0:
11,165,29489,6,0,P|-9:77|57:17,1,188.999994232178,2|0,2:0|0:3,0:3:0:0:
97,147,30127,1,8,0:2:0:0:
69,233,30340,1,0,0:3:0:0:
134,364,30553,2,0,P|195:377|242:320,1,126,8|0,0:3|0:3,0:3:0:0:
238,336,30978,2,0,P|208:304|151:310,1,84,8|0,0:2|0:3,0:3:0:0:
332,379,31404,6,0,P|372:386|416:356,1,94.499997116089,8|0,0:3|0:3,0:3:0:0:
449,209,31829,2,0,P|469:244|456:299,1,94.499997116089,8|0,0:2|0:3,0:3:0:0:
360,152,32255,2,0,P|420:92|513:131,1,188.999994232178,8|8,0:3|0:2,0:3:0:0:
449,209,32893,1,0,0:3:0:0:
310,276,33106,6,0,P|264:266|204:263,1,89.2500017023087,8|0,0:3|0:3,0:3:0:0:
84,163,33531,2,0,P|62:168|43:180,1,44.6250008511543,10|2,0:2|0:2,0:3:0:0:
98,245,33744,2,0,P|88:266|90:288,1,44.6250008511543,10|2,0:3|0:2,0:3:0:0:
164,143,33957,6,0,P|157:121|144:103,3,44.6250008511543,8|0|0|0,0:3|0:3|0:3|0:3,0:3:0:0:
98,245,34383,2,0,P|88:266|90:288,3,44.6250008511543,8|0|0|0,0:3|0:3|0:3|0:3,0:3:0:0:
11,127,34808,6,0,B|34:66|105:27|138:24|194:30|251:63|278:106|288:165|288:165|266:177|226:190|180:172|156:131,1,514.499984298707,4|2,0:2|0:2,0:3:0:0:
214,25,36510,5,2,0:2:0:0:
297,8,36723,1,2,0:2:0:0:
382,20,36936,1,2,0:2:0:0:
454,64,37149,1,2,0:2:0:0:
386,207,37361,5,2,0:2:0:0:
353,137,37574,1,2,0:2:0:0:
361,64,37787,1,2,0:2:0:0:
382,20,38000,1,2,0:2:0:0:
485,187,38212,6,0,B|415:240|336:227|288:110|205:118|126:162|126:162|160:245|260:226,1,514.499984298707,4|2,0:2|0:2,0:3:0:0:
320,140,39914,5,2,0:2:0:0:
293,62,40127,1,2,0:2:0:0:
216,25,40340,1,2,0:2:0:0:
130,22,40553,1,2,0:2:0:0:
53,57,40766,1,2,0:2:0:0:
131,159,40978,6,0,P|165:160|198:139,1,62.9999980773926,2|0,0:2|0:2,0:2:0:0:
53,57,41191,2,0,P|53:93|80:126,1,62.9999980773926,2|0,0:2|0:2,0:2:0:0:
131,159,41404,2,0,P|132:193|111:226,1,62.9999980773926,2|0,0:2|0:2,0:2:0:0:
26,349,41617,6,0,P|75:293|166:322,1,168,12|0,0:3|0:3,0:3:0:0:
211,384,42255,1,8,0:3:0:0:
323,285,42468,2,0,P|336:226|285:184,1,126,10|0,0:2|0:3,0:3:0:0:
291,185,42893,2,0,P|329:194|370:167,1,84,0|8,0:3|0:3,0:3:0:0:
458,46,43319,6,0,B|426:-2|376:-7|341:23|341:23|373:25|388:51,1,188.999994232178,8|8,0:3|0:3,0:3:0:0:
290,184,43957,1,8,0:2:0:0:
290,184,44063,1,8,0:2:0:0:
290,184,44170,2,0,P|193:125|80:160,1,210,10|0,0:2|0:3,0:3:0:0:
38,70,44808,1,0,0:3:0:0:
43,235,45021,6,0,B|63:272|99:270|99:270|140:226|137:170|81:119,1,210,8|0,0:3|0:3,0:3:0:0:
38,70,45659,1,8,0:3:0:0:
198,13,45872,2,0,B|227:47|268:49|294:32|294:32|277:22|269:4,1,141.749995674133,10|0,0:2|0:3,0:3:0:0:
270,7,46297,2,0,P|257:52|289:103,1,94.499997116089,0|8,0:3|0:3,0:3:0:0:
443,200,46723,6,0,B|392:165|324:185|312:255|312:255|331:275|372:277,1,210,8|8,0:3|0:3,0:3:0:0:
276,93,47361,1,8,0:2:0:0:
276,93,47468,1,8,0:2:0:0:
276,93,47574,2,0,P|165:68|112:163,1,220.499993270874,10|0,0:2|0:3,0:3:0:0:
179,227,48212,1,8,0:3:0:0:
44,347,48425,6,0,B|94:282|158:324|147:335|205:390|260:325,1,220.499993270874,12|0,0:3|0:3,0:3:0:0:
329,272,49063,1,8,0:3:0:0:
240,136,49276,2,0,B|227:103|188:91|188:91|139:152|147:200|199:247,1,220.499993270874,10|0,0:2|0:3,0:3:0:0:
241,295,49914,1,8,0:3:0:0:
414,200,50127,6,0,P|368:162|313:184,1,105,8|0,0:3|0:3,0:3:0:0:
241,295,50553,2,0,P|282:262|346:290,1,105,8|8,0:3|0:3,0:3:0:0:
400,345,50872,1,8,0:3:0:0:
400,345,50978,2,0,P|448:360|490:329,1,105,10|0,0:2|0:3,0:3:0:0:
414,200,51404,1,0,0:3:0:0:
458,102,51617,1,8,0:3:0:0:
262,26,51829,6,0,B|195:1|140:43|133:119|133:119|182:111|209:145,1,272.999987503052,12|8,0:1|0:3,0:3:0:0:
48,324,52680,6,0,B|114:349|169:306|176:230|176:230|127:238|100:204,1,272.999987503052,8|8,0:3|0:3,0:3:0:0:
0,109,53319,6,0,B|10:66|62:37|87:35|129:37|170:64|189:95|197:138|197:138|167:145|141:163,1,315.000012016297,12|0,0:1|0:3,0:3:0:0:
5,184,53957,2,0,P|-6:143|7:93,1,78.7500030040742,2|0,0:2|0:3,0:3:0:0:
96,48,54170,2,0,P|134:54|165:77,1,78.7500030040742,10|0,0:2|0:3,0:3:0:0:
165,77,54595,5,2,0:2:0:0:
299,90,54808,1,2,0:2:0:0:
410,13,55021,1,2,0:2:0:0:
466,228,55234,6,0,B|427:181|360:179|322:240|322:240|325:271|358:295,1,220.499993270874,14|0,0:3|0:3,0:3:0:0:
439,360,55659,1,10,0:2:0:0:
472,337,55765,1,2,0:3:0:0:
490,301,55872,1,2,0:3:0:0:
488,261,55978,1,2,0:3:0:0:
466,228,56084,1,8,0:3:0:0:
343,282,56297,1,2,0:3:0:0:
236,159,56510,2,0,P|227:90|284:56,1,125.999996154785,10|2,0:2|0:3,0:3:0:0:
162,302,56936,6,0,B|108:325|62:305|43:266|43:266|58:220|109:220,1,220.499993270874,10|0,0:3|0:3,0:3:0:0:
104,220,57361,1,10,0:2:0:0:
254,363,57574,2,0,B|288:289|359:278|417:306|417:306|396:334|403:365,1,251.999992309571,2|2,0:3|0:3,0:3:0:0:
508,194,58212,2,0,P|461:152|402:177,1,125.999996154785,8|2,0:2|0:3,0:3:0:0:
319,297,58638,5,8,0:3:0:0:
478,365,58851,1,2,0:3:0:0:
483,330,58957,1,2,0:3:0:0:
464,296,59063,1,10,0:2:0:0:
319,184,59276,1,2,0:3:0:0:
314,149,59382,1,2,0:3:0:0:
333,115,59488,1,10,0:3:0:0:
453,8,59702,1,2,0:3:0:0:
333,115,59914,2,0,P|266:129|222:91,1,125.999996154785,10|10,0:2|0:2,0:2:0:0:
158,22,60234,1,8,0:2:0:0:
142,16,60340,6,0,B|81:-17|23:11|8:70|8:70|45:80|59:127,1,220.499993270874,10|0,0:3|0:3,0:3:0:0:
105,170,60765,2,0,P|124:206|112:251,1,73.4999977569581,10|0,0:2|0:2,0:2:0:0:
41,358,60978,2,0,B|60:293|115:266|188:260|230:328|230:328|211:347|167:345,1,293.999991027832,2|2,0:3|0:3,0:3:0:0:
105,170,61617,1,10,0:2:0:0:
141,144,61723,1,2,0:3:0:0:
184,137,61829,1,2,0:3:0:0:
225,152,61936,1,2,0:3:0:0:
253,185,62042,5,12,0:3:0:0:
142,62,62255,1,0,0:3:0:0:
253,185,62468,2,0,P|304:200|369:150,1,125.999996154785,10|8,0:2|0:2,0:3:0:0:
423,78,62787,1,8,0:2:0:0:
431,62,62893,2,0,B|406:12|351:-1|293:38|293:38|326:92,1,204.749990627289,10|0,0:3|0:3,0:3:0:0:
315,74,63319,1,10,0:2:0:0:
456,255,63531,1,2,0:3:0:0:
456,255,63638,1,2,0:3:0:0:
456,255,63744,6,0,B|429:212|379:203|340:227|340:227|336:267|296:285,1,204.749990627289,10|0,0:3|0:3,0:3:0:0:
300,282,64170,1,10,0:2:0:0:
145,182,64383,2,0,B|112:146|115:76|178:47|178:47|220:82|212:128,1,251.999992309571,2|0,0:3|0:3,0:3:0:0:
220,252,65021,1,8,0:2:0:0:
155,352,65234,1,2,0:3:0:0:
2,277,65446,6,0,P|46:234|104:252,1,125.999996154785,10|0,0:3|0:3,0:3:0:0:
155,352,65872,1,10,0:2:0:0:
255,134,66085,2,0,B|183:170|123:143|101:76|101:76|150:42|194:75,1,272.999987503052,2|2,0:3|0:3,0:3:0:0:
255,134,66723,1,10,0:2:0:0:
508,24,66936,6,0,P|452:-3|391:33,1,136.499993751526,2|8,0:3|0:3,0:3:0:0:
255,134,67361,6,0,P|328:114|385:167,1,157.500006008148,2|8,0:3|0:2,0:3:0:0:
512,330,67787,6,0,P|429:304|367:365,1,178.500003404617,2|8,0:3|0:3,0:3:0:0:
453,384,68106,1,8,0:2:0:0:
453,384,68213,1,8,0:3:0:0:
383,272,68425,1,10,0:2:0:0:
240,247,68638,1,14,0:3:0:0:
16,363,68851,6,0,B|-48:322|-29:208|71:194|71:194|54:286,1,293.999991027832,14|8,0:3|0:2,0:3:0:0:
9,98,69489,1,8,0:2:0:0:
5,61,69596,1,8,0:2:0:0:
28,33,69702,1,8,0:3:0:0:
104,152,69914,1,2,0:3:0:0:
246,32,70127,2,0,P|207:-11|132:15,1,125.999996154785,10|2,0:2|0:3,0:3:0:0:
388,184,70553,6,0,B|444:205|495:190|518:137|518:137|485:107|441:123,1,220.499993270874,10|0,0:3|0:3,0:3:0:0:
388,184,70978,2,0,P|383:229|415:274,1,73.4999977569581,10|0,0:2|0:2,0:2:0:0:
512,362,71191,2,0,B|443:310|358:345|401:378|308:418|239:358,1,293.999991027832,2|2,0:3|0:3,0:3:0:0:
114,268,71829,2,0,P|93:210|135:145,1,125.999996154785,8|2,0:2|0:3,0:3:0:0:
207,21,72255,5,8,0:3:0:0:
273,95,72468,1,0,0:3:0:0:
292,212,72680,1,8,0:2:0:0:
256,330,72893,1,0,0:3:0:0:
28,164,73106,2,0,B|65:121|124:118|159:162|159:162|127:173|116:207,1,204.749990627289,10|0,0:3|0:3,0:3:0:0:
120,196,73531,1,10,0:2:0:0:
256,330,73744,1,2,0:3:0:0:
256,330,73851,1,2,0:3:0:0:
256,330,73957,6,0,B|309:284|362:327|349:337|401:387|451:336,1,204.749990627289,10|0,0:3|0:3,0:3:0:0:
441,344,74383,1,8,0:2:0:0:
512,143,74595,2,0,B|463:82|381:93|353:157|353:157|396:189|432:178,1,272.999987503052,2|10,0:3|0:2,0:3:0:0:
319,22,75234,1,10,0:3:0:0:
277,6,75340,1,2,0:3:0:0:
233,12,75446,1,2,0:3:0:0:
198,37,75553,1,2,0:3:0:0:
180,77,75659,5,12,0:3:0:0:
280,170,75872,1,0,0:3:0:0:
201,335,76085,2,0,P|159:289|81:301,1,125.999996154785,8|10,0:2|0:1,0:3:0:0:
23,327,76404,1,8,0:1:0:0:
3,310,76510,2,0,P|-9:249|26:192,1,125.999996154785,10|2,0:3|0:3,0:3:0:0:
98,289,76936,1,10,0:2:0:0:
208,141,77148,1,2,0:3:0:0:
208,141,77255,1,2,0:3:0:0:
208,141,77361,6,0,P|228:87|187:24,1,125.999996154785,10|2,0:3|0:3,0:3:0:0:
78,94,77787,1,10,0:2:0:0:
250,298,78000,2,0,B|290:229|350:227|406:253|406:253|364:276|372:335,1,251.999992309571,2|2,0:3|0:3,0:3:0:0:
512,367,78638,2,0,P|532:311|491:249,1,125.999996154785,8|0,0:2|0:3,0:3:0:0:
396,179,79063,5,8,0:3:0:0:
500,67,79276,2,0,P|507:27|468:-15,2,73.4999977569581,2|2|10,0:3|0:3|0:2,0:3:0:0:
396,179,79702,2,0,P|388:214|403:246,2,73.4999977569581,2|2|10,0:2|0:2|0:3,0:3:0:0:
259,33,80127,1,8,0:2:0:0:
223,26,80234,1,8,0:2:0:0:
192,46,80340,1,8,0:2:0:0:
75,215,80553,1,8,0:2:0:0:
39,222,80660,1,8,0:2:0:0:
8,202,80766,5,12,0:3:0:0:
227,131,80978,1,0,0:3:0:0:
270,206,81191,1,8,0:2:0:0:
187,335,81404,1,10,0:2:0:0:
143,351,81511,1,8,0:2:0:0:
102,337,81617,1,10,0:3:0:0:
270,206,81829,1,14,0:3:0:0:
366,187,82042,1,10,0:2:0:0:
447,240,82255,1,10,0:3:0:0:
338,371,82468,6,0,P|302:317|330:259,1,105,4|0,0:2|0:3,0:3:0:0:
366,187,82893,1,0,0:3:0:0:
225,65,83106,2,0,P|95:40|62:131,1,210,4|0,0:2|0:3,0:3:0:0:
214,161,83744,2,0,P|237:103|196:39,1,105,4|0,0:2|0:3,0:3:0:0:
79,188,84170,6,0,B|81:241|143:275|183:281|223:275|268:244|292:207|299:161|299:161|281:145|237:133|192:177,1,404.250012336731,4|0,0:2|0:3,0:3:0:0:
213,160,85021,2,0,P|288:325|490:202,1,459.375,4|0,0:2|0:3,0:3:0:0:
508,143,85872,5,4,0:3:0:0:
256,192,85978,12,0,89276,0:3:0:0:
