osu file format v14

[General]
AudioFilename: audio.mp3
AudioLeadIn: 0
PreviewTime: 54489
Countdown: 0
SampleSet: Soft
StackLeniency: 0.7
Mode: 0
LetterboxInBreaks: 0
WidescreenStoryboard: 1

[Editor]
Bookmarks: 5872,7574,21191,28000,34808,41617,51829,55234,68851,75659,82468,85872
DistanceSpacing: 0.3
BeatDivisor: 4
GridSize: 16
TimelineZoom: 1.8

[Metadata]
Title:Kakumei Zenya (TV Size)
TitleUnicode:革命前夜 (TV Size)
Artist:Iguchi Yuka
ArtistUnicode:井口裕香
Creator:Kazuma
Version:Hard
Source:とある魔術の禁書目録Ⅲ
Tags:toaru majutsu no index iii season 3 ed ending a certain magical japanese jpop j-pop pop anime livermorium
BeatmapID:3173131
BeatmapSetID:1549895

[Difficulty]
HPDrainRate:5
CircleSize:4
OverallDifficulty:6
ApproachRate:7.5
SliderMultiplier:1.5
SliderTickRate:1

[Events]
//Background and Video events
0,0,"bg.jpg",0,0
//Break Periods
//Storyboard Layer 0 (Background)
//Storyboard Layer 1 (Fail)
//Storyboard Layer 2 (Pass)
//Storyboard Layer 3 (Foreground)
//Storyboard Layer 4 (Overlay)
//Storyboard Sound Samples

[TimingPoints]
766,425.531914893617,4,2,60,45,1,0
766,-111.111111111111,4,2,60,45,0,0
5872,-166.666666666667,4,2,60,45,0,0
7574,-142.857142857143,4,2,2,60,0,0
10127,-142.857142857143,4,2,3,60,0,0
10978,-142.857142857143,4,2,2,60,0,0
16936,-142.857142857143,4,2,3,60,0,0
17787,-142.857142857143,4,2,2,60,0,0
19489,-142.857142857143,4,2,60,60,0,0
21191,-125,4,2,60,50,0,0
24489,-125,4,2,60,5,0,0
24595,-125,4,2,60,50,0,0
28000,-111.111111111111,4,2,1,65,0,0
33531,-111.111111111111,4,2,1,65,0,0
33957,-111.111111111111,4,2,1,65,0,0
34808,-125,4,2,60,65,0,0
35234,-125,4,2,60,40,0,0
38212,-125,4,2,60,65,0,0
38638,-125,4,2,60,40,0,0
39702,-125,4,2,60,40,0,0
40978,-125,4,2,60,60,0,0
41085,-125,4,2,60,5,0,0
41191,-125,4,2,60,60,0,0
41297,-125,4,2,60,5,0,0
41404,-125,4,2,60,60,0,0
41510,-125,4,2,60,5,0,0
41617,-111.111111111111,4,2,1,60,0,0
42468,-111.111111111111,4,2,3,60,0,0
42893,-111.111111111111,4,2,1,60,0,0
43957,-111.111111111111,4,2,3,60,0,0
44595,-111.111111111111,4,2,1,60,0,0
45872,-111.111111111111,4,2,3,60,0,0
46297,-111.111111111111,4,2,1,60,0,0
47361,-111.111111111111,4,2,3,60,0,0
48000,-111.111111111111,4,2,1,60,0,0
49276,-111.111111111111,4,2,3,60,0,0
49702,-111.111111111111,4,2,1,60,0,0
50978,-111.111111111111,4,2,3,60,0,0
51191,-111.111111111111,4,2,1,60,0,0
51829,-100,4,2,2,70,0,0
52255,-100,4,2,1,70,0,0
53319,-100,4,2,2,70,0,0
53957,-100,4,2,60,70,0,0
54063,-100,4,2,60,5,0,0
54170,-100,4,2,60,70,0,0
54276,-100,4,2,60,5,0,0
54595,-100,4,2,60,70,0,0
55234,-90.9090909090909,4,2,1,80,0,1
62042,-90.9090909090909,4,2,2,80,0,1
62255,-90.9090909090909,4,2,1,80,0,1
62680,-90.9090909090909,4,2,3,80,0,1
62893,-90.9090909090909,4,2,1,80,0,1
68106,-90.9090909090909,4,2,3,80,0,1
68212,-90.9090909090909,4,2,1,80,0,1
68638,-90.9090909090909,4,2,90,80,0,1
68851,-90.9090909090909,4,2,1,80,0,1
69489,-90.9090909090909,4,2,3,80,0,1
69702,-90.9090909090909,4,2,1,80,0,1
72893,-90.9090909090909,4,2,3,80,0,1
73106,-90.9090909090909,4,2,1,80,0,1
75659,-90.9090909090909,4,2,2,80,0,1
75872,-90.9090909090909,4,2,1,80,0,1
76297,-90.9090909090909,4,2,3,80,0,1
76510,-90.9090909090909,4,2,1,80,0,1
80127,-90.9090909090909,4,2,3,80,0,1
80340,-90.9090909090909,4,2,1,80,0,1
80553,-90.9090909090909,4,2,3,80,0,1
80766,-90.9090909090909,4,2,2,80,0,1
80978,-90.9090909090909,4,2,1,80,0,1
81404,-90.9090909090909,4,2,3,80,0,1
81617,-90.9090909090909,4,2,1,80,0,1
81829,-90.9090909090909,4,2,90,80,0,1
82042,-90.9090909090909,4,2,1,80,0,1
82255,-90.9090909090909,4,2,90,80,0,1
82468,-111.111111111111,4,2,80,55,0,0
85021,-111.111111111111,4,2,80,55,0,0
85872,-111.111111111111,4,2,2,55,0,0
89276,-100,4,2,1,5,0,0

[Colours]
Combo1 : 208,199,176
Combo2 : 255,147,201
Combo3 : 163,166,201
Combo4 : 200,189,55

[HitObjects]
48,148,766,5,2,0:2:0:0:
133,166,978,2,0,P|152:203|144:246,1,67.4999979400635,2|0,0:2|0:0,0:0:0:0:
191,306,1404,2,0,P|154:321|122:313,1,67.4999979400635,2|2,0:2|0:2,0:0:0:0:
35,280,1829,2,0,B|39:209|39:209|45:202|45:202|49:124,1,134.999995880127,2|2,0:0|0:2,0:0:0:0:
80,58,2468,5,2,0:2:0:0:
150,109,2680,2,0,L|247:101,1,67.4999979400635,2|0,0:2|0:0,0:0:0:0:
291,55,3106,2,0,L|381:69,1,67.4999979400635,2|2,0:2|0:2,0:0:0:0:
432,126,3531,2,0,P|389:186|412:250,1,134.999995880127,2|2,0:0|0:2,0:0:0:0:
372,322,4170,5,2,0:2:0:0:
302,268,4383,2,0,P|265:261|222:288,1,67.4999979400635,2|0,0:2|0:0,0:0:0:0:
175,336,4808,2,0,P|136:344|105:330,1,67.4999979400635,2|2,0:2|0:2,0:0:0:0:
37,273,5234,2,0,B|1:202|61:202|37:117,1,134.999995880127,2|2,0:2|0:2,0:0:0:0:
104,73,5872,6,0,B|156:-5|247:-4|302:77|302:77|260:61|220:89,1,314.999990386963,2|0,0:2|0:2,0:0:0:0:
176,148,7574,6,0,P|171:172|179:199,2,52.4999983978272,10|0|2,0:3|0:3|0:3,0:0:0:0:
230,82,8212,1,0,0:3:0:0:
431,81,9276,6,0,P|426:54|440:25,2,52.4999983978272,2|0|0,0:3|0:3|0:3,0:0:0:0:
460,154,9914,1,0,0:3:0:0:
406,212,10127,2,0,B|362:184|319:210|332:220|288:244|250:223,1,157.499995193482,8|0,0:2|0:3,0:0:0:0:
200,171,10978,6,0,P|177:162|137:172,2,52.4999983978272,10|0|2,0:3|0:3|0:3,0:0:0:0:
257,226,11617,1,0,0:3:0:0:
446,329,12680,6,0,P|458:274|426:233,1,104.999996795654,2|2,0:3|0:3,0:0:0:0:
344,256,13319,2,0,P|330:305|358:348,1,104.999996795654,0|0,0:3|0:3,0:0:0:0:
446,329,13957,1,2,0:3:0:0:
491,255,14170,1,2,0:3:0:0:
491,255,14276,1,2,0:3:0:0:
491,255,14383,6,0,P|494:223|479:191,2,52.4999983978272,10|0|2,0:3|0:3|0:3,0:0:0:0:
446,329,15021,1,0,0:3:0:0:
357,347,15234,2,0,P|308:323|265:348,1,104.999996795654,0|0,0:3|0:3,0:0:0:0:
158,230,16085,6,0,L|150:156,2,52.4999983978272,2|0|0,0:3|0:3|0:3,0:0:0:0:
105,288,16723,1,0,0:3:0:0:
50,230,16936,2,0,L|66:66,1,157.499995193482,8|0,0:2|0:3,0:0:0:0:
130,29,17787,6,0,P|159:19|191:28,2,52.4999983978272,10|0|2,0:3|0:3|0:3,0:0:0:0:
64,73,18425,1,0,0:3:0:0:
133,187,18851,1,0,0:0:0:0:
201,224,19063,1,0,0:0:0:0:
279,213,19276,1,0,0:0:0:0:
347,174,19489,6,0,P|356:123|329:80,1,104.999996795654,2|0,0:2|0:3,0:0:0:0:
246,132,20127,1,2,0:2:0:0:
279,213,20340,2,0,L|262:320,1,104.999996795654,2|2,0:2|0:2,0:0:0:0:
348,379,20978,1,2,0:2:0:0:
348,379,21085,1,2,0:2:0:0:
348,379,21191,5,10,0:2:0:0:
478,226,22042,1,2,0:2:0:0:
488,16,22893,5,10,0:2:0:0:
257,96,23744,2,0,B|213:66|161:87|172:105|121:131|69:86,1,180,2|0,0:2|0:0,0:0:0:0:
14,43,24595,5,10,0:2:0:0:
0,233,25446,1,2,0:2:0:0:
157,363,26297,5,10,0:2:0:0:
349,241,27148,2,0,B|339:163|339:163|325:152|325:152|312:50,1,180,2|0,0:2|0:3,0:0:0:0:
388,21,28000,6,0,P|431:16|463:35,1,67.4999979400635,12|0,0:3|0:3,0:0:0:0:
511,99,28425,2,0,L|504:195,1,67.4999979400635,8|0,0:2|0:3,0:0:0:0:
441,236,28851,2,0,L|462:376,1,134.999995880127,8|8,0:3|0:2,0:0:0:0:
375,329,29489,6,0,P|320:306|258:350,1,134.999995880127,0|0,0:3|0:3,0:0:0:0:
171,374,30127,2,0,L|90:361,1,67.4999979400635,8|0,0:2|0:3,0:0:0:0:
40,293,30553,2,0,L|177:277,1,134.999995880127,8|8,0:3|0:2,0:0:0:0:
268,266,31191,1,0,0:3:0:0:
297,176,31404,6,0,P|304:144|281:96,1,67.4999979400635,8|0,0:3|0:3,0:0:0:0:
227,44,31829,2,0,P|194:37|162:46,1,67.4999979400635,8|0,0:2|0:3,0:0:0:0:
89,107,32255,2,0,B|105:249,1,134.999995880127,8|8,0:3|0:2,0:0:0:0:
156,319,32893,1,0,0:3:0:0:
235,267,33106,6,0,P|270:261|301:278,1,67.4999979400635,8|0,0:3|0:3,0:0:0:0:
358,347,33531,2,0,P|397:355|435:328,2,67.4999979400635,8|8|8,0:2|0:3|0:3,0:0:0:0:
297,274,34170,1,0,0:3:0:0:
303,179,34383,1,8,0:3:0:0:
372,116,34595,1,0,0:3:0:0:
465,101,34808,6,0,P|496:165|471:224,1,120,4|2,0:2|0:0,0:0:0:0:
416,283,35446,2,0,L|280:272,1,120,2|2,0:0|0:0,0:0:0:0:
186,145,36297,2,0,B|168:119|141:118|141:118|102:165|105:200|140:244,1,180,2|0,0:2|0:2,0:0:0:0:
35,370,37361,1,2,0:2:0:0:
104,322,37574,2,0,P|140:316|172:332,2,60,2|2|2,0:2|0:2|0:2,0:0:0:0:
35,370,38212,6,0,P|21:320|50:255,1,120,4|2,0:2|0:0,0:0:0:0:
106,199,38851,2,0,L|93:68,1,120,2|2,0:0|0:0,0:0:0:0:
249,143,39702,2,0,B|301:110|347:139|335:152|385:190|440:150,1,180,2|2,0:2|0:2,0:0:0:0:
512,8,40766,1,2,0:2:0:0:
451,66,40978,2,0,L|381:55,1,60,2|2,0:2|0:2,0:0:0:0:
309,38,41404,1,2,0:2:0:0:
243,108,41617,6,0,B|252:197|252:197|259:205|259:205|272:326,1,202.499993820191,12|8,0:3|0:3,0:0:0:0:
192,361,42468,2,0,P|146:316|74:349,1,134.999995880127,10|0,0:2|0:3,0:0:0:0:
0,291,43106,1,8,0:3:0:0:
64,221,43319,6,0,L|49:82,1,134.999995880127,8|8,0:3|0:3,0:0:0:0:
130,34,43957,1,8,0:2:0:0:
130,34,44063,1,8,0:2:0:0:
130,34,44170,2,0,P|202:18|246:70,1,134.999995880127,10|0,0:2|0:3,0:0:0:0:
205,143,44808,1,0,0:3:0:0:
274,207,45021,6,0,L|487:187,1,202.499993820191,8|8,0:3|0:3,0:0:0:0:
510,100,45872,2,0,L|366:83,1,134.999995880127,10|0,0:2|0:3,0:0:0:0:
287,117,46510,1,8,0:3:0:0:
212,58,46723,6,0,P|148:40|95:78,1,134.999995880127,8|8,0:3|0:3,0:0:0:0:
18,42,47361,1,8,0:2:0:0:
18,42,47468,1,8,0:2:0:0:
18,42,47574,2,0,P|5:110|51:154,1,134.999995880127,10|0,0:2|0:3,0:0:0:0:
139,176,48212,1,8,0:3:0:0:
74,244,48425,6,0,L|97:382,1,134.999995880127,12|0,0:3|0:3,0:0:0:0:
173,323,49063,1,8,0:3:0:0:
260,359,49276,2,0,P|310:315|386:334,1,134.999995880127,10|0,0:2|0:3,0:0:0:0:
456,369,49914,1,8,0:3:0:0:
491,281,50127,6,0,L|478:190,1,67.4999979400635,8|0,0:3|0:3,0:0:0:0:
414,146,50553,2,0,L|420:53,1,67.4999979400635,8|8,0:3|0:3,0:0:0:0:
395,43,50872,1,8,0:3:0:0:
395,43,50978,2,0,P|326:27|271:84,1,134.999995880127,10|0,0:2|0:3,0:0:0:0:
232,146,51617,1,8,0:3:0:0:
264,245,51829,6,0,B|196:240|196:240|189:232|189:232|115:227,2,150,12|8|8,0:1|0:3|0:3,0:0:0:0:
473,256,53106,1,8,0:3:0:0:
411,331,53319,6,0,B|371:307|330:333|344:342|299:368|256:342,1,150,12|0,0:1|0:3,0:0:0:0:
185,297,53957,1,2,0:2:0:0:
92,327,54170,1,10,0:2:0:0:
6,167,54595,1,2,0:2:0:0:
20,265,54808,1,2,0:2:0:0:
92,327,55021,1,2,0:2:0:0:
185,297,55234,6,0,P|200:207|125:158,1,165.000005035401,14|10,0:3|0:2,0:0:0:0:
61,122,55872,1,2,0:3:0:0:
61,122,55978,1,2,0:3:0:0:
61,122,56085,2,0,P|59:81|81:47,1,82.5000025177003,8|2,0:3|0:3,0:0:0:0:
186,28,56510,2,0,P|235:24|267:47,1,82.5000025177003,10|2,0:2|0:3,0:0:0:0:
358,150,56936,6,0,B|396:170|434:141|427:128|466:105|513:127,1,165.000005035401,10|10,0:3|0:2,0:0:0:0:
461,221,57574,2,0,L|486:396,1,165.000005035401,2|2,0:3|0:3,0:0:0:0:
367,319,58212,2,0,P|323:311|281:334,1,82.5000025177003,8|2,0:2|0:3,0:0:0:0:
197,381,58638,5,8,0:3:0:0:
103,328,58851,2,0,P|112:273|95:243,1,82.5000025177003,0|8,0:3|0:2,0:0:0:0:
44,171,59276,1,2,0:3:0:0:
44,171,59383,1,2,0:3:0:0:
44,171,59489,2,0,P|36:124|65:77,1,82.5000025177003,10|2,0:3|0:3,0:0:0:0:
138,32,59914,1,10,0:2:0:0:
245,38,60127,1,2,0:2:0:0:
309,111,60340,6,0,B|354:126|382:123|417:81|417:81|395:67|361:70,1,165.000005035401,10|10,0:3|0:2,0:0:0:0:
245,38,60978,2,0,P|212:104|258:189,1,165.000005035401,2|2,0:3|0:3,0:0:0:0:
316,265,61617,2,0,P|312:288|317:320,3,41.2500012588501,10|2|2|2,0:2|0:3|0:3|0:3,0:0:0:0:
338,338,62042,6,0,P|380:323|428:348,1,82.5000025177003,12|0,0:3|0:3,0:0:0:0:
498,266,62468,2,0,L|483:177,1,82.5000025177003,10|8,0:2|0:2,0:0:0:0:
458,159,62787,1,8,0:2:0:0:
458,159,62893,2,0,L|466:74,1,82.5000025177003,10|0,0:3|0:0,0:0:0:0:
381,9,63319,1,10,0:2:0:0:
304,82,63531,1,2,0:3:0:0:
304,82,63638,1,2,0:3:0:0:
304,82,63744,6,0,B|252:45|209:69|226:84|179:116|126:74,1,165.000005035401,10|10,0:3|0:2,0:0:0:0:
59,28,64383,2,0,P|110:95|60:169,1,165.000005035401,2|0,0:3|0:3,0:0:0:0:
1,235,65021,2,0,L|16:323,1,82.5000025177003,8|2,0:2|0:3,0:0:0:0:
112,360,65446,6,0,P|143:333|196:342,1,82.5000025177003,10|0,0:3|0:3,0:0:0:0:
279,381,65872,1,10,0:2:0:0:
372,251,66085,2,0,P|293:265|236:202,1,165.000005035401,2|2,0:3|0:3,0:0:0:0:
209,105,66723,1,10,0:2:0:0:
270,16,66936,6,0,P|330:81|293:170,1,165.000005035401,2|2,0:3|0:3,0:0:0:0:
237,209,67574,2,0,P|202:189|153:200,1,82.5000025177003,8|0,0:2|0:3,0:0:0:0:
78,260,68000,1,8,0:3:0:0:
78,260,68106,1,8,0:2:0:0:
78,260,68212,1,8,0:3:0:0:
19,172,68425,2,0,L|25:78,1,82.5000025177003,10|14,0:2|0:3,0:0:0:0:
144,14,68851,6,0,B|191:-17|234:12|220:22|265:52|308:20,1,165.000005035401,14|8,0:3|0:2,0:0:0:0:
400,84,69489,1,8,0:2:0:0:
400,84,69595,1,8,0:2:0:0:
400,84,69702,2,0,P|416:121|398:162,1,82.5000025177003,8|2,0:3|0:3,0:0:0:0:
294,170,70127,2,0,P|275:211|300:258,1,82.5000025177003,10|2,0:2|0:3,0:0:0:0:
350,382,70553,6,0,B|432:372|432:372|444:376|444:376|529:363,1,165.000005035401,10|10,0:3|0:2,0:0:0:0:
447,282,71191,2,0,L|462:112,1,165.000005035401,2|2,0:3|0:3,0:0:0:0:
385,41,71829,2,0,L|376:127,1,82.5000025177003,8|2,0:2|0:3,0:0:0:0:
294,194,72255,6,0,P|267:175|212:183,1,82.5000025177003,8|0,0:3|0:3,0:0:0:0:
140,251,72680,1,8,0:2:0:0:
61,194,72893,1,8,0:2:0:0:
61,194,73000,1,8,0:2:0:0:
61,194,73106,2,0,B|100:115|27:115|60:33,1,165.000005035401,10|10,0:3|0:2,0:0:0:0:
162,6,73744,1,2,0:3:0:0:
253,61,73957,6,0,B|289:30|316:23|364:50|364:50|334:55|316:80,1,165.000005035401,8|8,0:3|0:2,0:0:0:0:
269,159,74595,2,0,P|231:229|272:300,1,165.000005035401,2|10,0:3|0:2,0:0:0:0:
376,298,75234,2,0,P|374:277|378:257,3,41.2500012588501,10|2|2|2,0:3|0:3|0:3|0:3,0:0:0:0:
404,225,75659,6,0,P|440:240|494:223,1,82.5000025177003,12|0,0:3|0:3,0:0:0:0:
479,123,76085,2,0,P|438:109|392:129,1,82.5000025177003,8|10,0:2|0:1,0:0:0:0:
369,144,76404,1,8,0:1:0:0:
369,144,76510,2,0,L|284:136,1,82.5000025177003,10|2,0:3|0:3,0:0:0:0:
209,61,76936,1,10,0:2:0:0:
138,141,77148,1,2,0:3:0:0:
138,141,77255,1,2,0:3:0:0:
138,141,77361,6,0,P|123:187|160:231,1,82.5000025177003,10|2,0:3|0:3,0:0:0:0:
222,281,77787,1,10,0:2:0:0:
164,371,78000,2,0,B|129:340|78:353|86:372|38:388|-9:353,1,165.000005035401,2|2,0:3|0:3,0:0:0:0:
49,264,78638,2,0,P|61:223|27:175,1,82.5000025177003,8|0,0:2|0:3,0:0:0:0:
8,87,79063,6,0,P|44:75|91:99,1,82.5000025177003,8|2,0:3|0:3,0:0:0:0:
119,121,79383,1,2,0:3:0:0:
119,121,79489,2,0,L|209:109,1,82.5000025177003,10|2,0:2|0:2,0:0:0:0:
295,59,79914,2,0,L|396:71,1,82.5000025177003,10|8,0:3|0:2,0:0:0:0:
421,79,80234,1,8,0:2:0:0:
421,79,80340,1,8,0:2:0:0:
495,213,80553,1,8,0:2:0:0:
495,213,80659,1,8,0:2:0:0:
495,213,80766,6,0,P|418:194|361:249,1,165.000005035401,12|8,0:3|0:2,0:0:0:0:
302,340,81404,1,10,0:2:0:0:
302,340,81510,1,8,0:2:0:0:
302,340,81617,2,0,P|244:348|205:321,1,82.5000025177003,10|14,0:3|0:3,0:0:0:0:
148,262,82042,2,0,P|143:216|179:175,1,82.5000025177003,10|10,0:2|0:3,0:0:0:0:
225,126,82468,6,0,P|164:93|98:130,1,134.999995880127,4|0,0:2|0:3,0:0:0:0:
50,183,83106,2,0,B|75:220|53:257|45:247|25:284|45:321,1,134.999995880127,4|0,0:2|0:3,0:0:0:0:
103,372,83744,2,0,P|139:382|178:363,1,67.4999979400635,4|0,0:2|0:3,0:0:0:0:
233,315,84170,6,0,P|179:230|242:149,1,202.499993820191,4|0,0:2|0:0,0:0:0:0:
316,154,85021,2,0,P|365:235|311:314,1,202.499993820191,4|0,0:2|0:0,0:0:0:0:
233,315,85872,5,4,0:3:0:0:
256,192,85978,12,0,89276,0:3:0:0:
