osu file format v14

[General]
AudioFilename: optc.mp3
AudioLeadIn: 2000
PreviewTime: 46754
Countdown: 0
SampleSet: Soft
StackLeniency: 0.7
Mode: 0
LetterboxInBreaks: 0
WidescreenStoryboard: 1

[Editor]
Bookmarks: 88,2754,8087,9421,18587,20087,30754,38754,46754,57421,68087,78754,84087,88087
DistanceSpacing: 1
BeatDivisor: 4
GridSize: 8
TimelineZoom: 1.7

[Metadata]
Title:Hey World (TV Size)
TitleUnicode:Hey World (TV Size)
Artist:Iguchi Yuka
ArtistUnicode:井口裕香
Creator:Affirmation
Version:New Dungeon
Source:ダンジョンに出会いを求めるのは間違っているだろうか
Tags:dungeon ni deai wo motomeru no wa machigatteiru darou ka Japanese Anime Taeyang
BeatmapID:1941088
BeatmapSetID:929415

[Difficulty]
HPDrainRate:6
CircleSize:3.3
OverallDifficulty:8.7
ApproachRate:9.2
SliderMultiplier:0.999999999999999
SliderTickRate:1

[Events]
//Background and Video events
0,0,"BG.jpg",0,0
Video,-529,"Video.flv"
//Break Periods
//Storyboard Layer 0 (Background)
//Storyboard Layer 1 (Fail)
//Storyboard Layer 2 (Pass)
//Storyboard Layer 3 (Foreground)
//Storyboard Sound Samples

[TimingPoints]
88,333.333333333333,4,2,1,30,1,0
88,-83.3333333333333,4,2,1,30,0,0
1421,-83.3333333333333,4,2,1,35,0,0
1754,-83.3333333333333,4,2,1,40,0,0
2087,-83.3333333333333,4,2,99,50,0,0
2754,-55.5555555555556,4,2,99,60,0,0
8087,-62.5,4,2,99,50,0,0
8587,-62.5,4,2,99,45,0,0
9087,-62.5,4,2,99,40,0,0
9337,-62.5,4,2,99,5,0,0
9421,-71.4285714285714,4,2,99,40,0,0
18087,-71.4285714285714,4,2,99,50,0,0
18254,-71.4285714285714,4,2,99,40,0,0
18587,-50,4,2,99,45,0,0
20087,-55.5555555555556,4,2,99,50,0,0
29921,-55.5555555555556,4,2,99,60,0,0
30254,-55.5555555555556,4,2,99,70,0,0
30754,-66.6666666666667,4,2,99,50,0,0
38754,-66.6666666666667,4,2,99,60,0,0
39421,-66.6666666666667,4,2,99,50,0,0
40087,-55.5555555555556,4,2,99,50,0,0
40421,-55.5555555555556,4,2,99,40,0,0
40587,-55.5555555555556,4,2,99,50,0,0
40754,-55.5555555555556,4,2,99,60,0,0
41087,-55.5555555555556,4,2,99,45,0,0
41254,-55.5555555555556,4,2,99,50,0,0
44254,-55.5555555555556,4,2,99,40,0,0
44587,-55.5555555555556,4,2,99,50,0,0
44754,-55.5555555555556,4,2,99,40,0,0
44921,-55.5555555555556,4,2,99,50,0,0
45087,-55.5555555555556,4,2,99,60,0,0
45254,-55.5555555555556,4,2,99,40,0,0
45587,-55.5555555555556,4,2,99,48,0,0
45921,-55.5555555555556,4,2,99,56,0,0
46254,-55.5555555555556,4,2,99,64,0,0
46421,-38.4615384615385,4,2,99,72,0,0
46671,-38.4615384615385,4,2,99,5,0,0
46754,-50,4,2,99,70,0,1
56754,-50,4,2,99,70,0,0
57421,-50,4,2,99,70,0,1
67087,-50,4,2,99,60,0,1
67421,-50,4,2,99,70,0,1
67587,-50,4,2,99,60,0,1
67921,-50,4,2,99,50,0,1
68087,-50,4,2,99,70,0,0
78087,-50,4,2,99,60,0,0
78421,-50,4,2,99,50,0,0
78754,-50,4,2,99,60,0,0
80087,-50,4,2,99,70,0,0
81421,-50,4,2,99,75,0,0
82587,-50,4,2,99,80,0,0
83421,-50,4,2,99,75,0,0
83754,-50,4,2,99,65,0,0
84087,-50,4,2,0,80,0,0
84421,-50,4,2,0,75,0,0
84754,-50,4,2,0,70,0,0
85087,-50,4,2,0,65,0,0
85421,-50,4,2,0,55,0,0
85754,-50,4,2,0,50,0,0
86087,-50,4,2,0,45,0,0
86421,-50,4,2,0,40,0,0
86754,-50,4,2,0,35,0,0
87087,-50,4,2,0,30,0,0
87421,-50,4,2,0,25,0,0
87754,-50,4,2,0,20,0,0
88087,-50,4,2,0,10,0,0

[Colours]
Combo1 : 255,26,26
Combo2 : 219,117,227
Combo3 : 77,147,217
Combo4 : 65,204,57
Combo5 : 188,200,40
Combo6 : 165,165,165
Combo7 : 65,65,65
SliderBorder : 180,252,250
SliderTrackOverride : 1,15,90

[HitObjects]
285,235,88,70,0,P|341:214|398:195,1,119.999996337891,2|0,0:0|0:0,0:0:0:0:
372,293,587,1,0,0:0:0:0:
259,130,754,2,0,P|254:100|247:71,1,59.9999981689453,2|0,0:0|0:0,0:0:0:0:
276,269,1087,2,0,P|269:298|264:327,1,59.9999981689453,2|0,0:0|0:0,0:0:0:0:
95,207,1421,5,2,0:0:0:0:
259,130,1587,1,0,0:0:0:0:
125,32,1754,2,0,P|121:62|123:92,1,59.9999981689453,2|0,0:0|0:0,0:0:0:0:
249,264,2087,1,8,0:0:0:0:
60,187,2254,1,2,0:0:0:0:
259,130,2421,1,8,0:0:0:0:
113,329,2587,1,8,0:0:0:0:
113,329,2671,1,8,0:0:0:0:
113,329,2754,22,0,B|167:313|200:336|200:336|235:361|286:340,1,179.999994506836,6|8,0:0|0:0,0:0:0:0:
392,200,3254,1,0,0:0:0:0:
224,121,3421,2,0,P|233:165|243:208,1,89.999997253418,2|2,0:0|0:0,0:0:0:0:
325,39,3754,1,8,0:0:0:0:
135,161,3921,1,0,0:0:0:0:
328,254,4087,6,0,P|416:232|504:215,1,179.999994506836,2|8,0:0|0:0,0:0:0:0:
289,334,4587,2,0,P|241:263|274:184,1,179.999994506836,2|2,0:0|0:0,0:0:0:0:
456,126,5087,1,8,0:0:0:0:
381,340,5254,1,0,0:0:0:0:
168,155,5421,6,0,B|111:170|111:170|78:218|78:218|17:234,1,179.999994506836,2|8,0:0|0:0,0:0:0:0:
173,246,5921,2,0,L|216:255,2,44.999998626709,2|2|2,0:0|0:0|0:0,0:0:0:0:
64,80,6254,1,2,0:0:0:0:
295,95,6421,2,0,P|285:139|275:183,1,89.999997253418,8|0,0:0|0:0,0:0:0:0:
388,358,6754,6,0,B|422:314|422:314|394:192,1,179.999994506836,8|2,0:0|0:0,0:0:0:0:
231,291,7254,2,0,P|273:303|316:290,1,89.999997253418,8|0,0:0|0:0,0:0:0:0:
461,132,7587,2,0,P|379:103|311:156,1,179.999994506836,8|0,0:0|0:0,0:0:0:0:
143,345,8087,54,0,P|134:265|127:185,1,160,2|0,0:0|0:0,0:0:0:0:
288,54,8587,2,0,P|280:133|272:213,1,160,8|4,0:3|0:3,0:0:0:0:
251,351,9087,1,4,0:3:0:0:
251,351,9421,54,0,P|318:330|385:311,1,139.999995727539,2|8,0:0|0:0,0:0:0:0:
209,215,9921,1,0,0:0:0:0:
140,275,10087,2,0,P|136:309|142:344,1,69.9999978637695,0|0,0:0|0:0,0:0:0:0:
295,243,10421,2,0,P|298:208|292:173,1,69.9999978637695,8|0,0:0|0:0,0:0:0:0:
77,208,10754,6,0,B|111:231|111:231|209:215,1,139.999995727539,2|8,0:0|0:0,0:0:0:0:
346,63,11254,2,0,P|279:47|225:87,1,139.999995727539,2|2,0:0|0:0,0:0:0:0:
310,231,11754,1,8,0:0:0:0:
310,231,12087,86,0,P|378:215|446:199,1,139.999995727539,2|8,0:0|0:0,0:0:0:0:
263,347,12587,1,0,0:0:0:0:
190,291,12754,2,0,P|183:256|181:221,1,69.9999978637695,2|2,0:0|0:0,0:0:0:0:
370,310,13088,2,0,P|367:344|361:379,1,69.9999978637695,8|2,0:0|0:0,0:0:0:0:
292,203,13421,6,0,L|278:63,1,139.999995727539,2|8,0:0|0:0,0:0:0:0:
76,119,13921,2,0,P|131:158|198:143,1,139.999995727539,2|2,0:0|0:0,0:0:0:0:
366,62,14421,2,0,P|400:60|434:70,1,69.9999978637695,8|0,0:0|0:0,0:0:0:0:
318,212,14754,86,0,P|385:194|455:185,1,139.999995727539,2|8,0:0|0:0,0:0:0:0:
308,325,15254,2,0,B|272:331|244:314|244:314|213:292|173:302,1,139.999995727539,2|2,0:0|0:0,0:0:0:0:
28,360,15754,2,0,P|34:325|40:291,1,69.9999978637695,8|0,0:0|0:0,0:0:0:0:
124,84,16087,6,0,B|118:131|118:131|128:174|128:174|120:221,1,139.999995727539,2|8,0:0|0:0,0:0:0:0:
332,163,16587,2,0,P|284:116|216:122,1,139.999995727539,2|2,0:0|0:0,0:0:0:0:
232,294,17087,2,0,P|266:289|296:271,1,69.9999978637695,8|0,0:0|0:0,0:0:0:0:
460,152,17421,86,0,B|365:135|365:135|332:163,1,139.999995727539,2|10,0:0|0:0,0:0:0:0:
291,305,17921,1,0,0:0:0:0:
216,122,18087,1,8,0:3:0:0:
406,265,18254,1,4,0:3:0:0:
406,265,18337,1,4,0:3:0:0:
406,265,18421,1,4,0:3:0:0:
116,232,18587,22,0,B|180:244|180:244|226:296|226:296|291:305,1,200,2|2,0:0|0:0,0:0:0:0:
110,334,19087,5,8,0:0:0:0:
220,86,19254,1,2,0:0:0:0:
229,376,19421,85,8,0:0:0:0:
121,55,19587,1,2,0:0:0:0:
341,228,19754,5,8,0:0:0:0:
36,188,19921,1,2,0:0:0:0:
36,188,20004,1,2,0:0:0:0:
36,188,20087,6,0,B|96:179|96:179|149:198|149:198|211:187,1,179.999994506836,6|8,0:0|0:0,0:0:0:0:
51,344,20587,2,0,L|7:334,2,44.999998626709,0|0|2,0:0|0:0|0:0,0:0:0:0:
272,326,20921,1,2,0:0:0:0:
198,378,21087,2,0,P|187:334|192:289,1,89.999997253418,8|0,0:0|0:0,0:0:0:0:
381,139,21421,6,0,P|396:227|387:316,1,179.999994506836,2|8,0:0|0:0,0:0:0:0:
211,186,21921,2,0,P|195:97|205:8,1,179.999994506836,2|2,0:0|0:0,0:0:0:0:
286,235,22421,1,8,0:0:0:0:
286,235,22754,6,0,L|90:224,1,179.999994506836,2|8,0:0|0:0,0:0:0:0:
266,360,23254,1,0,0:0:0:0:
387,231,23421,2,0,P|390:186|383:142,1,89.999997253418,2|2,0:0|0:0,0:0:0:0:
246,257,23754,1,8,0:0:0:0:
375,347,23921,1,0,0:0:0:0:
258,138,24087,54,0,B|201:160|201:160|165:203|165:203|105:224,1,179.999994506836,2|8,0:0|0:0,0:0:0:0:
296,248,24587,1,2,0:0:0:0:
376,120,24754,2,0,P|389:77|404:34,1,89.999997253418,0|2,0:0|0:0,0:0:0:0:
504,250,25087,2,0,P|461:234|418:221,1,89.999997253418,8|0,0:0|0:0,0:0:0:0:
144,303,25421,6,0,P|231:307|294:246,1,179.999994506836,2|8,0:0|0:0,0:0:0:0:
57,222,25921,2,0,L|51:266,2,44.999998626709,2|0|0,0:0|0:0|0:0,0:0:0:0:
73,18,26254,1,2,0:0:0:0:
114,97,26421,2,0,P|69:104|26:94,1,89.999997253418,8|0,0:0|0:0,0:0:0:0:
207,154,26754,6,0,P|295:139|385:141,1,179.999994506836,2|8,0:0|0:0,0:0:0:0:
481,291,27254,1,2,0:0:0:0:
320,345,27421,2,0,P|309:301|304:256,1,89.999997253418,0|2,0:0|0:0,0:0:0:0:
482,112,27754,2,0,P|477:156|466:200,1,89.999997253418,8|0,0:0|0:0,0:0:0:0:
221,314,28087,6,0,L|41:298,1,179.999994506836,2|8,0:0|0:0,0:0:0:0:
206,158,28587,2,0,L|385:142,1,179.999994506836,2|2,0:0|0:0,0:0:0:0:
95,35,29087,1,8,0:0:0:0:
95,35,29421,54,0,B|86:95|86:95|105:148|105:148|94:210,1,179.999994506836,6|8,0:0|0:0,0:0:0:0:
24,369,29921,2,0,L|113:359,1,89.999997253418,6|0,0:0|0:0,0:0:0:0:
381,201,30254,2,0,L|291:210,1,89.999997253418,6|0,0:0|0:0,0:0:0:0:
278,220,30754,54,0,L|427:236,1,150.000005722046,6|0,0:0|0:0,0:0:0:0:
212,282,31254,1,2,0:0:0:0:
143,223,31421,2,0,P|132:148|141:74,1,150.000005722046,8|0,0:0|0:0,0:0:0:0:
388,7,32087,5,2,0:0:0:0:
278,41,32421,1,2,0:0:0:0:
167,73,32754,2,0,L|316:89,1,150.000005722046,8|0,0:0|0:0,0:0:0:0:
485,276,33421,86,0,P|417:303|348:278,1,150.000005722046,2|0,0:0|0:0,0:0:0:0:
283,215,33921,1,2,0:0:0:0:
42,326,34087,2,0,P|109:298|178:323,1,150.000005722046,8|2,0:0|0:0,0:0:0:0:
97,133,34754,5,2,0:0:0:0:
149,238,35087,1,2,0:0:0:0:
201,343,35421,2,0,B|181:276|200:237|200:237|222:187|204:122,1,225.000008583069,8|0,0:0|0:0,0:0:0:0:
24,33,36087,86,0,B|67:58|67:58|165:37,1,150.000005722046,2|0,0:0|0:0,0:0:0:0:
252,13,36587,1,2,0:0:0:0:
449,150,36754,2,0,B|302:119,1,150.000005722046,8|0,0:0|0:0,0:0:0:0:
82,254,37421,5,2,0:0:0:0:
195,296,37754,1,2,0:0:0:0:
306,338,38087,2,0,P|325:227|301:118,1,225.000008583069,8|0,0:0|0:0,0:0:0:0:
213,60,38754,85,2,0:0:0:0:
497,281,39087,1,2,0:0:0:0:
182,289,39421,2,0,P|224:225|194:295,1,225.000008583069,0|0,0:0|0:0,0:0:0:0:
115,174,40087,22,0,P|194:136|279:159,1,179.999994506836,6|2,0:0|0:0,0:0:0:0:
436,329,40587,1,2,0:0:0:0:
182,289,40754,1,8,0:3:0:0:
393,124,40921,2,0,L|437:130,2,44.999998626709,4|4|4,0:3|0:3|0:3,0:0:0:0:
208,301,41254,6,0,B|271:289|271:289|310:247|310:247|368:234,1,179.999994506836,6|2,0:0|0:0,0:0:0:0:
216,115,41754,2,0,B|204:159|204:159|221:199,1,89.999997253418,8|0,0:0|0:0,0:0:0:0:
453,273,42087,2,0,B|465:229|465:229|447:188,1,89.999997253418,8|0,0:0|0:0,0:0:0:0:
208,301,42421,1,8,0:0:0:0:
399,356,42587,1,2,0:0:0:0:
268,87,42754,5,8,0:0:0:0:
399,356,42921,1,2,0:0:0:0:
394,50,43087,5,8,0:0:0:0:
290,358,43254,1,0,0:0:0:0:
141,40,43421,5,8,0:0:0:0:
285,330,43587,1,0,0:0:0:0:
400,24,43754,1,8,0:0:0:0:
175,247,43921,54,0,P|131:259|88:271,1,89.999997253418,6|0,0:0|0:0,0:0:0:0:
295,118,44254,5,2,0:0:0:0:
202,381,44421,1,8,0:0:0:0:
85,96,44587,1,2,0:0:0:0:
363,238,44754,2,0,L|318:229,1,44.999998626709,8|8,0:0|0:0,0:0:0:0:
143,166,44921,2,0,L|187:157,1,44.999998626709,8|8,0:0|0:0,0:0:0:0:
295,118,45087,1,8,0:0:0:0:
202,381,45254,37,6,0:0:0:0:
193,336,45587,1,6,0:0:0:0:
184,292,45921,1,6,0:0:0:0:
175,247,46254,1,6,0:0:0:0:
435,302,46421,22,0,B|420:347|420:347|356:295|395:213,1,194.999991073609,4|0,0:1|0:0,0:0:0:0:
471,158,46754,6,0,L|273:189,1,200,6|8,0:0|0:0,0:0:0:0:
74,290,47254,1,0,0:0:0:0:
276,375,47421,2,0,P|287:326|290:276,1,99.9999999999999,2|2,0:0|0:0,0:0:0:0:
83,97,47754,2,0,P|85:146|97:195,1,99.9999999999999,8|0,0:0|0:0,0:0:0:0:
359,112,48087,6,0,P|267:79|182:125,1,200,2|8,0:0|0:0,0:0:0:0:
385,269,48587,2,0,L|483:253,1,99.9999999999999,2|0,0:0|0:0,0:0:0:0:
225,365,48921,1,2,0:0:0:0:
127,343,49087,2,0,L|28:327,1,99.9999999999999,8|0,0:0|0:0,0:0:0:0:
184,82,49421,6,0,B|220:136|220:136|195:269,1,200,6|8,0:0|0:0,0:0:0:0:
82,90,49921,2,0,L|74:40,2,50,0|0|2,0:0|0:0|0:0,0:0:0:0:
296,240,50254,1,2,0:0:0:0:
120,187,50421,2,0,P|73:203|25:220,1,99.9999999999999,8|0,0:0|0:0,0:0:0:0:
293,84,50754,6,0,P|387:52|482:19,1,200,2|8,0:0|0:0,0:0:0:0:
462,228,51254,2,0,P|445:180|429:133,1,99.9999999999999,2|0,0:0|0:0,0:0:0:0:
328,334,51587,2,0,P|311:286|295:239,1,99.9999999999999,2|8,0:0|0:0,0:0:0:0:
30,348,51921,54,0,B|86:359|128:331|128:331|166:306|222:321,1,200,6|2,0:0|0:0,0:0:0:0:
485,365,52421,2,0,B|450:322|450:322|462:228,1,150,8|2,0:0|0:0,0:0:0:0:
480,181,52754,2,0,L|382:202,1,99.9999999999999,2|2,0:0|0:0,0:0:0:0:
36,119,53087,2,0,P|84:104|133:111,1,99.9999999999999,8|0,0:0|0:0,0:0:0:0:
224,320,53421,6,0,L|245:121,1,200,2|8,0:0|0:0,0:0:0:0:
111,316,53921,2,0,L|116:365,2,50,0|0|2,0:0|0:0|0:0,0:0:0:0:
332,244,54254,1,2,0:0:0:0:
139,217,54420,2,0,B|33:226|33:226|2:194,1,150,8|2,0:0|0:0,0:0:0:0:
20,147,54754,22,0,L|28:47,1,99.9999999999999,2|0,0:0|0:0,0:0:0:0:
139,217,55087,1,8,0:0:0:0:
299,32,55254,2,0,P|310:80|301:129,1,99.9999999999999,0|8,0:0|0:3,0:0:0:0:
198,312,55587,2,0,L|201:361,2,50,4|4|4,0:3|0:3|0:3,0:0:0:0:
337,241,55921,38,0,L|139:217,1,200,6|2,0:0|0:0,0:0:0:0:
316,345,56421,1,8,0:0:0:0:
207,102,56587,1,2,0:0:0:0:
452,175,56754,2,0,P|448:199|443:224,2,50,8|8|2,0:0|0:0|0:0,0:0:0:0:
293,29,57087,1,8,0:0:0:0:
104,200,57254,1,8,0:0:0:0:
104,200,57337,1,8,0:0:0:0:
104,200,57421,6,0,L|302:176,1,200,6|8,0:0|0:0,0:0:0:0:
424,324,57921,1,0,0:0:0:0:
256,377,58087,2,0,P|247:327|250:278,1,99.9999999999999,2|2,0:0|0:0,0:0:0:0:
437,125,58421,2,0,P|445:174|442:223,1,99.9999999999999,8|0,0:0|0:0,0:0:0:0:
112,191,58754,6,0,B|181:176|181:176|235:201|235:201|304:185,1,200,2|8,0:0|0:0,0:0:0:0:
258,3,59254,2,0,P|251:52|246:102,1,99.9999999999999,2|0,0:0|0:0,0:0:0:0:
36,261,59587,1,2,0:0:0:0:
22,161,59754,2,0,P|17:111|10:61,1,99.9999999999999,8|0,0:0|0:0,0:0:0:0:
161,273,60087,6,0,B|220:301|220:301|349:268,1,200,6|8,0:0|0:0,0:0:0:0:
465,94,60587,2,0,L|467:44,2,50,0|0|2,0:0|0:0|0:0,0:0:0:0:
236,167,60921,1,2,0:0:0:0:
431,200,61087,2,0,P|382:189|334:177,1,99.9999999999999,8|0,0:0|0:0,0:0:0:0:
49,125,61421,6,0,P|145:110|210:37,1,200,2|8,0:0|0:0,0:0:0:0:
83,217,61921,2,0,P|69:266|61:315,1,99.9999999999999,2|0,0:0|0:0,0:0:0:0:
96,24,62254,1,2,0:0:0:0:
235,270,62420,1,8,0:0:0:0:
425,107,62587,54,0,B|369:110|337:140|337:140|303:173|242:177,1,200,6|2,0:0|0:0,0:0:0:0:
471,371,63087,2,0,P|503:307|467:245,1,150,8|2,0:0|0:0,0:0:0:0:
460,194,63421,2,0,P|416:218|371:239,1,99.9999999999999,2|2,0:0|0:0,0:0:0:0:
94,299,63754,2,0,P|138:320|182:344,1,99.9999999999999,8|0,0:0|0:0,0:0:0:0:
350,367,64087,6,0,P|331:269|312:171,1,200,2|8,0:0|0:0,0:0:0:0:
100,59,64587,1,0,0:0:0:0:
63,152,64754,2,0,P|112:153|160:137,1,99.9999999999999,2|2,0:0|0:0,0:0:0:0:
504,32,65087,2,0,P|456:16|406:17,1,99.9999999999999,8|2,0:0|0:0,0:0:0:0:
434,314,65421,6,0,B|450:245|450:245|425:191|425:191|440:122,1,200,2|8,0:0|0:0,0:0:0:0:
303,342,65921,1,0,0:0:0:0:
105,185,66087,2,0,P|151:204|196:228,1,99.9999999999999,2|2,0:0|0:0,0:0:0:0:
80,341,66421,1,8,0:0:0:0:
243,113,66587,6,0,P|287:89|333:69,1,99.9999999999999,6|0,0:0|0:0,0:0:0:0:
196,228,66921,1,8,0:3:0:0:
196,228,67004,1,8,0:3:0:0:
196,228,67087,1,4,0:3:0:0:
140,46,67254,1,4,0:3:0:0:
321,229,67421,1,8,0:3:0:0:
82,303,67587,2,0,L|32:297,2,50,4|4|4,0:3|0:3|0:3,0:0:0:0:
295,348,67921,1,4,0:3:0:0:
295,348,68004,1,4,0:3:0:0:
295,348,68087,54,0,L|395:338,1,99.9999999999999,6|0,0:0|0:0,0:0:0:0:
115,177,68421,2,0,L|15:187,1,99.9999999999999,8|2,0:0|0:0,0:0:0:0:
264,64,68754,1,2,0:0:0:0:
169,322,68921,1,2,0:0:0:0:
108,48,69087,1,8,0:0:0:0:
179,338,69254,1,2,0:0:0:0:
332,156,69421,6,0,P|341:204|338:254,1,99.9999999999999,2|0,0:0|0:0,0:0:0:0:
189,354,69754,1,8,0:0:0:0:
15,187,69920,2,0,L|115:177,1,99.9999999999999,2|0,0:0|0:0,0:0:0:0:
432,136,70254,1,2,0:0:0:0:
236,214,70421,2,0,P|226:165|229:115,1,99.9999999999999,8|0,0:0|0:0,0:0:0:0:
432,136,70754,6,0,P|444:234|430:333,1,200,2|8,0:0|0:0,0:0:0:0:
283,376,71254,1,2,0:0:0:0:
136,208,71421,2,0,L|235:213,1,99.9999999999999,2|2,0:0|0:0,0:0:0:0:
58,351,71754,2,0,L|157:345,1,99.9999999999999,8|2,0:0|0:0,0:0:0:0:
62,157,72087,6,0,P|48:204|57:253,1,99.9999999999999,2|2,0:0|0:0,0:0:0:0:
283,376,72421,2,0,P|318:315|275:259,1,150,8|8,0:0|0:0,0:0:0:0:
229,239,72754,2,0,P|276:222|322:202,1,99.9999999999999,2|2,0:0|0:0,0:0:0:0:
153,119,73087,1,8,0:0:0:0:
434,299,73254,1,2,0:0:0:0:
483,61,73421,54,0,P|387:40|292:67,1,200,2|8,0:0|0:0,0:0:0:0:
65,242,73921,2,0,L|72:291,2,50,2|2|2,0:0|0:0|0:0,0:0:0:0:
199,44,74254,1,2,0:0:0:0:
183,143,74421,2,0,L|168:241,1,99.9999999999999,8|2,0:0|0:0,0:0:0:0:
334,356,74754,6,0,B|372:310|372:310|337:174,1,200,2|8,0:0|0:0,0:0:0:0:
227,330,75254,1,2,0:0:0:0:
452,217,75421,2,0,P|461:167|473:119,1,99.9999999999999,0|2,0:0|0:0,0:0:0:0:
227,330,75754,2,0,P|183:305|138:283,1,99.9999999999999,8|0,0:0|0:0,0:0:0:0:
0,32,76087,6,0,P|81:86|177:70,1,200,2|8,0:0|0:0,0:0:0:0:
452,217,76587,2,0,L|352:209,1,99.9999999999999,0|2,0:0|0:0,0:0:0:0:
266,156,76921,1,2,0:0:0:0:
47,354,77087,2,0,L|146:346,1,99.9999999999999,8|0,0:0|0:0,0:0:0:0:
266,156,77421,6,0,B|251:225|251:225|276:279|276:279|260:348,1,200,2|8,0:0|0:0,0:0:0:0:
352,209,77921,1,2,0:0:0:0:
352,209,78004,1,2,0:0:0:0:
352,209,78087,1,8,0:3:0:0:
146,346,78254,1,8,0:3:0:0:
369,335,78421,1,4,0:3:0:0:
220,235,78587,1,4,0:3:0:0:
494,114,78754,54,0,P|484:163|476:212,1,99.9999999999999,6|0,0:0|0:0,0:0:0:0:
312,48,79087,5,8,0:0:0:0:
369,335,79254,1,2,0:0:0:0:
168,62,79421,5,8,0:0:0:0:
477,213,79587,1,2,0:0:0:0:
138,278,79754,5,8,0:0:0:0:
477,213,79921,1,2,0:0:0:0:
56,150,80087,53,14,0:0:0:0:
451,314,80254,1,0,0:0:0:0:
97,290,80421,5,8,0:0:0:0:
482,190,80588,1,2,0:0:0:0:
61,176,80754,5,8,0:0:0:0:
456,340,80921,1,2,0:0:0:0:
30,357,81087,5,8,0:0:0:0:
265,52,81254,1,2,0:0:0:0:
265,52,81337,1,2,0:0:0:0:
265,52,81421,53,12,0:0:0:0:
319,374,81587,1,2,0:0:0:0:
61,176,81754,1,2,0:0:0:0:
376,166,81921,6,0,L|474:148,1,99.9999999999999,12|0,0:0|0:0,0:0:0:0:
130,275,82254,2,0,L|31:292,1,99.9999999999999,12|0,0:0|0:0,0:0:0:0:
265,353,82587,6,0,P|280:255|258:158,1,200,12|6,0:0|0:0,0:0:0:0:
44,106,83087,2,0,L|143:89,1,99.9999999999999,6|0,0:0|0:0,0:0:0:0:
369,152,83421,2,0,P|374:102|366:53,1,99.9999999999999,8|0,0:3|0:0,0:0:0:0:
143,232,83754,2,0,P|137:281|145:330,1,99.9999999999999,4|0,0:3|0:0,0:0:0:0:
256,192,84087,21,4,0:1:0:0:
256,192,84171,12,0,88087,0:0:0:0:
