osu file format v14

[General]
AudioFilename: optc.mp3
AudioLeadIn: 2000
PreviewTime: 46754
Countdown: 0
SampleSet: Soft
StackLeniency: 0.7
Mode: 0
LetterboxInBreaks: 0
WidescreenStoryboard: 1

[Editor]
Bookmarks: 88,2754,8087,9421,14754,18587,20087,30754,38754,46754,51921,57421,68087,78754,84087,88087
DistanceSpacing: 1.2
BeatDivisor: 4
GridSize: 32
TimelineZoom: 1.7

[Metadata]
Title:Hey World (TV Size)
TitleUnicode:Hey World (TV Size)
Artist:Iguchi Yuka
ArtistUnicode:井口裕香
Creator:Affirmation
Version:Insane
Source:ダンジョンに出会いを求めるのは間違っているだろうか
Tags:dungeon ni deai wo motomeru no wa machigatteiru darou ka Japanese Anime Taeyang
BeatmapID:1943781
BeatmapSetID:929415

[Difficulty]
HPDrainRate:5.5
CircleSize:4
OverallDifficulty:7.8
ApproachRate:9
SliderMultiplier:0.999999999999999
SliderTickRate:1

[Events]
//Background and Video events
0,0,"BG.jpg",0,0
Video,-529,"Video.flv"
//Break Periods
//Storyboard Layer 0 (Background)
//Storyboard Layer 1 (Fail)
//Storyboard Layer 2 (Pass)
//Storyboard Layer 3 (Foreground)
//Storyboard Sound Samples

[TimingPoints]
88,333.333333333333,4,2,1,30,1,0
88,-71.4285714285714,4,2,1,30,0,0
1421,-71.4285714285714,4,2,1,35,0,0
1754,-71.4285714285714,4,2,1,40,0,0
2087,-71.4285714285714,4,2,99,50,0,0
2754,-62.5,4,2,99,60,0,0
8087,-66.6666666666667,4,2,99,50,0,0
8587,-66.6666666666667,4,2,99,45,0,0
9087,-66.6666666666667,4,2,99,40,0,0
9337,-66.6666666666667,4,2,99,5,0,0
9421,-66.6666666666667,4,2,99,40,0,0
18087,-66.6666666666667,4,2,99,50,0,0
18254,-66.6666666666667,4,2,99,40,0,0
18587,-62.5,4,2,99,45,0,0
20087,-62.5,4,2,99,50,0,0
29921,-62.5,4,2,99,60,0,0
30254,-62.5,4,2,99,70,0,0
30754,-76.9230769230769,4,2,99,50,0,0
38754,-76.9230769230769,4,2,99,60,0,0
39421,-76.9230769230769,4,2,99,50,0,0
40087,-62.5,4,2,99,50,0,0
40421,-62.5,4,2,99,40,0,0
40587,-62.5,4,2,99,50,0,0
40754,-62.5,4,2,99,60,0,0
41087,-62.5,4,2,99,45,0,0
41254,-62.5,4,2,99,50,0,0
44254,-62.5,4,2,99,40,0,0
44587,-62.5,4,2,99,50,0,0
44754,-62.5,4,2,99,40,0,0
44921,-62.5,4,2,99,50,0,0
45087,-62.5,4,2,99,60,0,0
45254,-62.5,4,2,99,40,0,0
45587,-62.5,4,2,99,48,0,0
45921,-62.5,4,2,99,56,0,0
46254,-62.5,4,2,99,64,0,0
46421,-62.5,4,2,99,72,0,0
46671,-62.5,4,2,99,5,0,0
46754,-58.8235294117647,4,2,99,70,0,1
67087,-58.8235294117647,4,2,99,60,0,1
67421,-58.8235294117647,4,2,99,70,0,1
67587,-58.8235294117647,4,2,99,60,0,1
67921,-58.8235294117647,4,2,99,50,0,1
68087,-58.8235294117647,4,2,99,70,0,0
78087,-58.8235294117647,4,2,99,60,0,0
78421,-58.8235294117647,4,2,99,50,0,0
78754,-58.8235294117647,4,2,99,60,0,0
80087,-58.8235294117647,4,2,99,70,0,0
81421,-58.8235294117647,4,2,99,75,0,0
82587,-58.8235294117647,4,2,99,80,0,0
83421,-58.8235294117647,4,2,99,75,0,0
83754,-58.8235294117647,4,2,99,65,0,0
84087,-58.8235294117647,4,2,0,80,0,0
84421,-58.8235294117647,4,2,0,75,0,0
84754,-58.8235294117647,4,2,0,70,0,0
85087,-58.8235294117647,4,2,0,65,0,0
85421,-58.8235294117647,4,2,0,55,0,0
85754,-58.8235294117647,4,2,0,50,0,0
86087,-58.8235294117647,4,2,0,45,0,0
86421,-58.8235294117647,4,2,0,40,0,0
86754,-58.8235294117647,4,2,0,35,0,0
87087,-58.8235294117647,4,2,0,30,0,0
87421,-58.8235294117647,4,2,0,25,0,0
87754,-58.8235294117647,4,2,0,20,0,0
88087,-58.8235294117647,4,2,0,10,0,0

[Colours]
Combo1 : 255,26,26
Combo2 : 219,117,227
Combo3 : 77,147,217
Combo4 : 65,204,57
Combo5 : 188,200,40
Combo6 : 165,165,165
Combo7 : 65,65,65
SliderBorder : 180,252,250
SliderTrackOverride : 1,15,90

[HitObjects]
262,174,88,70,0,P|327:150|395:130,1,139.999995727539,2|0,0:0|0:0,0:0:0:0:
244,268,587,1,0,0:0:0:0:
160,156,754,2,0,P|162:121|164:86,1,69.9999978637695,2|0,0:0|0:0,0:0:0:0:
267,257,1087,2,0,P|269:291|271:326,1,69.9999978637695,2|0,0:0|0:0,0:0:0:0:
45,286,1421,5,2,0:0:0:0:
105,228,1587,1,0,0:0:0:0:
179,268,1754,1,2,0:0:0:0:
163,350,1921,1,0,0:0:0:0:
76,144,2087,1,8,0:0:0:0:
135,364,2254,1,2,0:0:0:0:
188,119,2421,1,8,0:0:0:0:
338,279,2587,1,8,0:0:0:0:
338,279,2671,1,8,0:0:0:0:
338,279,2754,22,0,L|178:267,1,160,6|8,0:0|0:0,0:0:0:0:
370,171,3254,1,0,0:0:0:0:
419,245,3421,2,0,P|424:284|417:323,1,79.9999999999999,2|2,0:0|0:0,0:0:0:0:
458,124,3754,1,8,0:0:0:0:
338,279,3921,1,0,0:0:0:0:
229,102,4087,6,0,B|271:109|299:139|299:139|323:166|370:171,1,160,2|8,0:0|0:0,0:0:0:0:
160,192,4587,2,0,L|80:197,1,79.9999999999999,2|0,0:0|0:0,0:0:0:0:
203,80,4921,1,2,0:0:0:0:
276,218,5087,2,0,P|263:256|253:294,1,79.9999999999999,8|0,0:0|0:0,0:0:0:0:
475,299,5421,6,0,P|410:255|337:278,1,160,2|8,0:0|0:0,0:0:0:0:
175,331,5921,1,2,0:0:0:0:
252,372,6087,2,0,B|263:333|263:333|253:294,1,79.9999999999999,2|2,0:0|0:0,0:0:0:0:
81,120,6421,2,0,B|70:159|70:159|79:197,1,79.9999999999999,8|0,0:0|0:0,0:0:0:0:
289,89,6754,6,0,B|233:100|233:100|209:143|209:143|158:157,1,160,8|2,0:0|0:0,0:0:0:0:
47,47,7254,1,8,0:0:0:0:
485,211,7587,1,8,0:0:0:0:
485,211,8087,38,0,P|410:201|336:193,1,150.000005722046,2|0,0:0|0:0,0:0:0:0:
207,290,8587,2,0,P|281:281|356:273,1,150.000005722046,8|4,0:3|0:3,0:0:0:0:
424,319,9087,1,4,0:3:0:0:
424,319,9421,70,0,B|395:279|395:279|409:179,1,150.000005722046,2|8,0:0|0:0,0:0:0:0:
458,27,9921,1,0,0:0:0:0:
494,108,10087,2,0,P|456:109|419:103,1,75.000002861023,0|0,0:0|0:0,0:0:0:0:
343,53,10421,1,8,0:0:0:0:
343,53,10587,1,0,0:0:0:0:
227,125,10754,6,0,P|237:199|247:273,1,150.000005722046,2|8,0:0|0:0,0:0:0:0:
266,361,11254,1,2,0:0:0:0:
128,352,11421,2,0,P|138:277|148:203,1,150.000005722046,0|8,0:0|0:0,0:0:0:0:
148,203,12087,86,0,B|105:211|79:187|79:187|56:163|7:169,1,150.000005722046,2|8,0:0|0:0,0:0:0:0:
219,257,12587,1,0,0:0:0:0:
270,181,12754,2,0,P|273:144|269:107,1,75.000002861023,2|2,0:0|0:0,0:0:0:0:
189,66,13087,1,8,0:0:0:0:
189,66,13254,1,2,0:0:0:0:
360,141,13421,6,0,P|435:150|509:159,1,150.000005722046,2|8,0:0|0:0,0:0:0:0:
270,181,13921,2,0,P|195:190|121:199,1,150.000005722046,2|2,0:0|0:0,0:0:0:0:
98,334,14421,1,8,0:0:0:0:
98,334,14754,86,0,B|134:296|134:296|120:199,1,150.000005722046,2|8,0:0|0:0,0:0:0:0:
26,109,15254,2,0,P|16:145|26:181,1,75.000002861023,2|0,0:0|0:0,0:0:0:0:
180,76,15587,1,2,0:0:0:0:
116,11,15754,2,0,L|41:23,1,75.000002861023,8|0,0:0|0:0,0:0:0:0:
276,68,16087,6,0,L|424:43,1,150.000005722046,2|8,0:0|0:0,0:0:0:0:
363,202,16587,2,0,P|355:165|349:128,1,75.000002861023,2|0,0:0|0:0,0:0:0:0:
498,185,16921,1,2,0:0:0:0:
480,272,17087,2,0,P|472:308|466:345,1,75.000002861023,8|0,0:0|0:0,0:0:0:0:
235,255,17421,86,0,B|284:249|307:273|307:273|333:297|376:289,1,150.000005722046,2|10,0:0|0:0,0:0:0:0:
224,158,17921,1,0,0:0:0:0:
154,353,18087,1,8,0:3:0:0:
363,202,18254,2,0,L|373:153,2,37.5000014305115,4|4|4,0:3|0:3|0:3,0:0:0:0:
288,352,18587,22,0,B|393:372|393:372|438:344,1,160,2|2,0:0|0:0,0:0:0:0:
383,108,19087,5,8,0:0:0:0:
363,202,19254,1,2,0:0:0:0:
246,104,19421,5,8,0:0:0:0:
251,199,19588,1,2,0:0:0:0:
113,136,19754,5,8,0:0:0:0:
142,227,19921,1,2,0:0:0:0:
142,227,20004,1,2,0:0:0:0:
142,226,20087,6,0,P|219:236|273:293,1,160,6|8,0:0|0:0,0:0:0:0:
61,285,20587,1,0,0:0:0:0:
61,285,20671,1,0,0:0:0:0:
61,285,20754,2,0,P|52:246|52:206,1,79.9999999999999,2|2,0:0|0:0,0:0:0:0:
237,25,21087,2,0,P|245:63|245:103,1,79.9999999999999,8|0,0:0|0:0,0:0:0:0:
8,76,21421,54,0,B|62:66|62:66|109:82|109:82|163:71,1,160,2|8,0:0|0:0,0:0:0:0:
373,124,21921,2,0,P|295:133|241:190,1,160,2|2,0:0|0:0,0:0:0:0:
203,319,22421,1,8,0:0:0:0:
203,319,22754,6,0,P|124:303|46:286,1,160,2|8,0:0|0:0,0:0:0:0:
258,231,23254,1,0,0:0:0:0:
315,297,23421,2,0,P|308:336|302:376,1,79.9999999999999,2|2,0:0|0:0,0:0:0:0:
417,256,23754,2,0,P|410:295|404:335,1,79.9999999999999,8|0,0:0|0:0,0:0:0:0:
349,176,24087,6,0,P|337:96|324:17,1,160,2|8,0:0|0:0,0:0:0:0:
417,66,24587,1,2,0:0:0:0:
240,116,24754,2,0,L|160:111,1,79.9999999999999,0|2,0:0|0:0,0:0:0:0:
28,209,25087,2,0,L|107:213,1,79.9999999999999,8|0,0:0|0:0,0:0:0:0:
285,260,25421,6,0,B|244:261|215:290|215:290|187:318|141:322,1,160,2|8,0:0|0:0,0:0:0:0:
338,332,25921,2,0,L|377:338,2,40,2|0|0,0:0|0:0|0:0,0:0:0:0:
210,192,26254,1,2,0:0:0:0:
289,153,26421,2,0,P|292:192|289:232,1,79.9999999999999,8|0,0:0|0:0,0:0:0:0:
63,366,26754,54,0,P|50:287|57:207,2,160,2|8|0,0:0|0:0|0:0,0:0:0:0:
210,192,27587,1,2,0:0:0:0:
159,109,27754,2,0,P|120:113|80:119,1,79.9999999999999,8|0,0:0|0:0,0:0:0:0:
210,192,28087,6,0,P|289:181|368:171,1,160,2|8,0:0|0:0,0:0:0:0:
442,247,28587,2,0,P|362:256|283:267,1,160,2|2,0:0|0:0,0:0:0:0:
112,351,29087,1,8,0:0:0:0:
112,351,29421,6,0,B|144:301|144:301|127:201,1,160,6|8,0:0|0:0,0:0:0:0:
58,146,29921,1,6,0:0:0:0:
454,238,30254,1,6,0:0:0:0:
454,237,30754,38,0,P|394:217|343:253,1,129.999994049072,6|0,0:0|0:0,0:0:0:0:
357,337,31254,1,2,0:0:0:0:
357,337,31420,2,0,P|416:357|467:321,1,129.999994049072,8|0,0:0|0:0,0:0:0:0:
187,311,32087,2,0,P|122:318|57:326,2,129.999994049072,2|2|8,0:0|0:0|0:0,0:0:0:0:
454,147,33421,86,0,P|394:167|343:131,1,129.999994049072,2|0,0:0|0:0,0:0:0:0:
357,47,33921,1,2,0:0:0:0:
357,47,34087,2,0,P|416:27|467:63,1,129.999994049072,8|2,0:0|0:0,0:0:0:0:
187,73,34754,2,0,P|122:66|57:58,1,129.999994049072,2|2,0:0|0:0,0:0:0:0:
291,192,35421,2,0,P|346:132|267:110,1,194.999991073609,8|0,0:0|0:0,0:0:0:0:
291,192,36087,6,0,L|284:321,1,129.999994049072,2|0,0:0|0:0,0:0:0:0:
201,340,36587,1,2,0:0:0:0:
201,340,36754,2,0,L|207:210,1,129.999994049072,8|0,0:0|0:0,0:0:0:0:
455,167,37421,2,0,L|448:296,1,129.999994049072,2|2,0:0|0:0,0:0:0:0:
267,110,38087,2,0,B|194:76|133:104|133:104|153:126|183:124,1,194.999991073609,8|0,0:0|0:0,0:0:0:0:
267,110,38754,85,2,0:0:0:0:
93,241,39087,1,2,0:0:0:0:
288,320,39421,2,0,P|298:255|277:317,1,194.999991073609,0|0,0:0|0:0,0:0:0:0:
427,355,40087,22,0,B|435:298|435:298|420:252|420:252|426:198,1,160,6|2,0:0|0:0,0:0:0:0:
449,30,40587,1,2,0:0:0:0:
303,122,40754,2,0,P|342:116|382:110,1,79.9999999999999,8|4,0:3|0:3,0:0:0:0:
382,110,41004,1,4,0:3:0:0:
382,110,41088,1,4,0:3:0:0:
219,201,41254,6,0,P|139:189|60:178,1,160,6|2,0:0|0:0,0:0:0:0:
109,24,41754,2,0,P|114:63|121:102,1,79.9999999999999,8|0,0:0|0:0,0:0:0:0:
167,274,42087,2,0,P|161:313|154:352,1,79.9999999999999,8|0,0:0|0:0,0:0:0:0:
62,312,42421,1,8,0:0:0:0:
264,303,42587,1,2,0:0:0:0:
121,102,42754,5,8,0:0:0:0:
167,274,42921,1,2,0:0:0:0:
231,108,43087,5,8,0:0:0:0:
167,274,43254,1,0,0:0:0:0:
121,102,43421,5,8,0:0:0:0:
259,214,43588,1,0,0:0:0:0:
81,204,43754,1,8,0:0:0:0:
319,143,43921,54,0,P|398:131|477:120,1,160,6|2,0:0|0:0,0:0:0:0:
370,305,44421,2,0,P|365:265|366:225,1,79.9999999999999,8|2,0:0|0:0,0:0:0:0:
510,288,44754,2,0,P|490:282|471:278,1,40,8|8,0:0|0:0,0:0:0:0:
420,373,44921,2,0,P|439:368|458:363,1,40,8|8,0:0|0:0,0:0:0:0:
485,196,45087,1,8,0:0:0:0:
276,336,45254,53,6,0:0:0:0:
236,330,45587,1,6,0:0:0:0:
196,325,45921,1,6,0:0:0:0:
30,375,46254,21,6,0:0:0:0:
114,128,46421,1,4,0:1:0:0:
114,128,46754,6,0,B|106:180|106:180|124:234|124:234|112:293,2,170.000003242493,6|8|2,0:0|0:0|0:0,0:0:0:0:
223,36,47587,1,2,0:0:0:0:
284,201,47754,2,0,P|242:191|201:181,1,85.0000016212463,8|0,0:0|0:0,0:0:0:0:
378,235,48087,6,0,P|424:168|394:92,1,170.000003242493,2|8,0:0|0:0,0:0:0:0:
284,201,48587,2,0,P|302:283|322:366,1,170.000003242493,2|2,0:0|0:0,0:0:0:0:
94,298,49087,1,8,0:0:0:0:
94,297,49421,6,0,P|176:295|234:354,2,170.000003242493,6|8|2,0:0|0:0|0:0,0:0:0:0:
84,89,50254,1,2,0:0:0:0:
208,182,50421,2,0,P|200:223|193:265,1,85.0000016212463,8|0,0:0|0:0,0:0:0:0:
14,172,50754,6,0,P|96:173|158:118,1,170.000003242493,2|8,0:0|0:0,0:0:0:0:
248,15,51254,2,0,P|289:22|331:29,1,85.0000016212463,2|0,0:0|0:0,0:0:0:0:
388,153,51587,2,0,P|346:145|304:138,1,85.0000016212463,2|8,0:0|0:0,0:0:0:0:
163,270,51921,54,0,B|215:278|215:278|269:260|269:260|328:271,1,170.000003242493,6|2,0:0|0:0,0:0:0:0:
490,372,52421,2,0,B|465:336|465:336|476:253,1,127.500002431869,8|2,0:0|0:0,0:0:0:0:
507,224,52754,2,0,P|465:231|423:238,1,85.0000016212463,2|2,0:0|0:0,0:0:0:0:
259,371,53087,2,0,P|217:363|175:356,1,85.0000016212463,8|0,0:0|0:0,0:0:0:0:
330,301,53421,6,0,P|334:216|340:131,1,170.000003242493,2|8,0:0|0:0,0:0:0:0:
147,192,53921,1,0,0:0:0:0:
147,192,54004,1,0,0:0:0:0:
147,192,54087,2,0,P|183:212|225:210,1,85.0000016212463,2|2,0:0|0:0,0:0:0:0:
396,74,54421,2,0,P|359:53|317:55,1,85.0000016212463,8|2,0:0|0:0,0:0:0:0:
330,301,54754,6,0,P|334:216|340:131,1,170.000003242493,2|8,0:0|0:0,0:0:0:0:
431,262,55254,2,0,P|453:259|474:257,2,42.5000008106231,0|0|8,0:0|0:0|0:3,0:0:0:0:
238,336,55587,1,4,0:3:0:0:
420,354,55754,1,4,0:3:0:0:
248,241,55921,6,0,P|166:250|119:318,1,170.000003242493,6|2,0:0|0:0,0:0:0:0:
336,287,56421,2,0,P|344:245|340:203,1,85.0000016212463,8|2,0:0|0:0,0:0:0:0:
138,150,56754,2,0,L|96:156,2,42.5000008106231,8|8|2,0:0|0:0|0:0,0:0:0:0:
338,37,57087,1,8,0:0:0:0:
114,60,57254,1,8,0:0:0:0:
114,60,57337,1,8,0:0:0:0:
114,60,57421,54,0,B|162:55|196:84|196:84|228:112|272:105,2,170.000003242493,6|8|2,0:0|0:0|0:0,0:0:0:0:
338,37,58254,1,2,0:0:0:0:
267,188,58421,2,0,P|259:229|253:271,1,85.0000016212463,8|0,0:0|0:0,0:0:0:0:
487,211,58754,6,0,P|404:215|346:156,1,170.000003242493,2|8,0:0|0:0,0:0:0:0:
169,285,59254,2,0,P|210:276|252:270,1,85.0000016212463,2|0,0:0|0:0,0:0:0:0:
136,155,59587,1,2,0:0:0:0:
84,223,59754,2,0,P|41:217|0:208,1,85.0000016212463,8|0,0:0|0:0,0:0:0:0:
188,86,60087,6,0,P|270:90|319:156,2,170.000003242493,6|8|2,0:0|0:0|0:0,0:0:0:0:
84,223,60921,1,2,0:0:0:0:
239,326,61087,2,0,P|244:283|253:242,1,85.0000016212463,8|0,0:0|0:0,0:0:0:0:
112,134,61421,6,0,P|128:217|140:301,1,170.000003242493,2|8,0:0|0:0,0:0:0:0:
236,215,61921,2,0,P|277:205|319:201,1,85.0000016212463,2|0,0:0|0:0,0:0:0:0:
84,372,62254,2,0,P|42:362|0:358,1,85.0000016212463,2|8,0:0|0:0,0:0:0:0:
241,329,62587,54,0,B|300:317|300:317|354:335|354:335|406:327,1,170.000003242493,6|2,0:0|0:0,0:0:0:0:
375,78,63087,2,0,B|352:116|352:116|369:197,1,127.500002431869,8|2,0:0|0:0,0:0:0:0:
371,240,63421,2,0,L|454:222,1,85.0000016212463,2|2,0:0|0:0,0:0:0:0:
242,167,63754,2,0,L|158:149,1,85.0000016212463,8|0,0:0|0:0,0:0:0:0:
43,22,64087,6,0,B|77:66|77:66|63:179,1,170.000003242493,2|8,0:0|0:0,0:0:0:0:
62,367,64587,1,0,0:0:0:0:
62,367,64671,1,0,0:0:0:0:
62,367,64754,2,0,P|53:325|42:284,1,85.0000016212463,2|2,0:0|0:0,0:0:0:0:
222,249,65087,2,0,P|230:207|241:166,1,85.0000016212463,8|2,0:0|0:0,0:0:0:0:
307,359,65421,6,0,P|224:338|141:320,1,170.000003242493,2|8,0:0|0:0,0:0:0:0:
63,179,65921,1,0,0:0:0:0:
241,166,66087,2,0,P|230:207|222:249,1,85.0000016212463,2|2,0:0|0:0,0:0:0:0:
341,111,66421,1,8,0:0:0:0:
343,276,66587,6,0,B|335:224|335:224|353:170|353:170|341:111,1,170.000003242493,6|8,0:0|0:3,0:0:0:0:
341,111,67004,1,8,0:3:0:0:
341,111,67087,1,4,0:3:0:0:
427,234,67254,1,4,0:3:0:0:
222,249,67421,2,0,P|180:237|140:226,1,85.0000016212463,8|4,0:3|0:3,0:0:0:0:
140,226,67671,1,4,0:3:0:0:
140,226,67754,2,0,P|128:185|117:144,1,85.0000016212463,4|4,0:3|0:3,0:0:0:0:
221,4,68088,54,0,P|257:77|220:150,2,170.000003242493,6|8|2,0:0|0:0|0:0,0:0:0:0:
15,51,68921,1,2,0:0:0:0:
86,96,69087,2,0,P|127:87|169:80,1,85.0000016212463,8|2,0:0|0:0,0:0:0:0:
386,182,69421,6,0,P|302:166|219:150,1,170.000003242493,2|8,0:0|0:0,0:0:0:0:
382,304,69921,1,2,0:0:0:0:
474,175,70087,2,0,P|477:154|482:133,2,42.5000008106231,0|0|2,0:0|0:0|0:0,0:0:0:0:
299,325,70421,2,0,P|339:313|381:303,1,85.0000016212463,8|0,0:0|0:0,0:0:0:0:
212,267,70754,6,0,B|164:262|130:291|130:291|98:319|54:312,1,170.000003242493,2|8,0:0|0:0,0:0:0:0:
194,352,71254,1,2,0:0:0:0:
300,230,71421,2,0,P|305:187|310:145,1,85.0000016212463,2|2,0:0|0:0,0:0:0:0:
118,43,71754,2,0,P|123:85|128:127,1,85.0000016212463,8|2,0:0|0:0,0:0:0:0:
0,256,72088,6,0,P|10:171|21:87,2,170.000003242493,2|8|2,0:0|0:0|0:0,0:0:0:0:
238,201,72921,1,2,0:0:0:0:
211,121,73087,2,0,P|169:115|128:126,1,85.0000016212463,8|2,0:0|0:0,0:0:0:0:
265,281,73421,54,0,P|348:283|414:232,1,170.000003242493,2|8,0:0|0:0,0:0:0:0:
166,247,73921,1,2,0:0:0:0:
166,247,74004,1,2,0:0:0:0:
166,247,74087,2,0,P|160:288|171:329,1,85.0000016212463,2|2,0:0|0:0,0:0:0:0:
310,131,74421,2,0,P|315:89|304:48,1,85.0000016212463,8|2,0:0|0:0,0:0:0:0:
56,87,74754,6,0,B|102:114|102:114|216:93,1,170.000003242493,2|8,0:0|0:0,0:0:0:0:
384,224,75254,1,2,0:0:0:0:
299,210,75421,2,0,B|215:195,1,85.0000016212463,0|2,0:0|0:0,0:0:0:0:
30,318,75754,2,0,P|72:324|112:311,1,85.0000016212463,8|0,0:0|0:0,0:0:0:0:
67,74,76087,6,0,B|59:126|59:126|77:180|77:180|65:239,1,170.000003242493,2|8,0:0|0:0,0:0:0:0:
194,170,76587,1,0,0:0:0:0:
171,87,76754,2,0,P|163:45|155:3,1,85.0000016212463,2|2,0:0|0:0,0:0:0:0:
299,210,77087,2,0,P|291:252|283:294,1,85.0000016212463,8|0,0:0|0:0,0:0:0:0:
495,181,77421,6,0,P|413:183|350:128,1,170.000003242493,2|8,0:0|0:0,0:0:0:0:
439,23,77921,1,2,0:0:0:0:
439,23,78004,1,2,0:0:0:0:
439,23,78087,2,0,P|450:64|446:106,1,85.0000016212463,8|8,0:3|0:3,0:0:0:0:
332,240,78421,2,0,P|327:282|338:322,1,85.0000016212463,4|4,0:3|0:3,0:0:0:0:
494,276,78754,54,0,B|454:263|454:263|413:274,1,85.0000016212463,6|0,0:0|0:0,0:0:0:0:
221,309,79087,5,8,0:0:0:0:
264,127,79254,1,2,0:0:0:0:
151,196,79421,5,8,0:0:0:0:
332,240,79588,1,2,0:0:0:0:
129,286,79754,5,8,0:0:0:0:
332,240,79921,1,2,0:0:0:0:
151,103,80087,54,0,L|67:116,1,85.0000016212463,6|0,0:0|0:0,0:0:0:0:
242,218,80420,5,8,0:0:0:0:
237,37,80587,1,2,0:0:0:0:
151,196,80754,5,8,0:0:0:0:
332,89,80921,1,2,0:0:0:0:
151,103,81087,5,8,0:0:0:0:
332,240,81254,1,2,0:0:0:0:
332,240,81337,1,2,0:0:0:0:
332,240,81421,54,0,L|415:226,1,85.0000016212463,12|2,0:0|0:0,0:0:0:0:
291,117,81754,1,2,0:0:0:0:
218,305,81921,1,12,0:0:0:0:
214,325,82254,1,12,0:0:0:0:
211,346,82587,6,0,L|197:176,1,170.000003242493,12|6,0:0|0:0,0:0:0:0:
45,280,83087,2,0,P|87:288|128:278,1,85.0000016212463,6|0,0:0|0:0,0:0:0:0:
454,104,83421,2,0,L|369:110,1,85.0000016212463,8|0,0:3|0:0,0:0:0:0:
241,113,83754,1,4,0:3:0:0:
338,336,84087,37,4,0:1:0:0:
256,192,84171,12,0,88087,0:0:0:0:
