osu file format v14

[General]
AudioFilename: optc.mp3
AudioLeadIn: 2000
PreviewTime: 46754
Countdown: 0
SampleSet: Soft
StackLeniency: 0.7
Mode: 0
LetterboxInBreaks: 0
WidescreenStoryboard: 1

[Editor]
Bookmarks: 88,2754,8087,9421,14754,18587,20087,30754,38754,46754,57421,68087,78754,84087,88087
DistanceSpacing: 1.2
BeatDivisor: 4
GridSize: 32
TimelineZoom: 1.7

[Metadata]
Title:Hey World (TV Size)
TitleUnicode:Hey World (TV Size)
Artist:Iguchi Yuka
ArtistUnicode:井口裕香
Creator:Affirmation
Version:Hard
Source:ダンジョンに出会いを求めるのは間違っているだろうか
Tags:dungeon ni deai wo motomeru no wa machigatteiru darou ka Japanese Anime Taeyang
BeatmapID:1941131
BeatmapSetID:929415

[Difficulty]
HPDrainRate:5
CircleSize:3.8
OverallDifficulty:6.3
ApproachRate:7.6
SliderMultiplier:0.999999999999999
SliderTickRate:1

[Events]
//Background and Video events
0,0,"BG.jpg",0,0
Video,-529,"Video.flv"
//Break Periods
//Storyboard Layer 0 (Background)
//Storyboard Layer 1 (Fail)
//Storyboard Layer 2 (Pass)
//Storyboard Layer 3 (Foreground)
//Storyboard Sound Samples

[TimingPoints]
88,333.333333333333,4,2,1,30,1,0
88,-83.3333333333333,4,2,1,30,0,0
1421,-83.3333333333333,4,2,1,35,0,0
1754,-83.3333333333333,4,2,1,40,0,0
2087,-83.3333333333333,4,2,99,50,0,0
2754,-71.4285714285714,4,2,99,60,0,0
8087,-71.4285714285714,4,2,99,50,0,0
8587,-71.4285714285714,4,2,99,45,0,0
9087,-71.4285714285714,4,2,99,40,0,0
9337,-71.4285714285714,4,2,99,5,0,0
9421,-71.4285714285714,4,2,99,40,0,0
18087,-71.4285714285714,4,2,99,50,0,0
18254,-71.4285714285714,4,2,99,40,0,0
18587,-71.4285714285714,4,2,99,45,0,0
20087,-71.4285714285714,4,2,99,50,0,0
29921,-71.4285714285714,4,2,99,60,0,0
30254,-71.4285714285714,4,2,99,70,0,0
30754,-83.3333333333333,4,2,99,50,0,0
38754,-83.3333333333333,4,2,99,60,0,0
39421,-83.3333333333333,4,2,99,50,0,0
40087,-71.4285714285714,4,2,99,50,0,0
40421,-71.4285714285714,4,2,99,40,0,0
40587,-71.4285714285714,4,2,99,50,0,0
40754,-71.4285714285714,4,2,99,60,0,0
41087,-71.4285714285714,4,2,99,45,0,0
41254,-71.4285714285714,4,2,99,50,0,0
44254,-71.4285714285714,4,2,99,40,0,0
44587,-71.4285714285714,4,2,99,50,0,0
44754,-71.4285714285714,4,2,99,40,0,0
44921,-71.4285714285714,4,2,99,50,0,0
45087,-71.4285714285714,4,2,99,60,0,0
45254,-71.4285714285714,4,2,99,40,0,0
45587,-71.4285714285714,4,2,99,48,0,0
45921,-71.4285714285714,4,2,99,56,0,0
46254,-71.4285714285714,4,2,99,64,0,0
46421,-71.4285714285714,4,2,99,72,0,0
46671,-71.4285714285714,4,2,99,5,0,0
46754,-62.5,4,2,99,70,0,1
67087,-62.5,4,2,99,60,0,1
67421,-62.5,4,2,99,70,0,1
67587,-62.5,4,2,99,60,0,1
67921,-62.5,4,2,99,50,0,1
68087,-62.5,4,2,99,70,0,0
78087,-62.5,4,2,99,60,0,0
78421,-62.5,4,2,99,50,0,0
78754,-62.5,4,2,99,60,0,0
80087,-62.5,4,2,99,70,0,0
81421,-62.5,4,2,99,75,0,0
82587,-62.5,4,2,99,80,0,0
83421,-62.5,4,2,99,75,0,0
83754,-62.5,4,2,99,65,0,0
84087,-62.5,4,2,0,80,0,0
84421,-62.5,4,2,0,75,0,0
84754,-62.5,4,2,0,70,0,0
85087,-62.5,4,2,0,65,0,0
85421,-62.5,4,2,0,55,0,0
85754,-62.5,4,2,0,50,0,0
86087,-62.5,4,2,0,45,0,0
86421,-62.5,4,2,0,40,0,0
86754,-62.5,4,2,0,35,0,0
87087,-62.5,4,2,0,30,0,0
87421,-62.5,4,2,0,25,0,0
87754,-62.5,4,2,0,20,0,0
88087,-62.5,4,2,0,10,0,0

[Colours]
Combo1 : 255,26,26
Combo2 : 219,117,227
Combo3 : 77,147,217
Combo4 : 65,204,57
Combo5 : 188,200,40
Combo6 : 165,165,165
Combo7 : 65,65,65
SliderBorder : 180,252,250
SliderTrackOverride : 1,15,90

[HitObjects]
164,143,88,70,0,B|220:123|220:123|274:148,1,119.999996337891,2|0,0:0|0:0,0:0:0:0:
345,193,587,1,0,0:0:0:0:
420,156,754,2,0,P|422:126|429:96,2,59.9999981689453,2|0|2,0:0|0:0|0:0,0:0:0:0:
453,233,1254,1,0,0:0:0:0:
322,275,1421,6,0,P|292:271|262:267,1,59.9999981689453,2|0,0:0|0:0,0:0:0:0:
241,348,1754,2,0,P|270:351|300:355,1,59.9999981689453,2|0,0:0|0:0,0:0:0:0:
382,334,2087,1,8,0:0:0:0:
399,264,2254,1,2,0:0:0:0:
343,191,2421,1,8,0:0:0:0:
365,109,2587,1,8,0:0:0:0:
365,109,2671,1,8,0:0:0:0:
365,109,2754,22,0,P|434:100|490:138,2,139.999995727539,6|8|2,0:0|0:0|0:0,0:0:0:0:
306,48,3587,1,2,0:0:0:0:
246,107,3754,2,0,L|176:99,1,69.9999978637695,8|0,0:0|0:0,0:0:0:0:
107,50,4087,6,0,B|135:96|135:96|110:178,1,139.999995727539,2|8,0:0|0:0,0:0:0:0:
48,232,4587,2,0,B|98:225|98:225|140:246|140:246|182:240,1,139.999995727539,2|2,0:0|0:0,0:0:0:0:
246,186,5087,2,0,P|264:217|266:251,1,69.9999978637695,8|0,0:0|0:0,0:0:0:0:
203,353,5421,6,0,P|271:341|341:332,1,139.999995727539,2|8,0:0|0:0,0:0:0:0:
422,356,5921,1,2,0:0:0:0:
465,285,6087,2,0,P|478:252|493:220,1,69.9999978637695,2|2,0:0|0:0,0:0:0:0:
410,204,6421,2,0,P|397:171|382:139,1,69.9999978637695,8|0,0:0|0:0,0:0:0:0:
303,108,6754,6,0,P|371:100|420:52,1,139.999995727539,8|2,0:0|0:0,0:0:0:0:
350,4,7254,1,8,0:0:0:0:
108,190,7587,1,8,0:0:0:0:
107,189,8087,38,0,P|80:127|108:65,1,139.999995727539,2|0,0:0|0:0,0:0:0:0:
223,67,8587,2,0,P|250:129|222:191,1,139.999995727539,8|4,0:3|0:3,0:0:0:0:
165,128,9087,1,4,0:3:0:0:
362,263,9421,70,0,P|428:241|496:226,1,139.999995727539,2|8,0:0|0:0,0:0:0:0:
507,309,9921,1,0,0:0:0:0:
444,364,10087,2,0,P|409:358|374:353,1,69.9999978637695,0|0,0:0|0:0,0:0:0:0:
297,319,10421,2,0,P|262:324|227:329,1,69.9999978637695,8|0,0:0|0:0,0:0:0:0:
148,356,10754,6,0,B|177:316|177:316|159:227,1,139.999995727539,2|8,0:0|0:0,0:0:0:0:
100,167,11254,1,2,0:0:0:0:
100,167,11421,2,0,B|71:207|71:207|88:295,1,139.999995727539,0|8,0:0|0:0,0:0:0:0:
292,247,12087,86,0,P|298:177|316:109,1,139.999995727539,2|8,0:0|0:0,0:0:0:0:
352,33,12587,1,0,0:0:0:0:
269,17,12754,2,0,P|235:27|201:35,1,69.9999978637695,2|2,0:0|0:0,0:0:0:0:
129,79,13087,2,0,P|154:102|178:128,1,69.9999978637695,8|2,0:0|0:0,0:0:0:0:
212,205,13421,6,0,L|204:344,1,139.999995727539,2|8,0:0|0:0,0:0:0:0:
121,356,13921,2,0,L|128:216,1,139.999995727539,2|2,0:0|0:0,0:0:0:0:
212,205,14421,1,8,0:0:0:0:
41,18,14754,86,0,B|35:64|35:64|51:102|51:102|43:153,1,139.999995727539,2|8,0:0|0:0,0:0:0:0:
24,235,15254,1,2,0:0:0:0:
85,292,15421,2,0,P|118:283|152:275,2,69.9999978637695,0|2|8,0:0|0:0|0:0,0:0:0:0:
244,173,16087,6,0,P|311:190|379:206,1,139.999995727539,2|8,0:0|0:0,0:0:0:0:
450,252,16587,2,0,P|486:196|461:133,1,139.999995727539,2|2,0:0|0:0,0:0:0:0:
390,87,17087,1,8,0:0:0:0:
319,373,17421,86,0,P|302:304|285:237,1,139.999995727539,2|10,0:0|0:0,0:0:0:0:
209,200,17921,1,0,0:0:0:0:
173,324,18087,1,8,0:3:0:0:
89,325,18254,2,0,L|83:366,2,34.9999989318848,4|4|4,0:3|0:3|0:3,0:0:0:0:
83,213,18587,22,0,P|148:232|209:199,1,139.999995727539,2|2,0:0|0:0,0:0:0:0:
274,99,19087,2,0,P|280:133|286:167,1,69.9999978637695,8|2,0:0|0:0,0:0:0:0:
251,295,19421,2,0,P|277:272|304:249,1,69.9999978637695,8|2,0:0|0:0,0:0:0:0:
433,217,19754,2,0,P|400:205|367:193,1,69.9999978637695,8|2,0:0|0:0,0:0:0:0:
367,193,20004,1,2,0:0:0:0:
367,193,20087,22,0,P|388:128|353:70,1,139.999995727539,6|8,0:0|0:0,0:0:0:0:
274,99,20587,1,0,0:0:0:0:
274,99,20671,1,0,0:0:0:0:
274,99,20754,2,0,P|280:133|286:167,1,69.9999978637695,2|2,0:0|0:0,0:0:0:0:
208,200,21087,2,0,P|201:165|195:131,1,69.9999978637695,8|0,0:0|0:0,0:0:0:0:
113,112,21421,6,0,P|89:176|120:237,1,139.999995727539,2|8,0:0|0:0,0:0:0:0:
106,319,21920,2,0,P|174:306|243:294,1,139.999995727539,2|2,0:0|0:0,0:0:0:0:
275,216,22421,2,0,P|240:209|207:199,1,69.9999978637695,8|0,0:0|0:0,0:0:0:0:
335,273,22754,6,0,P|393:237|461:242,1,139.999995727539,2|8,0:0|0:0,0:0:0:0:
500,167,23254,1,0,0:0:0:0:
500,167,23337,1,0,0:0:0:0:
500,167,23421,2,0,P|504:132|506:97,1,69.9999978637695,2|2,0:0|0:0,0:0:0:0:
424,81,23754,2,0,P|419:115|417:150,1,69.9999978637695,8|0,0:0|0:0,0:0:0:0:
338,180,24087,54,0,P|269:167|200:152,1,139.999995727539,2|8,0:0|0:0,0:0:0:0:
119,175,24587,1,2,0:0:0:0:
166,243,24754,2,0,P|169:278|168:313,1,69.9999978637695,0|2,0:0|0:0,0:0:0:0:
89,285,25087,1,8,0:0:0:0:
266,371,25421,6,0,P|334:356|403:343,1,139.999995727539,2|8,0:0|0:0,0:0:0:0:
464,284,25921,2,0,P|422:230|442:166,1,139.999995727539,2|2,0:0|0:0,0:0:0:0:
511,117,26421,1,8,0:0:0:0:
205,115,26754,6,0,B|153:122|153:122|115:106|115:106|69:112,2,139.999995727539,2|8|0,0:0|0:0|0:0,0:0:0:0:
263,54,27587,1,2,0:0:0:0:
323,109,27754,2,0,P|333:142|333:177,1,69.9999978637695,8|0,0:0|0:0,0:0:0:0:
279,316,28087,6,0,P|325:266|394:260,1,139.999995727539,2|8,0:0|0:0,0:0:0:0:
458,315,28587,2,0,B|450:263|450:263|466:225|466:225|460:179,1,139.999995727539,2|2,0:0|0:0,0:0:0:0:
409,112,29087,1,8,0:0:0:0:
198,295,29421,54,0,P|128:285|59:277,1,139.999995727539,6|8,0:0|0:0,0:0:0:0:
21,352,29921,1,6,0:0:0:0:
190,143,30254,1,6,0:0:0:0:
190,143,30754,70,0,P|279:130|368:119,1,179.999994506836,6|2,0:0|0:0,0:0:0:0:
433,66,31421,2,0,P|468:112|459:170,1,119.999996337891,8|0,0:0|0:0,0:0:0:0:
315,365,32087,2,0,P|279:318|288:260,2,119.999996337891,2|2|8,0:0|0:0|0:0,0:0:0:0:
389,213,33087,1,0,0:0:0:0:
142,370,33421,86,0,P|131:280|118:191,1,179.999994506836,2|2,0:0|0:0,0:0:0:0:
48,144,34087,2,0,P|106:142|147:100,1,119.999996337891,8|2,0:0|0:0,0:0:0:0:
335,10,34754,2,0,P|394:16|454:22,2,119.999996337891,2|2|8,0:0|0:0|0:0,0:0:0:0:
47,75,35754,1,0,0:0:0:0:
47,75,35921,1,0,0:0:0:0:
89,2,36087,6,0,P|130:78|84:150,1,179.999994506836,2|2,0:0|0:0,0:0:0:0:
0,164,36754,2,0,P|9:223|18:282,1,119.999996337891,8|0,0:0|0:0,0:0:0:0:
250,376,37421,2,0,P|259:316|268:257,2,119.999996337891,2|2|8,0:0|0:0|0:0,0:0:0:0:
493,137,38421,1,0,0:0:0:0:
493,137,38587,1,0,0:0:0:0:
438,200,38754,6,0,P|380:181|323:163,1,119.999996337891,2|2,0:0|0:0,0:0:0:0:
154,154,39421,2,0,P|208:108|137:103,1,179.999994506836,0|0,0:0|0:0,0:0:0:0:
75,160,40087,6,0,P|83:229|91:299,1,139.999995727539,6|2,0:0|0:0,0:0:0:0:
149,359,40587,1,2,0:0:0:0:
214,306,40754,1,8,0:3:0:0:
279,358,40921,2,0,L|313:361,2,34.9999989318848,4|4|4,0:3|0:3|0:3,0:0:0:0:
255,231,41254,6,0,P|323:233|370:282,1,139.999995727539,6|2,0:0|0:0,0:0:0:0:
411,356,41754,1,8,0:0:0:0:
457,194,42087,2,0,P|465:159|475:126,1,69.9999978637695,8|0,0:0|0:0,0:0:0:0:
413,68,42421,1,8,0:0:0:0:
413,68,42587,1,2,0:0:0:0:
284,141,42754,6,0,P|318:134|352:127,1,69.9999978637695,8|2,0:0|0:0,0:0:0:0:
207,108,43087,2,0,P|199:142|192:176,1,69.9999978637695,8|0,0:0|0:0,0:0:0:0:
291,256,43421,2,0,P|321:196|284:141,1,139.999995727539,8|8,0:0|0:0,0:0:0:0:
199,261,43921,5,6,0:0:0:0:
199,261,44254,2,0,P|164:253|130:246,2,69.9999978637695,2|8|2,0:0|0:0|0:0,0:0:0:0:
194,176,44754,1,8,0:0:0:0:
194,176,44837,1,8,0:0:0:0:
194,176,44921,2,0,L|186:141,2,34.9999989318848,8|8|8,0:0|0:0|0:0,0:0:0:0:
277,187,45254,6,0,B|271:233|271:233|287:271|287:271|279:322,2,139.999995727539,6|6|6,0:0|0:0|0:0,0:0:0:0:
277,187,46254,1,6,0:0:0:0:
425,326,46421,1,4,0:1:0:0:
425,326,46754,54,0,P|468:262|439:190,2,160,6|8|2,0:0|0:0|0:0,0:0:0:0:
353,273,47587,1,2,0:0:0:0:
279,322,47754,2,0,P|240:312|200:306,1,79.9999999999999,8|0,0:0|0:0,0:0:0:0:
69,284,48087,6,0,P|146:280|192:218,1,160,2|8,0:0|0:0,0:0:0:0:
140,119,48587,2,0,P|62:122|17:185,1,160,2|2,0:0|0:0,0:0:0:0:
104,201,49087,1,8,0:0:0:0:
372,80,49421,6,0,B|423:91|423:91|453:136|453:136|506:148,2,160,6|8|2,0:0|0:0|0:0,0:0:0:0:
310,142,50254,1,2,0:0:0:0:
244,82,50421,2,0,L|164:92,1,79.9999999999999,8|0,0:0|0:0,0:0:0:0:
35,136,50754,6,0,P|112:126|168:180,1,160,2|8,0:0|0:0,0:0:0:0:
165,268,51254,2,0,P|244:254|323:241,1,160,2|2,0:0|0:0,0:0:0:0:
390,183,51754,1,8,0:0:0:0:
489,276,51921,54,0,P|514:203|468:143,1,160,6|2,0:0|0:0,0:0:0:0:
390,183,52421,2,0,P|396:242|403:302,1,120,8|2,0:0|0:0,0:0:0:0:
403,302,52754,2,0,P|364:295|324:289,1,79.9999999999999,2|2,0:0|0:0,0:0:0:0:
237,278,53087,1,8,0:0:0:0:
85,28,53421,6,0,B|73:84|73:84|90:130|90:130|81:183,1,160,2|8,0:0|0:0,0:0:0:0:
55,267,53921,1,0,0:0:0:0:
55,267,54004,1,0,0:0:0:0:
55,267,54087,2,0,P|94:259|133:251,1,79.9999999999999,2|2,0:0|0:0,0:0:0:0:
170,332,54421,2,0,P|130:339|91:347,1,79.9999999999999,8|2,0:0|0:0,0:0:0:0:
221,260,54754,6,0,B|273:257|294:286|294:286|318:314|366:312,1,160,2|8,0:0|0:0,0:0:0:0:
446,347,55254,2,0,P|455:267|468:188,1,160,0|4,0:0|0:3,0:0:0:0:
425,112,55754,1,4,0:3:0:0:
364,177,55921,6,0,P|287:185|228:134,1,160,6|2,0:0|0:0,0:0:0:0:
197,52,56421,1,8,0:0:0:0:
74,261,56754,2,0,P|69:280|66:300,2,40,8|8|2,0:0|0:0|0:0,0:0:0:0:
148,214,57087,1,8,0:0:0:0:
118,130,57254,1,8,0:0:0:0:
118,130,57337,1,8,0:0:0:0:
118,130,57421,54,0,P|41:129|0:193,2,160,6|8|2,0:0|0:0|0:0,0:0:0:0:
148,214,58254,1,2,0:0:0:0:
227,175,58421,2,0,P|265:165|305:161,1,79.9999999999999,8|0,0:0|0:0,0:0:0:0:
397,59,58754,6,0,P|383:137|373:217,1,160,2|8,0:0|0:0,0:0:0:0:
455,249,59254,2,0,P|494:189|432:152,1,160,2|2,0:0|0:0,0:0:0:0:
373,217,59754,1,8,0:0:0:0:
174,85,60087,6,0,P|100:53|25:25,2,160,6|8|2,0:0|0:0|0:0,0:0:0:0:
241,142,60921,1,2,0:0:0:0:
179,204,61087,2,0,P|187:242|193:282,1,79.9999999999999,8|0,0:0|0:0,0:0:0:0:
118,375,61421,6,0,P|182:330|261:338,1,160,2|8,0:0|0:0,0:0:0:0:
340,377,61921,2,0,L|349:217,1,160,2|2,0:0|0:0,0:0:0:0:
382,135,62421,1,8,0:0:0:0:
477,224,62587,54,0,P|512:157|463:101,1,160,6|2,0:0|0:0,0:0:0:0:
381,135,63087,2,0,P|322:124|263:114,1,120,8|2,0:0|0:0,0:0:0:0:
263,114,63421,2,0,P|255:153|249:192,1,79.9999999999999,2|2,0:0|0:0,0:0:0:0:
240,280,63754,1,8,0:0:0:0:
30,31,64087,6,0,B|81:27|102:56|102:56|126:84|174:82,1,160,2|8,0:0|0:0,0:0:0:0:
249,35,64587,1,0,0:0:0:0:
249,35,64671,1,0,0:0:0:0:
249,35,64754,2,0,P|256:74|262:113,1,79.9999999999999,2|2,0:0|0:0,0:0:0:0:
345,143,65087,2,0,P|337:182|331:221,1,79.9999999999999,8|2,0:0|0:0,0:0:0:0:
403,336,65421,6,0,P|346:283|269:285,1,160,2|8,0:0|0:0,0:0:0:0:
180,279,65921,1,0,0:0:0:0:
180,279,66004,1,0,0:0:0:0:
180,279,66087,2,0,P|185:319|192:359,1,79.9999999999999,2|2,0:0|0:0,0:0:0:0:
106,337,66421,1,8,0:0:0:0:
131,209,66588,6,0,P|143:130|155:50,1,160,6|8,0:0|0:3,0:0:0:0:
308,63,67087,2,0,P|270:73|233:89,1,79.9999999999999,4|4,0:3|0:3,0:0:0:0:
285,160,67421,1,8,0:3:0:0:
367,130,67587,2,0,P|386:126|406:122,2,40,4|4|4,0:3|0:3|0:3,0:0:0:0:
295,252,67921,1,4,0:3:0:0:
295,252,68004,1,4,0:3:0:0:
295,252,68087,54,0,P|374:259|454:267,1,160,6|8,0:0|0:0,0:0:0:0:
505,339,68587,1,2,0:0:0:0:
418,355,68754,2,0,P|338:347|258:339,1,160,2|8,0:0|0:0,0:0:0:0:
188,285,69254,1,2,0:0:0:0:
122,343,69421,6,0,P|151:273|109:208,1,160,2|8,0:0|0:0,0:0:0:0:
108,120,69921,2,0,P|70:132|31:142,1,79.9999999999999,2|0,0:0|0:0,0:0:0:0:
32,54,70254,1,2,0:0:0:0:
113,20,70421,2,0,P|151:29|189:42,1,79.9999999999999,8|0,0:0|0:0,0:0:0:0:
270,216,70754,6,0,B|281:162|281:162|266:112|266:112|276:60,1,160,2|8,0:0|0:0,0:0:0:0:
352,17,71254,1,2,0:0:0:0:
416,76,71421,2,0,P|455:70|495:67,1,79.9999999999999,2|2,0:0|0:0,0:0:0:0:
505,154,71754,2,0,P|465:159|425:162,1,79.9999999999999,8|2,0:0|0:0,0:0:0:0:
344,198,72087,6,0,P|421:204|465:271,1,160,2|8,0:0|0:0,0:0:0:0:
416,342,72587,1,2,0:0:0:0:
416,342,72671,1,8,0:0:0:0:
416,342,72754,2,0,P|377:332|338:322,1,79.9999999999999,2|2,0:0|0:0,0:0:0:0:
265,273,73087,2,0,P|226:282|187:292,1,79.9999999999999,8|2,0:0|0:0,0:0:0:0:
187,292,73337,1,2,0:0:0:0:
186,291,73421,54,0,P|140:231|173:162,1,160,2|8,0:0|0:0,0:0:0:0:
259,144,73921,2,0,L|256:183,2,40,2|2|2,0:0|0:0|0:0,0:0:0:0:
211,69,74254,1,2,0:0:0:0:
289,29,74421,2,0,P|328:25|368:24,1,79.9999999999999,8|2,0:0|0:0,0:0:0:0:
210,69,74754,6,0,P|134:86|65:48,1,160,2|8,0:0|0:0,0:0:0:0:
6,113,75254,1,2,0:0:0:0:
73,169,75421,2,0,P|78:208|82:248,1,79.9999999999999,0|2,0:0|0:0,0:0:0:0:
170,256,75754,2,0,P|164:295|160:335,1,79.9999999999999,8|0,0:0|0:0,0:0:0:0:
265,249,76087,6,0,P|255:169|246:90,1,160,2|8,0:0|0:0,0:0:0:0:
332,70,76587,2,0,P|341:149|350:228,1,160,0|2,0:0|0:0,0:0:0:0:
411,291,77087,2,0,P|450:283|489:276,1,79.9999999999999,8|0,0:0|0:0,0:0:0:0:
357,363,77421,6,0,P|278:345|200:332,1,160,2|8,0:0|0:0,0:0:0:0:
111,337,77921,2,0,P|113:356|116:376,2,40,2|2|8,0:0|0:0|0:3,0:0:0:0:
52,270,78254,1,8,0:3:0:0:
125,220,78421,2,0,P|130:180|134:140,1,79.9999999999999,4|4,0:3|0:3,0:0:0:0:
32,41,78754,54,0,B|64:72|64:72|178:60,1,160,6|8,0:0|0:0,0:0:0:0:
257,21,79254,1,2,0:0:0:0:
334,63,79421,2,0,P|329:102|326:142,1,79.9999999999999,8|2,0:0|0:0,0:0:0:0:
453,186,79754,2,0,P|449:146|445:106,1,79.9999999999999,8|2,0:0|0:0,0:0:0:0:
359,224,80087,5,6,0:0:0:0:
326,306,80254,1,0,0:0:0:0:
403,348,80421,2,0,P|442:340|481:333,1,79.9999999999999,8|2,0:0|0:0,0:0:0:0:
326,306,80754,1,8,0:0:0:0:
250,351,80921,1,2,0:0:0:0:
177,301,81087,1,8,0:0:0:0:
101,346,81254,1,2,0:0:0:0:
34,243,81421,6,0,P|24:164|31:85,1,160,12|2,0:0|0:0,0:0:0:0:
99,29,81921,1,12,0:0:0:0:
397,148,82254,1,12,0:0:0:0:
177,301,82587,6,0,L|166:141,1,160,12|6,0:0|0:0,0:0:0:0:
224,74,83087,1,6,0:0:0:0:
119,368,83421,2,0,P|196:375|256:325,1,160,8|0,0:3|0:0,0:0:0:0:
256,192,84087,5,4,0:1:0:0:
256,192,84171,12,0,88087,0:0:0:0:
