osu file format v14

[General]
AudioFilename: audio.mp3
AudioLeadIn: 0
PreviewTime: 57775
Countdown: 0
SampleSet: Soft
StackLeniency: 0.7
Mode: 0
LetterboxInBreaks: 0
WidescreenStoryboard: 1

[Editor]
DistanceSpacing: 1.3
BeatDivisor: 4
GridSize: 8
TimelineZoom: 1.7

[Metadata]
Title:Hey World (TV Size)
TitleUnicode:Hey World (TV Size)
Artist:Iguchi Yuka
ArtistUnicode:井口裕香
Creator:- Ex -
Version:Kowari's Adventure
Source:ダンジョンに出会いを求めるのは間違っているだろうか
Tags:ダンまち is it wrong to try to pick up girls in a dungeon ni deai wo motomeru no wa machigatteiru darou ka danmachi familia myth Japanese Anime op opening Kowari Kuroame -_Ex_-
BeatmapID:2062073
BeatmapSetID:965184

[Difficulty]
HPDrainRate:5.2
CircleSize:4.2
OverallDifficulty:9.2
ApproachRate:9.2
SliderMultiplier:1.8
SliderTickRate:1

[Events]
//Background and Video events
0,0,"bg.jpg",0,0
Video,-422,"Video.flv"
//Break Periods
//Storyboard Layer 0 (Background)
//Storyboard Layer 1 (Fail)
//Storyboard Layer 2 (Pass)
//Storyboard Layer 3 (Foreground)
//Storyboard Layer 4 (Overlay)
//Storyboard Sound Samples

[TimingPoints]
442,333.333333333333,4,2,1,20,1,0
442,-125,4,2,1,20,0,0
1108,-125,4,2,1,30,0,0
1775,-111.111111111111,4,2,1,40,0,0
2441,-111.111111111111,4,2,1,50,0,0
3108,-99.9999999999999,4,2,1,60,0,0
8441,-142.857142857143,4,2,1,60,0,0
9775,-125,4,2,2,50,0,0
17775,-111.111111111111,4,2,2,50,0,0
18441,-111.111111111111,4,2,1,65,0,0
20441,-100,4,2,1,60,0,0
25691,-100,4,2,1,5,0,0
25775,-100,4,2,1,60,0,0
27025,-100,4,2,1,5,0,0
27108,-100,4,2,1,60,0,0
31108,-142.857142857143,4,2,1,55,0,0
39108,-125,4,2,1,70,0,0
39775,-125,4,2,1,40,0,0
40441,-125,4,2,1,70,0,0
41525,-125,4,2,1,5,0,0
41608,-100,4,2,1,70,0,0
46775,-100,4,2,1,80,0,0
47025,-100,4,2,1,5,0,0
47108,-83.3333333333333,4,2,1,80,0,1
68275,-100,4,2,1,70,0,1
68441,-100,4,2,1,70,0,0
77691,-100,4,2,1,5,0,0
77775,-100,4,2,1,70,0,0
79108,-100,4,2,1,80,0,1
81775,-100,4,2,1,75,0,0
84441,-333.333333333334,4,2,1,75,0,0
87108,-333.333333333334,4,2,1,35,0,0
87775,-333.333333333334,4,2,1,25,0,0
88441,-333.333333333334,4,2,1,15,0,0
89108,-333.333333333334,4,2,1,5,0,0

[Colours]
Combo1 : 128,255,128
Combo2 : 128,128,255
Combo3 : 255,255,128
Combo4 : 128,255,255
SliderBorder : 231,204,255
SliderTrackOverride : 10,10,25

[HitObjects]
69,147,442,6,0,B|128:157|128:157|152:145|152:145|237:157,1,144,2|2,0:2|0:2,0:0:0:0:
328,175,941,1,2,0:2:0:0:
264,293,1108,2,0,P|228:269|212:237,1,72,2|0,0:2|0:0,0:0:0:0:
235,372,1441,2,0,P|270:380|305:372,1,72
394,278,1775,5,2,0:2:0:0:
421,380,1941,1,2,0:2:0:0:
508,166,2108,2,0,L|496:262,1,80.9999975280763,2|2,0:2|0:2,0:0:0:0:
362,158,2441,5,10,0:2:0:0:
476,327,2608,1,0,1:2:0:0:
440,106,2775,1,8,0:2:0:0:
333,374,2941,1,8,0:2:0:0:
333,374,3025,1,8,0:2:0:0:
333,374,3108,6,0,B|218:391|273:336|158:348,1,180,6|8,1:2|0:2,0:0:0:0:
153,158,3608,1,0,0:0:0:0:
306,290,3775,2,0,L|319:196,1,90,0|0,1:2|1:2,0:0:0:0:
193,60,4108,1,10,0:2:0:0:
86,222,4275,5,2,0:2:0:0:
86,222,4358,1,8,0:2:0:0:
86,222,4441,2,0,P|154:251|250:202,1,180,0|8,1:2|0:2,0:0:0:0:
164,61,4941,2,0,L|159:160,1,90,0|0,1:2|0:0,0:0:0:0:
325,50,5275,1,0,1:2:0:0:
262,216,5441,1,10,0:2:0:0:
237,7,5608,1,2,1:2:0:0:
329,273,5775,6,0,B|402:271|402:271|430:256|430:256|517:250,1,180,0|8,1:2|0:2,0:0:0:0:
401,103,6275,1,2,0:2:0:0:
401,103,6358,1,8,0:2:0:0:
401,103,6441,2,0,P|375:150|381:195,1,90,0|0,1:2|1:2,0:0:0:0:
474,326,6775,2,0,L|468:237,1,90,10|2,0:2|0:2,0:0:0:0:
316,346,7108,5,10,0:2:0:0:
490,250,7275,1,0,1:2:0:0:
252,177,7441,1,0,1:2:0:0:
395,346,7608,6,0,L|407:244,1,90,10|0,0:2|1:2,0:0:0:0:
231,102,7941,2,0,L|252:304,1,180,10|0,0:2|0:0,0:0:0:0:
266,370,8441,6,0,B|190:366|190:366|155:343|155:343|62:338,2,188.999994232178,6|8|6,1:2|0:3|0:3,0:0:0:0:
312,262,9775,6,0,P|267:271|237:297,1,72,14|0,1:2|0:0,0:0:0:0:
315,179,10108,2,0,P|350:187|379:209,1,72,8|0,0:2|0:0,0:0:0:0:
436,337,10441,2,0,P|429:296|493:208,1,144,8|10,0:2|0:2,0:0:0:0:
481,213,10941,1,2,0:2:0:0:
440,95,11108,6,0,B|382:97|382:97|358:112|358:112|292:114,1,144,0|8,1:2|0:2,0:0:0:0:
163,37,11608,2,0,P|198:63|205:170,1,144,0|0,1:2|0:0,0:0:0:0:
114,202,12108,2,0,L|36:186,1,72,10|0,0:2|0:0,0:0:0:0:
162,291,12441,6,0,P|193:258|203:227,1,72,10|0,1:2|0:0,0:0:0:0:
215,360,12775,2,0,P|181:373|146:372,1,72,8|0,0:2|0:0,0:0:0:0:
291,290,13108,2,0,L|303:369,1,72,8|2,0:2|1:2,0:0:0:0:
390,247,13441,2,0,L|378:326,1,72,10|2,0:2|0:2,0:0:0:0:
316,169,13775,6,0,P|287:145|183:142,1,144,0|8,1:2|0:2,0:0:0:0:
206,275,14275,2,0,B|225:315|225:315|236:205,1,144,0|0,1:2|0:0,0:0:0:0:
97,132,14775,1,10,0:2:0:0:
137,209,14941,1,2,1:2:0:0:
164,59,15108,6,0,L|83:44,1,72,14|0,1:2|0:0,0:0:0:0:
220,133,15441,1,10,0:2:0:0:
220,133,15608,2,0,L|290:119,1,72,2|8,0:2|0:2,0:0:0:0:
401,25,15941,2,0,B|364:67|364:67|390:181,1,144,2|0,1:2|0:0,0:0:0:0:
294,18,16441,6,0,P|245:11|215:24,1,72,2|0,1:2|0:0,0:0:0:0:
142,107,16775,1,10,0:2:0:0:
270,167,16941,2,0,L|260:80,1,72,2|8,1:2|0:2,0:0:0:0:
220,240,17275,2,0,P|272:260|347:207,1,144,2|0,0:2|0:0,0:0:0:0:
157,298,17775,6,0,P|135:260|134:210,1,80.9999975280763,10|0,1:2|0:0,0:0:0:0:
252,327,18108,2,0,P|230:365|188:388,1,80.9999975280763,10|2,0:2|0:2,0:0:0:0:
220,231,18441,1,8,0:3:0:0:
332,355,18608,1,0,3:2:0:0:
332,355,18691,1,8,3:2:0:0:
332,355,18775,1,8,0:2:0:0:
394,195,18941,6,0,L|420:376,1,161.999995056153,6|0,1:2|1:2,0:0:0:0:
270,177,19441,1,10,0:2:0:0:
342,371,19608,1,0,1:2:0:0:
325,114,19775,1,10,0:2:0:0:
217,342,19941,1,0,1:2:0:0:
257,61,20108,1,10,0:2:0:0:
305,272,20275,5,8,0:2:0:0:
305,272,20358,1,8,0:2:0:0:
305,272,20441,2,0,P|250:271|194:238,1,90,6|0,1:2|0:0,0:0:0:0:
106,69,20775,2,0,L|110:166,1,90,8|0,0:2|0:0,0:0:0:0:
218,257,21108,1,0,1:2:0:0:
196,126,21275,1,0,1:2:0:0:
158,327,21441,2,0,P|207:350|249:344,1,90,10|2,0:2|0:2,0:0:0:0:
341,186,21775,5,0,1:2:0:0:
321,333,21941,1,0,0:0:0:0:
280,128,22108,1,8,0:2:0:0:
402,283,22275,2,0,L|416:189,1,90,0|0,1:2|0:0,0:0:0:0:
329,36,22608,1,0,1:2:0:0:
235,201,22775,2,0,P|285:216|328:200,1,90,10|0,0:2|0:0,0:0:0:0:
163,29,23108,6,0,L|144:207,1,180,2|8,1:2|0:2,0:0:0:0:
278,321,23608,1,0,0:0:0:0:
319,184,23775,2,0,P|262:184|227:208,1,90,0|0,0:0|1:2,0:0:0:0:
178,384,24108,2,0,L|166:281,1,90,10|2,0:2|0:2,0:0:0:0:
272,110,24441,5,0,1:2:0:0:
249,297,24608,1,0,0:0:0:0:
176,68,24775,2,0,L|164:175,1,90,8|2,0:2|1:2,0:0:0:0:
64,312,25108,1,2,3:2:0:0:
64,312,25191,1,8,0:2:0:0:
64,312,25275,1,0,1:2:0:0:
45,116,25441,2,0,P|112:120|167:158,1,135,10|0,0:2|0:0,0:0:0:0:
187,231,25775,6,0,L|169:324,1,90,2|0,1:2|0:0,0:0:0:0:
282,157,26108,1,10,0:2:0:0:
316,368,26275,2,0,P|269:380|232:366,1,90,2|0,0:2|0:0,0:0:0:0:
376,186,26608,1,2,1:2:0:0:
380,316,26775,2,0,P|421:355|508:353,1,135,8|0,0:2|0:0,0:0:0:0:
503,283,27108,6,0,L|519:91,1,180,2|8,1:2|0:2,0:0:0:0:
399,217,27608,1,0,1:2:0:0:
368,45,27775,2,0,P|410:29|454:42,1,90,2|0,0:2|1:2,0:0:0:0:
282,219,28108,2,0,L|290:129,1,90,8|0,0:2|0:0,0:0:0:0:
102,75,28441,6,0,P|115:118|172:163,1,90,2|0,1:2|0:0,0:0:0:0:
282,219,28775,1,10,0:2:0:0:
215,0,28941,2,0,P|195:30|221:113,1,90,2|0,1:2|0:0,0:0:0:0:
355,188,29275,1,2,1:2:0:0:
349,10,29441,2,0,P|313:17|273:94,1,90,10|0,0:2|0:0,0:0:0:0:
326,277,29775,6,0,B|432:294|399:236|512:248,1,180,6|8,1:2|0:2,0:0:0:0:
365,98,30275,2,0,L|354:194,1,90,6|0,1:2|0:0,0:0:0:0:
380,362,30608,1,6,1:2:0:0:
380,362,31108,6,0,L|237:354,1,125.999996154785,6|0,1:2|0:0,0:0:0:0:
180,306,31608,1,2,1:2:0:0:
241,242,31775,2,0,P|264:272|246:366,1,125.999996154785,8|2,0:2|0:2,0:0:0:0:
110,221,32441,2,0,L|123:77,2,125.999996154785,2|2|8,1:2|1:2|0:2,0:0:0:0:
110,221,33441,2,0,L|185:214,1,62.9999980773926,0|8,0:0|0:2,0:0:0:0:
305,103,33775,6,0,P|270:128|275:222,1,125.999996154785,2|2,1:2|0:2,0:0:0:0:
358,280,34275,1,2,1:2:0:0:
474,186,34441,2,0,L|337:177,1,125.999996154785,8|2,0:2|0:2,0:0:0:0:
230,30,35108,2,0,B|280:32|280:32|303:46|303:46|381:49,2,125.999996154785,2|2|8,1:2|1:2|0:2,0:0:0:0:
230,30,36108,2,0,P|206:64|199:97,1,62.9999980773926,0|8,0:0|0:2,0:0:0:0:
250,227,36441,6,0,P|202:206|112:231,1,125.999996154785,4|2,1:2|0:2,0:0:0:0:
80,307,36941,1,0,1:2:0:0:
172,361,37108,2,0,L|177:285,1,62.9999980773926,10|0,0:2|0:0,0:0:0:0:
271,384,37441,2,0,L|262:304,1,62.9999980773926,2|0,0:2|0:0,0:0:0:0:
382,198,37775,6,0,L|362:344,2,125.999996154785,2|2|8,1:2|1:2|0:2,0:0:0:0:
181,28,39108,5,10,1:2:0:0:
266,159,39441,1,8,1:2:0:0:
387,146,40441,6,0,P|341:120|263:168,1,144,6|0,1:2|1:2,0:0:0:0:
290,300,40941,1,0,1:2:0:0:
332,197,41108,1,8,0:2:0:0:
381,371,41275,1,8,0:3:0:0:
381,371,41358,1,8,0:3:0:0:
381,371,41441,2,0,L|364:317,1,36,8|0,0:3|0:0,0:0:0:0:
225,218,41608,6,0,B|155:219|155:219|122:240|122:240|30:235,1,180,12|0,0:2|1:2,0:0:0:0:
177,384,42108,2,0,P|193:331|180:285,1,90,10|0,0:2|0:0,0:0:0:0:
1,152,42441,2,0,L|97:151,1,90,10|0,0:2|0:0,0:0:0:0:
296,156,42775,1,10,0:2:0:0:
125,235,42941,1,6,1:2:0:0:
226,56,43108,5,8,0:2:0:0:
314,276,43275,1,0,1:2:0:0:
308,22,43441,1,8,0:2:0:0:
230,313,43608,1,0,1:2:0:0:
146,22,43775,2,0,P|97:9|39:13,1,90,8|0,0:2|1:2,0:0:0:0:
228,199,44108,1,8,0:2:0:0:
334,19,44275,6,0,L|317:229,1,180,12|2,1:2|1:2,0:0:0:0:
485,315,44775,1,8,0:2:0:0:
433,127,44941,1,10,0:2:0:0:
346,350,45108,2,0,L|357:289,1,45,10|8,0:2|0:2,0:0:0:0:
292,125,45275,2,0,L|299:169,1,45,8|8,0:2|0:2,0:0:0:0:
274,275,45441,1,10,0:2:0:0:
185,43,45608,6,0,L|79:32,1,90,6|0,1:2|0:0,0:0:0:0:
382,180,45941,2,0,L|444:93,1,90,4|0,1:2|0:0,0:0:0:0:
145,283,46275,2,0,L|188:380,1,90,4|0,1:2|0:0,0:0:0:0:
213,144,46608,1,12,0:2:0:0:
280,350,46775,2,0,P|340:379|404:363,1,135,12|0,1:2|0:0,0:0:0:0:
349,292,47108,6,0,L|342:178,1,107.999996704102,6|0,1:2|0:0,0:0:0:0:
498,77,47441,2,0,L|490:186,1,107.999996704102,8|0,0:2|0:0,0:0:0:0:
310,78,47775,1,2,1:2:0:0:
427,252,47941,1,0,1:2:0:0:
463,11,48108,2,0,P|406:0|354:21,1,107.999996704102,8|0,0:2|0:0,0:0:0:0:
233,243,48441,6,0,L|248:131,1,107.999996704102,2|0,1:2|0:0,0:0:0:0:
82,92,48775,1,10,0:2:0:0:
157,302,48941,2,0,P|224:332|272:326,1,107.999996704102,2|0,1:2|0:0,0:0:0:0:
341,119,49275,1,2,1:2:0:0:
390,353,49441,2,0,L|399:232,1,107.999996704102,8|0,0:2|0:0,0:0:0:0:
267,52,49775,6,0,P|239:112|252:167,1,107.999996704102,2|0,1:2|0:0,0:0:0:0:
487,229,50108,2,0,P|449:174|394:158,1,107.999996704102,8|0,0:2|0:0,0:0:0:0:
233,291,50441,1,2,1:2:0:0:
398,245,50608,1,0,1:2:0:0:
148,132,50775,2,0,L|145:246,1,107.999996704102,8|0,0:2|0:0,0:0:0:0:
333,358,51108,6,0,L|320:242,1,107.999996704102,2|0,1:2|0:0,0:0:0:0:
314,66,51441,1,10,0:2:0:0:
145,239,51608,2,0,P|189:276|255:277,1,107.999996704102,2|0,1:2|0:0,0:0:0:0:
319,54,51941,1,2,1:2:0:0:
320,250,52108,1,8,0:2:0:0:
199,95,52275,6,0,B|230:41|230:41|216:219,1,215.999993408203,6|0,1:2|1:2,0:0:0:0:
43,250,52775,2,0,L|62:131,1,107.999996704102,8|0,0:2|3:2,0:0:0:0:
60,143,53025,1,8,0:2:0:0:
60,143,53108,1,0,1:2:0:0:
170,338,53275,1,0,1:2:0:0:
160,97,53441,2,0,P|209:70|270:71,1,107.999996704102,10|0,0:2|0:0,0:0:0:0:
387,271,53775,5,2,1:2:0:0:
229,162,53941,1,0,1:2:0:0:
464,181,54108,1,10,0:2:0:0:
313,348,54275,2,0,L|302:123,1,215.999993408203,2|0,0:2|1:2,0:0:0:0:
435,35,54775,1,8,0:2:0:0:
477,205,54941,5,0,3:2:0:0:
476,204,55025,1,8,0:2:0:0:
476,204,55108,2,0,P|425:236|374:239,1,107.999996704102,6|0,1:2|0:0,0:0:0:0:
265,42,55441,1,10,0:2:0:0:
390,148,55608,1,2,0:2:0:0:
162,125,55775,2,0,L|176:2,1,107.999996704102,0|10,1:2|3:2,0:0:0:0:
281,223,56108,1,10,0:2:0:0:
84,232,56275,6,0,B|46:167|46:167|64:20,1,215.999993408203,6|0,1:2|1:2,0:0:0:0:
200,198,56775,1,8,0:2:0:0:
174,17,56941,1,0,1:2:0:0:
152,280,57108,2,0,P|218:292|266:268,1,107.999996704102,8|0,0:2|1:2,0:0:0:0:
416,253,57441,2,0,L|423:200,1,53.9999983520508,8|8,0:2|0:2,0:0:0:0:
293,112,57608,2,0,L|301:165,1,53.9999983520508,8|8,0:2|0:2,0:0:0:0:
359,345,57775,6,0,P|417:365|467:355,1,107.999996704102,6|0,1:2|0:0,0:0:0:0:
260,236,58108,2,0,B|241:361,1,107.999996704102,8|0,0:2|0:0,0:0:0:0:
354,142,58441,1,2,1:2:0:0:
154,218,58608,1,0,1:2:0:0:
417,216,58775,2,0,P|448:162|445:110,1,107.999996704102,8|0,0:2|0:0,0:0:0:0:
210,24,59108,6,0,L|225:132,1,107.999996704102,2|0,1:2|0:0,0:0:0:0:
276,309,59441,1,10,0:2:0:0:
371,43,59608,2,0,L|356:151,1,107.999996704102,2|0,1:2|0:0,0:0:0:0:
276,324,59941,1,2,1:2:0:0:
224,130,60108,2,0,P|157:109|108:120,1,107.999996704102,8|0,0:2|0:0,0:0:0:0:
136,338,60441,6,0,L|156:214,1,107.999996704102,2|0,1:2|0:0,0:0:0:0:
3,65,60775,2,0,L|20:171,1,107.999996704102,8|0,0:2|0:0,0:0:0:0:
237,219,61108,1,2,1:2:0:0:
104,76,61275,1,0,1:2:0:0:
41,303,61441,2,0,P|83:336|138:337,1,107.999996704102,8|0,0:2|0:0,0:0:0:0:
257,115,61775,6,0,L|135:146,1,107.999996704102,2|0,1:2|0:0,0:0:0:0:
342,288,62108,1,10,0:2:0:0:
367,30,62275,2,0,P|404:84|404:135,1,107.999996704102,2|0,1:2|0:0,0:0:0:0:
331,296,62608,1,2,1:2:0:0:
330,102,62775,1,8,0:2:0:0:
426,356,62941,6,0,B|347:355|347:355|303:334|303:334|198:337,1,215.999993408203,6|0,1:2|1:2,0:0:0:0:
151,141,63441,2,0,P|200:174|223:225,1,107.999996704102,8|2,0:2|0:2,0:0:0:0:
221,216,63691,1,8,0:2:0:0:
221,216,63775,1,0,1:2:0:0:
76,308,63941,1,0,1:2:0:0:
78,68,64108,2,0,L|191:38,1,107.999996704102,10|0,0:2|0:0,0:0:0:0:
320,201,64441,5,2,1:2:0:0:
78,164,64608,1,0,1:2:0:0:
297,86,64775,1,8,0:2:0:0:
195,319,64941,2,0,L|217:94,1,215.999993408203,2|0,0:2|1:2,0:0:0:0:
421,186,65441,2,0,P|373:217|322:222,1,107.999996704102,10|0,0:2|0:0,0:0:0:0:
326,17,65775,6,0,L|344:129,1,107.999996704102,2|0,1:2|0:0,0:0:0:0:
280,311,66108,1,10,0:2:0:0:
162,141,66275,2,0,P|212:103|266:97,1,107.999996704102,2|0,0:2|1:2,0:0:0:0:
271,333,66608,1,0,1:2:0:0:
84,221,66775,1,8,0:2:0:0:
280,233,66941,6,0,B|366:236|366:236|406:262|406:262|509:264,1,215.999993408203,4|8,1:2|0:2,0:0:0:0:
488,263,67358,1,8,0:2:0:0:
488,263,67441,1,8,0:2:0:0:
299,127,67608,1,0,1:2:0:0:
390,367,67775,1,8,0:2:0:0:
395,73,67941,1,8,3:0:0:0:
306,318,68108,1,6,3:0:0:0:
309,30,68275,1,6,3:0:0:0:
236,370,68441,6,0,P|173:381|134:375,1,90,6|0,1:2|0:0,0:0:0:0:
182,184,68775,2,0,L|192:293,1,90,8|0,0:2|1:2,0:0:0:0:
49,217,69108,2,0,L|58:128,1,90,2|0,0:2|1:2,0:0:0:0:
184,85,69441,1,8,0:2:0:0:
111,301,69608,5,2,3:2:0:0:
111,301,69691,1,0,3:2:0:0:
111,301,69775,2,0,P|58:314|12:301,1,90,0|2,1:2|0:2,0:0:0:0:
169,169,70108,1,8,0:2:0:0:
214,365,70275,2,0,P|260:380|314:378,1,90,2|0,1:2|0:0,0:0:0:0:
434,274,70608,1,2,1:2:0:0:
267,184,70775,2,0,L|279:294,1,90,8|0,0:2|0:0,0:0:0:0:
430,106,71108,6,0,L|411:312,1,180,2|10,1:2|0:2,0:0:0:0:
193,142,71608,1,2,1:2:0:0:
193,142,71775,2,0,P|233:113|279:108,1,90,2|0,0:2|1:2,0:0:0:0:
209,335,72108,2,0,L|116:316,1,90,10|0,0:2|0:0,0:0:0:0:
312,215,72441,6,0,B|303:338|303:338|349:291,1,180,2|8,1:2|0:2,0:0:0:0:
361,117,72941,1,8,0:2:0:0:
361,117,73025,1,8,0:2:0:0:
361,117,73108,1,0,1:2:0:0:
223,241,73275,1,2,1:2:0:0:
424,190,73441,1,10,0:2:0:0:
279,5,73608,1,2,0:2:0:0:
205,252,73775,6,0,L|225:134,1,90,6|0,1:2|0:0,0:0:0:0:
108,51,74108,1,10,0:2:0:0:
118,304,74275,2,0,P|166:339|287:310,1,180,2|0,0:2|1:2,0:0:0:0:
220,163,74775,2,0,L|205:252,1,90,10|0,0:2|0:0,0:0:0:0:
443,291,75108,6,0,P|414:241|295:215,1,180,2|10,1:2|0:2,0:0:0:0:
336,384,75608,2,0,L|359:267,1,90,2|0,1:2|0:0,0:0:0:0:
216,107,75941,1,0,1:2:0:0:
271,300,76108,1,8,0:2:0:0:
304,57,76275,1,2,0:2:0:0:
188,335,76441,6,0,B|119:332|119:332|92:312|92:312|9:305,1,180,2|8,1:2|0:2,0:0:0:0:
138,154,76941,1,2,3:2:0:0:
138,154,77025,1,0,3:2:0:0:
138,154,77108,2,0,P|163:205|161:254,1,90,0|0,1:2|1:2,0:0:0:0:
29,76,77441,2,0,L|176:56,1,135,10|0,0:2|0:0,0:0:0:0:
219,0,77775,6,0,P|247:61|228:115,1,90,6|0,1:2|0:0,0:0:0:0:
177,260,78108,2,0,L|282:251,1,90,8|8,0:2|0:2,0:0:0:0:
266,252,78358,1,8,0:2:0:0:
266,252,78441,1,8,3:0:0:0:
372,113,78608,1,0,3:0:0:0:
252,169,78775,1,8,3:0:0:0:
457,216,78941,1,4,3:0:0:0:
350,23,79108,6,0,L|347:131,1,90,6|0,1:2|0:0,0:0:0:0:
200,340,79441,5,8,0:2:0:0:
269,95,79608,1,2,1:2:0:0:
395,331,79775,5,8,0:2:0:0:
115,188,79941,1,0,1:2:0:0:
365,33,80108,5,10,0:2:0:0:
279,357,80275,1,0,1:2:0:0:
101,167,80441,5,10,0:2:0:0:
425,116,80608,1,0,1:2:0:0:
267,376,80775,5,8,0:2:0:0:
200,28,80941,1,0,1:2:0:0:
457,338,81108,5,8,0:2:0:0:
81,266,81275,1,2,1:2:0:0:
392,0,81441,5,10,0:2:0:0:
267,376,81608,2,0,L|273:331,1,45,10|8,0:2|0:2,0:0:0:0:
305,48,81775,6,0,P|266:26|221:26,1,90,6|0,1:2|0:0,0:0:0:0:
107,189,82108,1,8,0:2:0:0:
308,243,82275,2,0,L|326:154,1,90,10|0,1:2|0:0,0:0:0:0:
66,104,82608,2,0,L|84:192,1,90,10|0,1:2|0:0,0:0:0:0:
177,361,82941,6,0,P|229:291|207:207,1,180,10|8,1:2|1:2,0:0:0:0:
51,254,83441,2,0,P|90:274|135:274,1,90,10|0,1:2|0:0,0:0:0:0:
146,15,83775,2,0,L|115:192,1,180,6|2,1:2|0:2,0:0:0:0:
306,148,84441,5,6,1:2:0:0:
256,192,84525,12,0,89108,0:0:0:0:
