osu file format v14

[General]
AudioFilename: audio.mp3
AudioLeadIn: 0
PreviewTime: 57775
Countdown: 0
SampleSet: Soft
StackLeniency: 0.7
Mode: 0
LetterboxInBreaks: 0
WidescreenStoryboard: 0

[Editor]
DistanceSpacing: 1.3
BeatDivisor: 4
GridSize: 8
TimelineZoom: 1.7

[Metadata]
Title:Hey World (TV Size)
TitleUnicode:Hey World (TV Size)
Artist:Iguchi Yuka
ArtistUnicode:井口裕香
Creator:- Ex -
Version:Insane
Source:ダンジョンに出会いを求めるのは間違っているだろうか
Tags:ダンまち is it wrong to try to pick up girls in a dungeon ni deai wo motomeru no wa machigatteiru darou ka danmachi familia myth Japanese Anime op opening Kowari Kuroame -_Ex_-
BeatmapID:2020477
BeatmapSetID:965184

[Difficulty]
HPDrainRate:5
CircleSize:3.8
OverallDifficulty:8
ApproachRate:9
SliderMultiplier:1.7
SliderTickRate:1

[Events]
//Background and Video events
0,0,"bg.jpg",0,0
Video,-422,"Video.flv"
//Break Periods
//Storyboard Layer 0 (Background)
//Storyboard Layer 1 (Fail)
//Storyboard Layer 2 (Pass)
//Storyboard Layer 3 (Foreground)
//Storyboard Layer 4 (Overlay)
//Storyboard Sound Samples

[TimingPoints]
442,333.333333333333,4,2,1,20,1,0
442,-117.647058823529,4,2,1,20,0,0
1108,-117.647058823529,4,2,1,30,0,0
1775,-117.647058823529,4,2,1,40,0,0
2441,-117.647058823529,4,2,1,50,0,0
3108,-111.111111111111,4,2,1,60,0,0
9775,-125,4,2,2,50,0,0
18441,-125,4,2,1,65,0,0
20441,-111.111111111111,4,2,1,60,0,0
25691,-111.111111111111,4,2,1,5,0,0
25775,-111.111111111111,4,2,1,60,0,0
27025,-111.111111111111,4,2,1,5,0,0
27108,-111.111111111111,4,2,1,60,0,0
31108,-125,4,2,1,55,0,0
39108,-142.857142857143,4,2,1,70,0,0
39358,-142.857142857143,4,2,1,5,0,0
39441,-142.857142857143,4,2,1,70,0,0
39775,-142.857142857143,4,2,1,40,0,0
40441,-111.111111111111,4,2,1,70,0,0
41525,-111.111111111111,4,2,1,5,0,0
41608,-111.111111111111,4,2,1,70,0,0
46775,-90.9090909090909,4,2,1,80,0,0
47025,-90.9090909090909,4,2,1,5,0,0
47108,-83.3333333333333,4,2,1,80,0,1
68275,-100,4,2,1,70,0,1
68441,-111.111111111111,4,2,1,70,0,0
77691,-111.111111111111,4,2,1,5,0,0
77775,-111.111111111111,4,2,1,70,0,0
79108,-83.3333333333333,4,2,1,80,0,1
81775,-100,4,2,1,75,0,0
87108,-100,4,2,1,35,0,0
87775,-100,4,2,1,25,0,0
88441,-100,4,2,1,15,0,0
89108,-100,4,2,1,5,0,0

[Colours]
Combo1 : 128,255,128
Combo2 : 128,128,255
Combo3 : 255,255,128
Combo4 : 128,255,255
SliderBorder : 231,204,255
SliderTrackOverride : 10,10,25

[HitObjects]
424,249,442,6,0,L|256:259,1,144.500002756119,2|2,0:2|0:2,0:0:0:0:
191,183,942,1,2,0:2:0:0:
275,103,1109,2,0,L|290:200,1,72.2500013780594,2|0,0:2|0:0,0:0:0:0:
180,254,1441,2,0,L|191:182,1,72.2500013780594
317,324,1775,6,0,P|280:330|233:316,1,72.2500013780594,2|2,0:2|0:2,0:0:0:0:
401,236,2108,2,0,P|433:255|460:296,1,72.2500013780594,2|2,0:2|0:2,0:0:0:0:
307,215,2441,1,10,0:2:0:0:
427,155,2608,1,0,1:2:0:0:
372,309,2775,1,8,0:2:0:0:
328,124,2941,1,8,0:2:0:0:
328,124,3025,1,8,0:2:0:0:
328,124,3108,6,0,P|358:65|457:57,1,152.999995330811,6|8,1:2|0:2,0:0:0:0:
427,155,3608,1,0,0:0:0:0:
272,39,3775,2,0,P|230:39|196:50,1,76.4999976654053,0|0,1:2|1:2,0:0:0:0:
90,145,4108,2,0,P|129:157|166:156,1,76.4999976654053,10|2,0:2|0:2,0:0:0:0:
66,51,4441,6,0,B|7:83|7:83|-3:203,1,152.999995330811,0|8,1:2|0:2,0:0:0:0:
164,253,4941,2,0,P|152:179|89:139,1,152.999995330811,0|0,1:2|1:2,0:0:0:0:
28,253,5441,2,0,L|15:351,1,76.4999976654053,10|2,0:2|1:2,0:0:0:0:
164,253,5775,6,0,B|247:240|238:291|337:275,1,152.999995330811,0|8,1:2|0:2,0:0:0:0:
424,214,6275,1,2,0:2:0:0:
424,214,6358,1,8,0:2:0:0:
424,214,6441,2,0,L|433:116,1,76.4999976654053,0|0,1:2|1:2,0:0:0:0:
268,100,6775,2,0,L|272:177,1,76.4999976654053,10|2,0:2|0:2,0:0:0:0:
351,335,7108,5,10,0:2:0:0:
185,264,7274,1,0,1:2:0:0:
346,203,7441,1,0,1:2:0:0:
217,352,7608,6,0,P|175:354|136:344,1,76.4999976654053,10|0,0:2|1:2,0:0:0:0:
73,159,7941,1,10,0:2:0:0:
268,100,8441,6,0,B|236:136|236:136|237:258,1,152.999995330811,6|0,1:2|0:0,0:0:0:0:
367,101,8941,2,0,P|347:28|257:3,1,152.999995330811,8|4,0:3|0:3,0:0:0:0:
268,100,9441,1,6,0:3:0:0:
268,100,9775,6,0,L|113:80,1,136,14|8,1:2|0:2,0:0:0:0:
53,153,10275,1,0,0:0:0:0:
122,255,10441,2,0,P|135:206|134:170,1,68,8|0,0:2|0:0,0:0:0:0:
157,348,10775,2,0,P|200:322|225:296,1,68,10|2,0:2|0:2,0:0:0:0:
266,194,11108,6,0,L|279:39,1,136,0|8,1:2|0:2,0:0:0:0:
397,102,11608,1,0,1:2:0:0:
397,101,11775,2,0,L|383:237,1,136,8|10,0:2|0:2,0:0:0:0:
451,294,12441,6,0,P|396:323|310:292,1,136,10|8,1:2|0:2,0:0:0:0:
231,227,12941,1,0,0:0:0:0:
142,277,13108,2,0,P|129:326|130:362,1,68,8|2,0:2|1:2,0:0:0:0:
126,185,13441,2,0,P|82:210|57:236,1,68,10|2,0:2|0:2,0:0:0:0:
179,108,13775,6,0,P|117:80|35:95,1,136,0|8,1:2|0:2,0:0:0:0:
273,125,14275,1,0,1:2:0:0:
273,125,14441,2,0,P|254:61|175:17,1,136,8|10,0:2|0:2,0:0:0:0:
160,192,15108,6,0,L|252:201,1,68,14|0,1:2|0:0,0:0:0:0:
349,233,15441,1,10,0:2:0:0:
253,283,15608,2,0,L|113:271,2,136,2|2|0,0:2|1:2|0:0,0:0:0:0:
342,300,16441,6,0,L|351:208,1,68,2|0,1:2|0:0,0:0:0:0:
383,111,16774,1,10,0:2:0:0:
433,204,16941,2,0,L|421:344,2,136,2|2|0,1:2|0:2|0:0,0:0:0:0:
383,111,17775,6,0,P|325:76|236:95,1,136,10|10,1:2|0:2,0:0:0:0:
148,148,18275,1,2,0:2:0:0:
301,219,18441,2,0,L|307:125,1,68,8|0,0:3|3:2,0:0:0:0:
305,151,18691,1,8,3:2:0:0:
305,151,18775,1,8,0:2:0:0:
381,303,18941,6,0,B|330:295|330:295|297:306|297:306|221:288,1,136,6|0,1:2|1:2,0:0:0:0:
133,271,19441,1,10,0:2:0:0:
247,217,19608,1,0,1:2:0:0:
69,214,19775,1,10,0:2:0:0:
216,300,19941,1,0,1:2:0:0:
61,334,20108,1,10,0:2:0:0:
171,175,20275,1,8,0:2:0:0:
171,175,20358,1,8,0:2:0:0:
171,175,20441,6,0,B|153:73|153:73|111:129,1,152.999995330811,6|8,1:2|0:2,0:0:0:0:
69,214,20941,1,0,0:0:0:0:
167,260,21108,2,0,P|206:251|252:217,1,76.4999976654053,0|0,1:2|1:2,0:0:0:0:
366,298,21441,2,0,P|333:273|306:223,1,76.4999976654053,10|2,0:2|0:2,0:0:0:0:
256,99,21775,6,0,B|270:61|270:61|291:189,1,152.999995330811,0|8,1:2|0:2,0:0:0:0:
254,340,22275,2,0,B|240:378|240:378|219:250,1,152.999995330811,0|0,1:2|1:2,0:0:0:0:
256,99,22775,1,10,0:2:0:0:
256,99,23108,6,0,B|216:81|176:93|188:109|144:123|105:106,1,152.999995330811,2|8,1:2|0:2,0:0:0:0:
0,41,23608,1,0,0:0:0:0:
10,148,23775,2,0,L|0:237,1,76.4999976654053,0|0,0:0|1:2,0:0:0:0:
117,183,24108,2,0,L|108:106,1,76.4999976654053,10|2,0:2|0:2,0:0:0:0:
72,282,24441,6,0,P|151:290|221:222,1,152.999995330811,0|8,1:2|0:2,0:0:0:0:
285,137,24941,1,2,1:2:0:0:
434,258,25108,2,0,L|359:245,1,76.4999976654053,2|0,3:2|1:2,0:0:0:0:
285,137,25441,2,0,L|360:123,1,76.4999976654053,10|0,0:2|0:0,0:0:0:0:
222,38,25775,6,0,P|173:93|180:167,1,152.999995330811,2|10,1:2|0:2,0:0:0:0:
297,212,26275,2,0,L|284:136,1,76.4999976654053,2|0,0:2|0:0,0:0:0:0:
217,316,26608,2,0,P|300:301|366:347,1,152.999995330811,2|0,1:2|0:0,0:0:0:0:
439,184,27108,6,0,L|462:10,2,152.999995330811,2|8|2,1:2|0:2|0:2,0:0:0:0:
330,142,27941,1,0,1:2:0:0:
295,244,28108,2,0,P|334:248|376:233,1,76.4999976654053,8|0,0:2|0:0,0:0:0:0:
180,108,28441,6,0,B|146:160|146:160|156:271,1,152.999995330811,2|10,1:2|0:2,0:0:0:0:
273,92,28941,2,0,P|223:30|139:24,1,152.999995330811,2|2,1:2|1:2,0:0:0:0:
56,93,29441,1,10,0:2:0:0:
181,321,29775,6,0,L|339:307,1,152.999995330811,6|8,1:2|0:2,0:0:0:0:
480,262,30275,1,6,1:2:0:0:
273,92,30608,1,6,1:2:0:0:
70,222,31108,6,0,B|122:201|183:221|159:243|225:268|285:230,1,204,6|2,1:2|1:2,0:0:0:0:
393,211,31775,2,0,P|415:140|377:63,1,136,8|2,0:2|0:2,0:0:0:0:
253,5,32441,6,0,L|240:140,2,136,2|2|8,1:2|1:2|0:2,0:0:0:0:
95,100,33608,1,8,0:2:0:0:
95,100,33775,6,0,P|55:178|90:287,1,204,2|2,1:2|1:2,0:0:0:0:
192,361,34441,2,0,P|257:344|336:377,1,136,8|2,0:2|0:2,0:0:0:0:
466,292,35108,6,0,L|474:140,2,136,2|2|8,1:2|1:2|0:2,0:0:0:0:
343,162,36275,1,8,0:2:0:0:
343,162,36441,6,0,B|270:149|270:149|215:179|215:179|135:159,1,204,4|0,1:2|1:2,0:0:0:0:
41,73,37108,2,0,P|75:57|182:75,1,136,10|2,0:2|0:2,0:0:0:0:
321,131,37775,6,0,L|310:266,2,136,2|2|8,1:2|1:2|0:2,0:0:0:0:
247,326,39108,6,0,P|297:351|352:347,1,89.2499972763062,10|0,1:2|0:0,0:0:0:0:
355,354,39441,1,8,1:2:0:0:
229,201,39775,2,0,P|168:241|139:338,1,178.499994552612,2|0,0:2|0:0,0:0:0:0:
139,338,40441,6,0,P|70:344|0:292,1,152.999995330811,6|0,1:2|1:2,0:0:0:0:
44,152,40941,1,0,1:2:0:0:
90,267,41108,1,8,0:2:0:0:
109,82,41275,1,8,0:3:0:0:
109,82,41358,1,8,0:3:0:0:
109,82,41441,1,8,0:3:0:0:
164,223,41608,6,0,P|241:246|328:197,1,152.999995330811,12|0,0:2|1:2,0:0:0:0:
249,79,42108,2,0,P|232:116|234:172,1,76.4999976654053,10|0,0:2|0:0,0:0:0:0:
363,76,42441,2,0,L|350:-7,2,76.4999976654053,10|0|10,0:2|0:0|0:2,0:0:0:0:
446,235,42941,6,0,P|387:204|294:230,1,152.999995330811,6|0,1:2|1:2,0:0:0:0:
223,328,43441,1,8,0:2:0:0:
368,306,43608,1,0,1:2:0:0:
229,151,43775,2,0,L|142:163,2,76.4999976654053,8|0|8,0:2|1:2|0:2,0:0:0:0:
371,36,44275,6,0,B|410:89|410:89|391:191,1,152.999995330811,12|2,1:2|1:2,0:0:0:0:
305,221,44775,1,8,0:2:0:0:
368,306,44941,1,10,0:2:0:0:
197,289,45108,1,10,0:2:0:0:
200,263,45191,1,8,0:2:0:0:
204,238,45274,1,8,0:2:0:0:
209,212,45358,1,8,0:2:0:0:
213,188,45441,1,10,0:2:0:0:
324,66,45608,5,6,1:2:0:0:
324,86,45941,1,4,1:2:0:0:
324,106,46275,1,4,1:2:0:0:
324,126,46608,1,12,0:2:0:0:
423,239,46775,6,0,P|441:176|421:91,1,140.25000428009,12|0,1:2|0:0,0:0:0:0:
408,25,47108,6,0,B|326:21|326:21|285:40|285:40|201:38,1,203.999993774414,6|8,1:2|0:2,0:0:0:0:
60,142,47608,1,0,0:0:0:0:
207,245,47775,2,0,L|207:143,1,101.999996887207,2|0,1:2|1:2,0:0:0:0:
64,41,48108,2,0,L|60:143,1,101.999996887207,8|0,0:2|0:0,0:0:0:0:
208,38,48441,6,0,P|316:10|423:84,1,203.999993774414,2|10,1:2|0:2,0:0:0:0:
310,211,48941,2,0,L|300:109,1,101.999996887207,2|0,1:2|0:0,0:0:0:0:
395,297,49275,1,2,1:2:0:0:
477,130,49441,2,0,P|426:121|367:141,1,101.999996887207,8|0,0:2|0:0,0:0:0:0:
311,334,49775,6,0,B|371:311|426:329|404:348|462:367|528:320,2,203.999993774414,2|8|2,1:2|0:2|1:2,0:0:0:0:
212,216,50608,1,0,1:2:0:0:
365,145,50775,2,0,L|354:246,1,101.999996887207,8|0,0:2|0:0,0:0:0:0:
139,290,51108,6,0,L|264:313,1,101.999996887207,2|0,1:2|0:0,0:0:0:0:
213,147,51441,1,10,0:2:0:0:
25,311,51608,2,0,P|24:202|111:138,1,203.999993774414,2|2,1:2|1:2,0:0:0:0:
225,115,52108,1,8,0:2:0:0:
239,308,52275,6,0,B|322:302|322:302|352:273|352:273|449:265,1,203.999993774414,6|0,1:2|1:2,0:0:0:0:
297,120,52775,2,0,P|247:166|245:214,1,101.999996887207,8|0,0:2|3:2,0:0:0:0:
248,229,53025,1,8,0:2:0:0:
248,229,53108,1,0,1:2:0:0:
397,119,53275,1,0,1:2:0:0:
343,4,53441,2,0,P|292:-7|236:10,1,101.999996887207,10|0,0:2|0:0,0:0:0:0:
334,210,53775,6,0,P|435:223|520:149,1,203.999993774414,2|10,1:2|0:2,0:0:0:0:
429,40,54275,2,0,B|401:-5|401:-5|389:74|417:163,1,203.999993774414,2|0,0:2|1:2,0:0:0:0:
471,310,54775,1,8,0:2:0:0:
471,310,55108,6,0,B|418:283|351:314|384:330|332:345|254:317,1,203.999993774414,6|10,1:2|0:2,0:0:0:0:
178,136,55608,2,0,P|273:159|310:256,1,203.999993774414,2|10,0:2|3:2,0:0:0:0:
318,282,56025,1,8,3:2:0:0:
318,282,56108,1,10,0:2:0:0:
83,287,56275,6,0,L|110:79,1,203.999993774414,6|0,1:2|1:2,0:0:0:0:
315,106,56775,1,8,0:2:0:0:
218,169,56941,1,0,1:2:0:0:
168,20,57108,2,0,L|246:37,1,50.9999984436036,8|8,0:2|0:2,0:0:0:0:
388,69,57275,1,0,1:2:0:0:
218,169,57441,2,0,L|226:118,1,50.9999984436036,8|8,0:2|0:2,0:0:0:0:
307,56,57608,2,0,L|315:106,1,50.9999984436036,8|8,0:2|0:2,0:0:0:0:
367,238,57775,6,0,B|287:228|287:228|249:248|249:248|136:235,1,203.999993774414,6|8,1:2|0:2,0:0:0:0:
74,185,58275,1,0,0:0:0:0:
194,77,58441,2,0,P|222:119|208:184,1,101.999996887207,2|0,1:2|1:2,0:0:0:0:
53,278,58775,2,0,P|50:224|78:180,1,101.999996887207,8|0,0:2|0:0,0:0:0:0:
207,338,59108,6,0,B|270:314|322:335|291:353|357:365|428:330,1,203.999993774414,2|10,1:2|0:2,0:0:0:0:
336,156,59608,2,0,L|347:282,1,101.999996887207,2|0,1:2|0:0,0:0:0:0:
426,110,59941,1,2,1:2:0:0:
314,34,60108,2,0,P|263:25|195:63,1,101.999996887207,8|0,0:2|0:0,0:0:0:0:
128,209,60441,6,0,L|109:-8,2,203.999993774414,2|8|2,1:2|0:2|1:2,0:0:0:0:
266,181,61275,1,0,1:2:0:0:
331,289,61441,2,0,P|281:308|217:280,1,101.999996887207,8|0,0:2|0:0,0:0:0:0:
389,195,61775,6,0,B|433:253|433:253|432:393,1,203.999993774414,2|10,1:2|0:2,0:0:0:0:
309,146,62275,2,0,P|351:107|415:99,1,101.999996887207,2|0,1:2|0:0,0:0:0:0:
235,295,62608,2,0,P|186:281|150:245,1,101.999996887207,2|8,1:2|0:2,0:0:0:0:
222,30,62941,6,0,P|270:96|234:231,1,203.999993774414,6|0,1:2|1:2,0:0:0:0:
72,236,63441,2,0,L|88:120,1,101.999996887207,8|2,0:2|0:2,0:0:0:0:
94,111,63691,1,8,0:2:0:0:
94,111,63775,1,0,1:2:0:0:
202,221,63941,1,0,1:2:0:0:
261,68,64108,2,0,P|204:56|159:76,1,101.999996887207,10|0,0:2|0:0,0:0:0:0:
327,221,64441,6,0,B|351:266|351:266|366:187|309:112,1,203.999993774414,2|8,1:2|0:2,0:0:0:0:
144,260,64941,1,2,3:2:0:0:
144,260,65025,1,8,0:2:0:0:
144,260,65108,2,0,L|264:243,1,101.999996887207,0|0,1:2|1:2,0:0:0:0:
316,122,65441,2,0,L|215:107,1,101.999996887207,10|0,0:2|0:0,0:0:0:0:
410,208,65775,6,0,P|438:143|380:28,1,203.999993774414,2|10,1:2|0:2,0:0:0:0:
316,122,66275,1,2,0:2:0:0:
386,286,66441,2,0,L|487:296,1,101.999996887207,0|0,1:2|1:2,0:0:0:0:
313,207,66775,1,8,0:2:0:0:
256,370,66941,6,0,B|173:373|173:373|137:348|137:348|59:354,1,203.999993774414,4|8,1:2|0:2,0:0:0:0:
60,353,67358,1,8,0:2:0:0:
60,353,67441,1,8,0:2:0:0:
30,211,67608,1,0,1:2:0:0:
180,135,67775,2,0,P|188:202|172:255,1,101.999996887207,8|8,0:2|3:0,0:0:0:0:
181,235,68025,1,8,3:0:0:0:
181,235,68108,1,6,3:0:0:0:
125,51,68275,1,6,3:0:0:0:
125,51,68358,1,6,3:0:0:0:
125,51,68441,6,0,L|291:41,1,152.999995330811,6|8,1:2|0:2,0:0:0:0:
379,128,68941,1,0,1:2:0:0:
284,259,69108,2,0,P|250:208|259:110,1,152.999995330811,2|8,0:2|0:2,0:0:0:0:
387,51,69608,6,0,L|377:143,1,76.4999976654053,2|0,3:2|1:2,0:0:0:0:
322,297,69941,2,0,L|313:220,1,76.4999976654053,2|8,0:2|0:2,0:0:0:0:
378,127,70275,2,0,P|415:137|454:153,1,76.4999976654053,2|0,1:2|0:0,0:0:0:0:
403,276,70608,1,2,1:2:0:0:
285,122,70775,2,0,L|297:34,1,76.4999976654053,8|0,0:2|0:0,0:0:0:0:
276,254,71108,6,0,P|207:283|137:257,1,152.999995330811,2|10,1:2|0:2,0:0:0:0:
212,107,71608,1,2,1:2:0:0:
212,107,71775,2,0,L|202:199,1,76.4999976654053,2|0,0:2|1:2,0:0:0:0:
50,244,72108,1,10,0:2:0:0:
113,146,72275,1,0,0:0:0:0:
162,342,72441,6,0,P|115:350|80:337,1,76.4999976654053,2|0,1:2|0:0,0:0:0:0:
249,232,72775,1,8,0:2:0:0:
308,343,72941,2,0,L|314:381,2,38.2499988327027,8|8|0,0:2|0:2|1:2,0:0:0:0:
165,180,73275,1,2,1:2:0:0:
359,225,73441,1,10,0:2:0:0:
195,323,73608,1,2,0:2:0:0:
306,131,73775,6,0,P|350:119|395:123,1,76.4999976654053,6|0,1:2|0:0,0:0:0:0:
404,304,74108,1,10,0:2:0:0:
241,192,74275,1,2,0:2:0:0:
241,192,74358,1,8,0:2:0:0:
241,192,74441,2,0,L|231:278,1,76.4999976654053,0|0,1:2|1:2,0:0:0:0:
380,120,74775,2,0,L|390:206,1,76.4999976654053,10|0,0:2|0:0,0:0:0:0:
299,71,75108,6,0,P|336:37|443:48,1,152.999995330811,2|10,1:2|0:2,0:0:0:0:
466,226,75608,2,0,P|429:260|322:249,1,152.999995330811,2|0,1:2|1:2,0:0:0:0:
266,149,76108,1,8,0:2:0:0:
388,195,76275,1,2,0:2:0:0:
142,229,76441,6,0,L|126:59,1,152.999995330811,2|8,1:2|0:2,0:0:0:0:
229,288,76941,1,2,3:2:0:0:
229,288,77025,1,0,3:2:0:0:
229,288,77108,2,0,P|179:320|155:325,1,76.4999976654053,0|0,1:2|1:2,0:0:0:0:
238,138,77441,2,0,L|348:210,1,114.749996498108,10|0,0:2|0:0,0:0:0:0:
370,320,77775,6,0,P|356:270|441:186,1,152.999995330811,6|8,1:2|0:2,0:0:0:0:
509,317,78275,2,0,L|513:364,2,38.2499988327027,8|8|8,0:2|0:2|3:0,0:0:0:0:
405,152,78608,1,0,3:0:0:0:
441,277,78775,1,8,3:0:0:0:
493,119,78941,1,4,3:0:0:0:
309,42,79108,6,0,L|178:30,1,101.999996887207,6|0,1:2|0:0,0:0:0:0:
65,88,79441,5,8,0:2:0:0:
43,255,79608,1,2,1:2:0:0:
143,132,79775,5,8,0:2:0:0:
159,299,79941,1,0,1:2:0:0:
259,88,80108,5,10,0:2:0:0:
243,255,80274,1,0,1:2:0:0:
343,132,80441,6,0,P|389:109|459:118,1,101.999996887207,10|0,0:2|1:2,0:0:0:0:
489,290,80775,5,8,0:2:0:0:
319,275,80941,1,0,1:2:0:0:
408,188,81108,5,8,0:2:0:0:
397,359,81275,1,2,1:2:0:0:
284,194,81441,6,0,L|179:178,1,101.999996887207,10|10,0:2|0:2,0:0:0:0:
156,175,81691,1,8,0:2:0:0:
156,175,81775,2,0,B|184:54|184:54|134:73,1,170,6|8,1:2|0:2,0:0:0:0:
25,260,82275,5,10,1:2:0:0:
232,262,82608,1,10,1:2:0:0:
56,368,82941,1,10,1:2:0:0:
125,134,83275,5,8,1:2:0:0:
208,359,83441,1,10,1:2:0:0:
311,160,83775,6,0,P|353:131|422:124,1,85,6|0,1:2|0:0,0:0:0:0:
306,299,84108,2,0,P|265:286|231:261,1,85,2|0,0:2|0:0,0:0:0:0:
460,276,84441,5,6,1:2:0:0:
256,192,84525,12,0,89108,0:0:0:0:
