osu file format v14

[General]
AudioFilename: audio.mp3
AudioLeadIn: 0
PreviewTime: 55687
Countdown: 0
SampleSet: Soft
StackLeniency: 0.7
Mode: 3
LetterboxInBreaks: 0
SpecialStyle: 0
WidescreenStoryboard: 1

[Editor]
DistanceSpacing: 1.1
BeatDivisor: 6
GridSize: 32
TimelineZoom: 1.4

[Metadata]
Title:HELLO to DREAM (TV Size)
TitleUnicode:HELLO to DREAM (TV Size)
Artist:Iguchi Yuka
ArtistUnicode:井口裕香
Creator:Sun
Version:Nabi's Normal
Source:ダンジョンに出会いを求めるのは間違っているだろうかⅡ
Tags:Nabi- Paran _Asha Pin_Point ダンまち DanMachi 2nd Season Is it Wrong to Try to Pick Up Girls in a Dungeon ni deai wo motomeru no wa machigatteiru darou ka anime japanese op opening pop jpop
BeatmapID:2431633
BeatmapSetID:1165894

[Difficulty]
HPDrainRate:7.5
CircleSize:4
OverallDifficulty:7.5
ApproachRate:5
SliderMultiplier:1.4
SliderTickRate:1

[Events]
//Background and Video events
Video,141,"video.mp4"
0,0,"2.jpg",0,0
//Break Periods
//Storyboard Layer 0 (Background)
//Storyboard Layer 1 (Fail)
//Storyboard Layer 2 (Pass)
//Storyboard Layer 3 (Foreground)
//Storyboard Layer 4 (Overlay)
//Storyboard Sound Samples
Sample,81749,0,"soft-hitfinish2.wav",70
Sample,83249,0,"soft-hitfinish2.wav",70

[TimingPoints]
2437,375,4,2,1,70,1,0
56437,-100,4,2,1,70,0,1
68437,-100,4,2,1,70,0,0

[HitObjects]
64,192,2437,5,8,0:0:0:0:
448,192,2437,128,0,3937:0:0:0:0:
64,192,3937,128,2,5437:0:0:0:0:
320,192,3937,1,8,0:0:0:0:
192,192,4124,1,0,0:0:0:0:
448,192,4312,1,0,0:0:0:0:
320,192,4499,1,0,0:0:0:0:
192,192,5062,1,8,0:0:0:0:
448,192,5437,128,2,5812:0:0:0:0:
192,192,5812,1,8,0:0:0:0:
64,192,5999,1,4,0:0:0:0:
448,192,5999,1,2,0:0:0:0:
64,192,6374,1,2,0:0:0:0:
320,192,6374,1,8,0:0:0:0:
192,192,6749,1,2,0:0:0:0:
448,192,6749,128,8,7124:0:0:0:0:
320,192,7124,1,0,0:0:0:0:
192,192,7312,1,0,0:0:0:0:
64,192,7499,128,0,7874:0:0:0:0:
320,192,7874,1,0,0:0:0:0:
192,192,8062,1,8,0:0:0:0:
320,192,8249,1,8,0:0:0:0:
64,192,8437,1,2,0:0:0:0:
448,192,8437,1,4,0:0:0:0:
192,192,8624,1,0,0:0:0:0:
320,192,8812,1,8,0:0:0:0:
448,192,8812,1,0,0:0:0:0:
64,192,8999,1,0,0:0:0:0:
320,192,9187,1,2,0:0:0:0:
192,192,9374,1,8,0:0:0:0:
64,192,9562,1,8,0:0:0:0:
448,192,9562,1,0,0:0:0:0:
320,192,9749,1,0,0:0:0:0:
192,192,9937,1,2,0:0:0:0:
320,192,10124,1,0,0:0:0:0:
64,192,10312,1,8,0:0:0:0:
448,192,10312,1,0,0:0:0:0:
192,192,10499,1,0,0:0:0:0:
320,192,10687,1,2,0:0:0:0:
64,192,10874,1,8,0:0:0:0:
320,192,11062,1,8,0:0:0:0:
448,192,11062,1,0,0:0:0:0:
192,192,11249,1,8,0:0:0:0:
64,192,11437,1,4,0:0:0:0:
448,192,11437,1,2,0:0:0:0:
448,192,11812,1,8,0:0:0:0:
320,192,11905,1,8,0:0:0:0:
192,192,11999,1,8,0:0:0:0:
64,192,12187,1,0,0:0:0:70:Tom1.wav
320,192,12374,1,0,0:0:0:0:
192,192,12562,1,0,0:0:0:70:Tom3.wav
64,192,12749,128,4,13124:0:0:0:0:
448,192,12749,1,2,0:0:0:0:
320,192,13124,1,2,0:0:0:0:
64,192,13312,1,8,0:0:0:0:
448,192,13312,1,0,0:0:0:0:
192,192,13499,128,2,14062:0:0:0:0:
320,192,13499,1,4,0:0:0:70:soft-hitfinish2.wav
448,192,14062,1,10,0:0:0:0:
64,192,14249,1,8,0:0:0:0:
192,192,14343,1,8,0:0:0:0:
320,192,14437,1,2,0:0:0:0:
448,192,14437,1,4,0:0:0:0:
64,192,14624,1,8,0:0:0:0:
448,192,14812,1,8,0:0:0:0:
320,192,14999,1,0,0:0:0:70:Tom1.wav
64,192,15187,1,0,0:0:0:0:
192,192,15374,1,8,0:0:0:0:
320,192,15562,1,0,0:0:0:70:Tom2.wav
448,192,15749,1,2,0:0:0:0:
64,192,15937,1,2,0:0:0:0:
448,192,16124,1,8,0:0:0:0:
192,192,16312,1,8,0:0:0:0:
320,192,16499,1,8,0:0:0:0:
64,192,16687,1,0,0:0:0:0:
448,192,16874,1,8,0:0:0:0:
320,192,17062,1,8,0:0:0:0:
192,192,17249,1,0,0:0:0:70:Tom3.wav
64,192,17437,128,4,17812:0:0:0:0:
448,192,17437,1,2,0:0:0:0:
320,192,17812,1,8,0:0:0:0:
448,192,17812,1,0,0:0:0:0:
192,192,17999,1,2,0:0:0:0:
64,192,18187,1,0,0:0:0:0:
448,192,18374,1,2,0:0:0:0:
192,192,18562,1,8,0:0:0:0:
320,192,18562,1,0,0:0:0:0:
64,192,18749,1,0,0:0:0:0:
448,192,18937,128,2,19312:0:0:0:0:
64,192,19312,1,8,0:0:0:0:
192,192,19312,1,0,0:0:0:0:
320,192,19499,1,2,0:0:0:0:
448,192,19687,1,0,0:0:0:0:
64,192,19874,1,2,0:0:0:0:
192,192,20062,1,8,0:0:0:0:
320,192,20062,1,0,0:0:0:0:
448,192,20249,1,2,0:0:0:0:
64,192,20437,128,2,20812:0:0:0:0:
192,192,20812,1,8,0:0:0:0:
320,192,20812,1,0,0:0:0:0:
448,192,20999,1,2,0:0:0:0:
64,192,21187,1,0,0:0:0:0:
192,192,21374,1,2,0:0:0:0:
320,192,21562,1,8,0:0:0:0:
448,192,21562,1,0,0:0:0:0:
192,192,21749,1,0,0:0:0:0:
64,192,21937,1,2,0:0:0:0:
448,192,22124,1,0,0:0:0:0:
192,192,22312,1,8,0:0:0:0:
320,192,22312,1,0,0:0:0:0:
64,192,22499,1,2,0:0:0:0:
64,192,22874,1,2,0:0:0:0:
320,192,23062,1,8,0:0:0:0:
448,192,23062,1,0,0:0:0:0:
192,192,23249,1,2,0:0:0:0:
64,192,23437,1,2,0:0:0:0:
448,192,23624,1,0,0:0:0:0:
192,192,23812,1,8,0:0:0:0:
320,192,23812,1,0,0:0:0:0:
64,192,23999,1,2,0:0:0:0:
448,192,24374,1,2,0:0:0:0:
64,192,24562,1,8,0:0:0:0:
192,192,24562,1,0,0:0:0:0:
320,192,24749,1,0,0:0:0:0:
448,192,24937,1,2,0:0:0:0:
64,192,25124,1,0,0:0:0:0:
192,192,25312,1,8,0:0:0:0:
320,192,25312,1,0,0:0:0:0:
448,192,25499,1,2,0:0:0:0:
448,192,25874,1,2,0:0:0:0:
192,192,26062,1,8,0:0:0:0:
320,192,26062,1,0,0:0:0:0:
64,192,26249,1,2,0:0:0:0:
448,192,26437,128,2,26812:0:0:0:0:
64,192,26812,128,8,27187:0:0:0:0:
192,192,26812,1,0,0:0:0:0:
320,192,26999,1,2,0:0:0:0:
448,192,27187,128,0,27562:0:0:0:0:
320,192,27374,1,2,0:0:0:0:
64,192,27562,128,8,27937:0:0:0:0:
192,192,27562,1,0,0:0:0:0:
192,192,27937,1,2,0:0:0:0:
320,192,27937,1,4,0:0:0:0:
448,192,28124,1,0,0:0:0:0:
64,192,28312,1,8,0:0:0:0:
192,192,28499,1,0,0:0:0:0:
320,192,28499,1,2,0:0:0:0:
320,192,28874,1,2,0:0:0:0:
448,192,29062,1,0,0:0:0:0:
64,192,29249,1,2,0:0:0:0:
192,192,29437,1,0,0:0:0:0:
320,192,29812,1,0,0:0:0:70:Tom3.wav
64,192,29999,1,4,0:0:0:0:
448,192,29999,1,2,0:0:0:0:
192,192,30374,1,2,0:0:0:0:
64,192,30562,1,8,0:0:0:0:
448,192,30562,1,0,0:0:0:0:
320,192,30749,1,2,0:0:0:0:
192,192,30937,128,2,31312:0:0:0:0:
64,192,31312,1,8,0:0:0:0:
448,192,31312,1,0,0:0:0:0:
320,192,31499,1,2,0:0:0:0:
192,192,31687,1,0,0:0:0:0:
320,192,31874,1,2,0:0:0:0:
64,192,32062,1,8,0:0:0:0:
448,192,32062,1,0,0:0:0:0:
192,192,32249,1,0,0:0:0:0:
64,192,32437,128,2,32812:0:0:0:0:
320,192,32437,1,4,0:0:0:70:soft-hitfinish2.wav
192,192,32812,1,8,0:0:0:0:
320,192,32812,1,0,0:0:0:0:
64,192,32999,1,2,0:0:0:0:
448,192,32999,128,4,33374:0:0:0:0:
192,192,33374,1,2,0:0:0:0:
320,192,33562,1,8,0:0:0:0:
448,192,33562,1,0,0:0:0:0:
64,192,33749,128,2,34124:0:0:0:0:
448,192,34124,1,2,0:0:0:0:
192,192,34312,1,8,0:0:0:0:
320,192,34312,1,0,0:0:0:0:
64,192,34499,1,0,0:0:0:0:
448,192,34687,1,0,0:0:0:0:
320,192,34874,1,2,0:0:0:0:
64,192,35062,1,8,0:0:0:0:
192,192,35062,1,0,0:0:0:0:
320,192,35249,1,0,0:0:0:0:
64,192,35437,1,2,0:0:0:0:
448,192,35437,1,4,0:0:0:0:
192,192,35624,1,0,0:0:0:0:
320,192,35812,1,8,0:0:0:0:
448,192,35812,1,0,0:0:0:0:
64,192,35999,1,2,0:0:0:0:
64,192,36374,1,2,0:0:0:0:
320,192,36562,1,8,0:0:0:0:
448,192,36562,1,0,0:0:0:0:
192,192,36749,1,0,0:0:0:0:
64,192,36937,1,2,0:0:0:0:
448,192,37124,1,0,0:0:0:0:
192,192,37312,1,8,0:0:0:0:
320,192,37312,1,0,0:0:0:0:
64,192,37499,1,2,0:0:0:0:
448,192,37874,1,2,0:0:0:0:
64,192,38062,1,8,0:0:0:0:
192,192,38062,1,0,0:0:0:0:
320,192,38249,1,2,0:0:0:0:
448,192,38437,128,2,38812:0:0:0:0:
64,192,38812,128,8,39187:0:0:0:0:
320,192,38812,1,0,0:0:0:0:
192,192,39187,128,2,39562:0:0:0:0:
448,192,39374,1,2,0:0:0:0:
64,192,39562,1,8,0:0:0:0:
320,192,39562,128,0,39937:0:0:0:0:
192,192,39937,1,2,0:0:0:0:
320,192,40312,1,8,0:0:0:0:
448,192,40312,1,0,0:0:0:0:
64,192,40499,128,2,40874:0:0:0:0:
448,192,40874,1,2,0:0:0:0:
192,192,41062,1,8,0:0:0:0:
320,192,41062,1,0,0:0:0:0:
64,192,41249,1,0,0:0:0:70:Tom1.wav
320,192,41437,1,2,0:0:0:0:
448,192,41437,1,8,0:0:0:0:
320,192,41624,1,2,0:0:0:0:
448,192,41624,1,8,0:0:0:0:
64,192,41812,1,8,0:0:0:0:
192,192,41812,1,2,0:0:0:0:
64,192,42187,1,0,0:0:0:0:
192,192,42374,1,8,0:0:0:0:
448,192,42374,1,2,0:0:0:0:
192,192,42749,128,4,43124:0:0:0:0:
320,192,42749,1,2,0:0:0:0:
64,192,43124,1,2,0:0:0:0:
320,192,43312,1,8,0:0:0:0:
448,192,43312,128,0,43687:0:0:0:0:
64,192,43687,1,2,0:0:0:0:
64,192,43874,1,2,0:0:0:0:
320,192,44062,1,8,0:0:0:0:
448,192,44062,1,0,0:0:0:0:
192,192,44249,1,2,0:0:0:0:
64,192,44437,1,2,0:0:0:0:
448,192,44437,1,8,0:0:0:0:
64,192,44624,1,2,0:0:0:0:
448,192,44624,1,8,0:0:0:0:
192,192,44812,1,2,0:0:0:0:
320,192,44812,1,8,0:0:0:0:
64,192,45187,1,0,0:0:0:0:
320,192,45374,1,8,0:0:0:0:
448,192,45374,1,2,0:0:0:0:
192,192,45749,1,2,0:0:0:0:
448,192,45749,128,4,46124:0:0:0:0:
64,192,46124,1,2,0:0:0:0:
192,192,46312,1,8,0:0:0:0:
320,192,46312,1,0,0:0:0:0:
448,192,46499,1,0,0:0:0:0:
192,192,46687,1,2,0:0:0:0:
192,192,46874,1,2,0:0:0:0:
64,192,47062,1,8,0:0:0:0:
448,192,47062,1,0,0:0:0:0:
320,192,47249,1,2,0:0:0:0:
64,192,47437,1,2,0:0:0:0:
192,192,47437,1,4,0:0:0:0:
64,192,47812,1,8,0:0:0:0:
320,192,47812,1,0,0:0:0:0:
192,192,47999,1,0,0:0:0:0:
64,192,48187,1,8,0:0:0:0:
448,192,48187,1,0,0:0:0:0:
320,192,48374,1,2,0:0:0:0:
192,192,48562,1,8,0:0:0:0:
448,192,48562,1,0,0:0:0:0:
64,192,48749,1,2,0:0:0:0:
320,192,48937,1,8,0:0:0:0:
448,192,48937,1,4,0:0:0:70:soft-hitfinish2.wav
192,192,49124,1,2,0:0:0:0:
64,192,49312,1,8,0:0:0:0:
448,192,49312,1,0,0:0:0:0:
320,192,49499,1,2,0:0:0:0:
64,192,49687,1,8,0:0:0:0:
192,192,49687,1,0,0:0:0:0:
448,192,49874,1,2,0:0:0:0:
64,192,50062,1,8,0:0:0:0:
320,192,50062,1,0,0:0:0:0:
192,192,50249,1,0,0:0:0:70:Tom2.wav
320,192,50437,1,2,0:0:0:0:
448,192,50437,1,8,0:0:0:0:
64,192,50624,128,8,50999:0:0:0:0:
448,192,50624,1,2,0:0:0:0:
320,192,50999,1,0,0:0:0:70:Tom3.wav
64,192,51187,1,2,0:0:0:0:
192,192,51187,1,8,0:0:0:0:
64,192,51374,1,2,0:0:0:0:
448,192,51374,128,8,51749:0:0:0:0:
192,192,51749,1,0,0:0:0:70:Tom3.wav
64,192,51937,128,10,52312:0:0:0:0:
448,192,51937,1,4,0:0:0:0:
192,192,52312,1,8,0:0:0:0:
448,192,52312,1,0,0:0:0:0:
320,192,52499,1,0,0:0:0:0:
192,192,52687,1,2,0:0:0:0:
192,192,52874,1,2,0:0:0:0:
64,192,53062,1,8,0:0:0:0:
448,192,53062,1,0,0:0:0:0:
320,192,53249,1,8,0:0:0:0:
64,192,53437,1,2,0:0:0:0:
448,192,53437,1,8,0:0:0:0:
192,192,53624,1,2,0:0:0:0:
320,192,53812,1,2,0:0:0:0:
64,192,53999,1,8,0:0:0:0:
448,192,53999,1,0,0:0:0:0:
320,192,54187,1,2,0:0:0:0:
192,192,54374,1,2,0:0:0:0:
64,192,54562,1,8,0:0:0:0:
448,192,54562,1,2,0:0:0:0:
192,192,54749,1,2,0:0:0:0:
320,192,54749,128,8,55124:0:0:0:0:
448,192,55124,1,8,0:0:0:0:
64,192,55312,1,8,0:0:0:0:
192,192,55499,1,2,0:0:0:0:
320,192,55499,1,8,0:0:0:0:
64,192,56437,1,2,0:0:0:0:
448,192,56437,1,4,0:0:0:0:
320,192,56624,1,0,0:0:0:0:
64,192,56812,1,8,0:0:0:0:
192,192,56812,1,0,0:0:0:0:
320,192,56999,1,0,0:0:0:0:
448,192,57187,1,2,0:0:0:0:
64,192,57374,1,0,0:0:0:0:
192,192,57562,1,8,0:0:0:0:
320,192,57562,1,0,0:0:0:0:
448,192,57749,1,0,0:0:0:0:
64,192,57937,128,2,58312:0:0:0:0:
192,192,58124,1,0,0:0:0:0:
320,192,58312,1,8,0:0:0:0:
448,192,58312,1,0,0:0:0:0:
192,192,58499,1,0,0:0:0:0:
320,192,58593,1,0,0:0:0:0:
64,192,58687,1,2,0:0:0:0:
448,192,58874,1,0,0:0:0:0:
192,192,59062,1,8,0:0:0:0:
320,192,59062,1,0,0:0:0:0:
64,192,59249,1,0,0:0:0:0:
448,192,59437,1,2,0:0:0:0:
320,192,59624,1,0,0:0:0:0:
64,192,59812,1,8,0:0:0:0:
192,192,59812,1,0,0:0:0:0:
320,192,59999,1,0,0:0:0:0:
448,192,60187,1,2,0:0:0:0:
64,192,60374,1,0,0:0:0:0:
192,192,60562,1,8,0:0:0:0:
320,192,60562,1,0,0:0:0:0:
448,192,60749,1,0,0:0:0:0:
64,192,60937,1,2,0:0:0:0:
320,192,61124,1,0,0:0:0:0:
64,192,61312,1,8,0:0:0:0:
192,192,61312,1,0,0:0:0:0:
448,192,61499,1,0,0:0:0:0:
64,192,61687,1,2,0:0:0:0:
448,192,61874,1,0,0:0:0:0:
192,192,62062,1,8,0:0:0:0:
320,192,62062,1,0,0:0:0:0:
64,192,62437,128,2,62812:0:0:0:0:
448,192,62437,1,4,0:0:0:70:soft-hitfinish2.wav
192,192,62624,1,0,0:0:0:0:
320,192,62812,1,8,0:0:0:0:
448,192,62812,1,0,0:0:0:0:
192,192,62999,1,0,0:0:0:0:
448,192,63187,128,2,63562:0:0:0:0:
320,192,63374,1,0,0:0:0:0:
64,192,63562,1,8,0:0:0:0:
192,192,63562,1,0,0:0:0:0:
320,192,63749,1,0,0:0:0:0:
64,192,63937,128,2,64312:0:0:0:0:
448,192,64124,1,0,0:0:0:0:
192,192,64312,1,8,0:0:0:0:
320,192,64312,1,0,0:0:0:0:
64,192,64499,1,0,0:0:0:0:
448,192,64687,128,2,65062:0:0:0:0:
64,192,64874,1,0,0:0:0:0:
192,192,65062,1,8,0:0:0:0:
320,192,65062,1,0,0:0:0:0:
448,192,65249,1,0,0:0:0:0:
64,192,65437,128,2,65812:0:0:0:0:
320,192,65624,1,0,0:0:0:0:
192,192,65812,1,8,0:0:0:0:
448,192,65812,1,0,0:0:0:0:
320,192,65999,1,0,0:0:0:0:
448,192,66187,128,2,66562:0:0:0:0:
192,192,66374,1,0,0:0:0:0:
64,192,66562,1,8,0:0:0:0:
320,192,66562,1,0,0:0:0:0:
192,192,66749,1,0,0:0:0:0:
64,192,66937,128,2,67312:0:0:0:0:
448,192,66937,1,4,0:0:0:0:
320,192,67124,1,0,0:0:0:0:
192,192,67312,1,8,0:0:0:0:
448,192,67312,1,0,0:0:0:0:
64,192,67499,1,2,0:0:0:0:
320,192,67499,128,0,67874:0:0:0:70:soft-hitfinish2.wav
448,192,67874,1,2,0:0:0:0:
192,192,68062,1,10,0:0:0:0:
320,192,68249,1,8,0:0:0:0:
64,192,68437,1,2,0:0:0:0:
448,192,68437,1,4,0:0:0:0:
192,192,68624,1,0,0:0:0:0:
192,192,68999,1,2,0:0:0:0:
64,192,69187,1,8,0:0:0:0:
448,192,69187,1,0,0:0:0:0:
320,192,69374,1,0,0:0:0:0:
320,192,69749,1,2,0:0:0:0:
64,192,69937,1,8,0:0:0:0:
192,192,69937,1,2,0:0:0:0:
448,192,70124,1,8,0:0:0:0:
320,192,70312,128,0,70687:0:0:0:0:
64,192,70499,1,2,0:0:0:0:
448,192,70687,1,8,0:0:0:0:
192,192,70687,128,0,71062:0:0:0:0:
320,192,70874,1,0,0:0:0:70:Tom2.wav
64,192,71062,128,0,71437:0:0:0:0:
448,192,71249,1,2,0:0:0:0:
320,192,71437,1,8,0:0:0:0:
192,192,71437,1,4,0:0:0:0:
64,192,71624,1,0,0:0:0:0:
64,192,71999,1,2,0:0:0:0:
448,192,72187,1,8,0:0:0:0:
320,192,72187,1,0,0:0:0:0:
192,192,72374,1,0,0:0:0:0:
192,192,72749,1,2,0:0:0:0:
320,192,72937,1,2,0:0:0:0:
448,192,73124,1,8,0:0:0:0:
64,192,73124,1,0,0:0:0:0:
192,192,73312,1,0,0:0:0:0:
320,192,73499,1,2,0:0:0:0:
448,192,73687,1,8,0:0:0:0:
64,192,73687,1,0,0:0:0:0:
320,192,73874,1,0,0:0:0:0:
192,192,73968,1,8,0:0:0:0:
64,192,74062,1,8,0:0:0:0:
448,192,74249,1,2,0:0:0:0:
320,192,74437,1,2,0:0:0:0:
192,192,74437,1,0,0:0:0:0:
64,192,74624,1,0,0:0:0:0:
448,192,74812,1,8,0:0:0:0:
320,192,74812,1,0,0:0:0:0:
192,192,74999,128,2,75374:0:0:0:0:
448,192,75374,1,2,0:0:0:0:
64,192,75374,1,4,0:0:0:0:
320,192,75562,1,8,0:0:0:0:
192,192,75562,1,0,0:0:0:0:
448,192,75749,1,0,0:0:0:0:
64,192,75937,1,2,0:0:0:0:
192,192,76124,1,2,0:0:0:0:
448,192,76312,1,8,0:0:0:0:
320,192,76312,1,0,0:0:0:0:
192,192,76499,1,2,0:0:0:0:
64,192,76499,128,4,76874:0:0:0:70:soft-hitfinish2.wav
448,192,76874,1,2,0:0:0:0:
320,192,77062,1,8,0:0:0:0:
192,192,77062,1,0,0:0:0:0:
64,192,77249,1,0,0:0:0:0:
448,192,77437,128,2,77812:0:0:0:0:
320,192,77437,1,4,0:0:0:0:
320,192,77812,1,8,0:0:0:0:
64,192,77812,128,0,78187:0:0:0:0:
192,192,77999,1,0,0:0:0:70:Tom1.wav
448,192,78187,128,2,78562:0:0:0:0:
320,192,78187,1,4,0:0:0:70:soft-hitfinish2.wav
192,192,78374,1,0,0:0:0:70:Tom3.wav
320,192,78562,1,8,0:0:0:0:
64,192,78562,128,0,78937:0:0:0:0:
448,192,78937,1,2,0:0:0:0:
192,192,78937,1,8,0:0:0:0:
448,192,79124,1,8,0:0:0:0:
192,192,79124,1,2,0:0:0:0:
448,192,79499,1,0,0:0:0:70:Tom2.wav
320,192,79687,1,8,0:0:0:0:
64,192,79687,1,2,0:0:0:0:
320,192,79874,1,2,0:0:0:0:
64,192,79874,1,8,0:0:0:0:
192,192,80249,1,0,0:0:0:0:
448,192,80437,128,2,81937:0:0:0:0:
64,192,80437,1,4,0:0:0:0:
320,192,80624,1,8,0:0:0:0:
192,192,80812,1,8,0:0:0:0:
64,192,80999,1,0,0:0:0:70:Tom1.wav
64,192,81374,1,8,0:0:0:0:
320,192,81562,1,0,0:0:0:70:Tom2.wav
192,192,81749,1,2,0:0:0:0:
320,192,81937,1,2,0:0:0:0:
64,192,81937,128,4,83437:0:0:0:0:
192,192,82124,1,0,0:0:0:70:Tom3.wav
448,192,82312,1,8,0:0:0:0:
320,192,82499,1,8,0:0:0:0:
448,192,82874,1,8,0:0:0:0:
192,192,83062,1,8,0:0:0:0:
320,192,83249,1,2,0:0:0:0:
448,192,83437,128,4,83812:0:0:0:0:
192,192,83437,1,8,0:0:0:0:
64,192,83624,1,2,0:0:0:70:Tom3.wav
320,192,83812,1,2,0:0:0:0:
448,192,83999,1,4,0:0:0:0:
64,192,83999,128,8,84374:0:0:0:0:
192,192,84187,1,2,0:0:0:70:Tom3.wav
320,192,84374,1,2,0:0:0:0:
448,192,84562,1,4,0:0:0:0:
64,192,84562,1,2,0:0:0:0:
448,192,84749,128,12,88687:0:0:0:0:
64,192,84749,128,2,88687:0:0:0:0:
