osu file format v14

[General]
AudioFilename: audio.mp3
AudioLeadIn: 0
PreviewTime: 136491
Countdown: 0
SampleSet: Soft
StackLeniency: 0.4
Mode: 0
LetterboxInBreaks: 0
WidescreenStoryboard: 0

[Editor]
Bookmarks: 232417
DistanceSpacing: 0.7
BeatDivisor: 4
GridSize: 4
TimelineZoom: 5.899996

[Metadata]
Title:ieuD
TitleUnicode:ieuD
Artist:Igorrr
ArtistUnicode:Igorrr
Creator:SinHay
Version:Dissimilitude
Source:
Tags:metal savage sinusoid stream grindcore electro-jazz opera balkan gautier serre
BeatmapID:1995321
BeatmapSetID:955514

[Difficulty]
HPDrainRate:5
CircleSize:4.4
OverallDifficulty:9.5
ApproachRate:9.8
SliderMultiplier:1.9
SliderTickRate:1

[Events]
//Background and Video events
0,0,"bg.jpg",0,0
//Break Periods
2,76603,79936
2,137329,138663
//Storyboard Layer 0 (Background)
//Storyboard Layer 1 (Fail)
//Storyboard Layer 2 (Pass)
//Storyboard Layer 3 (Foreground)
//Storyboard Layer 4 (Overlay)
//Storyboard Sound Samples

[TimingPoints]
23270,333.333333333333,4,2,1,50,1,0
23270,-112.359550561798,4,2,1,50,0,0
23853,-112.359550561798,4,2,1,5,0,0
23936,-91.7431192660552,4,2,1,50,0,0
24186,-91.7431192660552,4,2,1,5,0,0
24492,-169.491525423729,4,2,1,50,0,0
24936,-120.481927710843,4,2,1,50,0,0
25103,-120.481927710843,4,2,1,5,0,0
25270,-120.481927710843,4,2,1,50,0,0
28853,-120.481927710843,4,2,1,5,0,0
29020,-120.481927710843,4,2,1,50,0,0
29645,-120.481927710843,4,2,1,5,0,0
29686,-120.481927710843,4,2,1,50,0,0
29853,-120.481927710843,4,2,1,5,0,0
29936,-120.481927710843,4,2,1,50,0,0
33853,-120.481927710843,4,2,1,5,0,0
33936,-120.481927710843,4,2,1,50,0,0
34603,-120.481927710843,4,2,1,85,0,0
34853,-120.481927710843,4,2,1,5,0,0
34936,-120.481927710843,4,2,1,50,0,0
35520,-120.481927710843,4,2,1,5,0,0
35603,-120.481927710843,4,2,1,50,0,0
35853,-120.481927710843,4,2,1,5,0,0
35936,-120.481927710843,4,2,1,50,0,0
36186,-120.481927710843,4,2,1,5,0,0
36270,-120.481927710843,4,2,1,50,0,0
36520,-120.481927710843,4,2,1,5,0,0
36604,-120.481927710843,4,2,1,50,0,0
36770,-120.481927710843,4,2,1,5,0,0
36936,-120.481927710843,4,2,1,50,0,0
38186,-120.481927710843,4,2,1,5,0,0
38270,-120.481927710843,4,2,1,50,0,0
38520,-120.481927710843,4,2,1,5,0,0
38604,-120.481927710843,4,2,1,50,0,0
39770,-116.279069767442,4,2,1,35,0,0
39853,-112.359550561798,4,2,1,35,0,0
39936,-108.695652173913,4,2,1,50,0,0
40186,-108.695652173913,4,2,1,5,0,0
40270,-108.695652173913,4,2,1,50,0,0
40853,-108.695652173913,4,2,1,5,0,0
40936,-108.695652173913,4,2,1,50,0,0
41103,-108.695652173913,4,2,1,5,0,0
41270,-108.695652173913,4,2,1,50,0,0
41853,-108.695652173913,4,2,1,5,0,0
41936,-108.695652173913,4,2,1,50,0,0
42103,-108.695652173913,4,2,1,5,0,0
42270,-108.695652173913,4,2,1,50,0,0
42353,-108.695652173913,4,2,1,5,0,0
42603,-108.695652173913,4,2,1,50,0,0
43520,-108.695652173913,4,2,1,5,0,0
43603,-108.695652173913,4,2,1,50,0,0
43770,-108.695652173913,4,2,1,5,0,0
43936,-108.695652173913,4,2,1,50,0,0
45520,-108.695652173913,4,2,1,5,0,0
45603,-108.695652173913,4,2,1,50,0,0
45770,-108.695652173913,4,2,1,5,0,0
45936,-108.695652173913,4,2,1,50,0,0
46853,-108.695652173913,4,2,1,5,0,0
46936,-108.695652173913,4,2,1,50,0,0
47103,-108.695652173913,4,2,1,5,0,0
47270,-108.695652173913,4,2,1,50,0,0
48103,-108.695652173913,4,2,1,5,0,0
48270,-108.695652173913,4,2,1,50,0,0
48520,-108.695652173913,4,2,1,5,0,0
48603,-108.695652173913,4,2,1,50,0,0
49853,-108.695652173913,4,2,1,5,0,0
49936,-98.0392156862745,4,2,1,50,0,0
50603,-156.25,4,2,1,50,0,0
51270,-136.986301369863,4,2,1,50,0,0
51603,-123.456790123457,4,2,1,50,0,0
51936,-112.359550561798,4,2,1,50,0,0
52270,-108.695652173913,4,2,1,50,0,0
52353,-108.695652173913,4,2,1,35,0,0
52603,-98.0392156862745,4,2,1,50,0,0
53186,-98.0392156862745,4,2,1,5,0,0
53270,-98.0392156862745,4,2,1,50,0,0
53520,-98.0392156862745,4,2,1,5,0,0
53603,-98.0392156862745,4,2,1,50,0,0
53770,-98.0392156862745,4,2,1,5,0,0
53936,-98.0392156862745,4,2,1,50,0,0
54186,-98.0392156862745,4,2,1,5,0,0
54270,-98.0392156862745,4,2,1,50,0,0
54520,-98.0392156862745,4,2,1,5,0,0
54603,-156.25,4,2,1,50,0,0
55770,-156.25,4,2,1,5,0,0
55936,-108.695652173913,4,2,1,50,0,0
56270,-108.695652173913,4,2,1,50,0,0
56520,-108.695652173913,4,2,1,5,0,0
56603,-108.695652173913,4,2,1,50,0,0
61769,-108.695652173913,4,2,1,35,0,0
61936,-108.695652173913,4,2,1,50,0,0
62353,-108.695652173913,4,2,1,5,0,0
62436,-108.695652173913,4,2,1,50,0,0
62686,-108.695652173913,4,2,1,5,0,0
62769,-108.695652173913,4,2,1,50,0,0
64436,-108.695652173913,4,2,1,5,0,0
64603,-108.695652173913,4,2,1,50,0,0
64853,-108.695652173913,4,2,1,5,0,0
64936,-108.695652173913,4,2,1,50,0,0
65186,-108.695652173913,4,2,1,5,0,0
65269,-108.695652173913,4,2,1,50,0,0
65603,-108.695652173913,4,2,1,5,0,0
65686,-108.695652173913,4,2,1,50,0,0
65769,-108.695652173913,4,2,1,5,0,0
65936,-108.695652173913,4,2,1,50,0,0
67603,-108.695652173913,4,2,1,50,0,0
67769,-108.695652173913,4,2,1,5,0,0
67936,-108.695652173913,4,2,1,50,0,0
68103,-108.695652173913,4,2,1,5,0,0
68186,-108.695652173913,4,2,1,35,0,0
68353,-66.6666666666667,4,2,13,35,0,1
72436,-28.9855072463768,4,2,13,84,0,1
72519,-25,4,2,12,85,0,1
72603,-39.2156862745098,4,2,12,85,0,1
72686,-1000,4,2,12,85,0,1
72707,-1000,4,2,12,85,0,0
80680,333.333333333333,4,2,11,50,1,0
80680,-151.515151515152,4,2,5,15,0,0
81346,-151.515151515152,4,2,5,25,0,0
82013,-151.515151515152,4,2,5,35,0,0
82680,-151.515151515152,4,2,5,45,0,0
83346,-151.515151515152,4,2,5,55,0,0
84013,-151.515151515152,4,2,5,65,0,0
84680,-151.515151515152,4,2,5,75,0,0
85846,-25,4,2,12,85,0,0
85930,-39.2156862745098,4,2,12,85,0,0
86013,-1000,4,2,12,85,0,0
86263,-1000,4,2,12,5,0,0
86305,-111.111111111111,4,2,12,35,0,0
86513,-83.3333333333333,4,2,12,45,0,0
86930,-83.3333333333333,4,2,12,5,0,0
86971,-111.111111111111,4,2,12,35,0,0
87180,-83.3333333333333,4,2,12,45,0,0
87346,-1000,4,2,12,85,0,0
87596,-1000,4,2,12,5,0,0
87638,-111.111111111111,4,2,12,35,0,0
87846,-83.3333333333333,4,2,12,45,0,0
88263,-83.3333333333333,4,2,12,5,0,0
88346,-125,4,2,12,55,0,0
88429,-125,4,2,12,5,0,0
88430,-83.3333333333333,4,2,12,5,0,0
88512,-83.3333333333333,4,2,12,45,0,0
88679,-80.6451612903226,4,2,9,55,0,1
89346,-80.6451612903226,4,2,7,55,0,1
90013,-80.6451612903226,4,2,8,55,0,1
90679,-80.6451612903226,4,2,9,55,0,1
92679,-80.6451612903226,4,2,6,55,0,1
93346,-80.6451612903226,4,2,8,55,0,1
94013,-80.6451612903226,4,2,7,55,0,1
94679,-80.6451612903226,4,2,9,55,0,1
96679,-80.6451612903226,4,2,6,55,0,1
97346,-80.6451612903226,4,2,8,55,0,1
98013,-80.6451612903226,4,2,7,55,0,1
98679,-80.6451612903226,4,2,9,55,0,1
100654,327.868852459016,4,2,5,50,1,0
100654,-200,4,2,5,50,0,0
101801,-200,4,2,5,5,0,0
101965,-142.857142857143,4,2,5,50,0,0
103194,-200,4,2,5,50,0,0
103550,-200,4,2,5,5,0,0
103604,-200,4,2,5,50,0,0
103768,-200,4,2,5,5,0,0
103932,-200,4,2,5,50,0,0
105899,-200,4,2,5,5,0,0
105981,-200,4,2,5,50,0,0
107293,-142.857142857143,4,2,5,5,0,0
107375,-142.857142857143,4,2,5,50,0,0
107785,-142.857142857143,4,2,5,5,0,0
107867,-142.857142857143,4,2,5,50,0,0
107949,-142.857142857143,4,2,5,5,0,0
108031,-142.857142857143,4,2,5,50,0,0
108194,-142.857142857143,4,2,5,25,0,0
108522,-166.666666666667,4,2,5,50,0,0
111555,-166.666666666667,4,2,5,5,0,0
111637,-166.666666666667,4,2,5,50,0,0
111801,-166.666666666667,4,2,5,5,0,0
111965,-166.666666666667,4,2,5,50,0,0
112621,-166.666666666667,4,2,5,50,0,0
115408,-166.666666666667,4,2,5,50,0,0
117293,-200,4,2,5,5,0,0
117375,-166.666666666667,4,2,5,50,0,0
117867,-200,4,2,5,5,0,0
117949,-125,4,2,5,50,0,0
119096,-125,4,2,5,5,0,0
119178,-125,4,2,5,50,0,0
120162,-200,4,2,5,5,0,0
120244,-125,4,2,5,50,0,0
120654,266.666666666667,4,2,1,50,1,1
120654,-82.6446280991736,4,2,1,50,0,1
124654,-40,4,2,5,85,0,1
124720,-1000,4,2,1,5,0,0
128570,337.078651685393,4,3,2,25,1,0
128570,-131.578947368421,4,3,2,25,0,0
132320,-131.578947368421,4,2,4,25,0,0
136491,344.827586206897,4,2,12,85,1,0
136491,-25,4,2,12,85,0,1
136577,-39.2156862745098,4,2,12,85,0,1
136663,333.333333333333,4,2,12,85,1,1
136664,-1000,4,2,12,85,0,1
139329,-91.743119266055,4,2,3,65,0,0
140663,-125,4,2,2,85,0,1
141164,-125,4,2,2,5,0,1
141330,-125,4,2,2,85,0,1
141997,-125,4,2,13,55,0,1
142664,-125,4,2,2,85,0,1
143164,-125,4,2,2,5,0,1
143330,-125,4,2,2,85,0,1
143997,-125,4,2,2,85,0,1
144164,-125,4,2,8,55,0,1
144497,-125,4,2,2,85,0,1
144664,-125,4,2,8,55,0,1
144914,-125,4,2,9,55,0,1
145330,-125,4,2,2,85,0,1
145829,-125,4,2,2,85,0,0
145996,-76.9230769230769,4,2,2,85,0,0
146551,-76.9230769230769,4,2,2,5,0,0
146663,-86.9565217391304,4,2,2,85,0,0
147829,-86.9565217391304,4,2,2,35,0,0
147996,-125,4,2,2,85,0,0
148079,-125,4,2,8,55,0,0
149329,-125,4,2,2,85,0,0
149413,-125,4,2,8,55,0,0
150663,-125,4,2,2,85,0,0
150747,-125,4,2,8,55,0,0
151329,-125,4,2,2,85,0,0
151912,-125,4,2,2,5,0,0
151996,-125,4,2,2,85,0,0
152496,-125,4,2,8,55,0,0
153329,-125,4,2,2,85,0,0
153829,-125,4,2,8,55,0,0
153996,-84.7457627118644,4,2,2,85,0,0
154579,-84.7457627118644,4,2,2,5,0,0
154662,-92.5925925925926,4,2,2,85,0,0
155912,-92.5925925925926,4,2,2,5,0,0
155996,-125,4,2,2,55,0,0
156079,-125,4,2,8,55,0,0
156662,-102.040816326531,4,2,8,55,0,0
157162,-102.040816326531,4,2,8,30,0,0
157329,-125,4,2,2,85,0,0
157412,-125,4,2,8,55,0,0
157496,-125,4,2,8,55,0,0
158662,-125,4,2,2,85,0,0
159162,-125,4,2,8,30,0,0
159329,-125,4,2,8,55,0,0
159996,-125,4,2,2,85,0,0
160079,-125,4,2,8,55,0,0
161329,-63.2911392405063,4,2,2,85,0,0
161996,-76.9230769230769,4,2,2,85,0,0
163329,-125,4,2,2,85,0,0
163996,-125,4,2,2,85,0,0
164079,-125,4,2,8,55,0,0
164496,-125,4,2,8,5,0,0
164662,-125,4,2,8,55,0,0
165329,-125,4,2,2,85,0,0
165412,-125,4,2,8,55,0,0
165829,-125,4,2,8,15,0,0
165996,-125,4,2,8,55,0,0
166662,-125,4,2,2,85,0,0
166745,-125,4,2,8,55,0,0
167162,-125,4,2,8,25,0,0
167329,-125,4,2,8,55,0,0
167912,-125,4,2,8,5,0,0
167996,-125,4,2,2,85,0,0
168079,-125,4,2,8,55,0,0
168329,-125,4,2,8,5,0,0
168412,-125,4,2,8,55,0,0
168829,-125,4,2,8,5,0,0
168885,-125,4,2,8,55,0,0
169051,-125,4,2,8,5,0,0
169107,-125,4,2,8,55,0,0
169274,-125,4,2,8,5,0,0
169329,-125,4,2,2,85,0,0
169496,-125,4,2,2,5,0,0
169551,-125,4,2,8,55,0,0
169718,-125,4,2,8,5,0,0
169774,-125,4,2,8,55,0,0
169941,-125,4,2,8,5,0,0
169996,-83.3333333333333,4,2,2,85,0,0
170579,-83.3333333333333,4,2,2,5,0,0
170662,-94.3396226415094,4,2,2,85,0,0
171329,-105.263157894737,4,2,2,85,0,0
171496,-105.263157894737,4,2,8,55,0,0
171996,-105.263157894737,4,2,2,85,0,0
172079,-1000,4,2,2,5,0,0
172662,-75.7575757575758,4,2,2,85,0,0
172746,-75.7575757575758,4,2,2,55,0,0
173246,-75.7575757575758,4,2,2,5,0,0
173329,-75.7575757575758,4,2,2,85,0,0
173412,-75.7575757575758,4,2,2,55,0,0
174329,333.333333333333,4,2,2,85,1,0
174329,-75.7575757575758,4,2,2,55,0,0
174662,-75.7575757575758,4,2,2,85,0,0
174745,-75.7575757575758,4,2,2,55,0,0
175079,-75.7575757575758,4,2,2,5,0,0
175162,-75.7575757575758,4,2,2,55,0,0
175245,-75.7575757575758,4,2,2,5,0,0
175329,-75.7575757575758,4,2,2,85,0,0
175412,-75.7575757575758,4,2,2,55,0,0
175996,-75.7575757575758,4,2,2,85,0,0
176079,-75.7575757575758,4,2,2,55,0,0
177329,-75.7575757575758,4,2,2,85,0,0
177412,-75.7575757575758,4,2,2,55,0,0
177912,-75.7575757575758,4,2,2,5,0,0
177996,-75.7575757575758,4,2,2,85,0,0
178079,-75.7575757575758,4,2,2,55,0,0
178496,-75.7575757575758,4,2,2,85,0,0
178745,-75.7575757575758,4,2,2,55,0,0
179912,-75.7575757575758,4,2,2,5,0,0
179996,-75.7575757575758,4,2,2,85,0,0
180079,-75.7575757575758,4,2,2,55,0,0
180579,-75.7575757575758,4,2,2,5,0,0
180662,-75.7575757575758,4,2,2,85,0,0
180745,-75.7575757575758,4,2,2,55,0,0
181245,-75.7575757575758,4,2,2,5,0,0
181329,-75.7575757575758,4,2,2,85,0,0
181412,-75.7575757575758,4,2,2,55,0,0
182662,-75.7575757575758,4,2,2,85,0,0
182745,-75.7575757575758,4,2,2,55,0,0
183329,-75.7575757575758,4,2,2,85,0,0
183412,-75.7575757575758,4,2,2,55,0,0
183996,-75.7575757575758,4,2,2,85,0,0
184079,-75.7575757575758,4,2,2,55,0,0
185329,-75.7575757575758,4,2,2,85,0,0
185412,-75.7575757575758,4,2,2,55,0,0
185996,-64.5161290322581,4,2,13,85,0,0
187329,-75.7575757575758,4,2,13,85,0,0
187495,-75.7575757575758,4,2,8,55,0,0
187662,-89.2857142857143,4,2,13,85,0,0
187829,-75.7575757575758,4,2,8,55,0,0
187995,-105.263157894737,4,2,12,85,0,0
188079,-105.263157894737,4,2,12,5,0,0
188662,-78.7401574803149,4,2,2,55,0,0
188995,-78.7401574803149,4,2,2,55,0,0
189078,-78.7401574803149,4,2,2,5,0,0
189162,-78.7401574803149,4,2,2,55,0,0
189245,-78.7401574803149,4,2,2,5,0,0
189328,-63.6942675159236,4,2,2,85,0,0
189662,-63.6942675159236,4,2,2,65,0,0
189828,-78.7401574803149,4,2,2,55,0,0
189995,-78.7401574803149,4,2,2,55,0,0
190078,-78.7401574803149,4,2,2,5,0,0
190162,-78.7401574803149,4,2,2,55,0,0
190245,-78.7401574803149,4,2,2,5,0,0
190328,-78.7401574803149,4,2,2,55,0,0
190411,-78.7401574803149,4,2,2,5,0,0
190495,-78.7401574803149,4,2,2,55,0,0
190578,-78.7401574803149,4,2,2,5,0,0
190662,-63.6942675159236,4,2,2,85,0,0
190828,-78.7401574803149,4,2,2,55,0,0
190995,-78.7401574803149,4,2,2,55,0,0
191078,-78.7401574803149,4,2,2,5,0,0
191162,-78.7401574803149,4,2,2,55,0,0
191245,-78.7401574803149,4,2,2,5,0,0
191328,-70.4225352112676,4,2,2,72,0,0
191412,-70.4225352112676,4,2,2,5,0,0
191495,-78.7401574803149,4,2,2,55,0,0
191578,-78.7401574803149,4,2,2,5,0,0
191662,-78.7401574803149,4,2,11,72,0,0
191745,-78.7401574803149,4,2,13,65,0,0
191828,-78.7401574803149,4,2,2,55,0,0
191911,-78.7401574803149,4,2,2,5,0,0
191995,-63.6942675159236,4,2,2,85,0,0
192328,-63.6942675159236,4,2,2,65,0,0
192495,-78.7401574803149,4,2,2,55,0,0
192662,-78.7401574803149,4,2,2,55,0,0
192745,-78.7401574803149,4,2,2,5,0,0
192828,-78.7401574803149,4,2,2,55,0,0
192911,-78.7401574803149,4,2,2,5,0,0
192995,-78.7401574803149,4,2,2,55,0,0
193078,-78.7401574803149,4,2,2,5,0,0
193162,-78.7401574803149,4,2,2,55,0,0
193245,-78.7401574803149,4,2,2,5,0,0
193328,-63.6942675159236,4,2,2,85,0,0
193662,-78.7401574803149,4,2,2,65,0,0
193995,-70.4225352112676,4,2,2,72,0,0
194079,-70.4225352112676,4,2,2,5,0,0
194162,-78.7401574803149,4,2,2,55,0,0
194245,-78.7401574803149,4,2,2,5,0,0
194328,-78.7401574803149,4,2,2,55,0,0
194662,-63.6942675159236,4,2,2,85,0,0
194745,-63.6942675159236,4,2,2,5,0,0
194828,-78.7401574803149,4,2,2,55,0,0
195495,-78.7401574803149,4,2,2,55,0,0
195662,-78.7401574803149,4,2,2,55,0,0
195746,-78.7401574803149,4,2,2,5,0,0
195828,-78.7401574803149,4,2,2,55,0,0
195912,-78.7401574803149,4,2,2,5,0,0
195995,-63.6942675159236,4,2,2,85,0,0
196079,-78.7401574803149,4,2,2,55,0,0
196328,-78.7401574803149,4,2,2,55,0,0
196412,-78.7401574803149,4,2,2,5,0,0
196495,-78.7401574803149,4,2,2,55,0,0
196579,-78.7401574803149,4,2,2,5,0,0
196662,-125,4,2,12,62,0,0
196703,-125,4,2,12,5,0,0
196745,-133.333333333333,4,2,12,55,0,0
196787,-133.333333333333,4,2,12,5,0,0
196828,-142.857142857143,4,2,12,43,0,0
196912,-142.857142857143,4,2,12,5,0,0
196953,-153.846153846153,4,2,12,54,0,0
196995,-153.846153846153,4,2,12,5,0,0
197037,-166.666666666667,4,2,12,57,0,0
197120,-166.666666666667,4,2,12,5,0,0
197162,-181.818181818181,4,2,12,62,0,0
197287,-181.818181818181,4,2,12,5,0,0
197328,-200,4,2,12,64,0,0
197495,-200,4,2,12,5,0,0
197537,-222.222222222221,4,2,12,67,0,0
197745,-222.222222222221,4,2,12,5,0,0
197787,-250,4,2,12,71,0,0
197953,-250,4,2,12,5,0,0
197995,-200,4,2,1,85,0,0
198578,-86.9565217391303,4,2,12,5,0,0
198662,-64.5161290322581,4,2,2,85,0,0
199245,-64.5161290322581,4,2,2,5,0,0
199328,-68.9655172413793,4,2,2,85,0,0
199412,-68.9655172413793,4,2,2,55,0,0
199995,-68.9655172413793,4,2,2,85,0,0
200079,-68.9655172413793,4,2,2,55,0,0
200662,-68.9655172413793,4,2,8,55,0,0
200746,-68.9655172413793,4,2,8,35,0,0
200828,-68.9655172413793,4,2,8,55,0,0
200912,-68.9655172413793,4,2,8,35,0,0
200995,-68.9655172413793,4,2,8,55,0,0
201079,-68.9655172413793,4,2,8,35,0,0
201162,-68.9655172413793,4,2,8,55,0,0
201246,-68.9655172413793,4,2,8,35,0,0
201328,-68.9655172413793,4,2,2,85,0,0
201412,-68.9655172413793,4,2,2,55,0,0
201995,-68.9655172413793,4,2,2,85,0,0
202079,-68.9655172413793,4,2,2,55,0,0
202328,-68.9655172413793,4,2,8,55,0,0
202412,-68.9655172413793,4,2,8,35,0,0
202495,-68.9655172413793,4,2,8,55,0,0
202579,-68.9655172413793,4,2,8,35,0,0
202662,-68.9655172413793,4,2,2,85,0,0
202746,-68.9655172413793,4,2,2,55,0,0
203328,-68.9655172413793,4,2,8,55,0,0
203412,-68.9655172413793,4,2,8,35,0,0
203495,-68.9655172413793,4,2,8,55,0,0
203579,-68.9655172413793,4,2,8,35,0,0
203662,-68.9655172413793,4,2,8,55,0,0
203746,-68.9655172413793,4,2,8,35,0,0
203828,-68.9655172413793,4,2,8,55,0,0
203912,-68.9655172413793,4,2,8,35,0,0
203995,-68.9655172413793,4,2,2,85,0,0
204079,-68.9655172413793,4,2,2,55,0,0
204662,-68.9655172413793,4,2,2,85,0,0
204746,-68.9655172413793,4,2,2,55,0,0
205328,-68.9655172413793,4,2,2,85,0,0
205412,-68.9655172413793,4,2,2,55,0,0
205995,-68.9655172413793,4,2,8,55,0,0
206079,-68.9655172413793,4,2,8,35,0,0
206162,-68.9655172413793,4,2,8,55,0,0
206246,-68.9655172413793,4,2,8,35,0,0
206328,-68.9655172413793,4,2,8,55,0,0
206412,-68.9655172413793,4,2,8,35,0,0
206495,-68.9655172413793,4,2,8,55,0,0
206579,-68.9655172413793,4,2,8,35,0,0
206662,-68.9655172413793,4,2,2,85,0,0
206746,-68.9655172413793,4,2,2,55,0,0
207245,-68.9655172413793,4,2,2,5,0,0
207328,-86.9565217391304,4,2,2,55,0,0
207411,-86.9565217391304,4,2,2,5,0,0
207495,-86.9565217391304,4,2,2,55,0,0
207578,-86.9565217391304,4,2,2,5,0,0
207662,-86.9565217391304,4,2,2,35,0,0
207995,-86.9565217391304,4,2,2,55,0,0
208078,-86.9565217391304,4,2,2,5,0,0
208162,-86.9565217391304,4,2,2,55,0,0
208245,-86.9565217391304,4,2,2,5,0,0
208328,-86.9565217391304,4,2,2,35,0,0
208412,-86.9565217391304,4,2,2,55,0,0
208578,-86.9565217391304,4,2,2,5,0,0
208662,-80,4,2,12,85,0,0
209328,-64.5161290322581,4,2,2,85,0,0
209412,-64.5161290322581,4,2,2,5,0,0
209995,-72.463768115942,4,2,11,85,0,0
210078,-72.463768115942,4,2,8,35,0,0
210328,-72.463768115942,4,2,11,55,0,0
210412,-72.463768115942,4,2,8,35,0,0
210662,-72.463768115942,4,2,11,85,0,0
210745,-72.463768115942,4,2,8,35,0,0
210995,-72.463768115942,4,2,11,55,0,0
211078,-72.463768115942,4,2,8,35,0,0
211328,-72.463768115942,4,2,11,55,0,0
211412,-72.463768115942,4,2,8,35,0,0
211662,-72.463768115942,4,2,11,55,0,0
211745,-72.463768115942,4,2,8,35,0,0
211995,-72.463768115942,4,2,11,85,0,0
212078,-72.463768115942,4,2,8,35,0,0
212328,-72.463768115942,4,2,11,55,0,0
212412,-72.463768115942,4,2,8,35,0,0
212662,-72.463768115942,4,2,11,85,0,0
212745,-72.463768115942,4,2,8,35,0,0
212995,-72.463768115942,4,2,11,55,0,0
213078,-72.463768115942,4,2,8,35,0,0
213328,-72.463768115942,4,2,11,85,0,0
213412,-72.463768115942,4,2,8,35,0,0
213662,-72.463768115942,4,2,11,55,0,0
213745,-72.463768115942,4,2,8,35,0,0
213995,-72.463768115942,4,2,11,55,0,0
214078,-72.463768115942,4,2,8,35,0,0
214328,-72.463768115942,4,2,11,55,0,0
214412,-72.463768115942,4,2,8,35,0,0
214662,-72.463768115942,4,2,11,85,0,0
214745,-72.463768115942,4,2,8,35,0,0
214995,-72.463768115942,4,2,11,55,0,0
215078,-72.463768115942,4,2,8,35,0,0
215328,-72.463768115942,4,2,11,85,0,0
215412,-72.463768115942,4,2,8,35,0,0
215661,-72.463768115942,4,2,11,55,0,0
215745,-72.463768115942,4,2,8,35,0,0
215995,-72.463768115942,4,2,11,55,0,0
216078,-72.463768115942,4,2,8,35,0,0
216328,-72.463768115942,4,2,11,55,0,0
216412,-72.463768115942,4,2,8,35,0,0
216495,-105.263157894737,4,2,8,55,0,0
216578,-105.263157894737,4,2,8,5,0,0
216662,-105.263157894737,4,2,8,55,0,0
216745,-105.263157894737,4,2,8,5,0,0
216828,-105.263157894737,4,2,8,55,0,0
216995,-105.263157894737,4,2,8,55,0,0
217078,-105.263157894737,4,2,8,5,0,0
217162,-105.263157894737,4,2,8,55,0,0
217245,-105.263157894737,4,2,8,5,0,0
217328,-105.263157894737,4,2,8,55,0,0
217412,-105.263157894737,4,2,8,5,0,0
217495,-105.263157894737,4,2,8,55,0,0
217912,-105.263157894737,4,2,8,5,0,0
217995,-86.9565217391306,4,2,5,55,0,0
218078,-86.9565217391306,4,2,9,30,0,0
218662,-86.9565217391306,4,2,5,85,0,0
219328,-72.463768115942,4,2,13,85,0,0
219495,-72.463768115942,4,2,8,55,0,0
219828,-72.463768115942,4,2,13,85,0,0
219912,-72.463768115942,4,2,8,55,0,0
219995,-72.463768115942,4,2,13,85,0,0
220078,-86.9565217391306,4,2,8,55,0,0
220662,-68.9655172413793,4,2,11,85,0,0
220746,-68.9655172413793,4,2,9,35,0,0
220995,-68.9655172413793,4,2,11,55,0,0
221079,-68.9655172413793,4,2,9,35,0,0
221328,-68.9655172413793,4,2,11,85,0,0
221412,-68.9655172413793,4,2,9,35,0,0
221661,-68.9655172413793,4,2,11,55,0,0
221745,-68.9655172413793,4,2,9,35,0,0
221995,-68.9655172413793,4,2,11,55,0,0
222079,-68.9655172413793,4,2,9,35,0,0
222328,-68.9655172413793,4,2,11,55,0,0
222412,-68.9655172413793,4,2,9,35,0,0
222662,-68.9655172413793,4,2,11,85,0,0
222746,-68.9655172413793,4,2,9,35,0,0
222995,-68.9655172413793,4,2,11,55,0,0
223079,-68.9655172413793,4,2,9,35,0,0
223328,-68.9655172413793,4,2,11,85,0,0
223412,-68.9655172413793,4,2,9,35,0,0
223661,-68.9655172413793,4,2,11,55,0,0
223745,-68.9655172413793,4,2,9,35,0,0
223995,-68.9655172413793,4,2,11,85,0,0
224079,-68.9655172413793,4,2,9,35,0,0
224328,-68.9655172413793,4,2,11,55,0,0
224412,-68.9655172413793,4,2,9,35,0,0
224662,-68.9655172413793,4,2,11,55,0,0
224746,-68.9655172413793,4,2,9,35,0,0
224995,-68.9655172413793,4,2,11,55,0,0
225079,-68.9655172413793,4,2,9,35,0,0
225328,-68.9655172413793,4,2,11,85,0,0
225412,-68.9655172413793,4,2,9,35,0,0
225661,-68.9655172413793,4,2,11,55,0,0
225745,-68.9655172413793,4,2,9,35,0,0
225995,-68.9655172413793,4,2,11,85,0,0
226079,-68.9655172413793,4,2,9,35,0,0
226328,-68.9655172413793,4,2,11,85,0,0
226412,-68.9655172413793,4,2,9,35,0,0
226662,-68.9655172413793,4,2,11,85,0,0
226746,-68.9655172413793,4,2,9,35,0,0
226828,-68.9655172413793,4,2,11,85,0,0
226912,-68.9655172413793,4,2,9,35,0,0
226995,-68.9655172413793,4,2,11,85,0,0
227079,-68.9655172413793,4,2,9,35,0,0
227162,-68.9655172413793,4,2,11,85,0,0
227245,-68.9655172413793,4,2,9,35,0,0
227328,-68.9655172413793,4,2,11,85,0,0
227412,-68.9655172413793,4,2,9,35,0,0
227495,-68.9655172413793,4,2,11,85,0,0
227579,-68.9655172413793,4,2,9,35,0,0
227662,-68.9655172413793,4,2,11,85,0,0
227746,-68.9655172413793,4,2,9,35,0,0
227828,-68.9655172413793,4,2,11,85,0,0
227912,-68.9655172413793,4,2,9,35,0,0
227995,-68.9655172413793,4,2,11,85,0,0
228079,-68.9655172413793,4,2,9,35,0,0
228162,-68.9655172413793,4,2,11,85,0,0
228246,-68.9655172413793,4,2,9,35,0,0
228328,-68.9655172413793,4,2,11,85,0,0
228412,-68.9655172413793,4,2,9,35,0,0
228495,-68.9655172413793,4,2,11,85,0,0
228579,-68.9655172413793,4,2,9,35,0,0
228662,582.52427184466,3,2,2,85,1,0
228662,-100,3,2,2,85,0,0
229050,-100,3,2,2,5,0,0
229120,750,3,2,2,85,1,0
229120,-100,3,2,2,85,0,0
229432,-100,3,2,2,5,0,0
229495,837.111963725148,3,2,2,85,1,0
229495,-100,3,2,2,85,0,0
229843,-100,3,2,2,5,0,0
229913,750,3,2,2,85,1,0
229913,-100,3,2,2,85,0,0
230225,-100,3,2,2,5,0,0
230288,857.142857142857,3,2,2,85,1,0
230288,-100,3,2,2,85,0,0
230645,-100,3,2,2,5,0,0
230716,1003.42838029936,3,2,2,85,1,0
230716,-100,3,2,2,85,0,0
231092,-100,3,2,2,5,0,0
231257,400,3,2,2,85,1,0
231257,-181.818181818181,3,2,2,85,0,0
231497,-181.818181818181,3,2,2,72,0,0
231737,-181.818181818181,3,2,2,55,0,0
231977,-181.818181818181,3,2,2,46,0,0
232097,-181.818181818181,3,2,2,35,0,0
232337,-181.818181818181,3,2,2,22,0,0
232457,-181.818181818181,3,2,2,11,0,0

[Colours]
Combo1 : 187,0,0
Combo2 : 192,192,192
Combo3 : 128,128,128

[HitObjects]
41,36,23603,6,0,B|88:52|121:26|121:26|166:51,1,126.82500009676,4|0,0:0|0:0,0:0:0:0:
172,61,23936,2,0,B|209:63|232:32|232:32|242:64|242:64|239:92|239:92|264:155,1,155.32500165905,4|0,0:0|0:0,0:0:0:0:
116,245,24492,6,4,L|114:270,2,18.6833326776378
377,134,24936,6,0,P|350:175|354:229,1,78.8500011429978,4|0,0:0|0:0,0:0:0:0:
448,102,25270,2,0,P|475:61|388:8,1,157.700002285996,4|4,0:0|0:0,0:0:0:0:
426,195,25770,5,0,0:0:0:0:
426,195,25936,2,0,B|423:255|381:281|343:280|343:280|368:308,1,157.700002285996,4|0,0:0|0:0,0:0:0:0:
251,189,26436,5,0,0:0:0:0:
251,189,26603,2,0,P|204:191|144:290,1,157.700002285996,4|4,0:0|0:0,0:0:0:0:
143,102,27270,6,0,P|189:104|249:203,1,157.700002285996,4|4,0:0|0:0,0:0:0:0:
364,87,27936,6,0,B|326:134|326:134|287:146|287:146|233:206,1,157.700002285996,0|4,0:0|0:0,0:0:0:0:
21,18,28603,6,0,P|57:51|62:137,1,118.275001714497,4|0,0:0|0:0,0:0:0:0:
47,216,29020,2,0,P|44:264|112:312,1,118.275001714497,4|4,0:0|0:0,0:0:0:0:
232,297,29436,2,0,P|235:249|195:210,1,98.5625014287472,4|4,0:0|0:0,0:0:0:0:
189,216,29686,2,0,P|208:245|263:251,1,78.8500011429978,4|0,0:0|0:0,0:0:0:0:
330,194,29936,6,0,B|351:171|388:168|415:178|415:178|403:141,1,118.275001714497,4|4,0:0|0:0,0:0:0:0:
338,52,30353,2,0,P|298:51|263:68,1,78.8500011429978,4|0,0:0|0:0,0:0:0:0:
64,112,30603,6,0,B|22:104|23:46|70:27|70:27|103:49,1,157.700002285996,4|4,0:0|0:0,0:0:0:0:
447,156,31270,6,0,P|430:114|348:68,1,118.275001714497,4|0,0:0|0:0,0:0:0:0:
372,40,31603,2,0,P|430:61|467:129,1,118.275001714497,4|0,0:0|0:0,0:0:0:0:
492,106,31936,6,0,P|471:63|359:45,1,157.700002285996,4|4,0:0|0:0,0:0:0:0:
336,179,32436,5,4,0:0:0:0:
336,179,32520,1,0,0:0:0:0:
336,179,32603,2,0,P|323:227|233:314,1,157.700002285996,4|4,0:0|0:0,0:0:0:0:
358,212,33103,2,0,P|335:266|309:292,1,78.8500011429978,0|4,0:0|0:0,0:0:0:0:
124,232,33436,5,0,0:0:0:0:
124,232,33603,2,0,P|150:158|199:114,1,118.275001714497,4|0,0:0|0:0,0:0:0:0:
208,129,33936,2,0,P|218:69|129:62,1,157.700002285996,4|4,0:0|0:0,0:0:0:0:
423,51,34603,6,0,L|430:174,1,118.275001714497,4|0,0:0|0:0,0:0:0:0:
417,198,34936,6,0,P|372:181|351:120,1,78.8500011429978,4|0,0:0|0:0,0:0:0:0:
340,63,35270,2,0,P|297:80|262:161,1,118.275001714497,4|0,0:0|0:0,0:0:0:0:
284,117,35603,6,0,P|267:74|186:39,1,118.275001714497,4|0,0:0|0:0,0:0:0:0:
184,61,35936,6,0,P|141:79|59:46,1,118.275001714497,4|0,0:0|0:0,0:0:0:0:
61,32,36270,2,4,B|63:23|63:23|77:17,2,19.7125002857494,4|4|4,0:0|0:0|0:0,0:0:0:0:
11,81,36436,6,0,P|28:129|29:152,1,39.4250005714989
31,144,36603,2,0,P|14:192|15:245,1,78.8500011429978,6|4,0:0|0:0,0:0:0:0:
131,257,36936,6,0,P|114:209|115:156,1,78.8500011429978,4|0,0:0|0:0,0:0:0:0:
213,282,37270,6,0,B|252:265|252:265|371:279,1,157.700002285996,6|4,0:0|0:0,0:0:0:0:
500,144,37936,2,0,B|461:161|461:161|349:147,1,118.275001714497,4|4,0:0|0:0,0:0:0:0:
354,151,38270,6,0,P|304:134|272:75,1,118.275001714497,4|0,0:0|0:0,0:0:0:0:
272,32,38603,2,0,P|224:8|132:71,1,157.700002285996,4|4,0:0|0:0,0:0:0:0:
99,335,39270,6,0,L|116:168,1,157.700002285996,4|4,0:0|0:0,0:0:0:0:
215,278,39770,5,0,0:0:0:0:
238,275,39853,1,0,0:0:0:0:
258,263,39936,2,0,P|283:211|238:117,1,131.09999559906,4|0,0:0|0:0,0:0:0:0:
240,117,40270,2,4,B|254:109|254:109|260:94,2,21.84999926651,4|4|4,0:0|0:0|0:0,0:0:0:0:
406,283,40603,6,0,B|457:288|483:258|483:258|442:201,1,131.09999559906,4|0,0:0|0:0,0:0:0:0:
400,164,40936,6,0,B|435:171|435:171|416:138|416:102,1,87.3999970660401,4|0,0:0|0:0,0:0:0:0:
342,47,41270,5,4,0:0:0:0:
342,47,41353,1,4,0:0:0:0:
342,47,41436,2,0,P|264:70|226:56,1,87.3999970660401,0|4,0:0|0:0,0:0:0:0:
235,44,41686,6,0,P|157:21|119:35,1,87.3999970660401,4|0,0:0|0:0,0:0:0:0:
97,77,41936,6,0,B|121:115|121:115|116:188,1,87.3999970660401,4|0,0:0|0:0,0:0:0:0:
230,269,42270,2,0,L|234:216,1,43.6999985330201,4|0,0:0|0:0,0:0:0:0:
342,47,42603,6,0,B|331:81|331:81|342:110|342:110|317:148|337:200|382:202,1,174.79999413208,4|0,0:0|0:0,0:0:0:0:
219,348,43270,6,0,P|265:317|346:318,1,131.09999559906,4|0,0:0|0:0,0:0:0:0:
307,346,43603,2,0,P|276:309|266:239,1,87.3999970660401,4|0,0:0|0:0,0:0:0:0:
335,125,43936,6,0,P|330:76|252:11,1,131.09999559906,4|0,0:0|0:0,0:0:0:0:
251,43,44270,2,0,P|242:95|204:129,1,87.3999970660401,4|0,0:0|0:0,0:0:0:0:
331,8,44603,6,0,P|365:49|368:172,1,174.79999413208,6|4,0:0|0:0,0:0:0:0:
55,166,45270,2,0,L|221:171,1,131.09999559906,4|0,0:0|0:0,0:0:0:0:
217,186,45603,6,0,P|192:241|163:266,1,87.3999970660401,4|0,0:0|0:0,0:0:0:0:
278,259,45936,2,0,P|334:237|421:307,1,174.79999413208,4|4,0:0|0:0,0:0:0:0:
329,354,46436,5,4,0:0:0:0:
440,242,46603,2,0,P|380:196|290:200,1,131.09999559906,6|0,0:0|0:0,0:0:0:0:
301,214,46936,6,0,P|248:207|200:166,1,87.3999970660401,4|0,0:0|0:0,0:0:0:0:
153,45,47270,6,0,P|245:54|277:141,1,174.79999413208,4|4,0:0|0:0,0:0:0:0:
121,120,47770,5,0,0:0:0:0:
121,120,47853,1,0,0:0:0:0:
121,120,47936,2,0,P|119:171|128:239,1,87.3999970660401,4|0,0:0|0:0,0:0:0:0:
196,281,48270,2,0,B|224:252|273:252|299:286|299:286|323:263,1,131.09999559906,4|0,0:0|0:0,0:0:0:0:
365,220,48603,6,0,B|385:178|366:143|366:143|346:102|349:61|368:16|414:-5|452:-1|460:32|460:32|452:66|452:66|431:108|447:161|479:176|479:176|454:191|454:191|485:232|486:285|462:328|416:341,1,655.499977995301,6|0,0:0|0:0,0:0:0:0:
394,325,49936,6,0,B|354:312|331:334|331:334|312:328|312:328|295:343|253:364|207:336,1,193.800001182861,6|4,0:0|0:0,0:0:0:0:
79,193,50603,2,0,B|115:167|115:167|165:198|243:173|265:110|251:51|219:6|174:-7|123:-5|80:15|55:75|76:125,1,486.4,6|4,0:0|0:0,0:0:0:0:
254,279,52270,5,4,0:0:0:0:
256,275,52353,1,0,0:0:0:0:
255,270,52436,1,0,0:0:0:0:
257,266,52520,1,0,0:0:0:0:
256,261,52603,2,0,B|286:165|380:254|434:168|423:80|378:41|330:44|307:44,1,339.150002070007,6|0,0:0|0:0,0:0:0:0:
287,71,53270,6,0,B|365:54|365:54|362:51|362:51|373:56|373:56|450:43,1,145.350000887146,4|0,0:0|0:0,0:0:0:0:
449,20,53603,6,0,P|477:60|481:111,1,96.9000005914307,4|0,0:0|0:0,0:0:0:0:
358,230,53936,2,0,P|330:190|229:243,1,145.350000887146,4|0,0:0|0:0,0:0:0:0:
271,230,54270,2,0,B|269:188|269:188|249:166|249:166|216:139|229:73,1,145.350000887146,6|0,0:0|0:0,0:0:0:0:
252,71,54603,6,0,B|251:29|225:7|225:7|144:20|157:81|157:81|155:117|136:155|95:176|48:172|1:151|-7:75,1,425.6,4|0,0:0|0:0,0:0:0:0:
64,263,56020,1,4,0:0:0:0:
193,353,56270,2,0,L|333:320,1,131.09999559906,4|0,0:0|0:0,0:0:0:0:
344,297,56603,6,0,B|387:264|364:211|364:211|353:138|389:119|389:119|400:117|400:117|445:145|435:179|435:179|412:187|412:187|358:176|358:176|306:168|272:123|275:93|275:93|254:55|186:43|189:98|189:98|175:103|175:103|155:131|166:168|166:168|141:154|141:154|105:121|109:67|124:44|124:44|107:25|107:25|102:73|31:123|58:188|58:188|17:174|-26:208|-55:265|-24:333|12:353|76:386|125:350|159:298|159:256|133:231|133:231|145:236|145:236|192:252|235:216|234:181|234:181|251:204|251:204|233:218|215:246|215:246|254:253|254:209|254:209|272:241|272:241|284:230|311:245,1,1791.69993985382,6|4,0:0|0:0,0:0:0:0:
423,375,60270,1,4,0:0:0:0:
267,14,60686,6,0,B|269:89|325:117|325:117|315:146|315:146|333:184,1,174.79999413208,6|4,0:0|0:0,0:0:0:0:
174,312,61353,2,0,B|220:237|160:213|159:203|159:203|196:181|202:154,1,174.79999413208,4|4,0:0|0:0,0:0:0:0:
172,143,61769,5,0,0:0:0:0:
172,143,61853,1,0,0:0:0:0:
172,143,61936,2,0,B|194:59|139:84|152:17|192:-27|248:-5|267:25,1,218.4999926651,6|0,0:0|0:0,0:0:0:0:
315,72,62436,6,0,P|355:85|437:46,1,131.09999559906,4|0,0:0|0:0,0:0:0:0:
363,15,62769,6,0,B|375:46|356:90|314:107|314:107|264:128|228:186|264:268|331:279|375:274|412:227|412:227|412:252,1,436.999985330201,4|4,0:0|0:0,0:0:0:0:
172,143,63936,1,4,0:0:0:0:
379,161,64269,6,0,P|424:143|473:135,1,87.3999970660401,6|0,0:0|0:0,0:0:0:0:
350,248,64603,2,0,P|293:247|223:294,1,131.09999559906,6|0,0:0|0:0,0:0:0:0:
152,284,64936,6,0,P|203:259|286:272,1,131.09999559906,4|0,0:0|0:0,0:0:0:0:
275,187,65269,6,0,P|227:218|222:341,1,174.79999413208,6|0,0:0|0:0,0:0:0:0:
239,353,65686,6,0,P|255:321|254:283,1,43.6999985330201,4|0,0:0|0:0,0:0:0:0:
277,19,65936,6,0,P|256:76|280:196,1,174.79999413208,4|4,0:0|0:0,0:0:0:0:
88,0,66603,6,0,B|155:199|8:120|91:352,1,349.599988264161,6|4,0:0|0:0,0:0:0:0:
260,220,67603,2,0,P|213:233|157:237,1,87.3999970660401,4|0,0:0|0:0,0:0:0:0:
286,125,67936,2,0,P|333:112|389:108,1,87.3999970660401,4|0,0:0|0:0,0:0:0:0:
402,123,68186,1,0,0:0:0:0:
402,123,68269,1,0,0:0:0:0:
256,192,68353,12,0,72436,0:0:0:0:
290,173,72519,5,2,0:0:0:0:
279,128,72603,5,2,0:0:0:0:
304,92,72686,5,2,0:0:0:0:
126,151,80680,6,0,B|127:134|127:134|134:135|142:124,7,31.3499999043274,2|2|2|2|2|2|2|2,0:0|0:0|0:0|0:0|0:0|0:0|0:0|0:0,0:0:0:0:
200,65,81346,2,0,P|213:40|212:27,7,31.3499999043274,2|2|2|2|2|2|2|2,0:0|0:0|0:0|0:0|0:0|0:0|0:0|0:0,0:0:0:0:
275,100,82013,2,0,B|288:107|288:107|291:118|305:124,7,31.3499999043274,2|2|2|2|2|2|2|2,0:0|0:0|0:0|0:0|0:0|0:0|0:0|0:0,0:0:0:0:
360,57,82680,2,0,P|374:47|402:57,7,31.3499999043274,2|2|2|2|2|2|2|2,0:0|0:0|0:0|0:0|0:0|0:0|0:0|0:0,0:0:0:0:
387,134,83346,2,0,L|392:180,7,31.3499999043274,2|2|2|2|2|2|2|2,0:0|0:0|0:0|0:0|0:0|0:0|0:0|0:0,0:0:0:0:
327,227,84013,2,0,B|330:245|330:245|300:259,7,31.3499999043274,2|2|2|2|2|2|2|2,0:0|0:0|0:0|0:0|0:0|0:0|0:0|0:0,0:0:0:0:
255,313,84680,2,0,B|242:324|242:324|235:321|213:332,13,31.3499999043274,2|2|2|2|2|2|2|2|2|2|2|2|2|2,0:0|0:0|0:0|0:0|0:0|0:0|0:0|0:0|0:0|0:0|0:0|0:0|0:0|0:0,0:0:0:0:
155,296,85846,5,2,0:0:0:0:
123,263,85930,5,2,0:0:0:0:
128,203,86013,6,0,L|144:206,1,14.25,2|0,0:0|0:0,0:0:0:0:
174,209,86305,6,0,P|174:196|176:182,3,21.3749993476868,2|2|2|2,0:0|0:0|0:0|0:0,0:0:0:0:
124,123,86513,1,2,0:0:0:0:
167,88,86596,1,2,0:0:0:0:
179,24,86680,2,0,L|355:29,1,170.999994781494,10|0,0:0|0:0,0:0:0:0:
375,46,86971,6,0,B|369:59|369:59|365:81,5,21.3749993476868,2|2|2|2|2|2,0:0|0:0|0:0|0:0|0:0|0:0,0:0:0:0:
382,96,87263,1,2,0:0:0:0:
419,150,87346,2,0,L|405:152,1,14.25
381,176,87638,6,0,B|385:191|385:191|400:206,5,21.3749993476868,2|2|2|2|2|2,0:0|0:0|0:0|0:0|0:0|0:0,0:0:0:0:
376,277,87929,1,2,0:0:0:0:
333,306,88013,2,0,P|281:324|238:236,1,170.999994781494,10|0,0:0|0:0,0:0:0:0:
327,109,88346,6,0,P|317:138|301:162,1,38,10|0,0:0|0:0,0:0:0:0:
283,172,88513,1,2,0:0:0:0:
222,185,88596,1,2,0:0:0:0:
173,136,88679,5,10,0:0:0:0:
155,125,88735,1,8,0:0:0:0:
136,120,88791,1,8,0:0:0:0:
116,122,88845,1,8,0:0:0:0:
98,129,88903,1,8,0:0:0:0:
83,140,88957,1,8,0:0:0:0:
71,156,89013,1,8,0:0:0:0:
64,174,89068,1,8,0:0:0:0:
63,194,89124,1,8,0:0:0:0:
67,212,89179,1,8,0:0:0:0:
77,230,89235,1,8,0:0:0:0:
91,243,89291,1,8,0:0:0:0:
109,251,89346,6,0,L|180:244,11,39.2666651088461,10|8|8|8|8|8|8|8|8|8|8|8,0:0|0:0|0:0|0:0|0:0|0:0|0:0|0:0|0:0|0:0|0:0|0:0,0:0:0:0:
232,331,90013,2,0,L|303:338,11,39.2666651088461,10|8|8|8|8|8|8|8|8|8|8|8,0:0|0:0|0:0|0:0|0:0|0:0|0:0|0:0|0:0|0:0|0:0|0:0,0:0:0:0:
365,235,90679,5,10,0:0:0:0:
356,247,90735,1,8,0:0:0:0:
345,259,90791,1,8,0:0:0:0:
333,269,90846,1,8,0:0:0:0:
320,278,90902,1,8,0:0:0:0:
306,284,90957,1,8,0:0:0:0:
291,289,91013,1,8,0:0:0:0:
275,292,91068,1,8,0:0:0:0:
260,293,91124,1,8,0:0:0:0:
244,292,91179,1,8,0:0:0:0:
229,289,91235,1,8,0:0:0:0:
214,284,91291,1,8,0:0:0:0:
199,276,91346,5,8,0:0:0:0:
182,265,91402,1,8,0:0:0:0:
168,252,91457,1,8,0:0:0:0:
156,236,91513,1,8,0:0:0:0:
147,219,91568,1,8,0:0:0:0:
141,200,91624,1,8,0:0:0:0:
139,180,91679,1,8,0:0:0:0:
140,161,91735,1,8,0:0:0:0:
144,142,91791,1,8,0:0:0:0:
152,124,91846,1,8,0:0:0:0:
163,107,91902,1,8,0:0:0:0:
177,93,91957,1,8,0:0:0:0:
191,84,92013,5,8,0:0:0:0:
208,74,92068,1,8,0:0:0:0:
226,68,92124,1,8,0:0:0:0:
246,65,92179,1,8,0:0:0:0:
265,67,92235,1,8,0:0:0:0:
284,73,92291,1,8,0:0:0:0:
299,84,92346,1,8,0:0:0:0:
317,94,92402,1,8,0:0:0:0:
335,100,92458,1,8,0:0:0:0:
355,101,92513,1,8,0:0:0:0:
374,99,92569,1,8,0:0:0:0:
393,93,92624,1,8,0:0:0:0:
410,85,92679,6,0,P|432:67|446:37,11,39.2666651088461,10|8|8|8|8|8|8|8|8|8|8|8,0:0|0:0|0:0|0:0|0:0|0:0|0:0|0:0|0:0|0:0|0:0|0:0,0:0:0:0:
276,191,93346,2,0,P|254:173|240:143,11,39.2666651088461,10|8|8|8|8|8|8|8|8|8|8|8,0:0|0:0|0:0|0:0|0:0|0:0|0:0|0:0|0:0|0:0|0:0|0:0,0:0:0:0:
400,255,94013,2,0,P|422:237|436:207,11,39.2666651088461,10|8|8|8|8|8|8|8|8|8|8|8,0:0|0:0|0:0|0:0|0:0|0:0|0:0|0:0|0:0|0:0|0:0|0:0,0:0:0:0:
304,351,94679,5,10,0:0:0:0:
289,337,94735,1,8,0:0:0:0:
272,327,94790,1,8,0:0:0:0:
253,322,94846,1,8,0:0:0:0:
234,322,94902,1,8,0:0:0:0:
215,327,94957,1,8,0:0:0:0:
198,337,95013,1,8,0:0:0:0:
184,348,95068,1,8,0:0:0:0:
169,360,95124,1,8,0:0:0:0:
151,369,95179,1,8,0:0:0:0:
132,374,95235,1,8,0:0:0:0:
113,374,95290,1,8,0:0:0:0:
94,368,95346,5,8,0:0:0:0:
77,359,95401,1,8,0:0:0:0:
63,345,95457,1,8,0:0:0:0:
52,329,95513,1,8,0:0:0:0:
46,310,95568,1,8,0:0:0:0:
45,291,95624,1,8,0:0:0:0:
48,271,95679,1,8,0:0:0:0:
56,254,95735,1,8,0:0:0:0:
68,238,95791,1,8,0:0:0:0:
84,226,95846,1,8,0:0:0:0:
102,219,95902,1,8,0:0:0:0:
121,216,95957,1,8,0:0:0:0:
141,217,96013,5,8,0:0:0:0:
159,224,96068,1,8,0:0:0:0:
176,235,96124,1,8,0:0:0:0:
194,241,96179,1,8,0:0:0:0:
213,244,96235,1,8,0:0:0:0:
233,241,96291,1,8,0:0:0:0:
251,234,96346,1,8,0:0:0:0:
267,222,96402,1,8,0:0:0:0:
279,207,96457,1,8,0:0:0:0:
288,190,96513,1,8,0:0:0:0:
292,170,96568,1,8,0:0:0:0:
291,151,96624,1,8,0:0:0:0:
283,132,96679,6,0,P|270:120|234:112,11,39.2666651088461,10|8|8|8|8|8|8|8|8|8|8|8,0:0|0:0|0:0|0:0|0:0|0:0|0:0|0:0|0:0|0:0|0:0|0:0,0:0:0:0:
106,53,97346,2,0,L|109:107,11,39.2666651088461,10|8|8|8|8|8|8|8|8|8|8|8,0:0|0:0|0:0|0:0|0:0|0:0|0:0|0:0|0:0|0:0|0:0|0:0,0:0:0:0:
154,205,98013,2,0,L|150:259,11,39.2666651088461,10|8|8|8|8|8|8|8|8|8|8|8,0:0|0:0|0:0|0:0|0:0|0:0|0:0|0:0|0:0|0:0|0:0|0:0,0:0:0:0:
86,354,98679,5,10,0:0:0:0:
99,340,98735,1,8,0:0:0:0:
116,329,98791,1,8,0:0:0:0:
134,322,98846,1,8,0:0:0:0:
153,318,98902,1,8,0:0:0:0:
173,319,98956,1,8,0:0:0:0:
192,323,99013,1,8,0:0:0:0:
210,331,99068,1,8,0:0:0:0:
224,343,99124,1,8,0:0:0:0:
237,357,99179,1,8,0:0:0:0:
253,368,99235,1,8,0:0:0:0:
272,375,99291,1,8,0:0:0:0:
291,378,99346,5,8,0:0:0:0:
310,377,99402,1,8,0:0:0:0:
329,372,99457,1,8,0:0:0:0:
347,363,99512,1,8,0:0:0:0:
362,351,99568,1,8,0:0:0:0:
374,335,99624,1,8,0:0:0:0:
382,318,99679,1,8,0:0:0:0:
387,299,99735,1,8,0:0:0:0:
388,279,99791,1,8,0:0:0:0:
384,260,99846,1,8,0:0:0:0:
376,242,99902,1,8,0:0:0:0:
365,226,99957,1,8,0:0:0:0:
350,212,100013,5,8,0:0:0:0:
337,196,100068,1,8,0:0:0:0:
328,179,100124,1,8,0:0:0:0:
323,160,100179,1,8,0:0:0:0:
323,140,100235,1,8,0:0:0:0:
326,121,100290,1,8,0:0:0:0:
334,103,100346,1,8,0:0:0:0:
345,87,100402,1,8,0:0:0:0:
360,74,100457,1,8,0:0:0:0:
377,64,100513,1,8,0:0:0:0:
396,59,100568,1,8,0:0:0:0:
415,57,100624,1,8,0:0:0:0:
435,60,100654,6,0,B|463:64|487:89|479:129|448:152|448:152|471:171|474:208|462:243|462:243|452:277|457:325|502:341,1,332.5,2|0,0:0|0:0,0:0:0:0:
328,320,101965,2,0,B|311:285|257:268|211:283|211:283|228:271|228:271|203:281|178:271|178:271|168:278|168:278|137:263|97:279,1,265.999991882324,4|2,0:0|0:0,0:0:0:0:
104,283,102675,2,0,P|115:246|110:176,1,88.6666639607748,2|0,0:0|0:0,0:0:0:0:
217,79,103167,6,0,P|213:109|302:194,1,155.166661931356
343,172,103604,2,0,P|310:169|286:174,1,47.5,4|0,0:0|0:0,0:0:0:0:
145,254,103932,2,0,P|185:292|299:268,1,166.25,2|0,0:0|0:0,0:0:0:0:
327,290,104588,1,2,0:0:0:0:
353,298,104670,6,0,B|376:298|388:288|388:288|399:294|402:306|402:306|402:265|417:237|447:226|447:226|474:215|487:191|504:167|506:119|469:74|418:74,1,356.25,6|0,0:0|0:0,0:0:0:0:
411,153,105981,5,2,0:0:0:0:
411,153,106063,2,0,B|372:171|339:153|339:153|316:143|280:151,1,118.75,4|2,0:0|0:0,0:0:0:0:
263,177,106555,2,0,P|260:192|262:206,3,15.8333333333333,2|2|2|2,0:0|0:0|0:0|0:0,0:0:0:0:
195,127,106801,2,0,P|124:76|125:19,1,142.5
123,130,107375,6,0,B|83:135|40:110|32:68|32:68|31:100|11:133,1,166.249994926453
8,133,107867,2,0,P|11:155|31:171,1,33.2499989852906,2|2,0:0|0:0,0:0:0:0:
91,232,108031,2,0,L|161:237,2,66.4999979705811,6|2|2,0:0|0:0|0:0,0:0:0:0:
245,344,108522,6,0,P|276:339|290:328,1,28.4999991302491,2|2,0:0|0:0,0:0:0:0:
286,322,108686,2,0,B|317:310|342:336|345:362|345:362|381:319|372:265|318:253|318:253|359:241|383:205|385:146|364:102|300:96|300:96|292:107|292:107|271:96|271:96|256:104|242:104|242:104|217:67|184:54|145:65,1,607.999981445313,6|2,0:0|0:0,0:0:0:0:
80,44,110490,2,0,P|89:59|102:70,2,18.999999420166,2|2|2,0:0|0:0|0:0,0:0:0:0:
11,90,110653,6,0,B|3:133|41:176|41:176|55:174|55:174|79:213|135:217|135:217|161:245|161:245|173:248|173:248|171:258|171:258|182:257|182:257|181:272|181:272|208:281|217:292,1,313.49999043274,2|0,0:0|0:0,0:0:0:0:
242,347,111637,2,0,P|240:314|262:277,1,56.9999982604981,2|0,0:0|0:0,0:0:0:0:
425,184,111965,2,0,L|228:185,1,170.999994781494,4|0,0:0|0:0,0:0:0:0:
167,107,112539,5,2,0:0:0:0:
148,123,112621,2,0,B|134:135|119:139|119:139|109:130|109:130|98:134|98:134|98:122|98:122|81:130|81:130|59:138|37:126|37:126|18:178|38:268|90:184|127:245|135:318|87:373|29:364,1,436.999986663819,6|2,0:0|0:0,0:0:0:0:
147,263,113932,2,0,P|149:278|155:291,3,18.999999420166,2|2|2|2,0:0|0:0|0:0|0:0,0:0:0:0:
283,90,114424,2,0,P|281:118|285:136,1,28.4999991302491,2|0,0:0|0:0,0:0:0:0:
322,187,114588,1,2,0:0:0:0:
335,215,114670,1,2,0:0:0:0:
327,261,114752,2,0,P|308:302|400:310,1,170.999994781494,2|0,0:0|0:0,0:0:0:0:
232,187,115408,6,0,B|195:167|128:175|171:221|119:246|79:230|79:230,1,170.999994781494,0|2,0:0|0:0,0:0:0:0:
26,149,115981,2,0,P|28:171|24:194,1,28.4999991302491,2|0,0:0|0:0,0:0:0:0:
13,346,116391,6,0,L|62:343,2,28.4999991302491
96,301,116637,1,2,0:0:0:0:
96,301,116719,2,0,B|172:275|150:351|252:346|301:298,1,199.499993911743,4|0,0:0|0:0,0:0:0:0:
152,345,117375,2,0,P|210:370|308:326,1,170.999994781494
350,166,117949,6,0,B|349:128|315:103|315:103|350:128|404:135|370:75|456:80|481:92|506:125,1,266,6|2,0:0|0:0,0:0:0:0:
440,174,118604,1,2,0:0:0:0:
452,188,118686,2,0,B|469:246|448:284|403:302|403:302|380:281|321:280,1,190,6|0,0:0|0:0,0:0:0:0:
287,334,119178,6,0,B|254:349|177:344|228:310|184:298|135:294|99:323|99:323|67:347|6:338|-3:303,1,304,0|2,0:0|0:0,0:0:0:0:
48,177,120052,2,0,P|54:212|56:241,1,50.6666666666667,4|0,0:0|0:0,0:0:0:0:
129,115,120244,1,2,0:0:0:0:
138,125,120326,2,0,P|167:144|201:144,2,50.6666666666667,2|2|2,0:0|0:0|0:0,0:0:0:0:
160,31,120654,5,2,0:0:0:0:
205,30,120720,1,2,0:0:0:0:
250,40,120787,1,2,0:0:0:0:
292,58,120854,1,2,0:0:0:0:
329,86,120920,1,2,0:0:0:0:
359,120,120987,1,2,0:0:0:0:
381,161,121054,1,2,0:0:0:0:
394,205,121120,1,2,0:0:0:0:
397,250,121187,6,0,P|396:286|403:320,3,57.4749983775521,2|2|2|2,0:0|0:0|0:0|0:0,0:0:0:0:
452,151,121453,5,2,0:0:0:0:
425,142,121520,1,2,0:0:0:0:
397,139,121586,1,2,0:0:0:0:
367,145,121653,1,2,0:0:0:0:
343,158,121720,1,2,0:0:0:0:
322,177,121786,1,2,0:0:0:0:
306,201,121853,1,2,0:0:0:0:
298,229,121920,1,2,0:0:0:0:
291,257,121987,5,2,0:0:0:0:
272,279,122053,1,2,0:0:0:0:
249,295,122120,1,2,0:0:0:0:
222,305,122187,1,2,0:0:0:0:
194,307,122253,1,2,0:0:0:0:
166,301,122320,1,2,0:0:0:0:
140,288,122387,1,2,0:0:0:0:
119,268,122453,1,2,0:0:0:0:
105,243,122520,6,0,P|98:207|111:167,3,57.4749983775521,2|2|2|2,0:0|0:0|0:0|0:0,0:0:0:0:
207,81,122787,5,2,0:0:0:0:
200,108,122853,1,2,0:0:0:0:
202,137,122920,1,2,0:0:0:0:
213,163,122987,1,2,0:0:0:0:
232,184,123053,1,2,0:0:0:0:
257,198,123120,1,2,0:0:0:0:
286,203,123187,1,2,0:0:0:0:
314,199,123253,1,2,0:0:0:0:
339,186,123320,5,2,0:0:0:0:
330,207,123386,1,2,0:0:0:0:
320,228,123453,1,2,0:0:0:0:
311,249,123520,1,2,0:0:0:0:
301,270,123586,1,2,0:0:0:0:
292,291,123653,1,2,0:0:0:0:
282,312,123720,1,2,0:0:0:0:
272,332,123786,1,2,0:0:0:0:
263,353,123854,5,2,0:0:0:0:
255,331,123920,1,2,0:0:0:0:
242,312,123987,1,2,0:0:0:0:
226,296,124054,1,2,0:0:0:0:
206,285,124120,1,2,0:0:0:0:
184,278,124187,1,2,0:0:0:0:
161,277,124254,1,2,0:0:0:0:
138,281,124320,1,2,0:0:0:0:
115,283,124386,1,2,0:0:0:0:
92,280,124453,1,2,0:0:0:0:
70,272,124520,1,2,0:0:0:0:
51,259,124586,1,2,0:0:0:0:
36,243,124654,6,0,B|24:216|31:192|31:192|45:164|37:123,1,118.75,8|0,0:0|0:0,0:0:0:0:
145,47,128570,6,0,L|148:83,8,36.0999995593262,0|0|0|0|0|0|0|0|0,0:0|0:0|0:0|0:0|0:0|0:0|0:0|0:0|0:0,0:0:0:0:
68,123,129328,2,0,L|65:159,7,36.0999995593262,0|0|0|0|0|0|0|0,0:0|0:0|0:0|0:0|0:0|0:0|0:0|0:0,0:0:0:0:
142,236,130002,2,0,P|160:240|178:239,7,36.0999995593262,0|0|0|0|0|0|0|0,0:0|0:0|0:0|0:0|0:0|0:0|0:0|0:0,0:0:0:0:
254,161,130676,6,0,L|257:125,7,36.0999995593262,0|0|0|0|0|0|0|0,0:0|0:0|0:0|0:0|0:0|0:0|0:0|0:0,0:0:0:0:
334,47,131350,2,0,P|352:43|370:44,7,36.0999995593262
447,122,132025,2,0,P|462:131|474:145,2,36.0999995593262
350,218,132320,1,2,0:0:0:0:
320,238,132404,1,2,0:0:0:0:
308,271,132488,1,2,0:0:0:0:
306,303,132614,6,0,P|315:318|329:330,7,36.0999995593262,6|2|2|2|2|2|2|2,0:0|0:0|0:0|0:0|0:0|0:0|0:0|0:0,0:0:0:0:
200,330,133289,2,0,P|184:320|172:306,7,36.0999995593262,0|2|2|2|2|2|2|2,0:0|0:0|0:0|0:0|0:0|0:0|0:0|0:0,0:0:0:0:
82,216,133963,2,0,L|86:179,7,36.0999995593262,2|2|2|2|2|2|2|2,0:0|0:0|0:0|0:0|0:0|0:0|0:0|0:0,0:0:0:0:
213,180,134637,6,0,B|229:171|229:171|242:156,7,36.0999995593262,2|2|2|2|2|2|2|2,0:0|0:0|0:0|0:0|0:0|0:0|0:0|0:0,0:0:0:0:
331,68,135311,2,0,B|312:62|312:62|294:63,7,36.0999995593262,2|2|2|2|2|2|2|2,0:0|0:0|0:0|0:0|0:0|0:0|0:0|0:0,0:0:0:0:
385,153,135985,2,0,B|396:165|396:165|412:174,5,36.0999995593262,2|2|2|2|2|2,0:0|0:0|0:0|0:0|0:0|0:0,0:0:0:0:
503,264,136491,5,2,0:0:0:0:
470,287,136577,5,2,0:0:0:0:
456,337,136664,5,2,0:0:0:0:
213,289,139329,6,0,B|182:257|188:203|220:180|220:180|255:155|275:121|273:65|229:6|155:17|110:57,1,362.425003871117,2|0,0:0|0:0,0:0:0:0:
118,64,139996,2,0,B|184:39|252:81|250:114|235:151|235:151|210:119|198:83|228:32|262:11|304:15,1,362.425003871117,6|0,0:0|0:0,0:0:0:0:
321,25,140664,6,0,L|306:272,1,228,4|0,0:0|0:0,0:0:0:0:
118,64,141330,2,0,L|135:341,1,266,4|0,0:0|0:0,0:0:0:0:
142,337,141997,5,2,0:0:0:0:
160,337,142080,1,2,0:0:0:0:
175,326,142164,1,2,0:0:0:0:
174,344,142247,1,2,0:0:0:0:
185,359,142330,1,2,0:0:0:0:
203,359,142413,1,2,0:0:0:0:
218,348,142497,1,2,0:0:0:0:
217,366,142580,1,2,0:0:0:0:
226,379,142664,6,0,L|470:340,1,228,12|0,0:0|0:0,0:0:0:0:
208,100,143330,2,0,L|490:148,1,266,4|0,0:0|0:0,0:0:0:0:
483,158,143997,6,12,P|479:188|458:204,1,38
410,260,144164,1,8,0:0:0:0:
392,272,144247,1,8,0:0:0:0:
369,277,144330,1,8,0:0:0:0:
348,270,144414,1,8,0:0:0:0:
324,261,144497,6,12,P|294:265|267:277,1,38
214,304,144664,1,8,0:0:0:0:
191,307,144747,1,8,0:0:0:0:
169,302,144830,1,8,0:0:0:0:
150,288,144914,1,8,0:0:0:0:
131,275,144997,1,8,0:0:0:0:
109,269,145080,1,8,0:0:0:0:
86,270,145164,1,8,0:0:0:0:
65,278,145247,1,8,0:0:0:0:
47,292,145330,6,0,L|29:56,1,228,12|0,0:0|0:0,0:0:0:0:
173,126,145996,6,0,B|231:190|456:183|265:39|408:-6|475:17|516:52,1,411.666647822063,4|0,0:0|0:0,0:0:0:0:
447,121,146663,2,0,B|441:181|471:237|471:237|453:248|453:248|475:275|488:323|464:372|418:392|367:383|346:371|316:336|320:295|320:295|309:334|270:370|225:366|225:366|197:297|114:271|52:317,1,764.750014586449,12|0,0:0|0:0,0:0:0:0:
32,110,147996,2,0,P|61:106|92:114,1,38,12|8,0:0|0:0,0:0:0:0:
94,198,148163,1,0,0:0:0:0:
125,186,148246,1,0,0:0:0:0:
150,162,148329,1,0,0:0:0:0:
164,131,148413,1,0,0:0:0:0:
166,98,148496,1,0,0:0:0:0:
154,66,148579,1,0,0:0:0:0:
131,41,148663,5,12,0:0:0:0:
162,38,148746,1,8,0:0:0:0:
190,44,148830,1,8,0:0:0:0:
219,56,148913,1,8,0:0:0:0:
242,74,148996,1,8,0:0:0:0:
261,97,149080,1,8,0:0:0:0:
274,125,149163,1,8,0:0:0:0:
282,155,149246,6,0,P|282:178|260:217,1,38,12|8,0:0|0:0,0:0:0:0:
192,273,149413,1,0,0:0:0:0:
214,299,149496,1,0,0:0:0:0:
238,316,149579,1,8,0:0:0:0:
267,323,149662,1,8,0:0:0:0:
297,320,149746,1,8,0:0:0:0:
324,305,149829,1,8,0:0:0:0:
343,282,149912,1,8,0:0:0:0:
353,253,149996,5,12,0:0:0:0:
355,222,150079,1,8,0:0:0:0:
369,196,150162,1,8,0:0:0:0:
392,176,150246,1,8,0:0:0:0:
421,166,150329,1,8,0:0:0:0:
451,167,150412,1,8,0:0:0:0:
478,180,150496,1,8,0:0:0:0:
499,202,150579,1,8,0:0:0:0:
511,230,150663,2,0,P|510:259|502:279,1,38,12|8,0:0|0:0,0:0:0:0:
445,364,150829,5,8,0:0:0:0:
419,378,150912,1,8,0:0:0:0:
388,378,150995,1,8,0:0:0:0:
361,364,151079,1,8,0:0:0:0:
343,340,151162,1,8,0:0:0:0:
336,311,151245,1,8,0:0:0:0:
343,282,151329,6,0,P|369:231|224:218,1,266,4|0,0:0|0:0,0:0:0:0:
228,146,151996,1,12,0:0:0:0:
129,227,152496,5,8,0:0:0:0:
88,242,152579,1,8,0:0:0:0:
44,235,152662,2,0,P|17:194|72:97,1,152,8|8,0:0|0:0,0:0:0:0:
237,156,153329,1,12,0:0:0:0:
280,316,153829,5,8,0:0:0:0:
248,326,153912,1,8,0:0:0:0:
215,323,153996,2,0,B|168:333|122:302|117:251|117:251|81:278|78:324|78:324|35:224|108:271|74:139,1,392.349986230393,12|0,0:0|0:0,0:0:0:0:
93,128,154662,6,0,B|124:90|143:53|126:14|126:14|96:55|96:55|136:83|210:101|172:21|253:9|312:26|362:74|361:106|361:106|305:123|276:78|225:118|225:118|226:167|200:189|162:167|174:242|205:258,1,769.500018786621,12|0,0:0|0:0,0:0:0:0:
210,257,155996,2,0,B|212:272|212:272|217:257,1,19,12|12,0:0|0:0,0:0:0:0:
237,255,156079,2,0,P|273:241|256:348,1,228
293,171,156662,6,0,B|333:171|380:197|398:246|395:286|395:286|397:222|447:190,1,279.299997442932,4|0,0:0|0:0,0:0:0:0:
486,60,157329,2,0,P|456:73|431:80,1,38,12|0,0:0|0:0,0:0:0:0:
362,100,157496,5,8,0:0:0:0:
317,105,157579,1,10,0:0:0:0:
274,92,157662,1,8,0:0:0:0:
241,61,157746,1,10,0:0:0:0:
206,32,157829,1,8,0:0:0:0:
162,24,157912,1,10,0:0:0:0:
120,41,157996,1,8,0:0:0:0:
92,77,158079,1,10,0:0:0:0:
87,121,158162,5,8,0:0:0:0:
105,163,158246,1,10,0:0:0:0:
142,188,158329,1,8,0:0:0:0:
184,202,158413,1,10,0:0:0:0:
214,236,158496,1,8,0:0:0:0:
221,280,158579,1,10,0:0:0:0:
205,322,158662,6,0,P|167:352|72:240,1,228,12|0,0:0|0:0,0:0:0:0:
171,110,159329,6,0,P|202:124|223:150,1,38,8|0,0:0|0:0,0:0:0:0:
324,251,159496,2,0,P|292:236|271:210,1,38,10|0,0:0|0:0,0:0:0:0:
131,217,159662,2,0,L|187:219,1,38,10|8,0:0|0:0,0:0:0:0:
140,235,159829,2,0,L|196:237,1,38,10|8,0:0|0:0,0:0:0:0:
304,365,159996,6,0,P|334:360|354:344,1,38,12|8,0:0|0:0,0:0:0:0:
366,328,160162,5,8,0:0:0:0:
388,314,160245,1,8,0:0:0:0:
431,308,160328,1,8,0:0:0:0:
487,253,160412,5,8,0:0:0:0:
458,231,160495,1,8,0:0:0:0:
422,232,160579,1,8,0:0:0:0:
357,192,160662,5,8,0:0:0:0:
391,162,160746,1,8,0:0:0:0:
439,160,160830,1,8,0:0:0:0:
477,96,160912,5,8,0:0:0:0:
414,77,160996,1,8,0:0:0:0:
365,93,161079,1,8,0:0:0:0:
292,53,161162,5,8,0:0:0:0:
243,58,161246,1,8,0:0:0:0:
201,23,161329,2,0,B|177:-6|136:2|129:50|135:77|135:77|152:97|152:97|163:95|163:95|169:100|169:100|162:107|162:107|168:111|168:111|174:115|174:115|180:109|180:109|190:112|190:112|191:125|191:125|190:149|202:158|212:204|165:187|165:238|202:272|202:272|189:290|189:290|207:313|209:354|173:398|112:377,1,525.350012825928,12|0,0:0|0:0,0:0:0:0:
90,335,161996,6,0,B|113:300|158:284|190:302|190:302|198:276|198:276|239:291|280:272|296:235|296:235|312:189|365:170|417:221,1,370.499983039857,4|0,0:0|0:0,0:0:0:0:
428,311,162662,2,0,B|391:310|378:297|362:275|362:275|367:330|321:359|321:359|273:335|273:335|256:298|256:298|222:285|222:285|201:264|201:264|112:232,1,432.249980213166,12|0,0:0|0:0,0:0:0:0:
38,148,163329,6,0,L|88:129,1,38,6|0,0:0|0:0,0:0:0:0:
139,60,163496,1,2,0:0:0:0:
160,62,163579,1,2,0:0:0:0:
68,150,163662,2,0,L|32:163,1,38,2|0,0:0|0:0,0:0:0:0:
159,172,163829,2,0,L|209:153,1,38,2|0,0:0|0:0,0:0:0:0:
193,192,163996,6,0,B|223:164|307:176|249:223|353:236|385:205|400:170,1,228,12|0,0:0|0:0,0:0:0:0:
466,73,164662,2,0,B|483:108|475:146|475:146|462:117|437:94|393:84|346:98|330:148,1,228,12|0,0:0|0:0,0:0:0:0:
228,291,165329,2,0,P|212:310|127:209,1,228,12|0,0:0|0:0,0:0:0:0:
219,132,165996,2,0,P|253:77|187:1,1,152,4|0,0:0|0:0,0:0:0:0:
348,216,166662,2,0,P|356:267|379:295,1,76,12|0,0:0|0:0,0:0:0:0:
236,298,167162,5,8,0:0:0:0:
217,304,167246,1,8,0:0:0:0:
198,307,167329,2,0,B|155:299|126:269|121:222|121:222|117:173|91:144|48:131|11:148,1,266,6|0,0:0|0:0,0:0:0:0:
39,223,167996,6,0,P|60:172|146:134,1,152,12|0,0:0|0:0,0:0:0:0:
171,146,168412,1,8,0:0:0:0:
205,163,168495,1,8,0:0:0:0:
245,157,168578,1,8,0:0:0:0:
272,138,168662,6,0,L|306:214,1,76,12|0,0:0|0:0,0:0:0:0:
318,181,168885,2,0,L|287:258,1,76,8|0,0:0|0:0,0:0:0:0:
319,243,169107,2,0,L|241:276,1,76,8|0,0:0|0:0,0:0:0:0:
275,288,169329,6,0,P|232:287|196:256,1,76,12|0,0:0|0:0,0:0:0:0:
197,240,169551,6,0,L|248:174,1,76,8|0,0:0|0:0,0:0:0:0:
252,211,169774,2,0,L|242:127,1,76,8|0,0:0|0:0,0:0:0:0:
291,168,169996,6,0,P|268:135|434:140,1,398.999987823487,12|0,0:0|0:0,0:0:0:0:
378,201,170662,2,0,B|337:249|334:305|399:287|373:359|353:424|266:389|225:387|194:342|188:289|232:265|224:242,1,352.450000537796,12|0,0:0|0:0,0:0:0:0:
241,195,171329,5,12,0:0:0:0:
187,193,171412,1,8,0:0:0:0:
145,226,171496,5,8,0:0:0:0:
155,192,171579,1,8,0:0:0:0:
153,156,171662,1,8,0:0:0:0:
140,122,171746,1,8,0:0:0:0:
119,92,171829,1,8,0:0:0:0:
90,72,171912,1,8,0:0:0:0:
56,61,171996,6,0,P|13:88|60:71,1,135.374996385098,12|0,0:0|0:0,0:0:0:0:
360,0,172662,6,0,P|382:56|365:154,1,125.39999961731,12|2,0:0|0:0,0:0:0:0:
307,191,172996,1,2,0:0:0:0:
412,85,173162,2,0,P|392:142|403:175,1,62.6999998086548,2|2,0:0|0:0,0:0:0:0:
495,49,173329,6,0,P|435:-2|356:13,1,125.39999961731,12|2,0:0|0:0,0:0:0:0:
292,116,173662,1,2,0:0:0:0:
407,231,173829,1,2,0:0:0:0:
234,235,173996,1,2,0:0:0:0:
128,342,174163,1,2,0:0:0:0:
22,236,174329,1,2,0:0:0:0:
128,130,174496,1,2,0:0:0:0:
266,328,174662,6,0,P|319:285|329:212,1,125.39999961731,12|2,0:0|0:0,0:0:0:0:
452,143,174995,2,0,L|380:127,1,62.6999998086548,2|0,0:0|0:0,0:0:0:0:
441,129,175162,2,0,L|369:113,1,62.6999998086548,2|0,0:0|0:0,0:0:0:0:
281,17,175329,6,0,P|230:67|225:139,1,125.39999961731,12|2,0:0|0:0,0:0:0:0:
114,11,175662,1,2,0:0:0:0:
48,156,175829,1,2,0:0:0:0:
229,151,175995,6,0,P|229:222|182:276,1,125.39999961731,8|2,0:0|0:0,0:0:0:0:
67,170,176329,1,2,0:0:0:0:
153,72,176495,1,2,0:0:0:0:
1,102,176662,1,2,0:0:0:0:
31,253,176828,1,2,0:0:0:0:
182,221,176995,1,2,0:0:0:0:
125,333,177162,1,2,0:0:0:0:
234,80,177329,6,0,P|200:141|102:138,1,125.39999961731,12|2,0:0|0:0,0:0:0:0:
63,54,177662,1,2,0:0:0:0:
201,229,177829,2,0,P|248:269|257:310,1,62.6999998086548,2|0,0:0|0:0,0:0:0:0:
291,338,177995,2,0,P|355:311|360:232,1,125.39999961731,6|2,0:0|0:0,0:0:0:0:
297,158,178329,1,2,0:0:0:0:
412,284,178495,2,0,P|403:254|418:178,1,62.6999998086548,6|0,0:0|0:0,0:0:0:0:
468,160,178662,6,0,P|423:196|332:194,1,125.39999961731,12|2,0:0|0:0,0:0:0:0:
291,338,178995,1,2,0:0:0:0:
297,158,179162,1,2,0:0:0:0:
412,284,179329,1,2,0:0:0:0:
274,352,179495,1,2,0:0:0:0:
265,136,179662,1,2,0:0:0:0:
426,295,179829,2,0,P|434:263|415:212,1,62.6999998086548,2|0,0:0|0:0,0:0:0:0:
378,158,179995,6,0,P|396:82|472:67,1,125.39999961731,12|0,0:0|0:0,0:0:0:0:
332,233,180329,1,2,0:0:0:0:
269,57,180495,2,0,L|197:73,1,62.6999998086548,2|0,0:0|0:0,0:0:0:0:
140,122,180662,6,0,L|269:136,1,125.39999961731,12|2,0:0|0:0,0:0:0:0:
433,63,180995,1,2,0:0:0:0:
252,220,181162,2,0,P|252:251|264:280,1,62.6999998086548,2|0,0:0|0:0,0:0:0:0:
439,263,181329,6,0,P|426:298|341:346,1,125.39999961731,12|2,0:0|0:0,0:0:0:0:
233,261,181662,1,2,0:0:0:0:
255,384,181829,1,2,0:0:0:0:
123,325,181995,1,2,0:0:0:0:
122,184,182162,1,2,0:0:0:0:
251,123,182328,1,2,0:0:0:0:
359,216,182495,1,2,0:0:0:0:
188,68,182662,6,0,P|264:41|319:74,1,125.39999961731,12|2,0:0|0:0,0:0:0:0:
283,196,182995,1,2,0:0:0:0:
382,102,183162,1,2,0:0:0:0:
218,257,183329,6,0,P|142:284|87:251,1,125.39999961731,12|2,0:0|0:0,0:0:0:0:
25,171,183662,1,2,0:0:0:0:
56,357,183829,1,2,0:0:0:0:
186,181,183995,6,0,P|274:196|300:249,1,125.39999961731,12|2,0:0|0:0,0:0:0:0:
331,367,184329,1,2,0:0:0:0:
436,261,184495,1,2,0:0:0:0:
436,110,184662,1,2,0:0:0:0:
329,3,184829,1,2,0:0:0:0:
325,151,184995,1,2,0:0:0:0:
218,257,185162,1,2,0:0:0:0:
43,186,185329,6,0,P|53:275|89:307,1,125.39999961731,12|2,0:0|0:0,0:0:0:0:
206,266,185662,1,2,0:0:0:0:
94,372,185829,1,2,0:0:0:0:
135,220,185995,5,6,0:0:0:0:
32,21,186162,1,6,0:0:0:0:
75,298,186329,1,6,0:0:0:0:
161,62,186495,1,6,0:0:0:0:
252,297,186662,1,6,0:0:0:0:
313,19,186829,1,6,0:0:0:0:
447,246,186995,1,6,0:0:0:0:
247,70,187162,1,6,0:0:0:0:
450,107,187329,5,12,0:0:0:0:
459,123,187412,1,8,0:0:0:0:
461,141,187495,1,8,0:0:0:0:
457,159,187579,1,8,0:0:0:0:
446,178,187662,5,8,0:0:0:0:
437,194,187745,1,8,0:0:0:0:
434,213,187828,1,0,0:0:0:0:
438,231,187912,1,0,0:0:0:0:
447,246,187995,2,0,B|454:267|475:280|475:280|433:282|433:282|419:280|419:280|426:285|426:285|422:282|422:282|409:282|409:282|389:282|389:282|381:283|381:283|360:280|360:280|351:283|351:283|332:279|332:279|323:284|323:284|307:282,1,225.624993975163,14|0,0:0|0:0,0:0:0:0:
274,142,188662,5,12,0:0:0:0:
241,127,188745,1,2,0:0:0:0:
194,137,188828,1,2,0:0:0:0:
139,128,188912,1,0,0:0:0:0:
79,131,188995,2,0,P|49:110|32:64,1,60.3249995397568,2|0,0:0|0:0,0:0:0:0:
166,218,189162,2,0,P|195:238|212:284,1,60.3249995397568,2|0,0:0|0:0,0:0:0:0:
248,363,189328,6,0,P|303:359|358:235,1,149.150000568962,12|2,0:0|0:0,0:0:0:0:
387,70,189662,2,0,P|332:74|277:198,1,149.150000568962,2|2,0:0|0:0,0:0:0:0:
201,307,189995,2,0,P|171:315|142:311,1,60.3249995397568,2|0,0:0|0:0,0:0:0:0:
50,326,190162,2,0,P|23:311|5:288,1,60.3249995397568,2|0,0:0|0:0,0:0:0:0:
111,181,190328,2,0,P|140:172|169:176,1,60.3249995397568,2|0,0:0|0:0,0:0:0:0:
262,162,190495,2,0,P|289:177|307:200,1,60.3249995397568,2|0,0:0|0:0,0:0:0:0:
369,344,190662,5,12,0:0:0:0:
358,299,190745,1,0,0:0:0:0:
389,263,190828,1,0,0:0:0:0:
403,210,190912,1,2,0:0:0:0:
383,159,190995,2,0,P|359:126|304:117,1,60.3249995397568,2|0,0:0|0:0,0:0:0:0:
169,176,191162,2,0,P|192:208|247:217,1,60.3249995397568,2|0,0:0|0:0,0:0:0:0:
442,29,191328,6,0,L|371:24,1,67.4499966036226,10|0,0:0|0:0,0:0:0:0:
211,83,191495,2,0,P|239:91|269:88,1,60.3249995397568,2|0,0:0|0:0,0:0:0:0:
455,49,191662,2,0,L|385:51,1,60.3249995397568,10|0,0:0|0:0,0:0:0:0:
205,101,191828,2,0,P|177:93|147:96,1,60.3249995397568,2|0,0:0|0:0,0:0:0:0:
40,165,191995,6,0,B|45:220|45:220|42:243|42:243|45:263|45:263|41:269|41:269|47:284|47:284|54:303|48:334,1,149.150000568962,12|2,0:0|0:0,0:0:0:0:
220,362,192328,2,0,B|215:307|215:307|218:284|218:284|215:264|215:264|219:258|219:258|213:243|213:243|206:224|212:193,1,149.150000568962,2|2,0:0|0:0,0:0:0:0:
59,48,192662,6,0,P|62:77|77:102,1,60.3249995397568,2|0,0:0|0:0,0:0:0:0:
183,163,192828,2,0,P|200:186|208:215,1,60.3249995397568,2|0,0:0|0:0,0:0:0:0:
220,362,192995,2,0,P|249:358|274:343,1,60.3249995397568,2|0,0:0|0:0,0:0:0:0:
335,238,193161,2,0,P|358:220|387:212,1,60.3249995397568,2|0,0:0|0:0,0:0:0:0:
512,264,193328,6,0,P|500:291|381:340,1,149.150000568962,12|2,0:0|0:0,0:0:0:0:
266,265,193662,1,2,0:0:0:0:
233,235,193745,1,2,0:0:0:0:
173,239,193828,1,2,0:0:0:0:
121,292,193912,1,2,0:0:0:0:
118,367,193995,6,0,L|201:356,1,67.4499966036226,12|0,0:0|0:0,0:0:0:0:
387,212,194162,2,0,L|308:203,1,60.3249995397568,2|0,0:0|0:0,0:0:0:0:
245,153,194328,1,2,0:0:0:0:
196,161,194412,1,2,0:0:0:0:
152,126,194495,1,2,0:0:0:0:
107,143,194578,1,2,0:0:0:0:
38,101,194662,6,0,L|123:94,1,74.5750002844811,12|0,0:0|0:0,0:0:0:0:
171,41,194828,1,2,0:0:0:0:
213,19,194912,1,2,0:0:0:0:
280,17,194995,6,0,P|326:32|452:10,1,120.649999079514,2|2,0:0|0:0,0:0:0:0:
512,150,195328,2,0,P|466:135|340:157,1,120.649999079514,2|2,0:0|0:0,0:0:0:0:
364,161,195578,1,2,0:0:0:0:
327,193,195662,2,0,P|284:199|237:183,1,60.3249995397568,2|0,0:0|0:0,0:0:0:0:
85,263,195828,2,0,P|128:257|175:273,1,60.3249995397568,2|0,0:0|0:0,0:0:0:0:
240,356,195995,6,0,L|234:273,1,74.5750002844811,12|0,0:0|0:0,0:0:0:0:
193,196,196162,1,0,0:0:0:0:
168,158,196245,1,2,0:0:0:0:
163,95,196328,2,0,P|182:51|203:35,1,60.3249995397568,2|0,0:0|0:0,0:0:0:0:
295,144,196495,2,0,P|276:188|255:204,1,60.3249995397568,2|0,0:0|0:0,0:0:0:0:
127,258,196662,6,0,B|133:272|146:282,1,19,2|0,0:0|0:0,0:0:0:0:
162,268,196745,2,0,B|172:274|172:274|190:274,1,17.812500679493,2|0,0:0|0:0,0:0:0:0:
202,268,196828,2,0,B|215:280|232:286,1,33.2499989852906,2|0,0:0|0:0,0:0:0:0:
252,281,196953,6,0,B|246:289|246:289|238:296,1,15.4374992933274,2|0,0:0|0:0,0:0:0:0:
261,304,197037,2,0,P|276:306|296:304,1,28.4999991302491,2|0,0:0|0:0,0:0:0:0:
299,290,197162,2,0,P|317:285|335:272,1,39.1875011959076,2|0,0:0|0:0,0:0:0:0:
342,260,197328,2,0,P|354:241|377:228,1,47.5,2|0,0:0|0:0,0:0:0:0:
384,215,197537,2,0,B|404:195|404:195|419:167,1,53.437498369217,2|0,0:0|0:0,0:0:0:0:
413,160,197787,2,0,B|413:138|406:115,1,38,2|0,0:0|0:0,0:0:0:0:
387,110,197995,6,0,L|214:103,1,166.25,10|0,0:0|0:0,0:0:0:0:
193,89,198662,2,0,P|142:103|317:240,1,515.375003931999,12|0,0:0|0:0,0:0:0:0:
262,355,199328,6,0,P|202:373|128:350,1,137.750004203797,12|2,0:0|0:0,0:0:0:0:
78,224,199662,1,2,0:0:0:0:
193,89,199828,1,2,0:0:0:0:
417,205,199995,6,0,B|389:231|389:231|275:231,1,137.750004203797,12|2,0:0|0:0,0:0:0:0:
193,89,200328,1,2,0:0:0:0:
78,224,200495,1,2,0:0:0:0:
257,149,200662,5,10,0:0:0:0:
280,99,200745,1,8,0:0:0:0:
270,46,200828,1,10,0:0:0:0:
230,9,200912,1,8,0:0:0:0:
177,1,200995,1,10,0:0:0:0:
129,26,201078,1,8,0:0:0:0:
105,75,201162,1,10,0:0:0:0:
113,128,201245,1,8,0:0:0:0:
151,167,201328,6,0,P|210:175|262:143,1,68.8750021018983,12|0,0:0|0:0,0:0:0:0:
382,35,201495,2,0,P|323:27|271:59,1,68.8750021018983,2|0,0:0|0:0,0:0:0:0:
142,182,201662,2,0,P|209:191|264:165,1,68.8750021018983,2|0,0:0|0:0,0:0:0:0:
406,30,201828,2,0,P|338:20|285:55,1,68.8750021018983,2|0,0:0|0:0,0:0:0:0:
270,119,201995,6,0,P|296:161|264:221,1,68.8750021018983,12|0,0:0|0:0,0:0:0:0:
262,339,202162,2,0,P|285:296|353:293,1,68.8750021018983,2|0,0:0|0:0,0:0:0:0:
472,251,202328,1,2,0:0:0:0:
472,251,202412,1,0,0:0:0:0:
472,251,202495,2,0,P|437:256|367:224,1,68.8750021018983,2|0,0:0|0:0,0:0:0:0:
270,119,202662,6,0,P|237:170|158:188,1,137.750004203797,12|2,0:0|0:0,0:0:0:0:
22,105,202995,1,2,0:0:0:0:
42,137,203078,1,2,0:0:0:0:
35,196,203162,2,0,P|30:241|50:283,1,68.8750021018983,2|0,0:0|0:0,0:0:0:0:
88,343,203328,5,10,0:0:0:0:
136,359,203412,1,8,0:0:0:0:
191,353,203495,1,10,0:0:0:0:
237,321,203578,1,8,0:0:0:0:
262,273,203662,1,10,0:0:0:0:
264,220,203745,1,8,0:0:0:0:
241,169,203828,1,10,0:0:0:0:
199,136,203912,1,8,0:0:0:0:
144,126,203995,6,0,B|121:134|79:113|77:80|77:80|152:60,1,137.750004203797,12|2,0:0|0:0,0:0:0:0:
271,30,204328,1,2,0:0:0:0:
305,41,204412,1,2,0:0:0:0:
340,91,204495,1,2,0:0:0:0:
319,167,204578,1,2,0:0:0:0:
280,229,204662,6,0,P|292:288|338:319,1,68.8750021018983,12|0,0:0|0:0,0:0:0:0:
406,353,204828,1,0,0:0:0:0:
386,321,204912,1,2,0:0:0:0:
374,274,204995,2,0,P|377:241|404:202,1,68.8750021018983,2|0,0:0|0:0,0:0:0:0:
498,122,205162,1,2,0:0:0:0:
465,148,205245,1,2,0:0:0:0:
415,168,205328,6,0,P|353:148|324:44,1,137.750004203797,12|2,0:0|0:0,0:0:0:0:
452,5,205662,1,2,0:0:0:0:
241,111,205828,1,2,0:0:0:0:
213,89,205912,1,0,0:0:0:0:
159,78,205995,5,10,0:0:0:0:
114,93,206078,1,8,0:0:0:0:
88,133,206162,1,10,0:0:0:0:
90,180,206245,1,8,0:0:0:0:
120,217,206328,1,10,0:0:0:0:
161,239,206412,1,8,0:0:0:0:
180,283,206495,1,10,0:0:0:0:
170,328,206578,1,8,0:0:0:0:
135,360,206662,6,0,P|62:363|30:279,1,137.750004203797,12|0,0:0|0:0,0:0:0:0:
168,154,206995,1,2,0:0:0:0:
204,175,207078,1,2,0:0:0:0:
254,177,207162,2,0,P|287:162|323:110,1,68.8750021018983,2|0,0:0|0:0,0:0:0:0:
380,15,207328,6,0,L|384:108,1,54.6250010418892,10|0,0:0|0:0,0:0:0:0:
479,166,207495,2,0,L|483:73,1,54.6250010418892,2|0,0:0|0:0,0:0:0:0:
384,208,207662,1,2,0:0:0:0:
360,237,207745,1,2,0:0:0:0:
360,287,207828,1,2,0:0:0:0:
406,329,207912,1,2,0:0:0:0:
473,329,207995,6,0,P|481:304|479:270,1,54.6250010418892,2|0,0:0|0:0,0:0:0:0:
279,205,208162,2,0,P|271:230|273:264,1,54.6250010418892,2|0,0:0|0:0,0:0:0:0:
390,110,208328,1,2,0:0:0:0:
370,96,208412,2,0,B|352:94|352:94|356:98|356:98|340:94|340:94|348:99|348:99|329:95|329:95|337:102|337:102|319:96|319:96|327:103|327:103|299:99,1,109.250002083778,2|0,0:0|0:0,0:0:0:0:
241,139,208662,5,2,0:0:0:0:
207,149,208745,1,10,0:0:0:0:
171,152,208828,2,0,P|138:146|117:121,1,59.375,2|2,0:0|0:0,0:0:0:0:
129,29,208995,2,0,P|162:35|183:60,1,59.375,2|2,0:0|0:0,0:0:0:0:
109,165,209162,2,0,P|89:137|92:104,1,59.375,2|2,0:0|0:0,0:0:0:0:
186,12,209328,6,0,B|196:14|196:14|199:25|199:25|203:16|203:16|205:32|205:32|209:19|209:19|212:40|212:40|216:23|216:23|217:50|217:50|224:27|224:27|223:63|223:63|232:33|232:33|228:72|228:72|239:41|239:41|233:83|233:83|246:51|246:51|237:92|237:92|253:62|253:62|241:83|240:102|240:102|243:85|258:71|258:71|246:94|245:111,1,515.375003931999,12|0,0:0|0:0,0:0:0:0:
319,131,209995,5,6,0:0:0:0:
357,135,210078,1,8,0:0:0:0:
391,154,210161,1,8,0:0:0:0:
416,185,210245,1,8,0:0:0:0:
427,222,210328,1,2,0:0:0:0:
423,261,210412,1,8,0:0:0:0:
405,296,210495,1,8,0:0:0:0:
375,321,210578,1,8,0:0:0:0:
338,333,210662,5,6,0:0:0:0:
298,311,210745,1,8,0:0:0:0:
253,309,210828,1,8,0:0:0:0:
212,329,210912,1,8,0:0:0:0:
171,350,210995,1,2,0:0:0:0:
126,353,211078,1,8,0:0:0:0:
83,337,211162,1,8,0:0:0:0:
50,306,211245,1,8,0:0:0:0:
33,264,211328,5,2,0:0:0:0:
32,218,211412,1,8,0:0:0:0:
51,176,211495,1,8,0:0:0:0:
85,146,211578,1,8,0:0:0:0:
128,133,211662,1,2,0:0:0:0:
173,138,211745,1,8,0:0:0:0:
212,162,211828,1,8,0:0:0:0:
238,199,211912,1,8,0:0:0:0:
246,244,211995,5,6,0:0:0:0:
251,205,212078,1,8,0:0:0:0:
264,168,212162,1,8,0:0:0:0:
282,133,212245,1,8,0:0:0:0:
307,103,212328,1,2,0:0:0:0:
337,77,212412,1,8,0:0:0:0:
371,57,212495,1,8,0:0:0:0:
407,44,212578,1,8,0:0:0:0:
446,37,212662,5,6,0:0:0:0:
408,73,212745,1,8,0:0:0:0:
393,122,212828,1,8,0:0:0:0:
404,173,212912,1,8,0:0:0:0:
439,210,212995,1,2,0:0:0:0:
474,246,213078,1,8,0:0:0:0:
489,296,213162,1,8,0:0:0:0:
475,346,213245,1,8,0:0:0:0:
439,384,213328,5,6,0:0:0:0:
432,338,213411,1,8,0:0:0:0:
408,300,213495,1,8,0:0:0:0:
371,273,213578,1,8,0:0:0:0:
326,264,213662,1,2,0:0:0:0:
282,274,213745,1,8,0:0:0:0:
245,301,213828,1,8,0:0:0:0:
221,339,213912,1,8,0:0:0:0:
183,365,213995,5,2,0:0:0:0:
138,373,214078,1,8,0:0:0:0:
94,363,214162,1,8,0:0:0:0:
58,336,214245,1,8,0:0:0:0:
35,296,214328,1,2,0:0:0:0:
31,250,214412,1,8,0:0:0:0:
46,207,214495,1,8,0:0:0:0:
76,174,214578,1,8,0:0:0:0:
118,155,214662,5,6,0:0:0:0:
154,139,214745,1,8,0:0:0:0:
177,108,214828,1,8,0:0:0:0:
182,70,214912,1,8,0:0:0:0:
168,33,214995,1,2,0:0:0:0:
138,9,215078,1,8,0:0:0:0:
100,1,215162,1,8,0:0:0:0:
63,13,215245,1,8,0:0:0:0:
37,42,215328,5,6,0:0:0:0:
61,64,215412,1,8,0:0:0:0:
91,77,215495,1,8,0:0:0:0:
123,80,215578,1,8,0:0:0:0:
155,72,215662,1,2,0:0:0:0:
182,54,215745,1,8,0:0:0:0:
207,34,215828,1,8,0:0:0:0:
238,25,215912,1,8,0:0:0:0:
271,26,215995,5,2,0:0:0:0:
301,37,216078,1,8,0:0:0:0:
326,58,216162,1,8,0:0:0:0:
342,86,216245,1,8,0:0:0:0:
347,118,216328,1,6,0:0:0:0:
341,150,216412,1,8,0:0:0:0:
338,182,216495,6,0,P|340:220|353:255,1,45.1249987950325,8|0,0:0|0:0,0:0:0:0:
443,302,216662,2,0,P|441:264|428:229,1,45.1249987950325,8|0,0:0|0:0,0:0:0:0:
252,123,216828,1,8,0:0:0:0:
216,125,216912,1,8,0:0:0:0:
189,148,216995,6,0,P|170:172|166:217,1,45.1249987950325,8|0,0:0|0:0,0:0:0:0:
234,290,217162,2,0,P|253:266|257:221,1,45.1249987950325,8|0,0:0|0:0,0:0:0:0:
144,157,217328,2,0,P|146:187|175:221,1,45.1249987950325,8|0,0:0|0:0,0:0:0:0:
276,275,217495,1,8,0:0:0:0:
311,282,217578,1,8,0:0:0:0:
346,274,217662,1,10,0:0:0:0:
375,253,217745,1,8,0:0:0:0:
407,238,217828,2,0,P|427:232|462:233,1,45.1249987950325,8|0,0:0|0:0,0:0:0:0:
380,384,217995,6,0,P|353:365|338:329,8,54.6250010418892,0|0|0|0|0|0|0|0|6,0:0|0:0|0:0|0:0|0:0|0:0|0:0|0:0|0:0,0:0:0:0:
250,13,219328,5,8,0:0:0:0:
248,45,219412,1,8,0:0:0:0:
235,94,219495,5,8,0:0:0:0:
236,126,219579,1,8,0:0:0:0:
237,159,219662,1,8,0:0:0:0:
238,192,219745,1,8,0:0:0:0:
222,220,219828,5,8,0:0:0:0:
195,202,219912,1,8,0:0:0:0:
180,173,219995,5,8,0:0:0:0:
157,149,220078,1,8,0:0:0:0:
127,136,220161,1,8,0:0:0:0:
95,136,220245,1,8,0:0:0:0:
65,149,220328,1,8,0:0:0:0:
43,173,220411,1,8,0:0:0:0:
33,204,220495,1,8,0:0:0:0:
36,236,220578,1,8,0:0:0:0:
51,265,220662,5,8,0:0:0:0:
103,250,220745,1,8,0:0:0:0:
153,271,220828,1,8,0:0:0:0:
176,315,220912,1,8,0:0:0:0:
202,362,220995,1,2,0:0:0:0:
249,391,221078,1,8,0:0:0:0:
303,393,221162,1,8,0:0:0:0:
352,369,221245,1,8,0:0:0:0:
379,325,221328,5,8,0:0:0:0:
339,280,221412,1,8,0:0:0:0:
281,260,221495,1,8,0:0:0:0:
221,273,221578,1,8,0:0:0:0:
176,315,221662,1,2,0:0:0:0:
115,325,221745,1,8,0:0:0:0:
58,304,221828,1,8,0:0:0:0:
18,257,221912,1,8,0:0:0:0:
7,197,221995,5,2,0:0:0:0:
27,139,222078,1,8,0:0:0:0:
73,99,222162,1,8,0:0:0:0:
134,89,222245,1,8,0:0:0:0:
191,112,222328,1,2,0:0:0:0:
236,151,222411,1,8,0:0:0:0:
296,161,222495,1,8,0:0:0:0:
353,138,222578,1,8,0:0:0:0:
390,89,222662,5,8,0:0:0:0:
335,89,222745,1,8,0:0:0:0:
287,115,222828,1,8,0:0:0:0:
258,161,222912,1,8,0:0:0:0:
253,215,222995,1,2,0:0:0:0:
276,265,223078,1,8,0:0:0:0:
319,298,223162,1,8,0:0:0:0:
373,307,223245,1,8,0:0:0:0:
427,289,223328,5,8,0:0:0:0:
384,236,223412,1,8,0:0:0:0:
321,209,223495,1,8,0:0:0:0:
253,215,223578,1,8,0:0:0:0:
197,253,223662,1,2,0:0:0:0:
137,284,223745,1,8,0:0:0:0:
70,274,223828,1,8,0:0:0:0:
21,227,223912,1,8,0:0:0:0:
10,160,223995,5,8,0:0:0:0:
70,169,224078,1,8,0:0:0:0:
130,152,224161,1,8,0:0:0:0:
176,112,224245,1,8,0:0:0:0:
218,69,224328,1,2,0:0:0:0:
276,51,224411,1,8,0:0:0:0:
337,58,224495,1,8,0:0:0:0:
390,90,224578,1,8,0:0:0:0:
425,141,224662,5,2,0:0:0:0:
436,201,224745,1,8,0:0:0:0:
421,261,224828,1,8,0:0:0:0:
384,310,224912,1,8,0:0:0:0:
329,339,224995,1,2,0:0:0:0:
268,343,225078,1,8,0:0:0:0:
210,323,225162,6,0,P|209:278|224:227,1,68.8750021018983,8|8,0:0|0:0,0:0:0:0:
299,139,225328,1,10,0:0:0:0:
260,176,225411,1,8,0:0:0:0:
206,181,225495,1,8,0:0:0:0:
161,152,225578,1,8,0:0:0:0:
145,100,225662,1,2,0:0:0:0:
165,50,225745,1,8,0:0:0:0:
212,23,225828,1,8,0:0:0:0:
265,32,225911,1,8,0:0:0:0:
313,61,225995,6,2,P|337:66|388:54,1,68.8750021018983,8|8,0:0|0:0,0:0:0:0:
449,0,226162,1,8,0:0:0:0:
425,41,226245,1,8,0:0:0:0:
424,89,226328,1,2,0:0:0:0:
446,131,226412,1,8,0:0:0:0:
475,167,226495,1,8,0:0:0:0:
485,214,226578,1,8,0:0:0:0:
470,259,226662,6,2,L|362:239,1,68.8750021018983,8|8,0:0|0:0,0:0:0:0:
231,151,226828,2,2,L|339:131,1,68.8750021018983,8|8,0:0|0:0,0:0:0:0:
190,246,226995,1,2,0:0:0:0:
154,226,227078,1,8,0:0:0:0:
113,227,227162,6,2,P|77:232|42:222,1,68.8750021018983,8|8,0:0|0:0,0:0:0:0:
151,50,227328,2,2,P|158:88|152:139,1,68.8750021018983,8|8,0:0|0:0,0:0:0:0:
80,345,227495,2,2,P|101:313|149:300,1,68.8750021018983,8|8,0:0|0:0,0:0:0:0:
311,346,227662,6,2,L|216:341,1,68.8750021018983,10|8,0:0|0:0,0:0:0:0:
245,383,227828,2,2,P|207:373|170:324,1,68.8750021018983,8|8,0:0|0:0,0:0:0:0:
47,212,227995,6,2,P|88:214|135:247,1,68.8750021018983,10|8,0:0|0:0,0:0:0:0:
160,173,228162,2,2,P|201:166|244:129,1,68.8750021018983,8|8,0:0|0:0,0:0:0:0:
345,31,228328,6,2,P|320:64|315:121,1,68.8750021018983,10|8,0:0|0:0,0:0:0:0:
323,183,228495,2,2,P|346:217|397:241,1,68.8750021018983,8|8,0:0|0:0,0:0:0:0:
497,306,228662,6,2,B|469:296|435:311|411:331|411:331|410:358|389:382,1,126.666666666667,4|0,0:0|0:0,0:0:0:0:
370,383,229120,2,2,P|338:381|307:348,1,79.1666666666667,0|0,0:0|0:0,0:0:0:0:
332,278,229495,6,2,L|249:278,1,79.1666666666667,0|0,0:0|0:0,0:0:0:0:
215,251,229913,6,2,P|201:289|158:315,1,79.1666666666667,0|0,0:0|0:0,0:0:0:0:
104,342,230288,6,2,B|89:323|89:323|90:263,1,79.1666666666667,0|0,0:0|0:0,0:0:0:0:
32,216,230716,6,2,P|75:222|107:204,1,71.25,0|0,0:0|0:0,0:0:0:0:
166,132,231257,2,2,P|209:88|201:210,1,313.500009567261,0|0,0:0|0:0,0:0:0:0:
