osu file format v14

[General]
AudioFilename: Igorrr - Tout Petit Moineau.mp3
AudioLeadIn: 0
PreviewTime: 83537
Countdown: 0
SampleSet: Soft
StackLeniency: 0.7
Mode: 0
LetterboxInBreaks: 0
WidescreenStoryboard: 0

[Editor]
Bookmarks: 12216,131084,151462,205801
DistanceSpacing: 1.4
BeatDivisor: 4
GridSize: 4
TimelineZoom: 1

[Metadata]
Title:Tout Petit Moineau
TitleUnicode:Tout Petit Moineau
Artist:Igorrr
ArtistUnicode:Igorrr
Creator:Kyshiro
Version:Extra 2013
Source:
Tags:kazukisinx breakcore
BeatmapID:273096
BeatmapSetID:103691

[Difficulty]
HPDrainRate:6
CircleSize:4
OverallDifficulty:8
ApproachRate:9
SliderMultiplier:1.5
SliderTickRate:1

[Events]
//Background and Video events
0,0,"bgbgbgbgbfgbdafsa.jpg",0,0
//Break Periods
2,80341,82937
2,90529,91994
//Storyboard Layer 0 (Background)
//Storyboard Layer 1 (Fail)
//Storyboard Layer 2 (Pass)
//Storyboard Layer 3 (Foreground)
//Storyboard Sound Samples

[TimingPoints]
896,283.018867924528,4,2,0,60,1,0
12216,-200,4,2,0,60,0,0
13348,-100,4,2,0,60,0,0
14480,-133.333333333333,4,2,0,60,0,0
15046,-100,4,2,0,60,0,0
19292,-142.857142857143,4,2,0,60,0,0
19292,-142.857142857143,4,2,0,60,0,0
19575,-117.647058823529,4,2,0,60,0,0
19858,-100,4,2,0,60,0,0
20141,-200,4,2,0,60,0,0
21273,-100,4,2,0,60,0,0
25518,-133.333333333333,4,2,0,60,0,0
25801,-100,4,2,0,60,0,0
26650,-133.333333333333,4,2,0,60,0,0
26933,-100,4,2,0,60,0,0
27216,-83.3333333333333,4,2,0,60,0,0
27499,-71.4285714285714,4,2,0,60,0,0
27782,-83.3333333333333,4,2,0,60,0,0
28631,-100,4,2,0,60,0,0
32877,-125,4,2,0,60,0,0
33160,-100,4,2,0,60,0,0
33443,-83.3333333333333,4,2,0,60,0,0
33726,-200,4,2,0,60,0,0
34858,-100,4,2,0,60,0,0
48867,-133.333333333333,4,2,0,60,0,0
49150,-100,4,2,0,60,0,0
49999,-133.333333333333,4,2,0,60,0,0
50282,-100,4,2,0,60,0,0
51131,-133.333333333333,4,2,0,60,0,0
51414,-100,4,2,0,60,0,0
63124,-66.6666666666667,4,2,0,60,0,0
64150,-100,4,2,0,60,0,0
68820,-90.9090909090909,4,2,0,60,0,0
69103,-83.3333333333333,4,2,0,60,0,0
69386,-76.9230769230769,4,2,0,60,0,0
69811,-100,4,2,0,60,0,0
83537,-133.333333333333,4,2,0,60,0,1
84669,-90.9090909090909,4,2,0,60,0,1
87782,-76.9230769230769,4,2,0,60,0,1
90329,-100,4,2,0,60,0,0
92594,-100,4,2,0,60,0,1
97051,-100,4,2,0,60,0,0
97122,-100,4,2,0,60,0,1
103914,-83.3333333333333,4,2,0,60,0,1
110424,-71.4285714285714,4,2,0,60,0,1
110707,-83.3333333333333,4,2,0,60,0,1
112405,-133.333333333333,4,2,0,60,0,0
114103,-76.9230769230769,4,2,0,60,0,1
119763,-83.3333333333333,4,2,0,60,0,1
124292,-100,4,2,0,60,0,0
137594,-83.3333333333333,4,2,0,60,0,0
138019,-100,4,2,0,60,0,0
145801,-133.333333333333,4,2,0,60,0,0
146933,-100,4,2,0,60,0,0
149197,-83.3333333333333,4,2,0,60,0,0
151745,-133.333333333333,4,2,0,60,0,0
154858,-100,4,2,0,60,0,0
170424,-90.9090909090909,4,2,0,60,0,0
170707,-83.3333333333333,4,2,0,60,0,0
170990,-76.9230769230769,4,2,0,60,0,0
171273,-83.3333333333333,4,2,0,60,0,0
171556,-100,4,2,0,60,0,0
177499,-133.333333333333,4,2,0,60,0,0
178207,-100,4,2,0,60,0,0
204669,-133.333333333333,4,2,0,60,0,0

[Colours]
Combo1 : 128,128,64
Combo2 : 192,192,192
Combo3 : 128,64,64

[HitObjects]
64,240,12216,6,0,P|89:315|226:319,1,225
267,243,13348,2,0,L|272:220,7,18.75
306,183,13631,2,0,P|353:175|391:198,1,75
194,225,13914,1,0,0:0:0:0:
171,221,13985,1,0,0:0:0:0:
151,209,14056,1,0,0:0:0:0:
138,190,14126,1,0,0:0:0:0:
135,167,14197,2,0,P|139:128|176:91,1,75
289,48,14480,6,0,P|321:77|369:85,1,84.3750032186509
378,96,14763,2,0,L|418:185,1,84.3750032186509
438,186,15046,2,0,L|452:214,7,18.75
428,252,15329,2,0,P|406:274|361:286,1,75
281,364,15612,5,0,0:0:0:0:
185,297,15754,2,0,P|135:281|91:295,1,75
23,166,16037,1,0,0:0:0:0:
159,214,16179,2,0,L|249:195,1,75
392,306,16462,2,0,L|302:287,1,75
371,179,16745,5,0,0:0:0:0:
457,266,16886,2,0,P|465:324|453:355,1,75
282,364,17169,1,0,0:0:0:0:
162,340,17311,2,0,L|109:266,1,75
54,239,17594,1,0,0:0:0:0:
200,265,17735,1,0,0:0:0:0:
149,132,17877,5,0,0:0:0:0:
266,200,18018,1,0,0:0:0:0:
285,211,18089,1,0,0:0:0:0:
306,218,18160,1,0,0:0:0:0:
328,220,18230,1,0,0:0:0:0:
350,217,18301,1,0,0:0:0:0:
325,122,18443,2,0,P|347:121|367:113,4,37.5
226,69,18867,1,0,0:0:0:0:
226,69,18938,1,0,0:0:0:0:
226,69,19009,2,0,L|177:154,1,75
44,265,19292,6,0,P|77:277|125:261,1,78.7499975967408
156,293,19575,6,0,P|199:307|253:285,1,95.6250018239022
290,311,19858,6,0,P|340:327|403:301,1,112.5
341,232,20141,6,0,B|296:172|230:190|230:190|178:210|178:210|114:227|70:174,1,300
51,68,21414,5,0,0:0:0:0:
148,125,21556,1,0,0:0:0:0:
254,90,21697,2,0,L|304:30,1,75
393,166,21980,2,0,L|343:106,1,75
469,65,22263,1,0,0:0:0:0:
499,178,22405,5,0,0:0:0:0:
432,272,22546,1,0,0:0:0:0:
409,268,22617,1,0,0:0:0:0:
386,264,22688,1,0,0:0:0:0:
363,260,22759,1,0,0:0:0:0:
341,256,22829,1,0,0:0:0:0:
260,296,22971,1,0,0:0:0:0:
180,337,23112,2,0,L|127:326,4,37.5
66,361,23537,5,0,0:0:0:0:
18,284,23679,1,0,0:0:0:0:
13,261,23749,1,0,0:0:0:0:
16,239,23820,1,0,0:0:0:0:
26,218,23891,1,0,0:0:0:0:
43,202,23962,1,0,0:0:0:0:
106,83,24103,1,0,0:0:0:0:
189,156,24245,2,0,L|241:148,1,37.5
292,91,24386,2,0,L|240:83,1,37.5
312,162,24528,2,0,L|364:154,1,37.5
415,97,24669,2,0,L|363:89,1,37.5
441,167,24811,2,0,L|493:159,1,37.5
405,243,24952,6,0,L|301:259,1,75
247,219,25235,1,0,0:0:0:0:
138,314,25377,1,0,0:0:0:0:
75,250,25518,2,0,P|67:189|91:157,1,84.3750032186509
118,109,25801,6,0,P|163:122|259:83,1,150
277,92,26155,1,0,0:0:0:0:
298,97,26226,1,0,0:0:0:0:
319,102,26296,1,0,0:0:0:0:
340,107,26367,1,0,0:0:0:0:
361,113,26438,1,0,0:0:0:0:
382,119,26509,1,0,0:0:0:0:
403,124,26579,1,0,0:0:0:0:
424,130,26650,6,0,P|445:166|447:217,1,84.3750032186509
397,211,26933,6,0,P|388:262|349:311,1,112.5
307,281,27216,6,0,P|258:321|186:336,1,134.999995880127
186,284,27499,6,0,P|95:284|8:195,1,209.999993591309
2,180,27853,1,0,0:0:0:0:
1,152,27924,1,0,0:0:0:0:
103,64,28065,5,0,0:0:0:0:
182,167,28207,1,0,0:0:0:0:
287,83,28348,2,0,P|328:114|414:109,1,134.999995880127
481,95,28631,2,0,P|460:164|483:238,1,150
455,265,28985,1,0,0:0:0:0:
432,264,29056,1,0,0:0:0:0:
409,264,29127,1,0,0:0:0:0:
386,264,29197,1,0,0:0:0:0:
303,187,29339,5,0,0:0:0:0:
211,252,29480,2,0,P|204:301|232:332,1,75
213,161,29763,1,0,0:0:0:0:
190,162,29833,1,0,0:0:0:0:
168,169,29904,1,0,0:0:0:0:
149,181,29975,1,0,0:0:0:0:
133,198,30046,1,0,0:0:0:0:
211,252,30188,1,0,0:0:0:0:
303,187,30329,6,0,L|342:109,1,75
396,63,30612,2,0,P|420:71|438:89,3,37.5
317,47,30895,2,0,P|293:39|275:21,3,37.5
185,45,31179,1,0,0:0:0:0:
165,56,31249,1,0,0:0:0:0:
145,67,31320,1,0,0:0:0:0:
125,78,31391,1,0,0:0:0:0:
105,89,31462,2,0,L|63:83,3,37.5
14,167,31745,2,0,L|56:173,3,37.5
64,220,32028,2,0,P|75:264|119:293,1,75
214,285,32311,6,0,L|270:305,2,50
193,177,32594,2,0,L|137:157,2,50,0|0|0,0:0|0:0|0:0,0:0:0:0:
274,130,32877,6,0,P|311:182|340:187,1,90
274,129,33160,6,0,P|349:148|381:130,1,112.5
274,129,33443,6,0,P|356:89|371:49,1,134.999995880127
281,38,33726,6,0,B|193:28|146:106|146:106|73:229,1,300
131,322,34999,5,0,0:0:0:0:
236,281,35141,1,0,0:0:0:0:
324,350,35282,2,0,P|377:361|458:317,1,150
373,257,35707,2,0,P|397:224|399:181,1,75
350,101,35990,6,0,L|349:80,1,18.75
264,92,36131,2,0,L|245:82,1,18.75
224,164,36273,2,0,L|206:175,1,18.75
256,244,36414,2,0,L|257:265,1,18.75
340,252,36556,2,0,L|359:262,1,18.75
384,180,36697,2,0,L|402:169,1,18.75
350,101,36839,2,0,L|349:80,1,18.75
248,24,36980,5,0,0:0:0:0:
156,88,37122,2,0,P|140:124|144:156,2,50
84,64,37405,2,0,P|100:28|96:-4,2,50
96,148,37688,2,0,L|136:176,2,50
90,235,37971,2,0,L|130:263,2,50
196,200,38254,5,0,0:0:0:0:
232,216,38348,1,0,0:0:0:0:
272,211,38443,1,0,0:0:0:0:
304,187,38537,2,0,P|356:175|387:190,1,75
420,285,38820,1,0,0:0:0:0:
342,366,38962,1,0,0:0:0:0:
244,310,39103,2,0,B|172:278|172:342|100:310,1,150
17,181,39528,5,0,0:0:0:0:
103,110,39669,2,0,L|190:133,1,75
267,27,39952,2,0,L|180:50,1,75
297,126,40235,1,0,0:0:0:0:
318,120,40306,1,0,0:0:0:0:
339,114,40377,1,0,0:0:0:0:
360,109,40447,1,0,0:0:0:0:
382,104,40518,1,0,0:0:0:0:
465,139,40660,5,0,0:0:0:0:
429,221,40801,2,0,P|397:245|357:243,1,75
282,285,41084,2,0,P|235:262|138:278,1,150
57,310,41509,1,0,0:0:0:0:
10,233,41650,5,0,0:0:0:0:
63,160,41792,1,0,0:0:0:0:
82,172,41862,1,0,0:0:0:0:
102,182,41933,1,0,0:0:0:0:
124,188,42004,1,0,0:0:0:0:
147,191,42075,1,0,0:0:0:0:
233,218,42216,2,0,L|309:183,1,75
345,196,42429,2,0,L|383:178,3,37.5
506,249,42782,6,0,P|466:275|403:266,1,112.5
347,310,43065,2,0,P|285:301|245:327,1,112.5
181,297,43348,1,0,0:0:0:0:
164,312,43418,1,0,0:0:0:0:
143,322,43489,1,0,0:0:0:0:
121,325,43560,1,0,0:0:0:0:
98,322,43631,2,0,P|59:303|32:237,1,112.5
56,179,43914,6,0,P|126:154|190:193,1,150
200,208,44268,1,0,0:0:0:0:
218,220,44339,1,0,0:0:0:0:
239,225,44410,1,0,0:0:0:0:
261,222,44480,1,0,0:0:0:0:
389,280,44622,2,0,L|349:307,4,37.5
494,175,45046,1,0,0:0:0:0:
489,152,45116,1,0,0:0:0:0:
485,130,45187,1,0,0:0:0:0:
481,107,45258,1,0,0:0:0:0:
477,85,45329,1,0,0:0:0:0:
378,30,45471,5,0,0:0:0:0:
295,106,45612,2,0,P|251:125|179:106,1,112.5
163,90,45895,2,0,P|144:69|134:40,2,50
126,149,46179,2,0,L|132:170,7,18.75
75,213,46462,6,0,L|94:269,1,50
120,334,46650,2,0,L|176:315,1,50
240,287,46839,2,0,L|221:231,1,50
195,166,47027,2,0,L|139:185,1,50
305,205,47311,6,0,B|340:245|390:249|436:221|436:221|394:200,1,187.5
183,24,47947,6,0,L|145:94,1,75
39,148,48230,2,0,L|77:218,1,75
132,214,48443,6,0,P|172:239|206:232,1,75
302,192,48726,1,0,0:0:0:0:
384,253,48867,6,0,L|422:340,1,84.3750032186509
457,273,49150,6,0,L|457:189,1,75
391,105,49433,1,0,0:0:0:0:
288,152,49575,2,0,P|244:174|143:148,1,150
4,44,49999,6,0,P|47:61|91:43,1,84.3750032186509
114,89,50282,6,0,P|157:80|197:96,1,75
292,51,50565,1,0,0:0:0:0:
391,105,50707,2,0,P|414:159|362:239,1,150
285,329,51131,6,0,L|194:308,1,84.3750032186509
148,324,51414,6,0,P|108:337|61:324,1,75
103,222,51697,1,0,0:0:0:0:
205,174,51839,2,0,L|364:213,1,150
462,202,52263,1,0,0:0:0:0:
414,304,52405,1,0,0:0:0:0:
306,273,52546,1,0,0:0:0:0:
210,333,52688,2,0,L|69:308,1,112.5
69,296,52971,6,0,P|39:255|40:213,1,75
74,125,53254,1,0,0:0:0:0:
164,190,53395,1,0,0:0:0:0:
185,184,53466,1,0,0:0:0:0:
206,178,53537,1,0,0:0:0:0:
228,172,53608,1,0,0:0:0:0:
250,167,53679,1,0,0:0:0:0:
391,129,53820,6,0,L|350:119,3,37.5
390,53,54103,2,0,L|400:12,3,37.5,0|0|0|0,0:0|0:0|0:0|0:0,0:0:0:0:
465,53,54386,2,0,L|506:63,3,37.5,0|0|0|0,0:0|0:0|0:0|0:0,0:0:0:0:
466,126,54669,1,0,0:0:0:0:
463,148,54739,1,0,0:0:0:0:
453,169,54810,1,0,0:0:0:0:
438,186,54881,1,0,0:0:0:0:
419,197,54952,2,0,L|402:246,1,37.5
349,188,55094,6,0,P|316:165|266:168,1,75
181,213,55377,1,0,0:0:0:0:
188,324,55518,2,0,P|245:341|294:309,1,112.5
234,271,55801,2,0,P|177:254|117:319,1,150
101,296,56155,1,0,0:0:0:0:
84,280,56226,1,0,0:0:0:0:
68,264,56296,1,0,0:0:0:0:
51,248,56367,6,0,P|41:210|53:175,1,75
107,78,56650,1,0,0:0:0:0:
194,149,56792,2,0,P|245:176|327:144,1,150
175,83,57216,2,0,L|118:151,1,75
327,145,57499,6,0,L|427:25,1,150
445,33,57853,1,0,0:0:0:0:
463,45,57924,1,0,0:0:0:0:
478,61,57995,1,0,0:0:0:0:
487,80,58065,1,0,0:0:0:0:
492,101,58136,1,0,0:0:0:0:
493,123,58207,1,0,0:0:0:0:
489,145,58278,1,0,0:0:0:0:
480,165,58348,2,0,P|489:207|517:244,1,75
435,323,58631,5,0,0:0:0:0:
349,249,58773,1,0,0:0:0:0:
256,311,58914,1,0,0:0:0:0:
233,309,58985,1,0,0:0:0:0:
210,307,59056,1,0,0:0:0:0:
187,305,59127,1,0,0:0:0:0:
164,303,59197,2,0,P|135:279|126:239,1,75
185,111,59480,2,0,P|214:135|223:175,1,75
319,77,59763,6,0,P|334:55|355:45,2,50
386,113,60046,2,0,P|412:114|431:128,2,50
385,186,60329,2,0,P|396:209|394:233,2,50
320,226,60612,2,0,P|305:248|284:258,2,50
259,187,60895,5,0,0:0:0:0:
221,172,60990,1,0,0:0:0:0:
181,172,61084,1,0,0:0:0:0:
145,190,61179,2,0,P|117:220|114:239,2,50
71,155,61462,2,0,P|41:127|22:124,2,50
110,85,61745,2,0,P|138:55|141:36,2,50
184,120,62028,2,0,P|214:148|233:151,2,50
245,81,62311,5,0,0:0:0:0:
281,65,62405,1,0,0:0:0:0:
320,65,62499,1,0,0:0:0:0:
356,81,62594,2,0,L|414:112,1,50
402,185,62782,2,0,L|344:154,1,50
355,238,62971,2,0,L|310:214,1,50
244,255,63160,6,0,L|219:240,1,28.1250010728836
188,172,63301,2,0,L|160:186,1,28.1250010728836
87,177,63443,2,0,L|87:205,1,28.1250010728836
43,267,63584,2,0,L|68:281,1,28.1250010728836
102,348,63725,2,0,L|126:330,1,28.1250010728836
200,342,63867,2,0,L|198:310,1,28.1250010728836
244,255,64009,2,0,L|216:239,1,28.1250010728836
266,164,64150,5,0,0:0:0:0:
355,185,64292,2,0,L|442:171,1,75
150,98,64575,2,0,L|63:112,1,75
361,262,64858,2,0,L|286:273,1,75
7,198,65141,2,0,L|81:186,1,75
319,101,65424,6,0,L|352:-4,1,75
178,266,65707,2,0,L|144:372,1,75
158,71,65990,2,0,L|82:109,1,75
354,313,66273,2,0,L|430:275,1,75
341,170,66556,5,0,0:0:0:0:
235,207,66697,1,0,0:0:0:0:
145,138,66839,1,0,0:0:0:0:
43,185,66980,1,0,0:0:0:0:
80,291,67122,2,0,P|119:320|196:307,1,112.5
231,340,67405,2,0,P|283:328|316:342,1,75
408,371,67688,5,0,0:0:0:0:
472,279,67829,1,0,0:0:0:0:
478,257,67899,1,0,0:0:0:0:
480,234,67970,1,0,0:0:0:0:
479,211,68041,1,0,0:0:0:0:
473,189,68112,1,0,0:0:0:0:
464,168,68182,1,0,0:0:0:0:
451,149,68253,1,0,0:0:0:0:
436,132,68324,1,0,0:0:0:0:
417,119,68395,1,0,0:0:0:0:
397,109,68465,1,0,0:0:0:0:
375,102,68537,6,0,P|319:102|254:141,1,112.5
227,61,68820,6,0,P|189:105|177:182,1,123.75000377655
98,151,69103,6,8,P|108:207|159:266,1,134.999995880127
97,316,69386,6,8,P|151:347|282:320,1,194.999991073609
359,248,69811,5,0,0:0:0:0:
422,340,69952,1,0,0:0:0:0:
448,230,70094,2,0,P|407:171|327:163,1,150
226,128,70518,2,0,P|189:152|157:151,1,75
158,38,70801,1,0,0:0:0:0:
270,39,70943,2,0,L|339:81,1,75
446,69,71226,5,0,0:0:0:0:
487,173,71367,1,0,0:0:0:0:
375,193,71509,1,0,0:0:0:0:
375,193,71579,1,0,0:0:0:0:
375,193,71650,1,0,0:0:0:0:
278,134,71792,1,0,0:0:0:0:
197,212,71933,5,0,0:0:0:0:
188,233,72003,1,0,0:0:0:0:
185,255,72074,1,0,0:0:0:0:
188,278,72145,1,0,0:0:0:0:
196,299,72216,1,0,0:0:0:0:
209,318,72286,1,0,0:0:0:0:
226,333,72357,1,0,0:0:0:0:
247,343,72428,1,0,0:0:0:0:
269,347,72499,2,0,P|315:342|371:251,1,150
279,257,72924,5,0,0:0:0:0:
132,332,73065,2,0,L|54:319,1,75
1,178,73348,1,0,0:0:0:0:
106,218,73490,2,0,P|154:209|215:125,1,150
289,29,73914,2,0,P|312:84|340:103,1,75
447,154,74197,2,0,L|420:239,1,75
334,293,74480,5,0,0:0:0:0:
248,219,74622,1,0,0:0:0:0:
227,209,74692,1,0,0:0:0:0:
205,203,74763,1,0,0:0:0:0:
183,202,74834,1,0,0:0:0:0:
161,204,74905,1,0,0:0:0:0:
139,209,74975,1,0,0:0:0:0:
119,219,75046,1,0,0:0:0:0:
100,232,75117,1,0,0:0:0:0:
84,248,75188,1,0,0:0:0:0:
71,266,75258,1,0,0:0:0:0:
62,286,75329,6,0,L|57:370,1,75
280,209,75612,2,0,L|285:125,1,75
82,64,75895,2,0,P|122:98|189:89,1,112.5
252,69,76179,2,0,P|309:65|358:142,1,150
420,228,76603,1,0,0:0:0:0:
495,143,76745,6,0,L|505:61,1,75
373,108,77028,1,0,0:0:0:0:
303,196,77169,1,0,0:0:0:0:
298,218,77239,1,0,0:0:0:0:
297,241,77310,1,0,0:0:0:0:
301,263,77381,1,0,0:0:0:0:
309,284,77452,1,0,0:0:0:0:
322,304,77522,1,0,0:0:0:0:
338,320,77594,2,0,L|429:302,1,75
223,263,77877,6,0,L|156:276,2,50
178,198,78160,2,0,L|133:148,2,50
211,127,78443,2,0,L|232:63,2,50
288,120,78726,2,0,L|355:107,2,50
330,189,79009,5,0,0:0:0:0:
365,209,79103,1,0,0:0:0:0:
405,213,79197,1,0,0:0:0:0:
444,201,79292,1,0,0:0:0:0:
475,175,79386,1,0,0:0:0:0:
493,139,79480,2,0,P|497:113|488:84,2,50
445,202,79763,2,0,P|441:228|450:257,2,50
397,134,80046,1,0,0:0:0:0:
336,59,80141,5,0,0:0:0:0:
58,157,83537,6,0,P|99:303|362:303,1,450.000017166138
380,276,84740,1,0,0:0:0:0:
388,240,84811,1,0,0:0:0:0:
328,115,84952,1,0,0:0:0:0:
308,148,85023,1,0,0:0:0:0:
304,184,85094,1,0,0:0:0:0:
208,285,85235,1,0,0:0:0:0:
186,315,85306,1,0,0:0:0:0:
150,327,85377,1,0,0:0:0:0:
113,323,85447,1,0,0:0:0:0:
85,297,85518,2,0,P|77:273|82:241,3,41.2500012588501
159,182,85801,6,0,P|164:157|184:132,3,41.2500012588501,0|0|0|0,0:0|0:0|0:0|0:0,0:0:0:0:
208,285,86084,2,0,P|216:298|221:323,3,41.2500012588501,0|0|0|0,0:0|0:0|0:0|0:0,0:0:0:0:
292,196,86367,1,0,0:0:0:0:
322,176,86437,1,0,0:0:0:0:
334,140,86508,1,0,0:0:0:0:
337,102,86579,1,0,0:0:0:0:
319,68,86650,1,0,0:0:0:0:
290,44,86720,1,0,0:0:0:0:
252,40,86791,1,0,0:0:0:0:
215,47,86862,1,0,0:0:0:0:
178,54,86933,6,0,L|149:44,6,20.6250006294251
83,105,87216,2,0,L|112:115,6,20.6250006294251,0|0|0|0|0|0|0,0:0|0:0|0:0|0:0|0:0|0:0|0:0,0:0:0:0:
69,24,87499,2,0,L|40:14,6,20.6250006294251,0|0|0|0|0|0|0,0:0|0:0|0:0|0:0|0:0|0:0|0:0,0:0:0:0:
2,106,87782,2,0,L|34:208,1,89.9999972534181
117,221,87995,5,0,0:0:0:0:
117,221,88065,2,0,P|163:200|216:205,1,97.4999955368044
275,43,88278,1,0,0:0:0:0:
275,43,88348,2,0,P|296:89|291:142,1,97.4999955368044
456,197,88561,1,0,0:0:0:0:
456,197,88631,2,0,P|410:218|357:213,1,97.4999955368044
298,375,88844,1,0,0:0:0:0:
298,375,88914,2,0,P|277:329|282:276,1,97.4999955368044
374,121,89127,5,0,0:0:0:0:
374,121,89197,2,0,L|476:108,1,97.4999955368044
299,238,89410,1,0,0:0:0:0:
299,238,89480,2,0,L|197:251,1,97.4999955368044
276,38,89693,1,0,0:0:0:0:
276,38,89763,2,0,L|378:25,1,97.4999955368044
201,155,89976,1,0,0:0:0:0:
201,155,90046,2,0,L|99:168,1,97.4999955368044
37,105,90259,1,0,0:0:0:0:
37,105,90329,1,0,0:0:0:0:
41,269,92594,6,0,L|83:292,1,37.5
239,236,92735,2,0,L|197:213,1,37.5
100,216,92877,2,0,L|142:239,1,37.5
298,183,93018,2,0,L|256:160,1,37.5
211,69,93160,5,0,0:0:0:0:
235,86,93230,1,0,0:0:0:0:
264,93,93301,1,0,0:0:0:0:
293,90,93372,1,0,0:0:0:0:
321,79,93443,1,0,0:0:0:0:
344,60,93513,1,0,0:0:0:0:
370,45,93584,1,0,0:0:0:0:
400,44,93655,1,0,0:0:0:0:
428,54,93726,6,0,L|463:86,1,37.5
406,232,93867,2,0,L|371:200,1,37.5
478,168,94009,2,0,L|513:200,1,37.5
456,346,94150,2,0,L|421:314,1,37.5
302,326,94292,5,0,0:0:0:0:
277,309,94362,1,0,0:0:0:0:
247,301,94433,1,0,0:0:0:0:
216,302,94504,1,0,0:0:0:0:
188,313,94575,2,0,L|157:343,1,37.5
69,295,94716,2,0,L|38:325,1,37.5
51,197,94858,5,0,0:0:0:0:
78,210,94929,1,0,0:0:0:0:
107,214,94999,1,0,0:0:0:0:
136,210,95070,1,0,0:0:0:0:
163,197,95141,2,0,L|198:170,1,37.5
336,222,95282,2,0,L|301:249,1,37.5
265,170,95424,6,0,L|300:143,1,37.5
438,195,95565,2,0,L|403:222,1,37.5
368,154,95707,1,0,0:0:0:0:
235,236,95848,1,0,0:0:0:0:
145,101,95990,1,0,0:0:0:0:
278,19,96131,1,0,0:0:0:0:
417,86,96273,5,0,0:0:0:0:
439,111,96343,1,0,0:0:0:0:
449,143,96414,1,0,0:0:0:0:
446,177,96485,1,0,0:0:0:0:
429,206,96556,1,0,0:0:0:0:
402,227,96626,1,0,0:0:0:0:
369,235,96697,1,0,0:0:0:0:
336,229,96768,1,0,0:0:0:0:
307,210,96839,2,0,P|287:186|284:169,3,37.5
232,96,97122,6,0,L|216:141,1,37.5
140,202,97263,1,0,0:0:0:0:
140,202,97334,1,0,0:0:0:0:
140,202,97405,2,0,L|124:157,1,37.5,0|0,0:0|0:0,0:0:0:0:
36,252,97546,1,0,0:0:0:0:
36,252,97617,1,0,0:0:0:0:
36,252,97688,2,0,L|20:297,1,37.5,0|0,0:0|0:0,0:0:0:0:
97,353,97829,1,0,0:0:0:0:
97,353,97900,1,0,0:0:0:0:
97,353,97971,6,0,L|115:318,1,37.5
194,316,98112,2,0,L|222:289,1,37.5
295,317,98254,2,0,L|331:301,1,37.5
387,351,98395,2,0,L|426:349,1,37.5
498,271,98537,2,0,L|419:274,1,75
190,110,98820,6,0,L|233:106,1,37.5,0|0,0:3|0:3,0:3:0:0:
303,135,98962,1,0,0:0:0:0:
303,135,99032,1,0,0:0:0:0:
303,135,99103,2,0,L|350:160,1,37.5
392,96,99245,1,0,0:0:0:0:
392,96,99315,1,0,0:0:0:0:
392,96,99386,2,0,L|445:94,1,37.5
317,32,99528,1,0,0:0:0:0:
317,32,99598,1,0,0:0:0:0:
317,32,99669,2,0,L|263:33,1,37.5
199,41,99811,6,0,L|179:4,1,37.5
140,79,99952,2,0,L|106:54,1,37.5
103,138,100094,2,0,L|62:130,1,37.5
95,207,100235,2,0,L|54:217,1,37.5
117,274,100377,2,0,L|84:300,1,37.5
183,315,100518,6,0,P|241:294|298:307,1,112.5
352,247,100801,2,0,P|400:255|458:234,1,112.5
478,207,101084,1,0,0:0:0:0:
487,174,101155,1,0,0:0:0:0:
484,140,101226,1,0,0:0:0:0:
468,110,101296,1,0,0:0:0:0:
440,90,101367,6,0,P|366:87|328:113,1,112.5
264,77,101650,2,0,P|226:96|178:90,1,75
128,68,101862,1,0,0:0:0:0:
128,68,101933,2,0,L|109:106,1,37.5
46,141,102075,1,0,0:0:0:0:
46,141,102145,1,0,0:0:0:0:
46,141,102216,2,0,L|55:182,1,37.5
15,245,102358,1,0,0:0:0:0:
15,245,102428,1,0,0:0:0:0:
15,245,102499,2,0,L|49:270,1,37.5
53,344,102641,1,0,0:0:0:0:
53,344,102711,1,0,0:0:0:0:
53,344,102782,6,0,L|95:341,1,37.5
161,282,102924,1,0,0:0:0:0:
161,282,102994,1,0,0:0:0:0:
161,282,103065,2,0,L|203:279,1,37.5
259,344,103207,1,0,0:0:0:0:
259,344,103277,1,0,0:0:0:0:
259,344,103348,2,0,L|301:341,1,37.5
363,283,103490,1,0,0:0:0:0:
363,283,103560,1,0,0:0:0:0:
363,283,103631,2,0,L|405:280,1,37.5
460,345,103773,1,0,0:0:0:0:
460,345,103843,1,0,0:0:0:0:
460,345,103914,6,0,P|483:302|481:256,1,89.9999972534181
322,30,104197,2,0,P|299:73|301:119,1,89.9999972534181
161,361,104480,2,0,P|184:318|182:272,1,89.9999972534181
23,46,104763,2,0,P|0:89|63:190,1,179.999994506836
146,155,105188,5,0,0:0:0:0:
223,199,105329,1,0,0:0:0:0:
301,153,105471,1,0,0:0:0:0:
372,206,105612,2,0,L|390:253,1,44.999998626709
244,353,105754,2,0,L|226:306,1,44.999998626709
289,224,105895,2,0,L|307:271,1,44.999998626709
161,371,106037,2,0,L|143:324,1,44.999998626709
173,263,106179,1,0,0:0:0:0:
319,335,106320,1,0,0:0:0:0:
457,245,106462,6,0,L|475:200,1,44.999998626709
317,111,106603,2,0,L|299:156,1,44.999998626709
355,248,106745,2,0,L|373:203,1,44.999998626709
215,114,106886,2,0,L|197:159,1,44.999998626709
259,262,107028,2,0,L|277:217,1,44.999998626709
119,128,107169,2,0,L|101:173,1,44.999998626709
158,263,107311,2,0,L|176:218,1,44.999998626709
18,129,107452,2,0,L|0:174,1,44.999998626709
10,245,107594,5,0,0:0:0:0:
40,319,107735,1,0,0:0:0:0:
110,360,107877,1,0,0:0:0:0:
189,375,108018,1,0,0:0:0:0:
256,332,108160,1,0,0:0:0:0:
323,375,108301,1,0,0:0:0:0:
402,360,108442,1,0,0:0:0:0:
472,319,108584,1,0,0:0:0:0:
502,245,108725,1,0,0:0:0:0:
485,165,108867,1,0,0:0:0:0:
430,220,109009,6,0,P|395:228|352:212,2,59.9999981689454
401,147,109292,2,0,L|413:87,2,59.9999981689454
309,151,109575,2,0,L|297:211,2,59.9999981689454
203,214,109858,2,0,P|218:261|249:290,1,89.9999972534181
401,147,110141,2,0,P|386:100|355:71,1,89.9999972534181
261,14,110424,6,0,P|201:58|118:58,1,157.499995193482
104,75,110707,6,0,P|107:129|139:170,1,89.9999972534181
408,309,110990,2,0,P|405:255|386:225,1,89.9999972534181
139,344,111273,2,0,P|193:341|222:322,1,89.9999972534181
373,40,111556,2,0,P|319:43|278:75,1,89.9999972534181
393,265,111839,2,0,P|372:215|345:194,1,89.9999972534181
59,89,112122,2,0,P|80:138|107:160,1,89.9999972534181
315,151,112405,6,0,L|329:88,1,56.2500021457673
215,133,112688,2,0,L|152:119,1,56.2500021457673
197,233,112971,2,0,L|183:296,1,56.2500021457673
297,251,113254,2,0,L|360:265,1,56.2500021457673
315,133,113537,2,0,L|306:69,1,56.2500021457673
214,150,113820,2,0,L|150:159,1,56.2500021457673
302,326,114103,6,0,P|359:306|403:315,1,97.4999955368044
390,146,114386,2,0,P|370:89|379:45,1,97.4999955368044
210,58,114669,2,0,P|153:78|109:69,1,97.4999955368044
122,238,114952,2,0,P|142:295|133:339,1,97.4999955368044
340,320,115235,6,0,P|390:286|435:283,1,97.4999955368044
379,123,115518,2,0,P|344:74|342:29,1,97.4999955368044
182,85,115801,2,0,L|134:101,1,48.7499977684022
62,184,115943,2,0,L|110:168,1,48.7499977684022
216,192,116084,2,0,L|167:207,1,48.7499977684022
95,290,116226,2,0,L|143:274,1,48.7499977684022
232,337,116367,6,0,P|279:326|333:359,1,97.4999955368044
486,226,116650,2,0,P|439:237|385:204,1,97.4999955368044
199,219,116933,6,0,P|246:208|300:241,1,97.4999955368044
447,160,117216,2,0,P|466:133|470:96,2,64.9999970245363
318,78,117499,2,0,P|270:94|218:75,1,97.4999955368044
104,135,117782,6,0,L|67:192,2,64.9999970245363
130,330,118065,2,0,L|167:273,2,64.9999970245363
288,177,118348,2,0,L|251:234,2,64.9999970245363
314,372,118631,1,0,0:0:0:0:
134,98,119763,6,0,P|188:96|224:125,1,89.9999972534181
102,287,120046,2,0,P|48:289|12:260,1,89.9999972534181
142,200,120329,1,0,0:0:0:0:
252,260,120471,2,0,L|300:357,1,89.9999972534181
404,373,120754,1,0,0:0:0:0:
470,277,120895,6,0,L|477:232,1,44.999998626709
416,140,121037,2,0,L|409:185,1,44.999998626709,0|0,0:0|0:0,0:0:0:0:
338,269,121179,2,0,L|345:224,1,44.999998626709
284,132,121321,2,0,L|277:177,1,44.999998626709,0|0,0:0|0:0,0:0:0:0:
198,244,121462,1,0,0:0:0:0:
192,206,121532,1,0,0:0:0:0:
177,171,121603,1,0,0:0:0:0:
154,141,121674,1,0,0:0:0:0:
123,118,121745,1,0,0:0:0:0:
88,104,121815,1,0,0:0:0:0:
50,100,121886,1,0,0:0:0:0:
12,105,121957,1,0,0:0:0:0:
0,141,122028,6,0,L|9:192,1,44.999998626709
79,195,122169,2,0,L|87:240,1,44.999998626709
156,262,122311,2,0,L|165:313,1,44.999998626709
244,313,122452,2,0,L|270:350,1,44.999998626709
323,294,122594,2,0,L|372:312,1,44.999998626709
347,214,122735,2,0,L|393:194,1,44.999998626709
254,200,122877,6,0,L|246:244,3,44.999998626709
358,115,123160,2,0,L|365:70,3,44.999998626709
346,214,123443,2,0,L|390:221,3,44.999998626709
261,110,123726,2,0,L|216:102,3,44.999998626709
155,155,124009,1,0,0:0:0:0:
122,178,124079,1,0,0:0:0:0:
82,188,124150,1,0,0:0:0:0:
41,184,124221,1,0,0:0:0:0:
10,168,124292,1,0,0:0:0:0:
74,72,124433,5,0,0:0:0:0:
187,30,124575,1,0,0:0:0:0:
220,36,124645,1,0,0:0:0:0:
253,42,124716,1,0,0:0:0:0:
286,48,124787,1,0,0:0:0:0:
319,54,124858,1,0,0:0:0:0:
380,157,124999,1,0,0:0:0:0:
492,115,125141,2,0,L|502:77,3,37.5
380,158,125424,2,0,L|370:196,3,37.5
450,314,125707,2,0,L|460:276,3,37.5
370,284,125990,5,0,0:0:0:0:
343,263,126061,1,0,0:0:0:0:
310,256,126131,1,0,0:0:0:0:
276,263,126202,1,0,0:0:0:0:
249,283,126273,1,0,0:0:0:0:
217,295,126344,1,0,0:0:0:0:
183,295,126414,2,0,P|143:282|111:245,1,75
200,184,126697,5,0,0:0:0:0:
309,347,126839,1,0,0:0:0:0:
393,171,126980,1,0,0:0:0:0:
200,184,127122,2,0,L|105:152,1,75
44,64,127405,1,0,0:0:0:0:
72,81,127475,1,0,0:0:0:0:
104,88,127546,1,0,0:0:0:0:
137,85,127617,1,0,0:0:0:0:
168,72,127688,1,0,0:0:0:0:
297,91,127829,6,0,L|317:135,2,37.5
357,233,128112,2,0,L|313:253,2,37.5
215,293,128395,2,0,L|195:249,2,37.5
155,151,128678,2,0,L|199:131,1,37.5
232,157,128820,2,0,L|255:149,7,18.75
298,175,129103,6,0,L|342:155,1,37.5
437,189,129245,2,0,L|393:209,1,37.5
317,287,129386,2,0,L|361:267,1,37.5
456,301,129528,2,0,L|412:321,1,37.5
437,190,129669,2,0,L|525:150,1,75,0|0,0:0|0:0,0:0:0:0:
335,32,129952,6,0,L|247:72,1,75,0|0,0:0|0:0,0:0:0:0:
375,126,130235,1,0,0:0:0:0:
403,110,130305,1,0,0:0:0:0:
425,86,130376,1,0,0:0:0:0:
437,55,130447,1,0,0:0:0:0:
438,22,130518,1,0,0:0:0:0:
335,32,130660,1,0,0:0:0:0:
229,87,130801,2,0,P|209:125|208:161,1,75
112,68,131084,5,0,0:0:0:0:
100,96,131154,1,0,0:0:0:0:
94,126,131225,1,0,0:0:0:0:
92,157,131296,1,0,0:0:0:0:
95,187,131367,1,0,0:0:0:0:
103,217,131437,1,0,0:0:0:0:
116,245,131508,1,0,0:0:0:0:
133,270,131579,1,0,0:0:0:0:
153,293,131650,5,0,0:0:0:0:
178,312,131720,1,0,0:0:0:0:
205,327,131791,1,0,0:0:0:0:
233,337,131862,1,0,0:0:0:0:
264,343,131933,1,0,0:0:0:0:
294,343,132003,1,0,0:0:0:0:
325,339,132074,1,0,0:0:0:0:
354,330,132145,1,0,0:0:0:0:
382,316,132216,6,0,P|414:289|431:212,1,112.5
341,232,132499,2,0,P|340:190|292:127,1,112.5
237,174,132782,1,0,0:0:0:0:
237,174,132853,1,0,0:0:0:0:
237,174,132924,1,0,0:0:0:0:
153,293,133065,2,0,P|190:325|229:336,1,75
160,210,133348,5,0,0:0:0:0:
133,194,133419,1,0,0:0:0:0:
104,185,133490,1,0,0:0:0:0:
73,183,133561,1,0,0:0:0:0:
43,187,133631,2,0,P|24:196|6:214,3,37.5
84,101,133914,2,0,P|103:92|121:74,3,37.5
181,123,134197,1,0,0:0:0:0:
210,119,134268,1,0,0:0:0:0:
239,115,134339,1,0,0:0:0:0:
268,111,134410,1,0,0:0:0:0:
297,107,134480,6,0,P|338:126|384:126,1,75
494,265,134763,2,0,P|453:246|407:246,1,75
256,327,135046,2,0,P|297:346|343:346,1,75,0|0,0:0|0:0,0:0:0:0:
317,255,135329,1,0,0:0:0:0:
177,326,135471,1,0,0:0:0:0:
42,248,135612,6,0,P|25:213|57:108,1,150
144,59,136037,1,0,0:0:0:0:
308,173,136179,2,0,L|459:153,1,150
391,46,136603,1,0,0:0:0:0:
247,110,136745,6,0,P|222:156|225:191,1,75
286,260,137028,1,0,0:0:0:0:
383,222,137169,1,0,0:0:0:0:
475,273,137311,2,0,L|497:355,1,75
383,222,137594,6,0,P|368:172|430:65,1,179.999994506836
475,165,138018,5,0,0:0:0:0:
299,214,138160,2,0,L|215:204,1,75
26,316,138443,2,0,L|110:306,1,75
251,281,138726,1,0,0:0:0:0:
269,303,138796,1,0,0:0:0:0:
294,320,138867,1,0,0:0:0:0:
321,330,138938,1,0,0:0:0:0:
351,333,139009,6,0,P|396:329|436:301,1,75
355,216,139292,1,0,0:0:0:0:
235,213,139433,2,0,L|175:282,1,75
72,310,139716,1,0,0:0:0:0:
16,203,139858,2,0,L|6:180,7,18.75
43,144,140141,6,0,P|96:160|159:134,1,112.5
202,80,140424,2,0,L|213:57,7,18.75
244,139,140707,2,0,L|232:161,7,18.75
305,97,140990,2,0,P|347:91|397:112,1,75
466,238,141273,5,0,0:0:0:0:
360,311,141414,2,0,L|273:300,1,75
171,340,141697,1,0,0:0:0:0:
82,258,141839,2,0,P|72:213|86:172,1,75
195,88,142122,2,0,P|205:133|191:174,1,75
90,86,142405,5,0,0:0:0:0:
278,164,142546,1,0,0:0:0:0:
304,180,142616,1,0,0:0:0:0:
333,187,142687,1,0,0:0:0:0:
364,184,142758,1,0,0:0:0:0:
392,171,142829,1,0,0:0:0:0:
507,303,142971,1,0,0:0:0:0:
476,297,143041,1,0,0:0:0:0:
446,291,143112,1,0,0:0:0:0:
416,285,143183,1,0,0:0:0:0:
386,279,143254,1,0,0:0:0:0:
230,328,143395,5,0,0:0:0:0:
202,315,143465,1,0,0:0:0:0:
171,311,143536,1,0,0:0:0:0:
141,318,143607,1,0,0:0:0:0:
115,333,143678,1,0,0:0:0:0:
23,238,143820,2,0,L|18:198,3,37.5
89,214,144103,2,0,P|121:232|172:224,1,75
280,272,144386,2,0,L|361:243,1,75
452,134,144669,5,0,0:0:0:0:
353,64,144811,2,0,P|282:51|243:75,1,112.5
204,49,145094,2,0,P|163:77|115:79,1,75
45,52,145377,1,0,0:0:0:0:
7,141,145518,2,0,L|25:226,1,75
73,308,145801,6,0,B|110:262|182:261|221:308|221:308|249:277|297:279|320:308|320:308|334:325|359:338|386:329,1,337.500012874604
487,153,146933,6,0,L|408:173,1,75
306,102,147216,2,0,L|194:130,1,112.5
148,120,147499,2,0,P|121:95|108:56,1,75
208,207,147782,2,0,L|148:259,1,75
47,135,148065,2,0,L|107:187,1,75
265,256,148348,5,0,0:0:0:0:
287,233,148418,1,0,0:0:0:0:
316,218,148489,1,0,0:0:0:0:
347,211,148560,1,0,0:0:0:0:
379,213,148631,2,0,P|406:212|430:201,3,37.5
479,180,148914,2,0,L|444:88,1,75
297,27,149197,6,0,P|280:67|298:121,1,89.9999972534181
201,131,149410,1,0,0:0:0:0:
201,131,149480,2,0,L|113:100,1,89.9999972534181
43,156,149693,1,0,0:0:0:0:
43,156,149763,2,0,P|62:204|59:244,1,89.9999972534181
114,314,149976,1,0,0:0:0:0:
114,314,150046,2,0,L|206:295,1,89.9999972534181
336,341,150259,5,0,0:0:0:0:
336,341,150329,2,0,L|244:360,1,89.9999972534181
363,273,150542,1,0,0:0:0:0:
363,273,150612,2,0,L|455:254,1,89.9999972534181
505,181,150825,1,0,0:0:0:0:
505,181,150895,1,0,0:0:0:0:
390,41,151037,1,0,0:0:0:0:
390,41,151108,1,0,0:0:0:0:
390,41,151179,1,0,0:0:0:0:
326,208,151320,1,0,0:0:0:0:
326,208,151391,1,0,0:0:0:0:
326,208,151462,1,0,0:0:0:0:
81,54,151745,5,0,0:0:0:0:
149,187,152028,1,0,0:0:0:0:
288,133,152311,2,0,P|345:128|392:155,2,112.500004291535
410,246,153160,2,0,L|467:72,1,168.750006437302
382,84,153726,2,0,P|335:100|272:72,1,112.500004291535
72,94,154292,2,0,P|119:78|182:106,1,112.500004291535
196,257,154858,6,0,L|178:294,3,37.5
293,209,155141,2,0,L|311:172,3,37.5
332,311,155424,2,0,L|314:348,3,37.5
427,257,155707,2,0,L|459:189,1,75
407,98,155990,5,0,0:0:0:0:
312,142,156131,1,0,0:0:0:0:
217,95,156273,2,0,P|192:61|193:22,1,75
312,142,156556,2,0,P|337:176|338:207,1,75
332,237,156768,1,0,0:0:0:0:
311,263,156838,1,0,0:0:0:0:
282,281,156909,1,0,0:0:0:0:
248,287,156980,1,0,0:0:0:0:
215,280,157051,1,0,0:0:0:0:
186,262,157122,6,0,P|160:221|159:185,1,75
249,195,157405,1,0,0:0:0:0:
372,300,157546,1,0,0:0:0:0:
465,236,157688,2,0,L|472:153,1,75
405,69,157971,2,0,P|361:89|323:84,1,75
240,26,158254,5,0,0:0:0:0:
139,76,158395,1,0,0:0:0:0:
121,104,158465,1,0,0:0:0:0:
113,137,158536,1,0,0:0:0:0:
115,171,158607,1,0,0:0:0:0:
128,203,158678,1,0,0:0:0:0:
150,229,158748,1,0,0:0:0:0:
178,247,158820,2,0,L|264:229,1,75
399,300,159103,2,0,L|313:318,1,75
388,192,159386,6,0,P|436:200|491:253,1,112.5
512,167,159669,2,0,L|510:46,1,112.5
442,26,159952,1,0,0:0:0:0:
342,78,160094,2,0,L|330:97,12,18.75
280,165,160660,5,0,0:0:0:0:
209,207,160801,1,0,0:0:0:0:
126,207,160943,1,0,0:0:0:0:
51,172,161084,1,0,0:0:0:0:
8,101,161226,1,0,0:0:0:0:
90,95,161367,2,0,P|159:131|229:99,1,150
161,38,161792,5,0,0:0:0:0:
51,172,161933,2,0,P|34:216|40:256,1,75
115,322,162216,1,0,0:0:0:0:
205,253,162358,2,0,P|248:241|346:284,1,150
491,211,162782,6,0,P|448:223|350:180,2,150
437,119,163490,1,0,0:0:0:0:
334,72,163631,1,0,0:0:0:0:
244,141,163773,2,0,P|239:194|257:228,1,75
188,309,164056,5,0,0:0:0:0:
140,207,164197,1,0,0:0:0:0:
119,180,164267,1,0,0:0:0:0:
91,160,164338,1,0,0:0:0:0:
58,150,164409,1,0,0:0:0:0:
24,151,164480,2,0,L|1:263,1,112.5
55,312,164763,2,0,P|80:349|152:364,1,112.5
188,309,165046,6,0,P|234:301|265:318,1,75
353,251,165329,1,0,0:0:0:0:
451,306,165471,1,0,0:0:0:0:
487,200,165612,2,0,P|491:141|458:85,1,112.5
409,51,165895,2,0,P|365:41|315:51,1,75
280,143,166179,6,0,P|250:146|206:136,1,75,0|0,0:0|0:0,0:0:0:0:
176,121,166391,1,0,0:0:0:0:
142,118,166462,1,0,0:0:0:0:
108,122,166532,1,0,0:0:0:0:
78,138,166603,1,0,0:0:0:0:
267,224,166745,2,0,L|362:203,1,75
427,331,167028,2,0,L|332:310,1,75
249,357,167311,5,0,0:0:0:0:
173,274,167452,2,0,P|83:257|28:284,1,150
173,274,167877,2,0,P|263:291|318:264,1,150
351,176,168301,1,0,0:0:0:0:
351,176,168372,1,0,0:0:0:0:
351,176,168443,6,0,P|350:122|331:89,1,75
251,35,168726,1,0,0:0:0:0:
173,115,168867,1,0,0:0:0:0:
64,84,169009,2,0,P|43:43|47:7,1,75
173,115,169292,2,0,P|150:163|56:201,1,150
11,300,169716,5,0,0:0:0:0:
41,283,169786,1,0,0:0:0:0:
73,273,169857,1,0,0:0:0:0:
107,269,169928,1,0,0:0:0:0:
141,270,169999,1,0,0:0:0:0:
174,278,170069,1,0,0:0:0:0:
205,292,170141,6,0,P|261:308|322:287,1,112.5
263,203,170424,6,0,P|278:147|254:83,1,123.75000377655
176,148,170707,6,0,P|116:131|46:157,1,134.999995880127
116,230,170990,6,0,P|98:295|126:372,1,146.249993305207
205,292,171273,6,0,P|256:284|334:321,1,134.999995880127
369,245,171556,6,0,P|443:278|510:261,1,150
496,151,171980,5,0,0:0:0:0:
408,173,172122,1,0,0:0:0:0:
327,133,172263,1,0,0:0:0:0:
257,191,172405,1,0,0:0:0:0:
185,133,172546,1,0,0:0:0:0:
104,173,172687,1,0,0:0:0:0:
16,151,172829,1,0,0:0:0:0:
35,62,172971,1,0,0:0:0:0:
123,84,173113,1,0,0:0:0:0:
104,173,173254,1,0,0:0:0:0:
16,151,173396,1,0,0:0:0:0:
123,84,173537,5,0,0:0:0:0:
154,82,173607,1,0,0:0:0:0:
185,89,173678,1,0,0:0:0:0:
213,104,173749,1,0,0:0:0:0:
236,126,173820,1,0,0:0:0:0:
253,153,173890,1,0,0:0:0:0:
261,184,173961,1,0,0:0:0:0:
262,216,174032,1,0,0:0:0:0:
253,246,174103,6,0,P|233:280|192:307,1,75
253,154,174386,2,0,P|273:120|314:93,1,75
150,199,174669,2,0,P|97:209|38:180,1,112.5
11,121,174952,2,0,P|19:67|67:22,1,112.5
98,68,175235,5,0,0:0:0:0:
234,38,175377,1,0,0:0:0:0:
267,31,175447,1,0,0:0:0:0:
301,36,175518,1,0,0:0:0:0:
331,51,175589,1,0,0:0:0:0:
355,74,175660,1,0,0:0:0:0:
372,103,175730,1,0,0:0:0:0:
378,136,175801,2,0,P|374:188|351:222,1,75
422,303,176084,2,0,P|426:251|449:217,1,75
489,347,176367,6,0,P|448:377|348:338,1,150
288,263,176792,1,0,0:0:0:0:
199,331,176933,1,0,0:0:0:0:
136,237,177075,2,0,L|134:206,11,18.75
159,180,177499,6,0,B|200:141|257:141|293:169|293:169|324:194|368:184,1,225.000008583069
347,97,178207,1,0,0:0:0:0:
233,251,178348,2,0,P|250:292|289:313,1,75
404,222,178631,5,0,0:0:0:0:
413,193,178702,1,0,0:0:0:0:
422,164,178773,1,0,0:0:0:0:
431,135,178844,1,0,0:0:0:0:
440,107,178914,2,0,L|480:77,3,37.5
346,97,179197,2,0,L|357:48,3,37.5
257,138,179480,2,0,L|234:93,3,37.5
183,175,179763,5,0,0:0:0:0:
181,202,179833,1,0,0:0:0:0:
173,228,179904,1,0,0:0:0:0:
159,251,179975,1,0,0:0:0:0:
140,271,180046,1,0,0:0:0:0:
117,286,180116,1,0,0:0:0:0:
91,295,180187,1,0,0:0:0:0:
64,299,180258,1,0,0:0:0:0:
37,295,180329,2,0,P|7:253|69:197,1,150
218,313,180754,1,0,0:0:0:0:
324,277,180895,6,0,L|387:211,1,75
284,33,181179,2,0,L|221:99,1,75
428,323,181462,2,0,L|491:257,1,75
388,79,181746,2,0,L|325:145,1,75
210,239,182028,6,0,P|169:252|85:196,1,150
165,167,182452,1,0,0:0:0:0:
216,323,182594,2,0,P|194:361|157:375,1,75
165,167,182877,2,0,P|187:129|224:115,1,75
307,179,183160,6,0,P|359:196|422:169,1,112.5
466,126,183443,2,0,L|457:249,1,112.5
403,284,183726,1,0,0:0:0:0:
292,250,183867,1,0,0:0:0:0:
261,244,183937,1,0,0:0:0:0:
231,246,184008,1,0,0:0:0:0:
202,256,184079,1,0,0:0:0:0:
176,273,184150,1,0,0:0:0:0:
156,297,184220,1,0,0:0:0:0:
143,324,184291,1,0,0:0:0:0:
252,358,184433,5,0,0:0:0:0:
292,250,184575,2,0,P|301:208|292:174,1,75
194,111,184858,2,0,P|149:133|88:110,1,112.5
141,62,185141,2,0,P|186:40|247:63,1,112.5
276,121,185424,1,0,0:0:0:0:
379,77,185565,2,0,L|405:45,3,37.5
470,33,185848,5,0,0:0:0:0:
501,141,185990,2,0,L|466:215,1,75
373,268,186273,1,0,0:0:0:0:
273,216,186414,1,0,0:0:0:0:
172,266,186556,2,0,L|165:286,15,18.75
142,224,187122,6,0,P|136:182|47:114,1,150
37,220,187546,1,0,0:0:0:0:
74,326,187688,2,0,L|143:359,1,75
241,234,187971,2,0,L|172:267,1,75
285,298,188254,2,0,P|315:256|304:189,1,112.5
273,127,188537,2,0,P|331:121|373:151,1,112.5
415,216,188820,2,0,P|445:174|440:116,1,112.5
391,60,189103,5,0,0:0:0:0:
306,28,189245,1,0,0:0:0:0:
217,43,189386,1,0,0:0:0:0:
157,111,189528,2,0,P|139:182|175:259,1,150
316,182,189952,2,0,P|271:169|226:183,1,75
122,313,190235,2,0,P|167:326|212:312,1,75
305,272,190518,2,0,L|380:289,1,75
446,347,190801,1,0,0:0:0:0:
487,266,190943,6,0,P|498:207|446:131,1,150
342,108,191367,1,0,0:0:0:0:
320,132,191437,1,0,0:0:0:0:
292,149,191508,1,0,0:0:0:0:
260,157,191579,1,0,0:0:0:0:
227,154,191650,2,0,P|188:144|162:118,1,75
341,34,191933,2,0,P|380:44|406:70,1,75
253,58,192216,6,0,L|136:35,1,112.5
86,34,192499,2,0,P|51:55|33:94,1,75
86,184,192782,2,0,P|134:171|207:200,1,112.5
248,177,193065,2,0,P|306:194|391:161,1,150
418,151,193419,1,8,0:0:0:0:
449,152,193489,1,8,0:0:0:0:
476,165,193560,1,8,0:0:0:0:
499,186,193631,2,0,P|508:211|506:231,3,37.5
495,253,193914,6,0,L|382:286,1,112.5
345,344,194197,2,0,P|297:326|229:336,1,112.5
170,358,194480,1,0,0:0:0:0:
71,256,194622,2,0,P|59:213|109:119,1,150
233,65,195046,2,0,P|276:106|379:108,1,150
471,55,195471,5,0,0:0:0:0:
471,55,195542,1,0,0:0:0:0:
471,55,195612,2,0,L|390:40,1,75
272,182,195895,1,0,0:0:0:0:
349,264,196037,1,0,0:0:0:0:
349,264,196108,1,0,0:0:0:0:
349,264,196178,2,0,L|430:279,1,75
286,325,196462,2,0,P|209:311|147:340,1,150
46,244,196886,5,0,0:0:0:0:
76,255,196956,1,0,0:0:0:0:
109,259,197027,1,0,0:0:0:0:
141,253,197098,1,0,0:0:0:0:
171,239,197169,1,0,0:0:0:0:
195,216,197240,1,0,0:0:0:0:
211,186,197311,2,0,P|219:136|191:72,1,112.5
166,65,197594,2,0,L|123:61,3,37.5
203,28,197877,6,0,P|272:58|356:45,1,150
443,103,198301,2,0,L|469:177,1,75
395,260,198584,1,0,0:0:0:0:
294,209,198726,2,0,P|242:194|150:224,1,150
101,321,199150,5,0,0:0:0:0:
180,364,199292,1,0,0:0:0:0:
256,320,199433,1,0,0:0:0:0:
332,364,199575,1,0,0:0:0:0:
411,321,199717,1,0,0:0:0:0:
401,231,199858,5,0,0:0:0:0:
395,198,199928,1,0,0:0:0:0:
401,166,199999,1,0,0:0:0:0:
416,136,200070,1,0,0:0:0:0:
439,114,200141,2,0,P|460:104|482:101,3,37.5
439,51,200424,6,0,L|359:31,1,75
282,108,200707,1,0,0:0:0:0:
254,127,200778,1,0,0:0:0:0:
223,139,200848,1,0,0:0:0:0:
189,141,200919,1,0,0:0:0:0:
155,135,200990,2,0,L|119:117,3,37.5
69,142,201273,5,0,0:0:0:0:
96,250,201414,1,0,0:0:0:0:
204,219,201556,2,0,L|249:216,3,37.5
289,245,201839,2,0,P|340:268|429:230,1,150
444,209,202193,1,0,0:0:0:0:
450,176,202263,1,0,0:0:0:0:
448,142,202334,1,0,0:0:0:0:
433,111,202405,2,0,L|451:36,1,75
350,99,202688,5,0,0:0:0:0:
321,117,202758,1,0,0:0:0:0:
289,128,202829,1,0,0:0:0:0:
255,129,202900,1,0,0:0:0:0:
222,121,202971,2,0,P|199:109|188:96,3,37.5
176,70,203254,2,0,P|163:28|171:-5,1,75
91,82,203537,1,0,0:0:0:0:
82,114,203608,1,0,0:0:0:0:
73,146,203679,1,0,0:0:0:0:
96,247,203820,6,0,P|132:269|175:265,1,75
245,335,204103,2,0,L|243:362,15,18.75
276,298,204669,6,0,B|334:273|381:303|381:303|420:250|384:191,1,225.000008583069
275,193,205801,5,0,0:0:0:0:
