osu file format v14

[General]
AudioFilename: audio.mp3
AudioLeadIn: 0
PreviewTime: 102540
Countdown: 1
SampleSet: None
StackLeniency: 0.7
Mode: 0
LetterboxInBreaks: 0
WidescreenStoryboard: 1

[Editor]
Bookmarks: 7109,9695,41506
DistanceSpacing: 0.8
BeatDivisor: 4
GridSize: 4
TimelineZoom: 2

[Metadata]
Title:Tendon
TitleUnicode:Tendon
Artist:Igorrr
ArtistUnicode:Igorrr
Creator:HML
Version:2
Source:
Tags:Breakcore Nostril
BeatmapID:1452219
BeatmapSetID:617045

[Difficulty]
HPDrainRate:6
CircleSize:4.2
OverallDifficulty:9
ApproachRate:10
SliderMultiplier:2.1
SliderTickRate:1

[Events]
//Background and Video events
0,0,"BG.jpg",0,0
//Break Periods
//Storyboard Layer 0 (Background)
//Storyboard Layer 1 (Fail)
//Storyboard Layer 2 (Pass)
//Storyboard Layer 3 (Foreground)
//Storyboard Sound Samples

[TimingPoints]
127,258.620689655172,4,1,0,30,1,0
320,-100,4,1,0,20,0,0
385,-100,4,1,0,30,0,0
579,-100,4,1,0,20,0,0
644,-100,4,1,0,30,0,0
6333,-100,4,1,0,60,0,1
8402,-100,4,1,0,60,0,0
13704,-133.333333333333,4,2,0,5,0,0
13963,-100,4,1,0,60,0,0
16161,-400,4,1,0,60,0,0
16484,-400,4,2,0,5,0,0
16549,-100,4,1,0,60,0,0
21851,-400,4,1,0,60,0,0
22109,-50,4,1,0,60,0,0
22885,-100,4,1,0,60,0,0
23920,-400,4,1,0,60,0,0
24437,-100,4,1,0,60,0,0
32713,-400,4,1,0,60,0,0
33230,-100,4,1,0,60,0,0
38402,-400,4,1,0,60,0,0
38661,-50,4,1,0,60,0,0
38920,-100,4,1,0,60,0,0
40471,-400,4,1,0,60,0,0
41118,-100,4,1,0,60,0,0
43575,-100,4,1,0,60,0,1
45644,-100,4,1,0,60,0,0
62519,-100,4,2,0,5,0,0
63747,-133.333333333333,4,1,0,60,0,0
64264,-100,4,1,0,60,0,1
64782,-200,4,1,0,60,0,1
65299,-100,4,1,0,60,0,1
67885,-400,4,1,0,60,0,0
68402,-100,4,1,0,60,0,1
68920,-200,4,1,0,60,0,1
69437,-100,4,1,0,60,0,1
73058,-200,4,1,0,60,0,1
73575,-400,4,1,0,60,0,0
74092,-100,4,1,0,60,0,1
74609,-400,4,1,0,60,0,0
75126,-100,4,1,0,60,0,1
75644,-400,4,1,0,60,0,0
76678,-100,4,1,0,60,0,1
78747,-400,4,1,0,60,0,0
82303,-400,4,2,0,5,0,0
82368,-200,4,2,0,50,0,0
82885,-100,4,1,0,60,0,1
99437,-100,4,1,0,60,0,0
108747,-100,4,1,0,60,0,1
121678,-400,4,1,0,60,0,0
122195,-100,4,1,0,60,0,1
126851,-400,4,1,0,60,0,0
127885,-400,4,1,0,50,0,0
128144,-400,4,1,0,40,0,0
128402,-400,4,1,0,30,0,0
129437,-400,4,1,0,20,0,0
130471,-400,4,1,0,5,0,0
131247,-400,4,2,0,5,0,0

[Colours]
Combo1 : 66,82,136
Combo2 : 172,184,253

[HitObjects]
170,246,127,5,0,0:0:0:0:
300,164,256,2,0,L|248:196,1,52.5
164,93,385,1,0,0:0:0:0:
295,259,514,2,0,L|243:291,1,52.5
379,215,644,2,0,P|386:280|369:317,1,105
170,246,902,1,0,0:0:0:0:
248,50,1032,1,0,0:0:0:0:
34,174,1161,6,0,B|34:112|34:112|64:66,1,105
313,132,1420,1,0,0:0:0:0:
210,148,1549,2,0,L|244:197,1,52.5
231,296,1678,2,0,P|273:258|335:268,1,105
173,347,1937,2,0,P|131:309|69:319,1,105
295,326,2195,5,0,0:0:0:0:
305,328,2259,1,0,0:0:0:0:
315,329,2324,1,0,0:0:0:0:
326,329,2388,1,0,0:0:0:0:
336,328,2455,5,0,0:0:0:0:
360,317,2519,1,0,0:0:0:0:
379,300,2584,1,0,0:0:0:0:
393,277,2648,1,0,0:0:0:0:
398,252,2713,5,0,0:0:0:0:
393,200,2777,1,0,0:0:0:0:
362,158,2842,1,0,0:0:0:0:
314,139,2906,1,0,0:0:0:0:
263,148,2972,5,0,0:0:0:0:
205,157,3037,1,0,0:0:0:0:
153,135,3101,1,0,0:0:0:0:
118,90,3166,1,0,0:0:0:0:
114,33,3230,6,0,P|145:40|165:61,3,52.5
223,88,3489,6,0,L|234:44,5,35
348,32,3747,6,0,P|317:39|297:60,3,52.5
361,134,4006,6,0,L|350:90,1,35
442,71,4135,5,0,0:0:0:0:
457,199,4264,2,0,P|436:259|465:311,1,105
317,217,4523,1,0,0:0:0:0:
507,252,4652,1,0,0:0:0:0:
317,287,4782,6,0,L|194:301,1,105
248,178,5041,1,0,0:0:0:0:
212,368,5170,1,0,0:0:0:0:
65,241,5299,6,0,P|58:257|57:272,6,26.25
133,181,5558,2,0,P|140:165|141:150,2,26.25
48,153,5687,2,0,L|42:84,1,52.5
114,93,5816,1,0,0:0:0:0:
145,260,5945,1,0,0:0:0:0:
199,120,6075,2,0,L|193:51,1,52.5
208,211,6204,1,0,0:0:0:0:
194,67,6333,5,0,0:0:0:0:
243,50,6397,1,0,0:0:0:0:
292,66,6462,1,0,0:0:0:0:
323,107,6526,1,0,0:0:0:0:
323,159,6591,1,0,0:0:0:0:
294,201,6657,1,0,0:0:0:0:
274,249,6721,1,0,0:0:0:0:
285,299,6786,1,0,0:0:0:0:
324,334,6850,1,0,0:0:0:0:
375,339,6915,1,0,0:0:0:0:
420,313,6980,1,0,0:0:0:0:
441,266,7044,1,0,0:0:0:0:
432,216,7109,5,0,0:0:0:0:
471,247,7174,1,0,0:0:0:0:
486,297,7238,1,0,0:0:0:0:
469,346,7303,1,0,0:0:0:0:
428,376,7368,6,0,L|392:319,3,52.5
395,141,7626,2,0,P|366:159|353:184,3,52.5
209,287,7886,6,0,L|173:230,3,52.5
176,52,8144,2,0,P|147:70|134:95,3,52.5
23,201,8402,5,0,0:0:0:0:
184,158,8532,1,0,0:0:0:0:
48,330,8661,1,0,0:0:0:0:
209,287,8791,1,0,0:0:0:0:
272,99,8920,5,0,0:0:0:0:
300,121,8984,1,0,0:0:0:0:
317,154,9049,1,0,0:0:0:0:
318,190,9113,1,0,0:0:0:0:
305,224,9178,1,0,0:0:0:0:
298,248,9242,1,0,0:0:0:0:
303,274,9307,1,0,0:0:0:0:
318,296,9371,1,0,0:0:0:0:
340,309,9437,6,0,L|380:310,6,26.25
500,365,9695,1,0,0:0:0:0:
457,204,9825,1,0,0:0:0:0:
340,309,9954,5,0,0:0:0:0:
312,284,10018,1,0,0:0:0:0:
277,274,10083,1,0,0:0:0:0:
241,278,10147,1,0,0:0:0:0:
210,298,10213,6,0,L|176:308,2,26.25
82,268,10342,2,0,L|116:277,2,26.25
172,173,10471,5,0,0:0:0:0:
49,99,10601,2,0,L|108:95,1,52.5
294,98,10730,2,0,L|235:94,1,52.5
416,173,10859,5,0,0:0:0:0:
482,36,10989,1,0,0:0:0:0:
480,62,11053,1,0,0:0:0:0:
478,88,11118,1,0,0:0:0:0:
416,173,11247,1,0,0:0:0:0:
478,258,11376,1,0,0:0:0:0:
355,279,11506,6,0,L|346:321,13,35
232,258,12153,5,0,0:0:0:0:
239,221,12217,1,0,0:0:0:0:
233,184,12282,1,0,0:0:0:0:
213,155,12346,1,0,0:0:0:0:
182,135,12411,1,0,0:0:0:0:
146,130,12476,1,0,0:0:0:0:
111,141,12540,5,0,0:0:0:0:
104,256,12670,2,0,L|146:224,1,52.5
213,103,12799,1,0,0:0:0:0:
213,129,12863,1,0,0:0:0:0:
213,155,12928,5,0,0:0:0:0:
402,156,13058,1,0,0:0:0:0:
402,251,13187,2,0,L|467:251,1,52.5
340,204,13317,1,0,0:0:0:0:
372,347,13445,1,0,0:0:0:0:
330,127,13575,1,0,0:0:0:0:
488,59,13704,2,0,L|479:182,1,118.125004506111
454,251,13963,5,0,0:0:0:0:
372,347,14092,2,0,L|312:355,1,52.5
233,331,14221,1,0,0:0:0:0:
249,298,14285,1,0,0:0:0:0:
249,261,14350,1,0,0:0:0:0:
232,229,14414,1,0,0:0:0:0:
203,207,14480,5,0,0:0:0:0:
166,210,14544,1,0,0:0:0:0:
129,214,14609,5,0,0:0:0:0:
135,163,14673,1,0,0:0:0:0:
173,128,14738,1,0,0:0:0:0:
224,128,14802,1,0,0:0:0:0:
264,161,14867,1,0,0:0:0:0:
303,194,14933,1,0,0:0:0:0:
354,193,14997,1,0,0:0:0:0:
392,158,15062,1,0,0:0:0:0:
398,107,15126,5,0,0:0:0:0:
378,358,15256,1,0,0:0:0:0:
248,141,15385,1,0,0:0:0:0:
471,236,15514,1,0,0:0:0:0:
228,296,15644,6,0,L|171:313,1,52.5
63,339,15773,5,0,0:0:0:0:
52,303,15837,1,0,0:0:0:0:
41,268,15902,5,0,0:0:0:0:
74,254,15966,1,0,0:0:0:0:
97,226,16031,1,0,0:0:0:0:
103,190,16095,1,0,0:0:0:0:
90,156,16161,6,0,B|80:140|80:140|76:92,1,65.625
160,111,16549,5,0,0:0:0:0:
186,108,16613,1,0,0:0:0:0:
212,105,16678,1,0,0:0:0:0:
