osu file format v14

[General]
AudioFilename: audio.mp3
AudioLeadIn: 0
PreviewTime: 244042
Countdown: 0
SampleSet: Normal
StackLeniency: 0.7
Mode: 3
LetterboxInBreaks: 0
SpecialStyle: 0
WidescreenStoryboard: 0

[Editor]
DistanceSpacing: 0.5
BeatDivisor: 4
GridSize: 32
TimelineZoom: 2.5

[Metadata]
Title:Sorbet aux Ongles
TitleUnicode:Sorbet aux Ongles
Artist:Igorrr
ArtistUnicode:Igorrr
Creator:Adri
Version:4k Soluble
Source:
Tags:
BeatmapID:1428554
BeatmapSetID:675273

[Difficulty]
HPDrainRate:7
CircleSize:4
OverallDifficulty:7
ApproachRate:5
SliderMultiplier:1.4
SliderTickRate:1

[Events]
//Background and Video events
0,0,"HardForce-blog-94.jpg",0,0
//Break Periods
//Storyboard Layer 0 (Background)
//Storyboard Layer 1 (Fail)
//Storyboard Layer 2 (Pass)
//Storyboard Layer 3 (Foreground)
//Storyboard Sound Samples

[TimingPoints]
88,300,4,1,0,100,1,0
38638,146.341463414634,4,1,0,100,1,0
38638,-205.0020500205,4,1,0,100,0,0
42442,300,4,1,0,100,1,0

[HitObjects]
448,192,88,128,0,388:0:0:0:0:
64,192,388,1,0,0:0:0:0:
320,192,688,128,0,838:0:0:0:0:
192,192,838,1,0,0:0:0:0:
448,192,988,1,0,0:0:0:0:
64,192,1138,1,0,0:0:0:0:
320,192,1288,128,0,1588:0:0:0:0:
192,192,1588,128,0,1738:0:0:0:0:
448,192,1888,128,0,2038:0:0:0:0:
64,192,2038,1,0,0:0:0:0:
320,192,2188,1,0,0:0:0:0:
448,192,2338,1,0,0:0:0:0:
64,192,2488,128,0,2788:0:0:0:0:
320,192,2788,1,0,0:0:0:0:
448,192,2938,1,0,0:0:0:0:
448,192,3088,128,0,3388:0:0:0:0:
320,192,3388,128,0,3538:0:0:0:0:
64,192,3538,1,0,0:0:0:0:
192,192,3688,1,0,0:0:0:0:
320,192,3838,1,0,0:0:0:0:
448,192,3838,1,0,0:0:0:0:
448,192,3988,1,0,0:0:0:0:
64,192,3988,128,0,4288:0:0:0:0:
192,192,4288,128,0,4438:0:0:0:0:
320,192,4438,1,0,0:0:0:0:
448,192,4588,1,0,0:0:0:0:
64,192,4738,1,0,0:0:0:0:
192,192,4738,1,0,0:0:0:0:
64,192,4888,1,0,0:0:0:0:
320,192,4888,128,0,5188:0:0:0:0:
448,192,5188,1,0,0:0:0:0:
64,192,5488,1,0,0:0:0:0:
192,192,5488,128,0,5638:0:0:0:0:
320,192,5638,1,0,0:0:0:0:
448,192,5788,1,0,0:0:0:0:
64,192,5938,1,0,0:0:0:0:
192,192,6088,128,0,6388:0:0:0:0:
320,192,6388,1,0,0:0:0:0:
64,192,6538,1,0,0:0:0:0:
192,192,6538,1,0,0:0:0:0:
64,192,6688,1,0,0:0:0:0:
448,192,6688,1,0,0:0:0:0:
320,192,6838,1,0,0:0:0:0:
192,192,6988,1,0,0:0:0:0:
448,192,7138,1,0,0:0:0:0:
64,192,7288,128,0,7438:0:0:0:0:
320,192,7438,1,0,0:0:0:0:
192,192,7438,1,0,0:0:0:0:
320,192,7588,128,0,7888:0:0:0:0:
192,192,7888,1,0,0:0:0:0:
64,192,7888,128,0,8038:0:0:0:0:
448,192,8038,1,0,0:0:0:0:
192,192,8188,1,0,0:0:0:0:
320,192,8338,1,0,0:0:0:0:
448,192,8338,1,0,0:0:0:0:
448,192,8488,1,0,0:0:0:0:
64,192,8488,128,0,8788:0:0:0:0:
192,192,8788,1,0,0:0:0:0:
320,192,9088,1,0,0:0:0:0:
448,192,9088,128,0,9238:0:0:0:0:
64,192,9238,1,0,0:0:0:0:
192,192,9388,1,0,0:0:0:0:
320,192,9538,1,0,0:0:0:0:
64,192,9688,128,0,9988:0:0:0:0:
320,192,9988,1,0,0:0:0:0:
192,192,10288,1,0,0:0:0:0:
448,192,10288,128,0,10438:0:0:0:0:
320,192,10438,1,0,0:0:0:0:
64,192,10588,1,0,0:0:0:0:
320,192,10738,1,0,0:0:0:0:
192,192,10888,128,0,11188:0:0:0:0:
448,192,10888,1,0,0:0:0:0:
64,192,11188,1,0,0:0:0:0:
448,192,11188,1,0,0:0:0:0:
320,192,11488,1,0,0:0:0:0:
192,192,11488,128,0,11638:0:0:0:0:
64,192,11638,1,0,0:0:0:0:
320,192,11788,1,0,0:0:0:0:
448,192,11938,1,0,0:0:0:0:
192,192,12088,1,0,0:0:0:0:
64,192,12088,1,0,0:0:0:0:
192,192,12388,1,0,0:0:0:0:
320,192,12538,1,0,0:0:0:0:
448,192,12688,128,0,12838:0:0:0:0:
64,192,12838,1,0,0:0:0:0:
320,192,12988,1,0,0:0:0:0:
192,192,13138,1,0,0:0:0:0:
448,192,13288,1,0,0:0:0:0:
64,192,13288,1,0,0:0:0:0:
64,192,13588,1,0,0:0:0:0:
448,192,13588,1,0,0:0:0:0:
320,192,13738,1,0,0:0:0:0:
192,192,13888,1,0,0:0:0:0:
320,192,14038,1,0,0:0:0:0:
64,192,14188,1,0,0:0:0:0:
448,192,14188,128,0,14338:0:0:0:0:
320,192,14338,1,0,0:0:0:0:
192,192,14488,1,0,0:0:0:0:
64,192,14638,1,0,0:0:0:0:
448,192,14638,1,0,0:0:0:0:
320,192,14788,1,0,0:0:0:0:
448,192,14788,1,0,0:0:0:0:
448,192,15088,128,0,15688:0:0:0:0:
64,192,15088,1,0,0:0:0:0:
320,192,15238,1,0,0:0:0:0:
192,192,15388,1,0,0:0:0:0:
64,192,15538,1,0,0:0:0:0:
192,192,15688,128,0,15988:0:0:0:0:
320,192,15988,1,0,0:0:0:0:
64,192,16288,1,0,0:0:0:0:
448,192,16288,128,0,16438:0:0:0:0:
192,192,16438,128,0,16588:0:0:0:0:
320,192,16588,1,0,0:0:0:0:
64,192,16738,128,0,16888:0:0:0:0:
448,192,16888,128,0,17038:0:0:0:0:
192,192,17038,128,0,17188:0:0:0:0:
448,192,17188,128,0,17338:0:0:0:0:
320,192,17338,128,0,17488:0:0:0:0:
64,192,17488,128,0,17788:0:0:0:0:
192,192,17638,1,0,0:0:0:0:
448,192,17788,128,0,17938:0:0:0:0:
192,192,17938,1,0,0:0:0:0:
320,192,18088,128,0,18238:0:0:0:0:
64,192,18238,1,0,0:0:0:0:
192,192,18388,1,0,0:0:0:0:
448,192,18388,1,0,0:0:0:0:
448,192,18613,1,0,0:0:0:0:
320,192,18650,1,0,0:0:0:0:
64,192,18688,128,0,18838:0:0:0:0:
192,192,18838,1,0,0:0:0:0:
448,192,18988,1,0,0:0:0:0:
192,192,19138,1,0,0:0:0:0:
320,192,19288,128,0,19588:0:0:0:0:
64,192,19588,1,0,0:0:0:0:
448,192,19588,1,0,0:0:0:0:
192,192,19888,1,0,0:0:0:0:
320,192,19888,128,0,20038:0:0:0:0:
64,192,20038,1,0,0:0:0:0:
448,192,20188,1,0,0:0:0:0:
192,192,20338,1,0,0:0:0:0:
64,192,20488,128,0,20788:0:0:0:0:
192,192,20788,1,0,0:0:0:0:
320,192,20788,1,0,0:0:0:0:
448,192,21013,1,0,0:0:0:0:
192,192,21050,1,0,0:0:0:0:
320,192,21088,128,0,21238:0:0:0:0:
64,192,21238,1,0,0:0:0:0:
192,192,21388,1,0,0:0:0:0:
448,192,21538,1,0,0:0:0:0:
320,192,21688,128,0,21988:0:0:0:0:
192,192,21988,1,0,0:0:0:0:
320,192,22138,1,0,0:0:0:0:
320,192,22288,128,0,22438:0:0:0:0:
192,192,22438,1,0,0:0:0:0:
64,192,22588,1,0,0:0:0:0:
448,192,22738,128,0,22888:0:0:0:0:
192,192,22888,128,0,23038:0:0:0:0:
64,192,23038,1,0,0:0:0:0:
64,192,23188,128,0,23488:0:0:0:0:
192,192,23413,1,0,0:0:0:0:
320,192,23450,1,0,0:0:0:0:
448,192,23488,1,0,0:0:0:0:
320,192,23638,1,0,0:0:0:0:
192,192,23788,1,0,0:0:0:0:
448,192,23938,1,0,0:0:0:0:
64,192,24088,1,0,0:0:0:0:
448,192,24088,128,0,24388:0:0:0:0:
192,192,24388,1,0,0:0:0:0:
320,192,24388,1,0,0:0:0:0:
64,192,24688,1,0,0:0:0:0:
448,192,24688,128,0,24838:0:0:0:0:
192,192,24838,1,0,0:0:0:0:
320,192,24988,1,0,0:0:0:0:
64,192,25138,1,0,0:0:0:0:
320,192,25288,1,0,0:0:0:0:
448,192,25288,128,0,25588:0:0:0:0:
192,192,25588,1,0,0:0:0:0:
320,192,25738,1,0,0:0:0:0:
320,192,25888,128,0,26038:0:0:0:0:
192,192,26038,1,0,0:0:0:0:
64,192,26188,1,0,0:0:0:0:
448,192,26338,1,0,0:0:0:0:
320,192,26488,1,0,0:0:0:0:
64,192,26638,1,0,0:0:0:0:
448,192,26638,1,0,0:0:0:0:
192,192,26638,128,0,27088:0:0:0:0:
320,192,26788,1,0,0:0:0:0:
64,192,26938,1,0,0:0:0:0:
448,192,27088,1,0,0:0:0:0:
320,192,27088,128,0,27238:0:0:0:0:
448,192,27238,128,0,27388:0:0:0:0:
192,192,27388,128,0,27538:0:0:0:0:
64,192,27538,128,0,27688:0:0:0:0:
320,192,27688,1,0,0:0:0:0:
448,192,27838,1,0,0:0:0:0:
192,192,27988,1,0,0:0:0:0:
320,192,28138,1,0,0:0:0:0:
64,192,28288,1,0,0:0:0:0:
448,192,28288,1,0,0:0:0:0:
320,192,28438,1,0,0:0:0:0:
192,192,28588,1,0,0:0:0:0:
448,192,28588,1,0,0:0:0:0:
320,192,28738,1,0,0:0:0:0:
64,192,28888,1,0,0:0:0:0:
448,192,28888,128,0,29188:0:0:0:0:
192,192,29188,1,0,0:0:0:0:
320,192,29488,1,0,0:0:0:0:
64,192,29488,1,0,0:0:0:0:
192,192,29638,1,0,0:0:0:0:
448,192,29788,128,0,30088:0:0:0:0:
320,192,30088,1,0,0:0:0:0:
64,192,30088,1,0,0:0:0:0:
192,192,30388,1,0,0:0:0:0:
64,192,30688,1,0,0:0:0:0:
448,192,30688,1,0,0:0:0:0:
320,192,30838,1,0,0:0:0:0:
192,192,30988,1,0,0:0:0:0:
448,192,31138,1,0,0:0:0:0:
64,192,31288,128,0,31438:0:0:0:0:
320,192,31438,128,0,31588:0:0:0:0:
192,192,31588,128,0,31738:0:0:0:0:
448,192,31738,128,0,31888:0:0:0:0:
320,192,31888,128,0,32188:0:0:0:0:
64,192,31888,128,0,32188:0:0:0:0:
192,192,32188,1,0,0:0:0:0:
448,192,32188,1,0,0:0:0:0:
320,192,32338,1,0,0:0:0:0:
64,192,32488,1,0,0:0:0:0:
448,192,32488,1,0,0:0:0:0:
192,192,32788,1,0,0:0:0:0:
320,192,32788,1,0,0:0:0:0:
64,192,33088,1,0,0:0:0:0:
448,192,33088,1,0,0:0:0:0:
320,192,33388,1,0,0:0:0:0:
192,192,33538,1,0,0:0:0:0:
448,192,33688,128,0,33988:0:0:0:0:
64,192,33688,128,0,33988:0:0:0:0:
192,192,34288,1,0,0:0:0:0:
320,192,34288,1,0,0:0:0:0:
448,192,34588,128,0,34738:0:0:0:0:
192,192,34738,1,0,0:0:0:0:
320,192,34888,1,0,0:0:0:0:
192,192,35188,1,0,0:0:0:0:
64,192,35488,1,0,0:0:0:0:
320,192,35638,1,0,0:0:0:0:
192,192,35788,128,0,36088:0:0:0:0:
320,192,35938,1,0,0:0:0:0:
448,192,36088,1,0,0:0:0:0:
64,192,36238,1,0,0:0:0:0:
320,192,36388,128,0,36538:0:0:0:0:
192,192,36538,1,0,0:0:0:0:
64,192,36688,1,0,0:0:0:0:
320,192,36838,1,0,0:0:0:0:
448,192,36988,1,0,0:0:0:0:
192,192,37138,1,0,0:0:0:0:
64,192,37288,1,0,0:0:0:0:
320,192,37288,1,0,0:0:0:0:
192,192,37588,1,0,0:0:0:0:
320,192,37813,1,0,0:0:0:0:
192,192,37850,1,0,0:0:0:0:
448,192,37888,128,0,38150:0:0:0:0:
64,192,37888,128,0,38150:0:0:0:0:
448,192,38188,128,0,38338:0:0:0:0:
64,192,38188,128,0,38338:0:0:0:0:
320,192,38338,1,0,0:0:0:0:
192,192,38488,128,0,38588:0:0:0:0:
64,192,38638,128,0,38674:0:0:0:0:
320,192,38711,128,0,38747:0:0:0:0:
192,192,38784,128,0,38820:0:0:0:0:
448,192,38857,128,0,38894:0:0:0:0:
64,192,38930,128,0,38967:0:0:0:0:
320,192,39003,128,0,39040:0:0:0:0:
192,192,39077,128,0,39113:0:0:0:0:
448,192,39150,128,0,39186:0:0:0:0:
64,192,39223,128,0,39259:0:0:0:0:
320,192,39296,128,0,39333:0:0:0:0:
192,192,39369,128,0,39406:0:0:0:0:
448,192,39442,128,0,39479:0:0:0:0:
64,192,39516,128,0,39552:0:0:0:0:
320,192,39589,128,0,39625:0:0:0:0:
192,192,39662,128,0,39698:0:0:0:0:
448,192,39735,128,0,39772:0:0:0:0:
64,192,39808,128,0,39845:0:0:0:0:
320,192,39881,128,0,39918:0:0:0:0:
192,192,39955,128,0,39991:0:0:0:0:
448,192,40028,128,0,40101:0:0:0:0:
64,192,40101,1,0,0:0:0:0:
320,192,40138,1,0,0:0:0:0:
192,192,40174,1,0,0:0:0:0:
448,192,40211,1,0,0:0:0:0:
320,192,40247,1,0,0:0:0:0:
64,192,40284,128,0,40320:0:0:0:0:
448,192,40357,128,0,40394:0:0:0:0:
192,192,40430,128,0,40467:0:0:0:0:
320,192,40503,128,0,40540:0:0:0:0:
64,192,40577,128,0,40613:0:0:0:0:
448,192,40650,128,0,40686:0:0:0:0:
192,192,40723,128,0,40759:0:0:0:0:
320,192,40796,128,0,40833:0:0:0:0:
64,192,40869,128,0,40906:0:0:0:0:
448,192,40942,128,0,40979:0:0:0:0:
192,192,41016,128,0,41052:0:0:0:0:
320,192,41089,128,0,41125:0:0:0:0:
64,192,41162,128,0,41198:0:0:0:0:
320,192,41235,128,0,41272:0:0:0:0:
448,192,41308,128,0,41345:0:0:0:0:
192,192,41381,128,0,41418:0:0:0:0:
320,192,41455,128,0,41491:0:0:0:0:
64,192,41528,128,0,41564:0:0:0:0:
448,192,41564,1,0,0:0:0:0:
192,192,41601,1,0,0:0:0:0:
320,192,41638,1,0,0:0:0:0:
64,192,41674,1,0,0:0:0:0:
448,192,41711,1,0,0:0:0:0:
192,192,41747,1,0,0:0:0:0:
320,192,41784,1,0,0:0:0:0:
64,192,41820,1,0,0:0:0:0:
448,192,41857,1,0,0:0:0:0:
192,192,41894,1,0,0:0:0:0:
320,192,41930,1,0,0:0:0:0:
64,192,41967,1,0,0:0:0:0:
448,192,42003,128,0,42040:0:0:0:0:
192,192,42077,128,0,42113:0:0:0:0:
320,192,42150,128,0,42186:0:0:0:0:
64,192,42223,128,0,42259:0:0:0:0:
448,192,42296,128,0,42333:0:0:0:0:
192,192,42369,128,0,42406:0:0:0:0:
448,192,42442,1,0,0:0:0:0:
64,192,42442,1,0,0:0:0:0:
320,192,42592,1,0,0:0:0:0:
192,192,42742,1,0,0:0:0:0:
448,192,42742,128,0,42892:0:0:0:0:
448,192,43042,128,0,43192:0:0:0:0:
64,192,43042,1,0,0:0:0:0:
192,192,43342,1,0,0:0:0:0:
320,192,43342,1,0,0:0:0:0:
448,192,43492,1,0,0:0:0:0:
64,192,43642,1,0,0:0:0:0:
320,192,43642,1,0,0:0:0:0:
192,192,43792,1,0,0:0:0:0:
64,192,43942,1,0,0:0:0:0:
320,192,43942,1,0,0:0:0:0:
192,192,44092,1,0,0:0:0:0:
448,192,44242,1,0,0:0:0:0:
64,192,44242,1,0,0:0:0:0:
320,192,44392,1,0,0:0:0:0:
320,192,44542,1,0,0:0:0:0:
320,192,44692,1,0,0:0:0:0:
64,192,44842,1,0,0:0:0:0:
192,192,44842,1,0,0:0:0:0:
320,192,44917,1,0,0:0:0:0:
448,192,45067,1,0,0:0:0:0:
192,192,45142,1,0,0:0:0:0:
320,192,45142,128,0,45292:0:0:0:0:
64,192,45292,1,0,0:0:0:0:
192,192,45367,1,0,0:0:0:0:
448,192,45442,1,0,0:0:0:0:
192,192,45592,1,0,0:0:0:0:
320,192,45592,1,0,0:0:0:0:
64,192,45742,1,0,0:0:0:0:
448,192,45742,1,0,0:0:0:0:
192,192,45892,1,0,0:0:0:0:
192,192,46042,1,0,0:0:0:0:
192,192,46192,1,0,0:0:0:0:
192,192,46342,1,0,0:0:0:0:
448,192,46342,128,0,46492:0:0:0:0:
64,192,46492,128,0,46642:0:0:0:0:
320,192,46492,1,0,0:0:0:0:
448,192,46642,128,0,46942:0:0:0:0:
192,192,46942,1,0,0:0:0:0:
64,192,47092,1,0,0:0:0:0:
320,192,47167,1,0,0:0:0:0:
448,192,47242,1,0,0:0:0:0:
192,192,47392,1,0,0:0:0:0:
64,192,47467,1,0,0:0:0:0:
448,192,47542,1,0,0:0:0:0:
192,192,47692,1,0,0:0:0:0:
320,192,47842,1,0,0:0:0:0:
448,192,47992,1,0,0:0:0:0:
448,192,48142,1,0,0:0:0:0:
192,192,48292,1,0,0:0:0:0:
64,192,48442,1,0,0:0:0:0:
320,192,48517,1,0,0:0:0:0:
192,192,48592,1,0,0:0:0:0:
320,192,48742,1,0,0:0:0:0:
448,192,48742,128,0,49042:0:0:0:0:
64,192,49042,1,0,0:0:0:0:
320,192,49192,1,0,0:0:0:0:
448,192,49192,128,0,49304:0:0:0:0:
320,192,49342,1,0,0:0:0:0:
448,192,49342,128,0,49642:0:0:0:0:
64,192,49642,1,0,0:0:0:0:
192,192,49642,1,0,0:0:0:0:
320,192,49717,1,0,0:0:0:0:
192,192,49942,128,0,50092:0:0:0:0:
448,192,50092,128,0,50242:0:0:0:0:
64,192,50242,128,0,50467:0:0:0:0:
320,192,50242,1,0,0:0:0:0:
64,192,50542,128,0,50842:0:0:0:0:
320,192,50542,1,0,0:0:0:0:
192,192,50692,1,0,0:0:0:0:
448,192,50842,128,0,51142:0:0:0:0:
320,192,50842,1,0,0:0:0:0:
64,192,50992,1,0,0:0:0:0:
192,192,51067,1,0,0:0:0:0:
64,192,51142,128,0,51367:0:0:0:0:
320,192,51142,1,0,0:0:0:0:
64,192,51442,128,0,51742:0:0:0:0:
192,192,51442,1,0,0:0:0:0:
320,192,51442,1,0,0:0:0:0:
448,192,51592,1,0,0:0:0:0:
448,192,51742,128,0,52042:0:0:0:0:
192,192,51742,1,0,0:0:0:0:
320,192,51892,1,0,0:0:0:0:
64,192,52042,128,0,52267:0:0:0:0:
192,192,52042,1,0,0:0:0:0:
320,192,52117,1,0,0:0:0:0:
448,192,52267,1,0,0:0:0:0:
64,192,52342,128,0,52642:0:0:0:0:
192,192,52342,1,0,0:0:0:0:
320,192,52492,1,0,0:0:0:0:
448,192,52642,128,0,52942:0:0:0:0:
192,192,52642,1,0,0:0:0:0:
320,192,52792,1,0,0:0:0:0:
64,192,52942,128,0,53167:0:0:0:0:
192,192,52942,1,0,0:0:0:0:
320,192,53092,1,0,0:0:0:0:
64,192,53242,128,0,53542:0:0:0:0:
192,192,53242,1,0,0:0:0:0:
320,192,53392,1,0,0:0:0:0:
448,192,53542,128,0,53842:0:0:0:0:
192,192,53542,1,0,0:0:0:0:
320,192,53692,1,0,0:0:0:0:
64,192,53842,128,0,54067:0:0:0:0:
192,192,53842,1,0,0:0:0:0:
64,192,54142,128,0,54442:0:0:0:0:
448,192,54142,1,0,0:0:0:0:
320,192,54142,1,0,0:0:0:0:
192,192,54292,1,0,0:0:0:0:
448,192,54442,128,0,54742:0:0:0:0:
320,192,54442,1,0,0:0:0:0:
192,192,54592,1,0,0:0:0:0:
320,192,54667,1,0,0:0:0:0:
64,192,54742,128,0,54967:0:0:0:0:
192,192,54742,1,0,0:0:0:0:
192,192,54892,1,0,0:0:0:0:
320,192,54967,1,0,0:0:0:0:
64,192,55042,128,0,55342:0:0:0:0:
448,192,55042,1,0,0:0:0:0:
320,192,55192,1,0,0:0:0:0:
448,192,55342,128,0,55642:0:0:0:0:
192,192,55342,1,0,0:0:0:0:
320,192,55492,1,0,0:0:0:0:
64,192,55642,128,0,55867:0:0:0:0:
192,192,55642,1,0,0:0:0:0:
320,192,55717,1,0,0:0:0:0:
448,192,55792,1,0,0:0:0:0:
64,192,55942,128,0,56242:0:0:0:0:
320,192,55942,1,0,0:0:0:0:
192,192,55942,128,0,56242:0:0:0:0:
448,192,56242,128,0,56542:0:0:0:0:
320,192,56242,128,0,56392:0:0:0:0:
192,192,56392,128,0,56542:0:0:0:0:
64,192,56542,128,0,56767:0:0:0:0:
320,192,56692,1,0,0:0:0:0:
448,192,56692,1,0,0:0:0:0:
64,192,56842,128,0,57142:0:0:0:0:
320,192,56842,128,0,57142:0:0:0:0:
448,192,56842,1,0,0:0:0:0:
448,192,57142,128,0,57442:0:0:0:0:
192,192,57442,128,0,57667:0:0:0:0:
64,192,57442,1,0,0:0:0:0:
192,192,57742,128,0,58042:0:0:0:0:
320,192,57742,1,0,0:0:0:0:
448,192,57742,1,0,0:0:0:0:
64,192,58042,1,0,0:0:0:0:
448,192,58042,128,0,58342:0:0:0:0:
320,192,58342,128,0,58642:0:0:0:0:
64,192,58642,128,0,58942:0:0:0:0:
192,192,58642,1,0,0:0:0:0:
448,192,58642,1,0,0:0:0:0:
448,192,58942,128,0,59242:0:0:0:0:
192,192,59242,128,0,59542:0:0:0:0:
64,192,59542,128,0,59842:0:0:0:0:
320,192,59542,1,0,0:0:0:0:
448,192,59542,1,0,0:0:0:0:
448,192,59842,128,0,60142:0:0:0:0:
320,192,59992,1,0,0:0:0:0:
64,192,60142,128,0,60292:0:0:0:0:
192,192,60292,128,0,60442:0:0:0:0:
320,192,60442,128,0,60742:0:0:0:0:
448,192,60442,1,0,0:0:0:0:
64,192,60742,1,0,0:0:0:0:
448,192,60742,128,0,61042:0:0:0:0:
192,192,61042,128,0,61267:0:0:0:0:
320,192,61042,1,0,0:0:0:0:
192,192,61342,128,0,61642:0:0:0:0:
320,192,61342,1,0,0:0:0:0:
64,192,61342,1,0,0:0:0:0:
448,192,61642,128,0,61942:0:0:0:0:
320,192,61642,1,0,0:0:0:0:
192,192,61942,128,0,62167:0:0:0:0:
320,192,61942,1,0,0:0:0:0:
448,192,62092,1,0,0:0:0:0:
64,192,62167,1,0,0:0:0:0:
192,192,62242,128,0,62542:0:0:0:0:
320,192,62242,1,0,0:0:0:0:
64,192,62392,1,0,0:0:0:0:
448,192,62542,128,0,62842:0:0:0:0:
320,192,62542,1,0,0:0:0:0:
64,192,62692,1,0,0:0:0:0:
192,192,62842,128,0,63067:0:0:0:0:
320,192,62842,1,0,0:0:0:0:
192,192,63142,128,0,63442:0:0:0:0:
448,192,63142,1,0,0:0:0:0:
64,192,63142,1,0,0:0:0:0:
448,192,63442,128,0,63742:0:0:0:0:
192,192,63592,1,0,0:0:0:0:
320,192,63742,128,0,64042:0:0:0:0:
64,192,63742,1,0,0:0:0:0:
64,192,64042,128,0,64342:0:0:0:0:
192,192,64042,1,0,0:0:0:0:
448,192,64342,128,0,64642:0:0:0:0:
192,192,64342,1,0,0:0:0:0:
64,192,64642,128,0,64867:0:0:0:0:
192,192,64642,1,0,0:0:0:0:
64,192,64942,128,0,65242:0:0:0:0:
192,192,64942,1,0,0:0:0:0:
448,192,64942,1,0,0:0:0:0:
448,192,65242,128,0,65542:0:0:0:0:
192,192,65242,1,0,0:0:0:0:
64,192,65542,128,0,65767:0:0:0:0:
192,192,65542,1,0,0:0:0:0:
64,192,65842,128,0,66142:0:0:0:0:
192,192,65842,1,0,0:0:0:0:
448,192,66142,128,0,66442:0:0:0:0:
192,192,66142,1,0,0:0:0:0:
64,192,66442,128,0,66667:0:0:0:0:
192,192,66442,1,0,0:0:0:0:
64,192,66742,128,0,67042:0:0:0:0:
192,192,66742,1,0,0:0:0:0:
448,192,66742,1,0,0:0:0:0:
448,192,67042,128,0,67342:0:0:0:0:
192,192,67042,1,0,0:0:0:0:
320,192,67192,1,0,0:0:0:0:
64,192,67342,128,0,67642:0:0:0:0:
192,192,67342,1,0,0:0:0:0:
192,192,67642,128,0,67942:0:0:0:0:
448,192,67642,1,0,0:0:0:0:
448,192,67942,128,0,68242:0:0:0:0:
192,192,68242,128,0,68467:0:0:0:0:
320,192,68392,1,0,0:0:0:0:
192,192,68542,128,0,68842:0:0:0:0:
448,192,68542,1,0,0:0:0:0:
448,192,68842,128,0,69142:0:0:0:0:
320,192,68992,1,0,0:0:0:0:
192,192,69142,128,0,69367:0:0:0:0:
64,192,69142,1,0,0:0:0:0:
320,192,69292,1,0,0:0:0:0:
192,192,69442,128,0,69742:0:0:0:0:
64,192,69442,1,0,0:0:0:0:
320,192,69592,1,0,0:0:0:0:
448,192,69742,128,0,70042:0:0:0:0:
64,192,69742,1,0,0:0:0:0:
320,192,69817,1,0,0:0:0:0:
192,192,69892,1,0,0:0:0:0:
192,192,70042,128,0,70267:0:0:0:0:
64,192,70042,1,0,0:0:0:0:
320,192,70117,1,0,0:0:0:0:
448,192,70192,1,0,0:0:0:0:
192,192,70342,128,0,70642:0:0:0:0:
64,192,70342,1,0,0:0:0:0:
320,192,70567,1,0,0:0:0:0:
448,192,70642,128,0,70942:0:0:0:0:
64,192,70642,1,0,0:0:0:0:
320,192,70792,1,0,0:0:0:0:
192,192,70942,128,0,71242:0:0:0:0:
64,192,70942,128,0,71242:0:0:0:0:
320,192,71242,128,0,71542:0:0:0:0:
448,192,71242,1,0,0:0:0:0:
448,192,71542,128,0,71842:0:0:0:0:
192,192,71842,128,0,72142:0:0:0:0:
320,192,71842,1,0,0:0:0:0:
64,192,72142,128,0,72442:0:0:0:0:
320,192,72142,1,0,0:0:0:0:
448,192,72442,128,0,72742:0:0:0:0:
320,192,72442,1,0,0:0:0:0:
192,192,72742,128,0,73042:0:0:0:0:
320,192,72742,1,0,0:0:0:0:
64,192,73042,128,0,73342:0:0:0:0:
320,192,73042,1,0,0:0:0:0:
448,192,73342,128,0,73642:0:0:0:0:
320,192,73342,1,0,0:0:0:0:
192,192,73642,128,0,73942:0:0:0:0:
320,192,73642,1,0,0:0:0:0:
64,192,73942,128,0,74242:0:0:0:0:
320,192,73942,1,0,0:0:0:0:
448,192,74242,128,0,74542:0:0:0:0:
320,192,74242,1,0,0:0:0:0:
64,192,74392,1,0,0:0:0:0:
192,192,74542,128,0,74692:0:0:0:0:
320,192,74542,1,0,0:0:0:0:
320,192,74692,128,0,74842:0:0:0:0:
64,192,74842,128,0,75142:0:0:0:0:
192,192,74842,1,0,0:0:0:0:
448,192,75142,128,0,75442:0:0:0:0:
192,192,75142,1,0,0:0:0:0:
320,192,75442,128,0,75742:0:0:0:0:
192,192,75442,1,0,0:0:0:0:
64,192,75742,128,0,76042:0:0:0:0:
192,192,75742,1,0,0:0:0:0:
448,192,75742,1,0,0:0:0:0:
448,192,76042,128,0,76342:0:0:0:0:
192,192,76042,1,0,0:0:0:0:
320,192,76342,128,0,76642:0:0:0:0:
192,192,76342,1,0,0:0:0:0:
64,192,76492,1,0,0:0:0:0:
448,192,76567,1,0,0:0:0:0:
64,192,76642,128,0,76942:0:0:0:0:
192,192,76642,1,0,0:0:0:0:
320,192,76792,1,0,0:0:0:0:
448,192,76942,128,0,77242:0:0:0:0:
192,192,76942,1,0,0:0:0:0:
320,192,77092,1,0,0:0:0:0:
192,192,77242,1,0,0:0:0:0:
64,192,77242,128,0,77542:0:0:0:0:
192,192,77542,128,0,77842:0:0:0:0:
320,192,77542,1,0,0:0:0:0:
448,192,77842,128,0,78142:0:0:0:0:
320,192,77842,1,0,0:0:0:0:
64,192,77992,1,0,0:0:0:0:
192,192,78142,128,0,78442:0:0:0:0:
320,192,78142,128,0,78292:0:0:0:0:
448,192,78292,1,0,0:0:0:0:
64,192,78442,128,0,78742:0:0:0:0:
448,192,78442,1,0,0:0:0:0:
320,192,78742,128,0,79042:0:0:0:0:
448,192,78742,1,0,0:0:0:0:
192,192,79042,128,0,79342:0:0:0:0:
448,192,79042,1,0,0:0:0:0:
64,192,79192,1,0,0:0:0:0:
320,192,79267,1,0,0:0:0:0:
64,192,79342,128,0,79642:0:0:0:0:
448,192,79342,1,0,0:0:0:0:
320,192,79642,128,0,79942:0:0:0:0:
448,192,79642,1,0,0:0:0:0:
192,192,79942,128,0,80242:0:0:0:0:
448,192,79942,1,0,0:0:0:0:
64,192,80242,128,0,80542:0:0:0:0:
448,192,80242,128,0,80467:0:0:0:0:
448,192,80542,128,0,80842:0:0:0:0:
320,192,80542,128,0,80842:0:0:0:0:
192,192,80542,1,0,0:0:0:0:
192,192,80842,128,0,81142:0:0:0:0:
64,192,81142,128,0,81442:0:0:0:0:
448,192,81142,1,0,0:0:0:0:
320,192,81442,128,0,81742:0:0:0:0:
192,192,81442,1,0,0:0:0:0:
448,192,81592,1,0,0:0:0:0:
192,192,81742,128,0,82042:0:0:0:0:
64,192,81742,1,0,0:0:0:0:
64,192,82042,128,0,82342:0:0:0:0:
320,192,82042,1,0,0:0:0:0:
448,192,82192,1,0,0:0:0:0:
320,192,82342,1,0,0:0:0:0:
448,192,82342,128,0,82642:0:0:0:0:
192,192,82492,1,0,0:0:0:0:
64,192,82642,128,0,82867:0:0:0:0:
320,192,82642,1,0,0:0:0:0:
192,192,82792,1,0,0:0:0:0:
64,192,82942,128,0,83242:0:0:0:0:
448,192,82942,1,0,0:0:0:0:
320,192,83092,1,0,0:0:0:0:
448,192,83242,128,0,83542:0:0:0:0:
192,192,83242,1,0,0:0:0:0:
64,192,83542,128,0,83767:0:0:0:0:
192,192,83542,1,0,0:0:0:0:
448,192,83692,1,0,0:0:0:0:
64,192,83842,128,0,84142:0:0:0:0:
320,192,83842,1,0,0:0:0:0:
192,192,83992,1,0,0:0:0:0:
448,192,83992,1,0,0:0:0:0:
320,192,84142,1,0,0:0:0:0:
448,192,84142,128,0,84442:0:0:0:0:
192,192,84292,1,0,0:0:0:0:
64,192,84292,1,0,0:0:0:0:
320,192,84442,1,0,0:0:0:0:
64,192,84442,128,0,84667:0:0:0:0:
64,192,84742,128,0,85042:0:0:0:0:
192,192,84742,1,0,0:0:0:0:
320,192,84967,1,0,0:0:0:0:
448,192,85042,128,0,85342:0:0:0:0:
192,192,85042,1,0,0:0:0:0:
64,192,85192,1,0,0:0:0:0:
320,192,85267,1,0,0:0:0:0:
64,192,85342,128,0,85567:0:0:0:0:
192,192,85342,1,0,0:0:0:0:
64,192,85642,128,0,85942:0:0:0:0:
320,192,85642,1,0,0:0:0:0:
320,192,85942,128,0,86242:0:0:0:0:
448,192,85942,1,0,0:0:0:0:
192,192,86242,128,0,86542:0:0:0:0:
64,192,86242,1,0,0:0:0:0:
448,192,86542,128,0,86842:0:0:0:0:
320,192,86542,1,0,0:0:0:0:
64,192,86542,1,0,0:0:0:0:
192,192,86842,128,0,87142:0:0:0:0:
64,192,86842,1,0,0:0:0:0:
64,192,87142,128,0,87442:0:0:0:0:
448,192,87142,1,0,0:0:0:0:
320,192,87442,128,0,87742:0:0:0:0:
192,192,87442,1,0,0:0:0:0:
448,192,87742,128,0,88042:0:0:0:0:
64,192,87742,1,0,0:0:0:0:
192,192,88042,128,0,88342:0:0:0:0:
320,192,88042,1,0,0:0:0:0:
320,192,88342,128,0,88642:0:0:0:0:
448,192,88342,1,0,0:0:0:0:
64,192,88342,1,0,0:0:0:0:
192,192,88642,128,0,88942:0:0:0:0:
64,192,88642,1,0,0:0:0:0:
448,192,88792,1,0,0:0:0:0:
320,192,88942,128,0,89242:0:0:0:0:
64,192,88942,1,0,0:0:0:0:
448,192,89242,128,0,89542:0:0:0:0:
192,192,89242,1,0,0:0:0:0:
192,192,89542,128,0,89842:0:0:0:0:
320,192,89542,1,0,0:0:0:0:
64,192,89842,128,0,90142:0:0:0:0:
448,192,89842,1,0,0:0:0:0:
448,192,90142,128,0,90442:0:0:0:0:
320,192,90142,1,0,0:0:0:0:
192,192,90142,1,0,0:0:0:0:
320,192,90442,128,0,90742:0:0:0:0:
64,192,90442,1,0,0:0:0:0:
64,192,90742,128,0,91042:0:0:0:0:
192,192,90742,1,0,0:0:0:0:
192,192,90892,1,0,0:0:0:0:
448,192,90967,1,0,0:0:0:0:
192,192,91042,128,0,91342:0:0:0:0:
320,192,91042,1,0,0:0:0:0:
64,192,91192,1,0,0:0:0:0:
448,192,91342,128,0,91642:0:0:0:0:
320,192,91342,1,0,0:0:0:0:
64,192,91492,1,0,0:0:0:0:
320,192,91642,128,0,91942:0:0:0:0:
192,192,91642,1,0,0:0:0:0:
64,192,91942,128,0,92242:0:0:0:0:
448,192,91942,1,0,0:0:0:0:
192,192,92242,128,0,92542:0:0:0:0:
320,192,92242,1,0,0:0:0:0:
448,192,92392,1,0,0:0:0:0:
64,192,92542,128,0,92842:0:0:0:0:
320,192,92542,1,0,0:0:0:0:
320,192,92842,128,0,93142:0:0:0:0:
192,192,92842,1,0,0:0:0:0:
448,192,93142,128,0,93442:0:0:0:0:
64,192,93142,1,0,0:0:0:0:
192,192,93442,128,0,93742:0:0:0:0:
320,192,93442,1,0,0:0:0:0:
320,192,93742,128,0,94042:0:0:0:0:
64,192,93742,1,0,0:0:0:0:
448,192,93742,1,0,0:0:0:0:
192,192,94042,128,0,94342:0:0:0:0:
448,192,94042,1,0,0:0:0:0:
64,192,94342,128,0,94642:0:0:0:0:
320,192,94342,1,0,0:0:0:0:
320,192,94642,128,0,94942:0:0:0:0:
192,192,94642,1,0,0:0:0:0:
448,192,94642,1,0,0:0:0:0:
448,192,94942,128,0,95242:0:0:0:0:
64,192,94942,1,0,0:0:0:0:
192,192,95242,128,0,95542:0:0:0:0:
320,192,95242,1,0,0:0:0:0:
448,192,95542,128,0,95842:0:0:0:0:
64,192,95542,1,0,0:0:0:0:
320,192,95842,128,0,96142:0:0:0:0:
192,192,95842,1,0,0:0:0:0:
64,192,95992,1,0,0:0:0:0:
192,192,96142,128,0,96442:0:0:0:0:
448,192,96142,1,0,0:0:0:0:
320,192,96442,128,0,96742:0:0:0:0:
64,192,96442,1,0,0:0:0:0:
448,192,96742,128,0,97042:0:0:0:0:
192,192,96742,1,0,0:0:0:0:
192,192,97042,128,0,97342:0:0:0:0:
320,192,97042,1,0,0:0:0:0:
448,192,97342,128,0,97642:0:0:0:0:
320,192,97342,1,0,0:0:0:0:
64,192,97342,1,0,0:0:0:0:
192,192,97642,128,0,97942:0:0:0:0:
320,192,97642,1,0,0:0:0:0:
64,192,97942,128,0,98242:0:0:0:0:
320,192,97942,1,0,0:0:0:0:
448,192,98092,1,0,0:0:0:0:
192,192,98242,128,0,98542:0:0:0:0:
320,192,98242,1,0,0:0:0:0:
448,192,98392,1,0,0:0:0:0:
320,192,98542,128,0,98842:0:0:0:0:
64,192,98542,1,0,0:0:0:0:
448,192,98692,1,0,0:0:0:0:
192,192,98842,128,0,99142:0:0:0:0:
64,192,98842,1,0,0:0:0:0:
320,192,98992,1,0,0:0:0:0:
448,192,99142,128,0,99442:0:0:0:0:
64,192,99142,1,0,0:0:0:0:
192,192,99367,1,0,0:0:0:0:
320,192,99442,128,0,99742:0:0:0:0:
64,192,99442,1,0,0:0:0:0:
192,192,99592,1,0,0:0:0:0:
64,192,99667,1,0,0:0:0:0:
192,192,99742,128,0,100042:0:0:0:0:
448,192,99742,1,0,0:0:0:0:
448,192,100042,128,0,100342:0:0:0:0:
64,192,100042,1,0,0:0:0:0:
64,192,100342,128,0,100642:0:0:0:0:
320,192,100342,1,0,0:0:0:0:
320,192,100642,128,0,100942:0:0:0:0:
192,192,100642,1,0,0:0:0:0:
192,192,100942,128,0,101242:0:0:0:0:
448,192,100942,1,0,0:0:0:0:
64,192,100942,1,0,0:0:0:0:
448,192,101242,128,0,101542:0:0:0:0:
64,192,101242,1,0,0:0:0:0:
64,192,101542,128,0,101842:0:0:0:0:
320,192,101542,1,0,0:0:0:0:
320,192,101842,128,0,102142:0:0:0:0:
192,192,101842,1,0,0:0:0:0:
192,192,102142,128,0,102442:0:0:0:0:
448,192,102142,1,0,0:0:0:0:
64,192,102442,128,0,102742:0:0:0:0:
320,192,102442,1,0,0:0:0:0:
448,192,102442,1,0,0:0:0:0:
320,192,102742,128,0,103042:0:0:0:0:
192,192,102742,1,0,0:0:0:0:
448,192,102742,1,0,0:0:0:0:
448,192,103042,128,0,103342:0:0:0:0:
64,192,103042,1,0,0:0:0:0:
192,192,103192,1,0,0:0:0:0:
192,192,103342,128,0,103642:0:0:0:0:
320,192,103342,1,0,0:0:0:0:
64,192,103642,128,0,103942:0:0:0:0:
448,192,103642,1,0,0:0:0:0:
448,192,103942,128,0,104242:0:0:0:0:
192,192,103942,1,0,0:0:0:0:
320,192,104242,128,0,104542:0:0:0:0:
64,192,104242,1,0,0:0:0:0:
192,192,104542,128,0,104842:0:0:0:0:
448,192,104542,1,0,0:0:0:0:
448,192,104842,128,0,105142:0:0:0:0:
64,192,104842,1,0,0:0:0:0:
192,192,105142,128,0,105442:0:0:0:0:
320,192,105142,1,0,0:0:0:0:
64,192,105292,1,0,0:0:0:0:
320,192,105367,1,0,0:0:0:0:
64,192,105442,128,0,105742:0:0:0:0:
448,192,105442,1,0,0:0:0:0:
320,192,105592,1,0,0:0:0:0:
448,192,105742,128,0,106042:0:0:0:0:
192,192,105742,1,0,0:0:0:0:
320,192,105892,1,0,0:0:0:0:
320,192,106042,128,0,106342:0:0:0:0:
64,192,106042,1,0,0:0:0:0:
64,192,106342,128,0,106642:0:0:0:0:
448,192,106342,1,0,0:0:0:0:
448,192,106642,128,0,106942:0:0:0:0:
192,192,106642,1,0,0:0:0:0:
64,192,106792,1,0,0:0:0:0:
192,192,106942,128,0,107242:0:0:0:0:
320,192,106942,1,0,0:0:0:0:
64,192,107242,128,0,107542:0:0:0:0:
448,192,107242,1,0,0:0:0:0:
448,192,107542,128,0,107842:0:0:0:0:
192,192,107542,1,0,0:0:0:0:
320,192,107842,128,0,108142:0:0:0:0:
64,192,107842,1,0,0:0:0:0:
64,192,108142,128,0,108442:0:0:0:0:
448,192,108142,1,0,0:0:0:0:
192,192,108142,1,0,0:0:0:0:
320,192,108442,128,0,108742:0:0:0:0:
192,192,108442,1,0,0:0:0:0:
448,192,108742,128,0,109042:0:0:0:0:
64,192,108742,1,0,0:0:0:0:
192,192,109042,128,0,109342:0:0:0:0:
320,192,109042,1,0,0:0:0:0:
320,192,109342,128,0,109642:0:0:0:0:
64,192,109342,1,0,0:0:0:0:
64,192,109642,128,0,109942:0:0:0:0:
448,192,109642,1,0,0:0:0:0:
192,192,109642,1,0,0:0:0:0:
320,192,109942,128,0,110242:0:0:0:0:
448,192,109942,1,0,0:0:0:0:
192,192,109942,1,0,0:0:0:0:
192,192,110242,128,0,110542:0:0:0:0:
64,192,110242,1,0,0:0:0:0:
448,192,110392,1,0,0:0:0:0:
320,192,110542,128,0,110842:0:0:0:0:
64,192,110542,1,0,0:0:0:0:
64,192,110842,128,0,111142:0:0:0:0:
448,192,110842,1,0,0:0:0:0:
320,192,111142,128,0,111442:0:0:0:0:
192,192,111142,1,0,0:0:0:0:
64,192,111442,128,0,111742:0:0:0:0:
448,192,111442,1,0,0:0:0:0:
320,192,111742,128,0,112042:0:0:0:0:
192,192,111742,1,0,0:0:0:0:
448,192,111742,1,0,0:0:0:0:
64,192,112042,128,0,112342:0:0:0:0:
192,192,112042,1,0,0:0:0:0:
448,192,112192,1,0,0:0:0:0:
320,192,112342,128,0,112642:0:0:0:0:
192,192,112342,1,0,0:0:0:0:
64,192,112492,1,0,0:0:0:0:
64,192,112642,128,0,112792:0:0:0:0:
448,192,112642,1,0,0:0:0:0:
192,192,112792,128,0,112942:0:0:0:0:
320,192,112792,1,0,0:0:0:0:
320,192,112942,128,0,113242:0:0:0:0:
448,192,112942,1,0,0:0:0:0:
192,192,113092,1,0,0:0:0:0:
64,192,113242,128,0,113542:0:0:0:0:
448,192,113242,1,0,0:0:0:0:
192,192,113392,1,0,0:0:0:0:
320,192,113542,128,0,113842:0:0:0:0:
448,192,113542,1,0,0:0:0:0:
448,192,113767,1,0,0:0:0:0:
64,192,113842,128,0,114142:0:0:0:0:
192,192,113842,1,0,0:0:0:0:
192,192,113992,1,0,0:0:0:0:
448,192,114067,1,0,0:0:0:0:
320,192,114142,128,0,114442:0:0:0:0:
192,192,114142,1,0,0:0:0:0:
192,192,114442,128,0,114742:0:0:0:0:
64,192,114442,1,0,0:0:0:0:
448,192,114742,128,0,115042:0:0:0:0:
320,192,114742,1,0,0:0:0:0:
192,192,115042,128,0,115342:0:0:0:0:
320,192,115042,1,0,0:0:0:0:
64,192,115342,128,0,115642:0:0:0:0:
448,192,115342,1,0,0:0:0:0:
320,192,115342,1,0,0:0:0:0:
448,192,115642,128,0,115942:0:0:0:0:
192,192,115642,1,0,0:0:0:0:
192,192,115942,128,0,116242:0:0:0:0:
64,192,115942,1,0,0:0:0:0:
64,192,116242,128,0,116542:0:0:0:0:
448,192,116242,1,0,0:0:0:0:
448,192,116542,128,0,116842:0:0:0:0:
320,192,116542,1,0,0:0:0:0:
192,192,116842,128,0,117142:0:0:0:0:
64,192,116842,1,0,0:0:0:0:
64,192,117142,128,0,117442:0:0:0:0:
320,192,117142,1,0,0:0:0:0:
448,192,117142,1,0,0:0:0:0:
448,192,117442,128,0,117592:0:0:0:0:
320,192,117442,1,0,0:0:0:0:
320,192,117592,128,0,117742:0:0:0:0:
192,192,117592,1,0,0:0:0:0:
192,192,117742,128,0,118042:0:0:0:0:
64,192,117742,1,0,0:0:0:0:
64,192,118042,128,0,118342:0:0:0:0:
448,192,118042,1,0,0:0:0:0:
448,192,118342,128,0,118642:0:0:0:0:
320,192,118342,1,0,0:0:0:0:
64,192,118642,128,0,118867:0:0:0:0:
192,192,118642,1,0,0:0:0:0:
64,192,118942,128,0,119242:0:0:0:0:
320,192,118942,1,0,0:0:0:0:
192,192,118942,1,0,0:0:0:0:
448,192,119242,128,0,119542:0:0:0:0:
320,192,119242,1,0,0:0:0:0:
64,192,119542,128,0,119767:0:0:0:0:
192,192,119542,1,0,0:0:0:0:
448,192,119692,1,0,0:0:0:0:
320,192,119767,1,0,0:0:0:0:
64,192,119842,128,0,120142:0:0:0:0:
192,192,119842,1,0,0:0:0:0:
320,192,119992,1,0,0:0:0:0:
448,192,120142,128,0,120442:0:0:0:0:
192,192,120142,1,0,0:0:0:0:
320,192,120292,1,0,0:0:0:0:
64,192,120442,128,0,120742:0:0:0:0:
192,192,120442,1,0,0:0:0:0:
320,192,120742,128,0,121042:0:0:0:0:
448,192,121042,128,0,121342:0:0:0:0:
64,192,121042,1,0,0:0:0:0:
192,192,121192,1,0,0:0:0:0:
64,192,121342,128,0,121642:0:0:0:0:
320,192,121342,1,0,0:0:0:0:
192,192,121642,128,0,121942:0:0:0:0:
448,192,121642,1,0,0:0:0:0:
448,192,121942,128,0,122242:0:0:0:0:
64,192,121942,1,0,0:0:0:0:
64,192,122242,128,0,122542:0:0:0:0:
192,192,122242,1,0,0:0:0:0:
448,192,122542,128,0,122842:0:0:0:0:
320,192,122542,1,0,0:0:0:0:
192,192,122542,1,0,0:0:0:0:
64,192,122842,128,0,123142:0:0:0:0:
192,192,122842,1,0,0:0:0:0:
448,192,123142,128,0,123442:0:0:0:0:
320,192,123142,1,0,0:0:0:0:
64,192,123442,128,0,123742:0:0:0:0:
192,192,123442,1,0,0:0:0:0:
320,192,123742,128,0,124042:0:0:0:0:
448,192,123742,1,0,0:0:0:0:
64,192,124042,128,0,124342:0:0:0:0:
192,192,124042,1,0,0:0:0:0:
320,192,124342,128,0,124642:0:0:0:0:
448,192,124342,1,0,0:0:0:0:
192,192,124342,1,0,0:0:0:0:
64,192,124642,128,0,124942:0:0:0:0:
192,192,124642,1,0,0:0:0:0:
448,192,124792,1,0,0:0:0:0:
320,192,124942,128,0,125242:0:0:0:0:
192,192,124942,1,0,0:0:0:0:
64,192,125242,128,0,125542:0:0:0:0:
448,192,125242,1,0,0:0:0:0:
192,192,125542,128,0,125842:0:0:0:0:
448,192,125542,1,0,0:0:0:0:
64,192,125842,128,0,126142:0:0:0:0:
320,192,125842,1,0,0:0:0:0:
192,192,126142,128,0,126442:0:0:0:0:
448,192,126142,1,0,0:0:0:0:
320,192,126142,1,0,0:0:0:0:
64,192,126442,128,0,126742:0:0:0:0:
320,192,126442,1,0,0:0:0:0:
192,192,126742,128,0,127042:0:0:0:0:
448,192,126742,1,0,0:0:0:0:
320,192,126892,1,0,0:0:0:0:
64,192,127042,128,0,127192:0:0:0:0:
448,192,127042,1,0,0:0:0:0:
192,192,127192,128,0,127342:0:0:0:0:
320,192,127192,1,0,0:0:0:0:
320,192,127342,128,0,127642:0:0:0:0:
448,192,127342,1,0,0:0:0:0:
64,192,127492,1,0,0:0:0:0:
64,192,127642,128,0,127942:0:0:0:0:
192,192,127642,1,0,0:0:0:0:
448,192,127792,1,0,0:0:0:0:
320,192,127942,128,0,128242:0:0:0:0:
192,192,127942,1,0,0:0:0:0:
448,192,128167,1,0,0:0:0:0:
64,192,128242,128,0,128542:0:0:0:0:
192,192,128242,1,0,0:0:0:0:
320,192,128392,1,0,0:0:0:0:
448,192,128467,1,0,0:0:0:0:
320,192,128542,128,0,128842:0:0:0:0:
192,192,128542,1,0,0:0:0:0:
64,192,128842,128,0,129442:0:0:0:0:
192,192,128842,1,0,0:0:0:0:
448,192,129142,128,0,130642:0:0:0:0:
320,192,129142,1,0,0:0:0:0:
192,192,129442,128,0,129742:0:0:0:0:
320,192,129742,128,0,130042:0:0:0:0:
64,192,129742,1,0,0:0:0:0:
64,192,130042,128,0,130342:0:0:0:0:
192,192,130342,128,0,130642:0:0:0:0:
320,192,130642,128,0,132442:0:0:0:0:
64,192,130642,128,0,130942:0:0:0:0:
192,192,130942,128,0,131242:0:0:0:0:
64,192,131242,128,0,131542:0:0:0:0:
448,192,131542,128,0,131842:0:0:0:0:
192,192,131542,1,0,0:0:0:0:
192,192,131842,128,0,132142:0:0:0:0:
448,192,131992,1,0,0:0:0:0:
64,192,132142,128,0,132442:0:0:0:0:
192,192,132442,128,0,134242:0:0:0:0:
448,192,132442,128,0,132742:0:0:0:0:
64,192,132742,128,0,133042:0:0:0:0:
320,192,133042,128,0,133342:0:0:0:0:
448,192,133342,128,0,133642:0:0:0:0:
64,192,133342,1,0,0:0:0:0:
320,192,133642,128,0,133942:0:0:0:0:
64,192,133942,1,0,0:0:0:0:
448,192,134092,1,0,0:0:0:0:
320,192,134167,1,0,0:0:0:0:
64,192,134242,128,0,136042:0:0:0:0:
448,192,134242,128,0,134542:0:0:0:0:
320,192,134392,1,0,0:0:0:0:
192,192,134542,128,0,134842:0:0:0:0:
448,192,134692,1,0,0:0:0:0:
320,192,134842,128,0,135142:0:0:0:0:
448,192,135142,128,0,135442:0:0:0:0:
192,192,135142,1,0,0:0:0:0:
320,192,135442,128,0,135742:0:0:0:0:
448,192,135592,1,0,0:0:0:0:
192,192,135742,128,0,136042:0:0:0:0:
448,192,136042,128,0,137842:0:0:0:0:
320,192,136042,128,0,136342:0:0:0:0:
192,192,136342,128,0,136642:0:0:0:0:
64,192,136642,128,0,136942:0:0:0:0:
320,192,136942,128,0,137242:0:0:0:0:
192,192,136942,1,0,0:0:0:0:
192,192,137242,128,0,137542:0:0:0:0:
64,192,137542,128,0,137842:0:0:0:0:
320,192,137842,128,0,141442:0:0:0:0:
192,192,137842,128,0,138142:0:0:0:0:
448,192,138142,128,0,138442:0:0:0:0:
64,192,138442,128,0,138742:0:0:0:0:
448,192,138742,128,0,139042:0:0:0:0:
192,192,138742,1,0,0:0:0:0:
192,192,139042,128,0,139342:0:0:0:0:
448,192,139192,1,0,0:0:0:0:
64,192,139342,128,0,139642:0:0:0:0:
192,192,139642,128,0,139942:0:0:0:0:
448,192,139792,1,0,0:0:0:0:
64,192,139942,128,0,140242:0:0:0:0:
448,192,140092,1,0,0:0:0:0:
192,192,140242,128,0,140542:0:0:0:0:
64,192,140392,1,0,0:0:0:0:
448,192,140542,128,0,140842:0:0:0:0:
64,192,140842,128,0,141142:0:0:0:0:
192,192,140842,1,0,0:0:0:0:
192,192,141142,128,0,141442:0:0:0:0:
64,192,141442,128,0,143242:0:0:0:0:
448,192,141442,128,0,143242:0:0:0:0:
192,192,141592,1,0,0:0:0:0:
320,192,141592,1,0,0:0:0:0:
192,192,141742,1,0,0:0:0:0:
320,192,141892,1,0,0:0:0:0:
192,192,141892,1,0,0:0:0:0:
320,192,142042,1,0,0:0:0:0:
192,192,142042,1,0,0:0:0:0:
320,192,142192,1,0,0:0:0:0:
192,192,142342,1,0,0:0:0:0:
320,192,142342,1,0,0:0:0:0:
320,192,142567,1,0,0:0:0:0:
192,192,142642,1,0,0:0:0:0:
320,192,142792,1,0,0:0:0:0:
192,192,142867,1,0,0:0:0:0:
320,192,142942,128,0,143242:0:0:0:0:
192,192,143242,128,0,143542:0:0:0:0:
448,192,143542,128,0,143842:0:0:0:0:
320,192,143542,1,0,0:0:0:0:
192,192,143842,128,0,144142:0:0:0:0:
64,192,143842,1,0,0:0:0:0:
64,192,144142,128,0,144442:0:0:0:0:
320,192,144142,1,0,0:0:0:0:
448,192,144142,1,0,0:0:0:0:
448,192,144442,128,0,144742:0:0:0:0:
320,192,144442,1,0,0:0:0:0:
192,192,144742,128,0,145042:0:0:0:0:
64,192,144742,1,0,0:0:0:0:
64,192,145042,128,0,145342:0:0:0:0:
320,192,145042,1,0,0:0:0:0:
448,192,145342,128,0,145642:0:0:0:0:
320,192,145342,1,0,0:0:0:0:
192,192,145642,128,0,145942:0:0:0:0:
320,192,145642,1,0,0:0:0:0:
64,192,145942,128,0,146242:0:0:0:0:
448,192,145942,1,0,0:0:0:0:
320,192,145942,1,0,0:0:0:0:
448,192,146242,128,0,146542:0:0:0:0:
192,192,146242,1,0,0:0:0:0:
320,192,146392,1,0,0:0:0:0:
320,192,146542,128,0,146692:0:0:0:0:
64,192,146542,1,0,0:0:0:0:
192,192,146692,128,0,146842:0:0:0:0:
64,192,146842,128,0,147142:0:0:0:0:
448,192,146842,1,0,0:0:0:0:
448,192,147142,128,0,147442:0:0:0:0:
320,192,147142,1,0,0:0:0:0:
192,192,147442,128,0,147742:0:0:0:0:
64,192,147442,1,0,0:0:0:0:
64,192,147742,128,0,148042:0:0:0:0:
320,192,147742,1,0,0:0:0:0:
448,192,147742,1,0,0:0:0:0:
448,192,148042,128,0,148342:0:0:0:0:
192,192,148042,1,0,0:0:0:0:
192,192,148342,128,0,148642:0:0:0:0:
320,192,148342,1,0,0:0:0:0:
64,192,148492,1,0,0:0:0:0:
320,192,148567,1,0,0:0:0:0:
64,192,148642,128,0,148942:0:0:0:0:
448,192,148642,1,0,0:0:0:0:
320,192,148792,1,0,0:0:0:0:
448,192,148942,128,0,149242:0:0:0:0:
192,192,148942,1,0,0:0:0:0:
320,192,149092,1,0,0:0:0:0:
192,192,149242,128,0,149542:0:0:0:0:
64,192,149242,1,0,0:0:0:0:
320,192,149392,1,0,0:0:0:0:
64,192,149542,128,0,149842:0:0:0:0:
448,192,149542,1,0,0:0:0:0:
448,192,149842,128,0,150142:0:0:0:0:
192,192,149842,1,0,0:0:0:0:
320,192,149992,1,0,0:0:0:0:
192,192,150142,128,0,150442:0:0:0:0:
64,192,150142,1,0,0:0:0:0:
64,192,150442,128,0,150742:0:0:0:0:
448,192,150442,1,0,0:0:0:0:
320,192,150742,128,0,151042:0:0:0:0:
192,192,150742,1,0,0:0:0:0:
192,192,151042,128,0,151342:0:0:0:0:
448,192,151042,1,0,0:0:0:0:
64,192,151342,128,0,151642:0:0:0:0:
448,192,151342,1,0,0:0:0:0:
320,192,151642,128,0,151942:0:0:0:0:
192,192,151642,1,0,0:0:0:0:
192,192,151942,128,0,152242:0:0:0:0:
448,192,151942,1,0,0:0:0:0:
64,192,152242,128,0,152542:0:0:0:0:
320,192,152242,1,0,0:0:0:0:
320,192,152542,128,0,152842:0:0:0:0:
192,192,152542,1,0,0:0:0:0:
192,192,152842,128,0,153142:0:0:0:0:
448,192,152842,1,0,0:0:0:0:
64,192,152992,1,0,0:0:0:0:
448,192,153067,1,0,0:0:0:0:
64,192,153142,128,0,153442:0:0:0:0:
320,192,153142,1,0,0:0:0:0:
320,192,153442,128,0,153742:0:0:0:0:
192,192,153442,1,0,0:0:0:0:
448,192,153592,1,0,0:0:0:0:
192,192,153742,128,0,154042:0:0:0:0:
64,192,153742,1,0,0:0:0:0:
64,192,154042,128,0,154342:0:0:0:0:
448,192,154042,1,0,0:0:0:0:
448,192,154342,128,0,154642:0:0:0:0:
320,192,154342,1,0,0:0:0:0:
192,192,154492,1,0,0:0:0:0:
320,192,154642,128,0,154942:0:0:0:0:
64,192,154642,1,0,0:0:0:0:
192,192,154792,1,0,0:0:0:0:
192,192,154942,128,0,155242:0:0:0:0:
448,192,154942,1,0,0:0:0:0:
448,192,155242,128,0,155542:0:0:0:0:
64,192,155242,1,0,0:0:0:0:
320,192,155392,1,0,0:0:0:0:
320,192,155542,128,0,155842:0:0:0:0:
192,192,155542,1,0,0:0:0:0:
64,192,155692,1,0,0:0:0:0:
192,192,155842,128,0,156142:0:0:0:0:
448,192,155842,1,0,0:0:0:0:
64,192,155992,1,0,0:0:0:0:
448,192,156142,128,0,156442:0:0:0:0:
320,192,156142,1,0,0:0:0:0:
64,192,156292,1,0,0:0:0:0:
320,192,156442,128,0,156742:0:0:0:0:
192,192,156442,1,0,0:0:0:0:
64,192,156592,1,0,0:0:0:0:
448,192,156667,1,0,0:0:0:0:
192,192,156742,128,0,157042:0:0:0:0:
64,192,156967,1,0,0:0:0:0:
448,192,157042,128,0,157342:0:0:0:0:
320,192,157042,1,0,0:0:0:0:
192,192,157192,1,0,0:0:0:0:
320,192,157342,128,0,157642:0:0:0:0:
64,192,157342,128,0,157642:0:0:0:0:
192,192,157642,128,0,157942:0:0:0:0:
448,192,157642,1,0,0:0:0:0:
448,192,157942,128,0,158242:0:0:0:0:
320,192,157942,1,0,0:0:0:0:
192,192,158242,128,0,158542:0:0:0:0:
64,192,158242,1,0,0:0:0:0:
64,192,158542,128,0,158842:0:0:0:0:
320,192,158542,1,0,0:0:0:0:
448,192,158542,1,0,0:0:0:0:
448,192,158842,128,0,159142:0:0:0:0:
192,192,158842,1,0,0:0:0:0:
192,192,159142,128,0,159442:0:0:0:0:
320,192,159142,1,0,0:0:0:0:
64,192,159292,1,0,0:0:0:0:
64,192,159442,128,0,159742:0:0:0:0:
448,192,159442,1,0,0:0:0:0:
320,192,159592,1,0,0:0:0:0:
448,192,159742,128,0,160042:0:0:0:0:
192,192,159742,1,0,0:0:0:0:
192,192,160042,128,0,160342:0:0:0:0:
320,192,160042,1,0,0:0:0:0:
64,192,160192,1,0,0:0:0:0:
64,192,160342,128,0,160642:0:0:0:0:
448,192,160342,1,0,0:0:0:0:
448,192,160642,128,0,160942:0:0:0:0:
192,192,160642,1,0,0:0:0:0:
64,192,160792,1,0,0:0:0:0:
64,192,160942,128,0,161092:0:0:0:0:
320,192,160942,1,0,0:0:0:0:
192,192,161092,128,0,161242:0:0:0:0:
320,192,161242,128,0,161542:0:0:0:0:
64,192,161242,1,0,0:0:0:0:
448,192,161542,128,0,161842:0:0:0:0:
192,192,161542,1,0,0:0:0:0:
320,192,161842,128,0,162142:0:0:0:0:
64,192,161842,1,0,0:0:0:0:
192,192,161992,1,0,0:0:0:0:
64,192,162142,128,0,162442:0:0:0:0:
448,192,162142,1,0,0:0:0:0:
448,192,162442,128,0,162742:0:0:0:0:
192,192,162442,1,0,0:0:0:0:
320,192,162742,128,0,163042:0:0:0:0:
64,192,162742,1,0,0:0:0:0:
192,192,162892,1,0,0:0:0:0:
448,192,162967,1,0,0:0:0:0:
64,192,163042,128,0,163342:0:0:0:0:
192,192,163192,1,0,0:0:0:0:
448,192,163342,128,0,163642:0:0:0:0:
320,192,163342,1,0,0:0:0:0:
192,192,163492,1,0,0:0:0:0:
320,192,163642,128,0,163942:0:0:0:0:
64,192,163642,1,0,0:0:0:0:
448,192,163792,1,0,0:0:0:0:
64,192,163942,128,0,164242:0:0:0:0:
192,192,163942,1,0,0:0:0:0:
448,192,164242,128,0,164542:0:0:0:0:
320,192,164242,1,0,0:0:0:0:
192,192,164392,1,0,0:0:0:0:
320,192,164542,128,0,164842:0:0:0:0:
64,192,164542,1,0,0:0:0:0:
64,192,164842,128,0,165142:0:0:0:0:
192,192,164842,1,0,0:0:0:0:
320,192,165142,128,0,165442:0:0:0:0:
448,192,165142,1,0,0:0:0:0:
192,192,165442,128,0,165742:0:0:0:0:
448,192,165442,1,0,0:0:0:0:
320,192,165592,1,0,0:0:0:0:
64,192,165742,128,0,166042:0:0:0:0:
448,192,165742,1,0,0:0:0:0:
320,192,166042,128,0,166342:0:0:0:0:
448,192,166042,1,0,0:0:0:0:
192,192,166342,128,0,166642:0:0:0:0:
64,192,166342,1,0,0:0:0:0:
448,192,166492,1,0,0:0:0:0:
64,192,166642,128,0,166942:0:0:0:0:
320,192,166642,1,0,0:0:0:0:
448,192,166792,1,0,0:0:0:0:
320,192,166942,128,0,167242:0:0:0:0:
192,192,166942,1,0,0:0:0:0:
192,192,167242,128,0,167542:0:0:0:0:
64,192,167242,1,0,0:0:0:0:
448,192,167392,1,0,0:0:0:0:
320,192,167467,1,0,0:0:0:0:
64,192,167542,128,0,167842:0:0:0:0:
320,192,167842,128,0,168142:0:0:0:0:
192,192,167842,1,0,0:0:0:0:
64,192,167992,1,0,0:0:0:0:
192,192,168142,128,0,168442:0:0:0:0:
448,192,168142,1,0,0:0:0:0:
320,192,168292,1,0,0:0:0:0:
64,192,168442,128,0,168742:0:0:0:0:
448,192,168442,1,0,0:0:0:0:
320,192,168592,1,0,0:0:0:0:
448,192,168742,128,0,169042:0:0:0:0:
192,192,168742,1,0,0:0:0:0:
64,192,168892,1,0,0:0:0:0:
192,192,169042,128,0,169342:0:0:0:0:
320,192,169042,1,0,0:0:0:0:
64,192,169342,128,0,169642:0:0:0:0:
448,192,169342,1,0,0:0:0:0:
448,192,169642,128,0,169942:0:0:0:0:
192,192,169642,1,0,0:0:0:0:
192,192,169792,1,0,0:0:0:0:
320,192,169867,1,0,0:0:0:0:
192,192,169942,128,0,170242:0:0:0:0:
64,192,169942,1,0,0:0:0:0:
448,192,170092,1,0,0:0:0:0:
64,192,170242,128,0,170542:0:0:0:0:
320,192,170242,1,0,0:0:0:0:
448,192,170392,1,0,0:0:0:0:
448,192,170542,128,0,170842:0:0:0:0:
192,192,170542,1,0,0:0:0:0:
320,192,170692,1,0,0:0:0:0:
192,192,170842,128,0,171142:0:0:0:0:
64,192,170842,1,0,0:0:0:0:
320,192,170992,1,0,0:0:0:0:
64,192,171142,128,0,171442:0:0:0:0:
448,192,171142,1,0,0:0:0:0:
320,192,171292,1,0,0:0:0:0:
192,192,171367,1,0,0:0:0:0:
448,192,171442,128,0,171742:0:0:0:0:
192,192,171592,1,0,0:0:0:0:
64,192,171667,1,0,0:0:0:0:
192,192,171742,128,0,172042:0:0:0:0:
320,192,171742,1,0,0:0:0:0:
64,192,172042,128,0,172342:0:0:0:0:
448,192,172042,1,0,0:0:0:0:
192,192,172342,128,0,172642:0:0:0:0:
320,192,172342,1,0,0:0:0:0:
320,192,172642,128,0,172942:0:0:0:0:
64,192,172642,1,0,0:0:0:0:
448,192,172942,128,0,173242:0:0:0:0:
192,192,172942,1,0,0:0:0:0:
320,192,173242,128,0,173542:0:0:0:0:
64,192,173242,1,0,0:0:0:0:
192,192,173542,128,0,173842:0:0:0:0:
448,192,173542,1,0,0:0:0:0:
64,192,173842,128,0,174142:0:0:0:0:
320,192,173842,1,0,0:0:0:0:
192,192,174142,128,0,174442:0:0:0:0:
448,192,174142,1,0,0:0:0:0:
320,192,174442,128,0,174742:0:0:0:0:
64,192,174442,1,0,0:0:0:0:
448,192,174742,128,0,175042:0:0:0:0:
192,192,174742,1,0,0:0:0:0:
64,192,174742,1,0,0:0:0:0:
320,192,175042,128,0,175192:0:0:0:0:
64,192,175042,1,0,0:0:0:0:
192,192,175192,128,0,175342:0:0:0:0:
64,192,175342,128,0,175642:0:0:0:0:
448,192,175342,1,0,0:0:0:0:
192,192,175642,128,0,175942:0:0:0:0:
320,192,175642,1,0,0:0:0:0:
448,192,175792,1,0,0:0:0:0:
320,192,175942,128,0,176242:0:0:0:0:
64,192,175942,1,0,0:0:0:0:
448,192,176092,1,0,0:0:0:0:
64,192,176242,1,0,0:0:0:0:
192,192,176242,128,0,176542:0:0:0:0:
448,192,176392,1,0,0:0:0:0:
448,192,176542,128,0,176842:0:0:0:0:
320,192,176542,1,0,0:0:0:0:
320,192,176842,128,0,177142:0:0:0:0:
192,192,176842,1,0,0:0:0:0:
192,192,177142,128,0,177442:0:0:0:0:
64,192,177142,1,0,0:0:0:0:
448,192,177292,1,0,0:0:0:0:
320,192,177367,1,0,0:0:0:0:
64,192,177442,128,0,177742:0:0:0:0:
448,192,177592,1,0,0:0:0:0:
192,192,177742,128,0,178042:0:0:0:0:
320,192,177742,1,0,0:0:0:0:
64,192,177892,1,0,0:0:0:0:
320,192,178042,128,0,178342:0:0:0:0:
448,192,178042,1,0,0:0:0:0:
192,192,178192,1,0,0:0:0:0:
448,192,178342,128,0,178642:0:0:0:0:
64,192,178342,1,0,0:0:0:0:
320,192,178642,128,0,178867:0:0:0:0:
192,192,178642,1,0,0:0:0:0:
64,192,178792,1,0,0:0:0:0:
320,192,178942,128,0,179242:0:0:0:0:
192,192,178942,1,0,0:0:0:0:
64,192,179242,128,0,179542:0:0:0:0:
192,192,179242,1,0,0:0:0:0:
192,192,179542,128,0,179842:0:0:0:0:
448,192,179542,1,0,0:0:0:0:
320,192,179842,128,0,180142:0:0:0:0:
64,192,179842,1,0,0:0:0:0:
448,192,180142,128,0,180442:0:0:0:0:
192,192,180142,1,0,0:0:0:0:
320,192,180442,128,0,180742:0:0:0:0:
64,192,180442,1,0,0:0:0:0:
192,192,180742,128,0,181042:0:0:0:0:
448,192,180742,1,0,0:0:0:0:
64,192,180892,1,0,0:0:0:0:
448,192,180967,1,0,0:0:0:0:
64,192,181042,128,0,181342:0:0:0:0:
320,192,181192,1,0,0:0:0:0:
192,192,181342,128,0,181642:0:0:0:0:
448,192,181342,1,0,0:0:0:0:
320,192,181642,128,0,181942:0:0:0:0:
64,192,181642,1,0,0:0:0:0:
64,192,181867,1,0,0:0:0:0:
448,192,181942,128,0,182242:0:0:0:0:
192,192,181942,1,0,0:0:0:0:
320,192,182242,128,0,182542:0:0:0:0:
64,192,182242,1,0,0:0:0:0:
192,192,182392,1,0,0:0:0:0:
192,192,182542,128,0,182842:0:0:0:0:
448,192,182542,1,0,0:0:0:0:
64,192,182692,1,0,0:0:0:0:
64,192,182842,128,0,183142:0:0:0:0:
320,192,182842,1,0,0:0:0:0:
448,192,182992,1,0,0:0:0:0:
192,192,183142,128,0,183442:0:0:0:0:
320,192,183142,1,0,0:0:0:0:
448,192,183292,1,0,0:0:0:0:
320,192,183442,128,0,183742:0:0:0:0:
64,192,183442,1,0,0:0:0:0:
192,192,183592,1,0,0:0:0:0:
448,192,183742,128,0,184042:0:0:0:0:
64,192,183742,1,0,0:0:0:0:
320,192,184042,128,0,184342:0:0:0:0:
192,192,184042,1,0,0:0:0:0:
192,192,184342,128,0,184642:0:0:0:0:
448,192,184342,1,0,0:0:0:0:
320,192,184492,1,0,0:0:0:0:
64,192,184642,128,0,184942:0:0:0:0:
448,192,184642,1,0,0:0:0:0:
320,192,184792,1,0,0:0:0:0:
192,192,184942,128,0,185242:0:0:0:0:
448,192,184942,1,0,0:0:0:0:
320,192,185092,1,0,0:0:0:0:
320,192,185242,128,0,185542:0:0:0:0:
448,192,185242,1,0,0:0:0:0:
192,192,185392,1,0,0:0:0:0:
448,192,185542,128,0,185842:0:0:0:0:
64,192,185542,1,0,0:0:0:0:
64,192,185767,1,0,0:0:0:0:
320,192,185842,128,0,186142:0:0:0:0:
192,192,185842,1,0,0:0:0:0:
64,192,185992,1,0,0:0:0:0:
448,192,186067,1,0,0:0:0:0:
192,192,186142,128,0,186442:0:0:0:0:
64,192,186442,128,0,186742:0:0:0:0:
320,192,186442,1,0,0:0:0:0:
192,192,186592,1,0,0:0:0:0:
448,192,186742,128,0,187042:0:0:0:0:
320,192,186742,1,0,0:0:0:0:
192,192,186892,1,0,0:0:0:0:
192,192,187042,128,0,187342:0:0:0:0:
64,192,187042,1,0,0:0:0:0:
448,192,187192,1,0,0:0:0:0:
64,192,187342,128,0,187642:0:0:0:0:
320,192,187342,1,0,0:0:0:0:
192,192,187492,1,0,0:0:0:0:
448,192,187642,128,0,187942:0:0:0:0:
320,192,187642,1,0,0:0:0:0:
192,192,187792,1,0,0:0:0:0:
192,192,187942,128,0,188242:0:0:0:0:
64,192,187942,1,0,0:0:0:0:
448,192,188092,1,0,0:0:0:0:
64,192,188242,128,0,188542:0:0:0:0:
320,192,188242,1,0,0:0:0:0:
192,192,188392,1,0,0:0:0:0:
448,192,188542,128,0,188842:0:0:0:0:
320,192,188542,1,0,0:0:0:0:
192,192,188692,1,0,0:0:0:0:
192,192,188842,128,0,189142:0:0:0:0:
320,192,188842,1,0,0:0:0:0:
448,192,188992,1,0,0:0:0:0:
64,192,189142,128,0,189442:0:0:0:0:
320,192,189142,1,0,0:0:0:0:
192,192,189292,1,0,0:0:0:0:
448,192,189442,128,0,189742:0:0:0:0:
320,192,189442,1,0,0:0:0:0:
64,192,189592,1,0,0:0:0:0:
64,192,189742,128,0,189892:0:0:0:0:
192,192,189742,1,0,0:0:0:0:
192,192,189892,128,0,190042:0:0:0:0:
320,192,189892,1,0,0:0:0:0:
320,192,190042,128,0,190342:0:0:0:0:
64,192,190042,1,0,0:0:0:0:
448,192,190192,1,0,0:0:0:0:
448,192,190342,128,0,190642:0:0:0:0:
192,192,190342,1,0,0:0:0:0:
64,192,190492,1,0,0:0:0:0:
192,192,190642,128,0,190942:0:0:0:0:
320,192,190642,1,0,0:0:0:0:
64,192,190792,1,0,0:0:0:0:
64,192,190942,128,0,191242:0:0:0:0:
448,192,190942,1,0,0:0:0:0:
320,192,191092,1,0,0:0:0:0:
448,192,191242,128,0,191542:0:0:0:0:
192,192,191242,1,0,0:0:0:0:
64,192,191392,1,0,0:0:0:0:
192,192,191542,128,0,191842:0:0:0:0:
320,192,191542,1,0,0:0:0:0:
448,192,191692,1,0,0:0:0:0:
320,192,191767,1,0,0:0:0:0:
64,192,191842,128,0,192142:0:0:0:0:
320,192,191992,1,0,0:0:0:0:
448,192,192142,128,0,192442:0:0:0:0:
192,192,192142,1,0,0:0:0:0:
320,192,192292,1,0,0:0:0:0:
192,192,192442,128,0,192742:0:0:0:0:
64,192,192442,1,0,0:0:0:0:
448,192,192592,1,0,0:0:0:0:
64,192,192742,128,0,193042:0:0:0:0:
320,192,192742,1,0,0:0:0:0:
448,192,192892,1,0,0:0:0:0:
448,192,193042,128,0,193342:0:0:0:0:
192,192,193042,1,0,0:0:0:0:
64,192,193192,1,0,0:0:0:0:
192,192,193342,128,0,193642:0:0:0:0:
320,192,193342,1,0,0:0:0:0:
64,192,193492,1,0,0:0:0:0:
64,192,193642,128,0,193942:0:0:0:0:
448,192,193642,1,0,0:0:0:0:
320,192,193942,128,0,194242:0:0:0:0:
192,192,193942,1,0,0:0:0:0:
64,192,194242,128,0,194542:0:0:0:0:
448,192,194242,1,0,0:0:0:0:
192,192,194542,128,0,194842:0:0:0:0:
320,192,194542,1,0,0:0:0:0:
320,192,194842,128,0,195142:0:0:0:0:
64,192,194842,1,0,0:0:0:0:
64,192,195142,128,0,195442:0:0:0:0:
192,192,195142,1,0,0:0:0:0:
448,192,195292,1,0,0:0:0:0:
192,192,195442,128,0,195742:0:0:0:0:
320,192,195442,1,0,0:0:0:0:
448,192,195592,1,0,0:0:0:0:
320,192,195742,128,0,196042:0:0:0:0:
64,192,195742,1,0,0:0:0:0:
192,192,195892,1,0,0:0:0:0:
64,192,196042,128,0,196342:0:0:0:0:
448,192,196042,1,0,0:0:0:0:
320,192,196192,1,0,0:0:0:0:
192,192,196342,128,0,196642:0:0:0:0:
448,192,196342,1,0,0:0:0:0:
320,192,196642,128,0,196942:0:0:0:0:
64,192,196642,1,0,0:0:0:0:
192,192,196792,1,0,0:0:0:0:
64,192,196942,128,0,197242:0:0:0:0:
448,192,196942,1,0,0:0:0:0:
448,192,197092,1,0,0:0:0:0:
192,192,197242,128,0,197542:0:0:0:0:
320,192,197242,1,0,0:0:0:0:
320,192,197542,128,0,197842:0:0:0:0:
64,192,197542,1,0,0:0:0:0:
64,192,197842,128,0,198142:0:0:0:0:
448,192,197842,1,0,0:0:0:0:
192,192,198142,128,0,198442:0:0:0:0:
320,192,198142,1,0,0:0:0:0:
448,192,198292,1,0,0:0:0:0:
320,192,198442,128,0,198742:0:0:0:0:
64,192,198442,1,0,0:0:0:0:
64,192,198742,128,0,199042:0:0:0:0:
192,192,198742,1,0,0:0:0:0:
320,192,198892,1,0,0:0:0:0:
192,192,199042,128,0,199342:0:0:0:0:
448,192,199042,1,0,0:0:0:0:
320,192,199192,1,0,0:0:0:0:
320,192,199342,128,0,199642:0:0:0:0:
64,192,199342,1,0,0:0:0:0:
192,192,199492,1,0,0:0:0:0:
64,192,199642,128,0,199942:0:0:0:0:
448,192,199642,1,0,0:0:0:0:
192,192,199942,128,0,200242:0:0:0:0:
320,192,199942,1,0,0:0:0:0:
64,192,200092,1,0,0:0:0:0:
448,192,200167,1,0,0:0:0:0:
320,192,200242,128,0,200542:0:0:0:0:
448,192,200392,1,0,0:0:0:0:
192,192,200467,1,0,0:0:0:0:
64,192,200542,128,0,200842:0:0:0:0:
192,192,200842,128,0,200992:0:0:0:0:
320,192,200842,1,0,0:0:0:0:
448,192,200992,128,0,201142:0:0:0:0:
320,192,201142,128,0,201442:0:0:0:0:
64,192,201142,1,0,0:0:0:0:
64,192,201442,128,0,201667:0:0:0:0:
448,192,201442,1,0,0:0:0:0:
64,192,201742,128,0,202042:0:0:0:0:
320,192,201742,1,0,0:0:0:0:
448,192,202042,128,0,202342:0:0:0:0:
192,192,202042,1,0,0:0:0:0:
64,192,202342,128,0,202642:0:0:0:0:
192,192,202342,1,0,0:0:0:0:
320,192,202642,128,0,202942:0:0:0:0:
448,192,202642,1,0,0:0:0:0:
192,192,202942,128,0,203242:0:0:0:0:
64,192,202942,1,0,0:0:0:0:
64,192,203242,128,0,203542:0:0:0:0:
448,192,203242,1,0,0:0:0:0:
192,192,203392,1,0,0:0:0:0:
448,192,203467,1,0,0:0:0:0:
320,192,203542,128,0,203842:0:0:0:0:
192,192,203842,128,0,204142:0:0:0:0:
64,192,203842,1,0,0:0:0:0:
320,192,203992,1,0,0:0:0:0:
64,192,204142,128,0,204442:0:0:0:0:
448,192,204142,1,0,0:0:0:0:
320,192,204292,1,0,0:0:0:0:
192,192,204442,128,0,204742:0:0:0:0:
448,192,204442,1,0,0:0:0:0:
320,192,204742,128,0,205042:0:0:0:0:
64,192,204742,1,0,0:0:0:0:
64,192,205042,128,0,205342:0:0:0:0:
448,192,205042,1,0,0:0:0:0:
192,192,205342,128,0,205642:0:0:0:0:
320,192,205342,1,0,0:0:0:0:
320,192,205642,128,0,205942:0:0:0:0:
64,192,205642,1,0,0:0:0:0:
64,192,205942,128,0,206242:0:0:0:0:
448,192,205942,1,0,0:0:0:0:
448,192,206092,1,0,0:0:0:0:
320,192,206167,1,0,0:0:0:0:
192,192,206242,128,0,206542:0:0:0:0:
448,192,206392,1,0,0:0:0:0:
320,192,206542,128,0,206842:0:0:0:0:
448,192,206542,1,0,0:0:0:0:
64,192,206842,128,0,207142:0:0:0:0:
192,192,206842,1,0,0:0:0:0:
192,192,207142,128,0,207442:0:0:0:0:
320,192,207142,1,0,0:0:0:0:
320,192,207442,128,0,207742:0:0:0:0:
448,192,207442,1,0,0:0:0:0:
64,192,207592,1,0,0:0:0:0:
192,192,207742,128,0,208042:0:0:0:0:
448,192,207742,1,0,0:0:0:0:
64,192,208042,128,0,208342:0:0:0:0:
320,192,208042,1,0,0:0:0:0:
448,192,208342,128,0,208642:0:0:0:0:
192,192,208342,1,0,0:0:0:0:
192,192,208642,128,0,208942:0:0:0:0:
64,192,208642,1,0,0:0:0:0:
64,192,208942,128,0,209242:0:0:0:0:
320,192,208942,1,0,0:0:0:0:
448,192,209242,128,0,209542:0:0:0:0:
320,192,209242,1,0,0:0:0:0:
192,192,209542,128,0,209842:0:0:0:0:
64,192,209542,1,0,0:0:0:0:
64,192,209842,128,0,210142:0:0:0:0:
448,192,209842,1,0,0:0:0:0:
192,192,209992,1,0,0:0:0:0:
448,192,210142,128,0,210442:0:0:0:0:
320,192,210142,1,0,0:0:0:0:
192,192,210442,128,0,210742:0:0:0:0:
64,192,210442,1,0,0:0:0:0:
448,192,210667,1,0,0:0:0:0:
64,192,210742,128,0,211042:0:0:0:0:
320,192,210742,1,0,0:0:0:0:
448,192,211042,128,0,211342:0:0:0:0:
192,192,211042,1,0,0:0:0:0:
320,192,211192,1,0,0:0:0:0:
320,192,211342,128,0,211642:0:0:0:0:
64,192,211342,1,0,0:0:0:0:
192,192,211492,1,0,0:0:0:0:
64,192,211642,128,0,211942:0:0:0:0:
448,192,211642,1,0,0:0:0:0:
320,192,211942,128,0,212242:0:0:0:0:
192,192,211942,1,0,0:0:0:0:
192,192,212242,128,0,212542:0:0:0:0:
448,192,212242,1,0,0:0:0:0:
64,192,212542,128,0,212842:0:0:0:0:
320,192,212542,1,0,0:0:0:0:
448,192,212542,1,0,0:0:0:0:
448,192,212842,128,0,213142:0:0:0:0:
192,192,212842,1,0,0:0:0:0:
320,192,212992,1,0,0:0:0:0:
192,192,213142,128,0,213442:0:0:0:0:
64,192,213142,1,0,0:0:0:0:
320,192,213292,1,0,0:0:0:0:
64,192,213442,128,0,213742:0:0:0:0:
448,192,213442,1,0,0:0:0:0:
320,192,213592,1,0,0:0:0:0:
448,192,213742,128,0,214042:0:0:0:0:
192,192,213742,1,0,0:0:0:0:
320,192,213892,1,0,0:0:0:0:
192,192,214042,128,0,214342:0:0:0:0:
64,192,214042,1,0,0:0:0:0:
64,192,214342,128,0,214642:0:0:0:0:
320,192,214342,1,0,0:0:0:0:
448,192,214492,1,0,0:0:0:0:
320,192,214567,1,0,0:0:0:0:
448,192,214642,128,0,214942:0:0:0:0:
192,192,214642,1,0,0:0:0:0:
64,192,214792,1,0,0:0:0:0:
192,192,214942,128,0,215242:0:0:0:0:
320,192,214942,1,0,0:0:0:0:
64,192,215242,128,0,215542:0:0:0:0:
448,192,215242,1,0,0:0:0:0:
192,192,215542,128,0,215842:0:0:0:0:
320,192,215542,1,0,0:0:0:0:
320,192,215842,128,0,216142:0:0:0:0:
64,192,215842,1,0,0:0:0:0:
192,192,215992,1,0,0:0:0:0:
448,192,216142,128,0,216442:0:0:0:0:
320,192,216442,128,0,216742:0:0:0:0:
64,192,216442,1,0,0:0:0:0:
192,192,216742,128,0,217042:0:0:0:0:
448,192,216742,1,0,0:0:0:0:
64,192,217042,128,0,217342:0:0:0:0:
320,192,217042,1,0,0:0:0:0:
192,192,217192,1,0,0:0:0:0:
192,192,217342,128,0,217642:0:0:0:0:
448,192,217342,1,0,0:0:0:0:
320,192,217642,128,0,217942:0:0:0:0:
64,192,217642,1,0,0:0:0:0:
448,192,217942,128,0,218242:0:0:0:0:
192,192,217942,1,0,0:0:0:0:
320,192,218242,128,0,218542:0:0:0:0:
64,192,218242,1,0,0:0:0:0:
192,192,218542,128,0,218842:0:0:0:0:
448,192,218542,1,0,0:0:0:0:
64,192,218842,128,0,219142:0:0:0:0:
320,192,218842,1,0,0:0:0:0:
192,192,218992,1,0,0:0:0:0:
192,192,219142,128,0,219442:0:0:0:0:
448,192,219142,1,0,0:0:0:0:
320,192,219442,128,0,219742:0:0:0:0:
64,192,219442,1,0,0:0:0:0:
448,192,219742,128,0,220042:0:0:0:0:
192,192,219742,1,0,0:0:0:0:
320,192,220042,128,0,220342:0:0:0:0:
64,192,220042,1,0,0:0:0:0:
192,192,220342,128,0,220642:0:0:0:0:
448,192,220342,1,0,0:0:0:0:
64,192,220642,128,0,220942:0:0:0:0:
320,192,220642,1,0,0:0:0:0:
192,192,220792,1,0,0:0:0:0:
192,192,220942,128,0,221242:0:0:0:0:
448,192,220942,1,0,0:0:0:0:
320,192,221242,128,0,221542:0:0:0:0:
64,192,221242,1,0,0:0:0:0:
448,192,221542,128,0,221842:0:0:0:0:
192,192,221542,1,0,0:0:0:0:
320,192,221842,128,0,222142:0:0:0:0:
64,192,221842,1,0,0:0:0:0:
192,192,222142,128,0,222442:0:0:0:0:
448,192,222142,1,0,0:0:0:0:
64,192,222442,128,0,222742:0:0:0:0:
320,192,222442,1,0,0:0:0:0:
448,192,222592,1,0,0:0:0:0:
192,192,222742,128,0,223042:0:0:0:0:
320,192,222742,1,0,0:0:0:0:
320,192,223042,128,0,223342:0:0:0:0:
64,192,223042,1,0,0:0:0:0:
448,192,223342,128,0,223642:0:0:0:0:
192,192,223342,1,0,0:0:0:0:
320,192,223642,128,0,223942:0:0:0:0:
64,192,223642,1,0,0:0:0:0:
192,192,223942,128,0,224242:0:0:0:0:
448,192,223942,1,0,0:0:0:0:
64,192,224242,128,0,224542:0:0:0:0:
320,192,224242,1,0,0:0:0:0:
192,192,224392,1,0,0:0:0:0:
192,192,224542,128,0,224842:0:0:0:0:
448,192,224542,1,0,0:0:0:0:
320,192,224842,128,0,225142:0:0:0:0:
64,192,224842,1,0,0:0:0:0:
448,192,225142,128,0,225442:0:0:0:0:
192,192,225142,1,0,0:0:0:0:
320,192,225442,128,0,225742:0:0:0:0:
64,192,225442,1,0,0:0:0:0:
192,192,225742,128,0,226042:0:0:0:0:
448,192,225742,1,0,0:0:0:0:
320,192,225892,1,0,0:0:0:0:
64,192,226042,128,0,226342:0:0:0:0:
448,192,226042,1,0,0:0:0:0:
192,192,226342,128,0,226642:0:0:0:0:
448,192,226342,1,0,0:0:0:0:
320,192,226642,128,0,226942:0:0:0:0:
64,192,226642,1,0,0:0:0:0:
448,192,226942,128,0,227242:0:0:0:0:
192,192,226942,1,0,0:0:0:0:
320,192,227242,128,0,227542:0:0:0:0:
64,192,227242,1,0,0:0:0:0:
192,192,227542,128,0,227842:0:0:0:0:
448,192,227542,1,0,0:0:0:0:
64,192,227692,1,0,0:0:0:0:
64,192,227842,128,0,228142:0:0:0:0:
320,192,227842,1,0,0:0:0:0:
448,192,227992,1,0,0:0:0:0:
192,192,228142,128,0,228442:0:0:0:0:
320,192,228142,1,0,0:0:0:0:
448,192,228292,1,0,0:0:0:0:
320,192,228442,128,0,228742:0:0:0:0:
64,192,228442,1,0,0:0:0:0:
448,192,228592,1,0,0:0:0:0:
448,192,228742,128,0,229042:0:0:0:0:
192,192,228742,1,0,0:0:0:0:
64,192,228892,1,0,0:0:0:0:
192,192,228967,1,0,0:0:0:0:
320,192,229042,128,0,229342:0:0:0:0:
64,192,229192,1,0,0:0:0:0:
448,192,229267,1,0,0:0:0:0:
192,192,229342,128,0,229642:0:0:0:0:
64,192,229642,128,0,229942:0:0:0:0:
320,192,229642,1,0,0:0:0:0:
192,192,229942,128,0,230242:0:0:0:0:
320,192,230242,128,0,230542:0:0:0:0:
448,192,230542,128,0,230842:0:0:0:0:
320,192,230842,128,0,231142:0:0:0:0:
192,192,231142,128,0,231442:0:0:0:0:
64,192,231442,128,0,231742:0:0:0:0:
448,192,231442,1,0,0:0:0:0:
192,192,231742,128,0,232042:0:0:0:0:
320,192,232042,128,0,232342:0:0:0:0:
448,192,232342,128,0,232642:0:0:0:0:
320,192,232642,128,0,232942:0:0:0:0:
64,192,232942,128,0,233167:0:0:0:0:
448,192,232942,1,0,0:0:0:0:
64,192,233242,128,0,233542:0:0:0:0:
448,192,233242,1,0,0:0:0:0:
192,192,233542,128,0,233842:0:0:0:0:
320,192,233842,128,0,234142:0:0:0:0:
448,192,234142,128,0,234442:0:0:0:0:
320,192,234442,128,0,234742:0:0:0:0:
192,192,234742,128,0,235042:0:0:0:0:
64,192,235042,128,0,235342:0:0:0:0:
448,192,235042,128,0,235642:0:0:0:0:
192,192,235342,128,0,235642:0:0:0:0:
64,192,235642,128,0,235942:0:0:0:0:
320,192,235642,1,0,0:0:0:0:
320,192,235942,128,0,236242:0:0:0:0:
448,192,235942,1,0,0:0:0:0:
192,192,236242,128,0,236542:0:0:0:0:
64,192,236542,128,0,236842:0:0:0:0:
192,192,236842,128,0,237142:0:0:0:0:
448,192,236842,1,0,0:0:0:0:
320,192,237142,128,0,237442:0:0:0:0:
192,192,237442,128,0,237742:0:0:0:0:
320,192,237742,128,0,238042:0:0:0:0:
192,192,238042,128,0,238342:0:0:0:0:
320,192,238342,128,0,238642:0:0:0:0:
192,192,238642,128,0,238942:0:0:0:0:
448,192,238642,1,0,0:0:0:0:
320,192,238942,128,0,239242:0:0:0:0:
192,192,239242,128,0,239542:0:0:0:0:
320,192,239542,128,0,239842:0:0:0:0:
192,192,239842,128,0,240142:0:0:0:0:
320,192,240142,128,0,240442:0:0:0:0:
64,192,240142,1,0,0:0:0:0:
192,192,240442,128,0,240742:0:0:0:0:
448,192,240442,1,0,0:0:0:0:
320,192,240742,128,0,241042:0:0:0:0:
64,192,241042,128,0,241342:0:0:0:0:
320,192,241342,128,0,241642:0:0:0:0:
448,192,241642,128,0,241942:0:0:0:0:
192,192,241942,128,0,242242:0:0:0:0:
64,192,242242,128,0,242542:0:0:0:0:
448,192,242242,1,0,0:0:0:0:
320,192,242542,128,0,242842:0:0:0:0:
448,192,242842,128,0,243142:0:0:0:0:
192,192,243142,128,0,243442:0:0:0:0:
320,192,243142,1,0,0:0:0:0:
64,192,243442,128,0,243742:0:0:0:0:
192,192,243742,128,0,244042:0:0:0:0:
448,192,244042,128,0,244267:0:0:0:0:
64,192,244042,1,0,0:0:0:0:
320,192,244117,1,0,0:0:0:0:
192,192,244192,1,0,0:0:0:0:
448,192,244342,128,0,244567:0:0:0:0:
64,192,244342,1,0,0:0:0:0:
320,192,244492,1,0,0:0:0:0:
192,192,244567,1,0,0:0:0:0:
448,192,244642,128,0,244867:0:0:0:0:
64,192,244642,1,0,0:0:0:0:
192,192,244792,1,0,0:0:0:0:
448,192,244942,128,0,245167:0:0:0:0:
64,192,244942,1,0,0:0:0:0:
320,192,245092,1,0,0:0:0:0:
448,192,245242,128,0,245467:0:0:0:0:
192,192,245242,1,0,0:0:0:0:
64,192,245317,1,0,0:0:0:0:
320,192,245392,1,0,0:0:0:0:
448,192,245542,128,0,245767:0:0:0:0:
192,192,245542,1,0,0:0:0:0:
64,192,245542,1,0,0:0:0:0:
320,192,245692,1,0,0:0:0:0:
448,192,245842,128,0,246067:0:0:0:0:
64,192,245842,1,0,0:0:0:0:
192,192,245917,1,0,0:0:0:0:
320,192,245992,1,0,0:0:0:0:
448,192,246142,128,0,246367:0:0:0:0:
192,192,246142,1,0,0:0:0:0:
64,192,246292,1,0,0:0:0:0:
320,192,246292,1,0,0:0:0:0:
448,192,246442,128,0,246667:0:0:0:0:
192,192,246442,1,0,0:0:0:0:
64,192,246517,1,0,0:0:0:0:
320,192,246517,1,0,0:0:0:0:
192,192,246667,1,0,0:0:0:0:
448,192,246742,128,0,246967:0:0:0:0:
64,192,246742,1,0,0:0:0:0:
320,192,246817,1,0,0:0:0:0:
192,192,246892,1,0,0:0:0:0:
64,192,246967,1,0,0:0:0:0:
448,192,247042,128,0,247267:0:0:0:0:
320,192,247042,1,0,0:0:0:0:
192,192,247117,1,0,0:0:0:0:
64,192,247192,1,0,0:0:0:0:
320,192,247267,1,0,0:0:0:0:
448,192,247342,128,0,247567:0:0:0:0:
192,192,247342,1,0,0:0:0:0:
64,192,247342,1,0,0:0:0:0:
320,192,247417,1,0,0:0:0:0:
192,192,247492,1,0,0:0:0:0:
64,192,247567,1,0,0:0:0:0:
448,192,247642,128,0,247867:0:0:0:0:
192,192,247642,1,0,0:0:0:0:
320,192,247717,1,0,0:0:0:0:
64,192,247792,1,0,0:0:0:0:
320,192,247867,1,0,0:0:0:0:
448,192,247942,128,0,248167:0:0:0:0:
64,192,247942,1,0,0:0:0:0:
192,192,248092,1,0,0:0:0:0:
448,192,248242,128,0,248467:0:0:0:0:
320,192,248242,1,0,0:0:0:0:
192,192,248392,1,0,0:0:0:0:
448,192,248542,128,0,248767:0:0:0:0:
64,192,248542,1,0,0:0:0:0:
192,192,248692,1,0,0:0:0:0:
320,192,248842,128,0,249067:0:0:0:0:
192,192,248842,1,0,0:0:0:0:
64,192,248917,1,0,0:0:0:0:
448,192,248992,1,0,0:0:0:0:
192,192,249142,128,0,249367:0:0:0:0:
320,192,249142,1,0,0:0:0:0:
64,192,249217,1,0,0:0:0:0:
448,192,249292,1,0,0:0:0:0:
64,192,249442,128,0,249667:0:0:0:0:
192,192,249442,1,0,0:0:0:0:
448,192,249592,1,0,0:0:0:0:
64,192,249742,128,0,249967:0:0:0:0:
320,192,249742,1,0,0:0:0:0:
192,192,249892,1,0,0:0:0:0:
64,192,250042,128,0,250267:0:0:0:0:
448,192,250042,1,0,0:0:0:0:
320,192,250117,1,0,0:0:0:0:
192,192,250192,1,0,0:0:0:0:
448,192,250267,1,0,0:0:0:0:
64,192,250342,128,0,250567:0:0:0:0:
192,192,250342,1,0,0:0:0:0:
448,192,250492,1,0,0:0:0:0:
64,192,250642,128,0,250867:0:0:0:0:
320,192,250642,1,0,0:0:0:0:
192,192,250792,1,0,0:0:0:0:
192,192,250942,128,0,251167:0:0:0:0:
448,192,250942,1,0,0:0:0:0:
320,192,251092,1,0,0:0:0:0:
320,192,251242,128,0,251467:0:0:0:0:
64,192,251242,1,0,0:0:0:0:
448,192,251317,1,0,0:0:0:0:
192,192,251392,1,0,0:0:0:0:
448,192,251542,128,0,251767:0:0:0:0:
64,192,251542,1,0,0:0:0:0:
192,192,251692,1,0,0:0:0:0:
192,192,251842,128,0,252067:0:0:0:0:
320,192,251842,1,0,0:0:0:0:
64,192,251917,1,0,0:0:0:0:
448,192,251992,1,0,0:0:0:0:
448,192,252142,128,0,252367:0:0:0:0:
64,192,252142,1,0,0:0:0:0:
320,192,252142,1,0,0:0:0:0:
192,192,252292,1,0,0:0:0:0:
64,192,252442,128,0,252667:0:0:0:0:
192,192,252442,1,0,0:0:0:0:
320,192,252517,1,0,0:0:0:0:
448,192,252592,1,0,0:0:0:0:
320,192,252742,128,0,252967:0:0:0:0:
448,192,252742,1,0,0:0:0:0:
192,192,252742,1,0,0:0:0:0:
64,192,252892,1,0,0:0:0:0:
64,192,253042,128,0,253267:0:0:0:0:
192,192,253042,1,0,0:0:0:0:
320,192,253192,1,0,0:0:0:0:
448,192,253342,128,0,253567:0:0:0:0:
320,192,253342,1,0,0:0:0:0:
192,192,253492,1,0,0:0:0:0:
64,192,253642,128,0,253867:0:0:0:0:
320,192,253642,1,0,0:0:0:0:
448,192,253717,1,0,0:0:0:0:
192,192,253792,1,0,0:0:0:0:
320,192,253867,1,0,0:0:0:0:
448,192,253942,128,0,254167:0:0:0:0:
64,192,253942,1,0,0:0:0:0:
192,192,254092,1,0,0:0:0:0:
320,192,254167,1,0,0:0:0:0:
64,192,254242,128,0,254467:0:0:0:0:
448,192,254242,1,0,0:0:0:0:
192,192,254392,1,0,0:0:0:0:
320,192,254542,128,0,254767:0:0:0:0:
448,192,254542,1,0,0:0:0:0:
64,192,254692,1,0,0:0:0:0:
64,192,254842,128,0,255067:0:0:0:0:
192,192,254842,1,0,0:0:0:0:
448,192,254992,1,0,0:0:0:0:
192,192,255142,128,0,255367:0:0:0:0:
320,192,255142,1,0,0:0:0:0:
448,192,255292,1,0,0:0:0:0:
64,192,255442,128,0,255667:0:0:0:0:
320,192,255442,1,0,0:0:0:0:
192,192,255592,1,0,0:0:0:0:
192,192,255742,128,0,255967:0:0:0:0:
320,192,255742,1,0,0:0:0:0:
448,192,255892,1,0,0:0:0:0:
64,192,256042,128,0,256267:0:0:0:0:
320,192,256042,1,0,0:0:0:0:
192,192,256192,1,0,0:0:0:0:
192,192,256342,128,0,256567:0:0:0:0:
448,192,256342,1,0,0:0:0:0:
448,192,256492,1,0,0:0:0:0:
64,192,256642,128,0,256867:0:0:0:0:
320,192,256642,1,0,0:0:0:0:
448,192,256792,1,0,0:0:0:0:
192,192,256942,128,0,257167:0:0:0:0:
448,192,256942,1,0,0:0:0:0:
320,192,257092,1,0,0:0:0:0:
64,192,257242,128,0,257467:0:0:0:0:
192,192,257242,1,0,0:0:0:0:
448,192,257392,1,0,0:0:0:0:
192,192,257542,128,0,257767:0:0:0:0:
320,192,257542,1,0,0:0:0:0:
64,192,257842,128,0,258067:0:0:0:0:
448,192,257842,1,0,0:0:0:0:
192,192,257992,1,0,0:0:0:0:
192,192,258142,128,0,258367:0:0:0:0:
320,192,258142,1,0,0:0:0:0:
448,192,258292,1,0,0:0:0:0:
64,192,258442,128,0,258667:0:0:0:0:
320,192,258442,128,0,258667:0:0:0:0:
192,192,258442,1,0,0:0:0:0:
448,192,258742,128,0,258967:0:0:0:0:
320,192,258742,1,0,0:0:0:0:
192,192,259042,128,0,259267:0:0:0:0:
448,192,259042,1,0,0:0:0:0:
320,192,259342,128,0,259567:0:0:0:0:
64,192,259342,1,0,0:0:0:0:
192,192,259642,128,0,259867:0:0:0:0:
320,192,259642,1,0,0:0:0:0:
320,192,259942,128,0,260167:0:0:0:0:
448,192,259942,1,0,0:0:0:0:
192,192,260242,128,0,260467:0:0:0:0:
64,192,260242,1,0,0:0:0:0:
320,192,260542,128,0,260767:0:0:0:0:
192,192,260542,1,0,0:0:0:0:
192,192,260842,128,0,261067:0:0:0:0:
448,192,260842,1,0,0:0:0:0:
64,192,261142,128,0,261367:0:0:0:0:
320,192,261442,128,0,261667:0:0:0:0:
448,192,261442,1,0,0:0:0:0:
192,192,261742,128,0,261967:0:0:0:0:
64,192,262042,128,0,262267:0:0:0:0:
320,192,262042,1,0,0:0:0:0:
320,192,262342,128,0,262567:0:0:0:0:
64,192,262342,1,0,0:0:0:0:
448,192,262642,128,0,262867:0:0:0:0:
192,192,262642,1,0,0:0:0:0:
192,192,262942,128,0,263167:0:0:0:0:
320,192,262942,1,0,0:0:0:0:
320,192,263242,128,0,263467:0:0:0:0:
64,192,263242,1,0,0:0:0:0:
448,192,263542,128,0,263767:0:0:0:0:
192,192,263542,1,0,0:0:0:0:
64,192,263842,128,0,264067:0:0:0:0:
320,192,263842,1,0,0:0:0:0:
192,192,264142,128,0,264367:0:0:0:0:
448,192,264142,1,0,0:0:0:0:
320,192,264442,128,0,264667:0:0:0:0:
64,192,264442,1,0,0:0:0:0:
192,192,264742,128,0,264967:0:0:0:0:
448,192,264742,1,0,0:0:0:0:
320,192,265042,128,0,265267:0:0:0:0:
64,192,265042,1,0,0:0:0:0:
448,192,265342,128,0,265567:0:0:0:0:
192,192,265342,1,0,0:0:0:0:
64,192,265642,128,0,265867:0:0:0:0:
320,192,265642,1,0,0:0:0:0:
192,192,265942,128,0,266167:0:0:0:0:
448,192,265942,1,0,0:0:0:0:
64,192,266242,128,0,266467:0:0:0:0:
320,192,266242,1,0,0:0:0:0:
192,192,266542,128,0,266767:0:0:0:0:
448,192,266542,1,0,0:0:0:0:
64,192,266842,128,0,267067:0:0:0:0:
320,192,266842,1,0,0:0:0:0:
192,192,267142,128,0,267367:0:0:0:0:
448,192,267142,1,0,0:0:0:0:
64,192,267442,128,0,267667:0:0:0:0:
320,192,267442,1,0,0:0:0:0:
192,192,267742,128,0,267967:0:0:0:0:
448,192,267742,1,0,0:0:0:0:
64,192,268042,128,0,268267:0:0:0:0:
320,192,268042,1,0,0:0:0:0:
192,192,268342,128,0,268567:0:0:0:0:
448,192,268342,1,0,0:0:0:0:
64,192,268642,128,0,268867:0:0:0:0:
320,192,268642,1,0,0:0:0:0:
192,192,268942,128,0,269167:0:0:0:0:
448,192,268942,1,0,0:0:0:0:
64,192,269242,128,0,269467:0:0:0:0:
320,192,269242,1,0,0:0:0:0:
320,192,269542,128,0,269767:0:0:0:0:
192,192,269542,1,0,0:0:0:0:
192,192,269842,128,0,270067:0:0:0:0:
64,192,269842,1,0,0:0:0:0:
448,192,270142,128,0,270367:0:0:0:0:
320,192,270142,1,0,0:0:0:0:
64,192,270442,128,0,270667:0:0:0:0:
192,192,270442,1,0,0:0:0:0:
320,192,270742,128,0,270967:0:0:0:0:
448,192,270742,1,0,0:0:0:0:
192,192,270892,1,0,0:0:0:0:
192,192,271042,128,0,271267:0:0:0:0:
64,192,271042,1,0,0:0:0:0:
448,192,271192,1,0,0:0:0:0:
320,192,271342,128,0,271567:0:0:0:0:
64,192,271342,1,0,0:0:0:0:
448,192,271642,128,0,271867:0:0:0:0:
64,192,271642,1,0,0:0:0:0:
64,192,271942,128,0,272167:0:0:0:0:
192,192,271942,1,0,0:0:0:0:
448,192,272092,1,0,0:0:0:0:
192,192,272242,128,0,272467:0:0:0:0:
320,192,272242,1,0,0:0:0:0:
64,192,272392,1,0,0:0:0:0:
320,192,272542,128,0,272767:0:0:0:0:
448,192,272542,1,0,0:0:0:0:
192,192,272692,1,0,0:0:0:0:
448,192,272842,128,0,273067:0:0:0:0:
64,192,272842,1,0,0:0:0:0:
448,192,273142,128,0,273367:0:0:0:0:
192,192,273142,1,0,0:0:0:0:
448,192,273442,128,0,273667:0:0:0:0:
320,192,273442,1,0,0:0:0:0:
448,192,273742,128,0,273967:0:0:0:0:
64,192,273742,1,0,0:0:0:0:
320,192,273742,1,0,0:0:0:0:
448,192,274042,128,0,274267:0:0:0:0:
192,192,274042,1,0,0:0:0:0:
448,192,274342,128,0,274567:0:0:0:0:
320,192,274342,1,0,0:0:0:0:
448,192,274642,128,0,274867:0:0:0:0:
64,192,274642,1,0,0:0:0:0:
448,192,274942,128,0,275167:0:0:0:0:
192,192,274942,1,0,0:0:0:0:
448,192,275242,128,0,275467:0:0:0:0:
320,192,275242,1,0,0:0:0:0:
448,192,275542,128,0,275767:0:0:0:0:
64,192,275542,1,0,0:0:0:0:
320,192,275542,1,0,0:0:0:0:
448,192,275842,128,0,276067:0:0:0:0:
192,192,275842,1,0,0:0:0:0:
448,192,276142,128,0,276367:0:0:0:0:
320,192,276142,1,0,0:0:0:0:
448,192,276442,128,0,276667:0:0:0:0:
64,192,276442,1,0,0:0:0:0:
448,192,276742,128,0,276967:0:0:0:0:
192,192,276742,1,0,0:0:0:0:
448,192,277042,128,0,277267:0:0:0:0:
320,192,277042,1,0,0:0:0:0:
448,192,277342,128,0,277567:0:0:0:0:
64,192,277342,1,0,0:0:0:0:
320,192,277342,1,0,0:0:0:0:
320,192,277642,128,0,277867:0:0:0:0:
192,192,277642,1,0,0:0:0:0:
192,192,277942,128,0,278167:0:0:0:0:
448,192,277942,1,0,0:0:0:0:
64,192,278092,1,0,0:0:0:0:
448,192,278167,1,0,0:0:0:0:
64,192,278242,128,0,278467:0:0:0:0:
320,192,278242,1,0,0:0:0:0:
448,192,278392,1,0,0:0:0:0:
320,192,278542,128,0,278767:0:0:0:0:
192,192,278542,1,0,0:0:0:0:
64,192,278692,1,0,0:0:0:0:
64,192,278842,128,0,279067:0:0:0:0:
448,192,278842,1,0,0:0:0:0:
192,192,279142,128,0,279367:0:0:0:0:
320,192,279142,1,0,0:0:0:0:
320,192,279442,128,0,279667:0:0:0:0:
64,192,279442,1,0,0:0:0:0:
192,192,279592,1,0,0:0:0:0:
64,192,279742,128,0,280042:0:0:0:0:
448,192,279742,1,0,0:0:0:0:
320,192,280042,128,0,280342:0:0:0:0:
192,192,280042,1,0,0:0:0:0:
448,192,280342,128,0,280642:0:0:0:0:
64,192,280342,1,0,0:0:0:0:
192,192,280642,128,0,280942:0:0:0:0:
320,192,280642,1,0,0:0:0:0:
320,192,280942,128,0,281242:0:0:0:0:
448,192,280942,1,0,0:0:0:0:
64,192,280942,1,0,0:0:0:0:
64,192,281242,128,0,281542:0:0:0:0:
192,192,281242,1,0,0:0:0:0:
320,192,281542,128,0,281842:0:0:0:0:
448,192,281542,1,0,0:0:0:0:
64,192,281842,128,0,282142:0:0:0:0:
192,192,281842,1,0,0:0:0:0:
448,192,282142,128,0,282442:0:0:0:0:
320,192,282142,1,0,0:0:0:0:
64,192,282442,128,0,282742:0:0:0:0:
192,192,282442,1,0,0:0:0:0:
320,192,282742,128,0,283042:0:0:0:0:
448,192,282742,1,0,0:0:0:0:
192,192,282742,1,0,0:0:0:0:
64,192,283042,128,0,283342:0:0:0:0:
192,192,283042,1,0,0:0:0:0:
192,192,283342,128,0,283642:0:0:0:0:
320,192,283342,1,0,0:0:0:0:
64,192,283642,128,0,283942:0:0:0:0:
448,192,283642,1,0,0:0:0:0:
320,192,283942,128,0,284242:0:0:0:0:
192,192,283942,1,0,0:0:0:0:
192,192,284242,128,0,284542:0:0:0:0:
64,192,284242,1,0,0:0:0:0:
320,192,284542,128,0,284842:0:0:0:0:
448,192,284542,1,0,0:0:0:0:
64,192,284542,1,0,0:0:0:0:
192,192,284842,128,0,285142:0:0:0:0:
64,192,284842,1,0,0:0:0:0:
320,192,285142,128,0,285442:0:0:0:0:
448,192,285142,1,0,0:0:0:0:
64,192,285292,1,0,0:0:0:0:
448,192,285367,1,0,0:0:0:0:
192,192,285442,128,0,285742:0:0:0:0:
64,192,285592,1,0,0:0:0:0:
320,192,285742,128,0,286042:0:0:0:0:
448,192,285742,1,0,0:0:0:0:
64,192,285892,1,0,0:0:0:0:
192,192,286042,128,0,286342:0:0:0:0:
448,192,286042,1,0,0:0:0:0:
320,192,286342,128,0,286642:0:0:0:0:
448,192,286342,1,0,0:0:0:0:
64,192,286567,1,0,0:0:0:0:
192,192,286642,128,0,286942:0:0:0:0:
448,192,286642,1,0,0:0:0:0:
64,192,286792,1,0,0:0:0:0:
448,192,286867,1,0,0:0:0:0:
320,192,286942,128,0,287242:0:0:0:0:
64,192,287242,128,0,287542:0:0:0:0:
448,192,287242,1,0,0:0:0:0:
448,192,287542,128,0,287842:0:0:0:0:
320,192,287542,1,0,0:0:0:0:
64,192,287842,128,0,288142:0:0:0:0:
192,192,287842,1,0,0:0:0:0:
448,192,288142,128,0,288442:0:0:0:0:
320,192,288142,1,0,0:0:0:0:
64,192,288442,128,0,288742:0:0:0:0:
192,192,288442,1,0,0:0:0:0:
448,192,288742,128,0,289042:0:0:0:0:
192,192,288742,1,0,0:0:0:0:
64,192,289042,128,0,289342:0:0:0:0:
192,192,289042,1,0,0:0:0:0:
448,192,289342,128,0,289642:0:0:0:0:
320,192,289342,1,0,0:0:0:0:
64,192,289642,128,0,289942:0:0:0:0:
192,192,289642,1,0,0:0:0:0:
320,192,289942,128,0,290242:0:0:0:0:
448,192,289942,1,0,0:0:0:0:
64,192,290242,128,0,290542:0:0:0:0:
192,192,290242,1,0,0:0:0:0:
320,192,290542,128,0,290842:0:0:0:0:
192,192,290542,1,0,0:0:0:0:
192,192,290842,128,0,291142:0:0:0:0:
448,192,290842,1,0,0:0:0:0:
448,192,291142,128,0,291442:0:0:0:0:
64,192,291142,1,0,0:0:0:0:
192,192,291442,128,0,291742:0:0:0:0:
320,192,291442,1,0,0:0:0:0:
448,192,291742,128,0,292042:0:0:0:0:
320,192,291742,1,0,0:0:0:0:
192,192,292042,128,0,292342:0:0:0:0:
64,192,292042,1,0,0:0:0:0:
448,192,292342,128,0,292642:0:0:0:0:
320,192,292342,1,0,0:0:0:0:
64,192,292492,1,0,0:0:0:0:
320,192,292567,1,0,0:0:0:0:
192,192,292642,128,0,292942:0:0:0:0:
64,192,292792,1,0,0:0:0:0:
448,192,292942,128,0,293242:0:0:0:0:
320,192,292942,1,0,0:0:0:0:
64,192,293092,1,0,0:0:0:0:
64,192,293242,128,0,293542:0:0:0:0:
192,192,293242,1,0,0:0:0:0:
320,192,293542,128,0,293842:0:0:0:0:
192,192,293542,1,0,0:0:0:0:
192,192,293842,128,0,294142:0:0:0:0:
64,192,293842,1,0,0:0:0:0:
320,192,293992,1,0,0:0:0:0:
448,192,294142,128,0,294442:0:0:0:0:
64,192,294142,1,0,0:0:0:0:
64,192,294442,128,0,294742:0:0:0:0:
192,192,294442,1,0,0:0:0:0:
320,192,294742,128,0,295042:0:0:0:0:
448,192,294742,1,0,0:0:0:0:
192,192,295042,128,0,295342:0:0:0:0:
64,192,295042,1,0,0:0:0:0:
320,192,295342,128,0,295642:0:0:0:0:
448,192,295342,1,0,0:0:0:0:
64,192,295342,1,0,0:0:0:0:
64,192,295642,128,0,295942:0:0:0:0:
192,192,295642,1,0,0:0:0:0:
320,192,295942,128,0,296242:0:0:0:0:
448,192,295942,1,0,0:0:0:0:
192,192,296242,128,0,296542:0:0:0:0:
64,192,296242,1,0,0:0:0:0:
64,192,296542,128,0,296842:0:0:0:0:
448,192,296542,1,0,0:0:0:0:
320,192,296842,128,0,297142:0:0:0:0:
192,192,296842,1,0,0:0:0:0:
192,192,297142,128,0,297442:0:0:0:0:
64,192,297142,1,0,0:0:0:0:
448,192,297142,1,0,0:0:0:0:
320,192,297442,128,0,297742:0:0:0:0:
448,192,297442,1,0,0:0:0:0:
192,192,297742,128,0,298042:0:0:0:0:
64,192,297742,1,0,0:0:0:0:
64,192,298042,128,0,298342:0:0:0:0:
448,192,298042,1,0,0:0:0:0:
320,192,298342,128,0,298642:0:0:0:0:
192,192,298342,1,0,0:0:0:0:
448,192,298642,128,0,298942:0:0:0:0:
64,192,298642,1,0,0:0:0:0:
320,192,298942,128,0,299242:0:0:0:0:
192,192,298942,1,0,0:0:0:0:
64,192,298942,1,0,0:0:0:0:
64,192,299242,128,0,299542:0:0:0:0:
448,192,299242,1,0,0:0:0:0:
192,192,299542,128,0,299842:0:0:0:0:
320,192,299542,1,0,0:0:0:0:
64,192,299692,1,0,0:0:0:0:
448,192,299767,1,0,0:0:0:0:
320,192,299842,128,0,300067:0:0:0:0:
64,192,299992,1,0,0:0:0:0:
320,192,300142,128,0,300367:0:0:0:0:
448,192,300142,1,0,0:0:0:0:
192,192,300292,1,0,0:0:0:0:
320,192,300442,128,0,300742:0:0:0:0:
64,192,300442,1,0,0:0:0:0:
192,192,300742,128,0,301042:0:0:0:0:
448,192,300742,1,0,0:0:0:0:
448,192,300967,1,0,0:0:0:0:
64,192,301042,128,0,301342:0:0:0:0:
320,192,301042,1,0,0:0:0:0:
448,192,301192,1,0,0:0:0:0:
192,192,301342,128,0,301642:0:0:0:0:
320,192,301342,1,0,0:0:0:0:
448,192,301642,128,0,312442:0:0:0:0:
