osu file format v14

[General]
AudioFilename: audio.mp3
AudioLeadIn: 0
PreviewTime: 66200
Countdown: 0
SampleSet: Soft
StackLeniency: 0.7
Mode: 2
LetterboxInBreaks: 0
WidescreenStoryboard: 1

[Editor]
Bookmarks: 115942
DistanceSpacing: 0.7
BeatDivisor: 8
GridSize: 4
TimelineZoom: 2.9

[Metadata]
Title:Pavor Nocturnus
TitleUnicode:Pavor Nocturnus
Artist:Igorrr
ArtistUnicode:Igorrr
Creator:Spectator
Version:specfanboy's Rain
Source:
Tags:razor sharp arthas autofanboy alienflybot afb secre chickenbible electronic other constructed language instrumental breakcore nostril gautier serre Öxxö Xööx Oxxo Xoox
BeatmapID:2899664
BeatmapSetID:1334111

[Difficulty]
HPDrainRate:5
CircleSize:3.9
OverallDifficulty:9
ApproachRate:9
SliderMultiplier:1.92
SliderTickRate:2

[Events]
//Background and Video events
0,0,"Autumn Landscape at Dusk.jpg",0,0
//Break Periods
//Storyboard Layer 0 (Background)
//Storyboard Layer 1 (Fail)
//Storyboard Layer 2 (Pass)
//Storyboard Layer 3 (Foreground)
//Storyboard Layer 4 (Overlay)
//Storyboard Sound Samples

[TimingPoints]
80,344.827586206897,6,2,1,40,1,0
8355,-100,6,2,1,45,0,0
14562,-100,6,2,1,50,0,0
15597,-100,6,2,1,55,0,0
16631,-100,6,2,1,60,0,0
49735,-100,6,2,1,70,0,0
99390,-100,6,2,1,70,0,1
115942,-100,6,2,1,40,0,0
132493,-100,6,2,1,55,0,0
149045,-100,6,2,1,70,0,0
150942,-100,6,2,1,70,0,0
166631,-100,6,2,1,70,0,1
181114,-100,6,2,1,70,0,1
182148,-100,6,2,1,70,0,1
198700,-100,6,2,1,60,0,0
215597,-100,6,2,1,70,0,1
228700,-100,6,2,1,70,0,1
231804,-100,6,2,2,70,0,0

[Colours]
Combo1 : 158,163,159
Combo2 : 224,166,95
Combo3 : 182,109,119

[HitObjects]
364,356,80,5,0,3:1:0:0:
444,308,252,1,0,0:0:0:0:
476,220,424,1,0,0:0:0:0:
444,132,597,1,0,0:0:0:0:
364,84,769,1,0,0:0:0:0:
268,80,942,1,0,0:0:0:0:
436,344,1114,6,0,L|444:152,1,192,8|0,0:0|0:0,0:0:0:0:
276,224,1631,2,0,L|272:128,1,96
368,124,1976,1,0,0:0:0:0:
136,292,2148,6,0,L|40:288,2,96,0|0|0,3:0|3:0|0:0,0:0:0:0:
308,360,2666,2,0,L|404:356,2,96,0|0|0,3:0|0:0|0:0,0:0:0:0:
136,292,3183,6,0,L|132:196,1,96,8|0,0:0|0:0,0:0:0:0:
300,228,3528,2,0,L|300:132,1,96
468,164,3873,2,0,L|472:68,1,96
240,0,4217,5,0,3:0:0:0:
208,88,4389,1,0,0:0:0:0:
240,176,4562,1,0,0:0:0:0:
320,224,4735,2,0,L|416:228,2,96,0|0|0,3:0|0:0|0:0,0:0:0:0:
152,292,5252,6,0,L|344:300,1,192,8|0,0:0|0:0,0:0:0:0:
176,368,5769,2,0,L|80:372,2,96
408,300,6286,6,0,L|412:204,1,96,0|0,3:0|3:0,0:0:0:0:
316,200,6631,1,0,0:0:0:0:
148,132,6804,2,0,L|144:36,1,96,0|0,3:0|0:0,0:0:0:0:
240,32,7148,1,0,0:0:0:0:
72,100,7321,1,8,0:0:0:0:
240,168,7493,5,0,0:0:0:0:
144,204,7666,2,0,L|124:248,2,48
312,280,8011,2,0,L|332:324,2,48
76,356,8355,6,0,L|72:260,1,96,0|0,3:0|0:0,0:0:0:0:
240,320,8700,1,0,0:0:0:0:
280,276,8787,1,0,0:0:0:0:
280,220,8872,1,0,0:0:0:0:
240,176,8959,1,0,0:0:0:0:
184,168,9044,1,0,0:0:0:0:
144,124,9131,1,0,0:0:0:0:
144,68,9216,1,0,0:0:0:0:
184,24,9303,1,0,0:0:0:0:
304,96,9390,5,8,0:0:0:0:
360,100,9476,1,0,0:0:0:0:
304,96,9562,1,0,0:0:0:0:
136,168,9735,1,0,0:0:0:0:
80,172,9821,1,0,0:0:0:0:
136,168,9907,1,0,0:0:0:0:
384,316,10080,2,0,L|388:220,1,96
156,188,10424,5,0,3:0:0:0:
252,184,10597,2,0,L|256:88,1,96,0|0,3:0|0:0,0:0:0:0:
88,128,10942,2,0,L|84:32,1,96,0|0,3:0|0:0,0:0:0:0:
180,28,11286,1,0,0:0:0:0:
412,64,11459,5,8,0:0:0:0:
400,116,11545,1,0,0:0:0:0:
368,156,11631,1,0,0:0:0:0:
320,176,11717,1,0,0:0:0:0:
264,180,11804,1,0,0:0:0:0:
360,248,11976,6,0,L|364:296,1,48
248,328,12148,2,0,L|244:280,1,48
308,248,12321,2,0,L|312:200,1,48
140,376,12493,5,0,3:0:0:0:
60,328,12665,1,0,0:0:0:0:
28,240,12837,1,0,0:0:0:0:
60,152,13010,1,0,0:0:0:0:
140,104,13182,1,0,0:0:0:0:
188,100,13269,2,0,L|92:96,1,96
252,168,13528,6,0,L|348:160,1,96,8|0,0:0|0:0,0:0:0:0:
352,112,13786,1,0,0:0:0:0:
256,88,13959,2,0,L|252:40,1,48
420,292,14217,1,0,0:0:0:0:
436,244,14303,1,0,0:0:0:0:
420,196,14390,1,0,0:0:0:0:
380,164,14476,1,0,0:0:0:0:
200,360,14562,6,0,L|104:352,2,96,0|0|0,3:0|3:0|0:0,0:0:0:0:
32,284,15080,2,0,L|128:276,1,96
292,204,15424,1,0,0:0:0:0:
60,136,15597,5,0,3:0:0:0:
20,168,15683,1,0,0:0:0:0:
4,216,15769,1,0,2:0:0:0:
20,264,15856,1,0,0:0:0:0:
60,296,15942,1,0,2:0:0:0:
116,300,16028,1,0,0:0:0:0:
292,364,16114,5,0,3:0:0:0:
280,312,16200,1,0,0:0:0:0:
248,272,16286,1,0,2:0:0:0:
200,252,16372,1,0,0:0:0:0:
380,188,16459,1,0,3:0:0:0:
436,184,16545,1,0,0:0:0:0:
260,120,16631,6,0,L|164:116,2,96,4|0|0,3:2|0:0|0:0,0:0:0:0:
428,152,17148,2,0,L|432:56,1,96,0|0,3:0|0:0,0:0:0:0:
336,52,17493,1,0,0:0:0:0:
104,120,17666,6,0,P|48:196|112:236,1,192,8|0,0:0|3:0,0:0:0:0:
280,308,18183,2,0,L|376:304,2,96
448,236,18700,5,0,3:0:0:0:
280,308,18873,2,0,L|272:116,1,192,0|0,3:0|3:0,0:0:0:0:
368,112,19390,2,0,L|372:16,1,96
140,84,19735,6,0,L|44:88,1,96,8|0,0:0|0:0,0:0:0:0:
212,156,20080,1,0,0:0:0:0:
252,188,20165,1,0,0:0:0:0:
268,236,20251,1,0,0:0:0:0:
252,284,20338,1,0,0:0:0:0:
212,316,20424,2,0,L|116:312,1,96
348,244,20769,6,0,L|444:240,2,96,0|0|0,3:0|0:0|0:0,0:0:0:0:
180,176,21286,2,0,L|176:80,1,96,0|0,3:0|0:0,0:0:0:0:
272,76,21631,1,0,0:0:0:0:
40,8,21804,6,0,P|60:80|160:128,1,192,8|0,0:0|0:0,0:0:0:0:
328,196,22321,2,0,L|424:200,2,96
160,264,22838,5,0,3:0:0:0:
328,196,23011,2,0,L|336:4,1,192,0|0,3:0|3:0,0:0:0:0:
240,8,23528,2,0,L|236:104,1,96
468,172,23873,6,0,L|372:176,1,96,8|0,0:0|0:0,0:0:0:0:
208,244,24217,2,0,L|204:292,1,48
268,296,24390,2,0,L|272:344,1,48
156,380,24562,1,0,0:0:0:0:
140,332,24649,1,0,0:0:0:0:
156,284,24735,1,0,0:0:0:0:
196,252,24820,1,0,0:0:0:0:
352,220,24907,6,0,L|448:216,2,96,4|0|0,3:2|0:0|2:0,0:0:0:0:
184,152,25424,2,0,L|88:148,2,96,0|0|0,3:0|0:0|0:0,0:0:0:0:
416,84,25942,6,0,P|472:160|408:200,1,192,8|0,0:0|0:0,0:0:0:0:
240,268,26459,1,0,2:0:0:0:
336,272,26631,2,0,L|340:368,1,96,0|0,2:0|0:0,0:0:0:0:
172,304,26976,1,0,3:0:0:0:
340,240,27148,6,0,P|440:192|460:120,1,192,0|0,3:0|3:0,0:0:0:0:
364,52,27666,2,0,L|460:48,1,96
228,116,28011,6,0,L|132:120,1,96,8|0,0:0|0:0,0:0:0:0:
130,168,28269,1,0,3:0:0:0:
128,216,28355,1,0,0:0:0:0:
296,284,28528,2,0,L|300:188,1,96,0|0,3:0|2:0,0:0:0:0:
252,186,28787,1,0,3:0:0:0:
204,184,28873,1,0,2:0:0:0:
436,252,29045,6,0,L|440:156,1,96,0|0,3:0|0:0,0:0:0:0:
344,152,29390,1,0,0:0:0:0:
176,84,29562,1,0,3:0:0:0:
272,80,29735,1,0,0:0:0:0:
368,76,29907,1,0,0:0:0:0:
132,8,30080,6,0,P|32:56|12:128,1,192,8|0,0:0|0:0,0:0:0:0:
180,196,30597,1,0,0:0:0:0:
84,200,30769,2,0,L|80:296,1,96
248,364,31114,5,0,3:0:0:0:
296,362,31200,1,0,0:0:0:0:
344,360,31286,1,0,3:0:0:0:
248,292,31459,1,0,0:0:0:0:
416,224,31631,2,0,L|512:220,2,96,0|0|0,3:0|0:0|0:0,0:0:0:0:
368,220,32062,1,0,0:0:0:0:
212,188,32148,6,0,L|164:184,2,48,8|0|0,0:0|0:0|0:0,0:0:0:0:
380,252,32493,1,0,0:0:0:0:
428,232,32579,1,0,0:0:0:0:
460,192,32665,1,0,0:0:0:0:
472,140,32751,1,0,0:0:0:0:
460,88,32839,1,0,0:0:0:0:
428,48,32925,1,0,0:0:0:0:
380,28,33011,1,0,0:0:0:0:
324,24,33097,1,0,0:0:0:0:
132,96,33183,6,0,L|128:192,1,96,4|0,3:2|0:0,0:0:0:0:
224,196,33528,1,0,0:0:0:0:
392,264,33700,2,0,L|488:268,2,96,0|0|0,3:0|0:0|0:0,0:0:0:0:
160,332,34217,6,0,P|180:260|280:212,1,192,8|0,0:0|0:0,0:0:0:0:
112,144,34735,2,0,L|108:48,1,96
204,44,35080,1,0,0:0:0:0:
372,112,35252,5,0,3:0:0:0:
204,44,35424,2,0,P|104:92|84:164,1,192,0|0,3:0|3:0,0:0:0:0:
180,232,35942,2,0,L|84:236,1,96
316,304,36286,6,0,L|412:300,1,96,8|0,0:0|0:0,0:0:0:0:
244,232,36631,2,0,L|240:184,1,48
304,180,36804,2,0,L|308:132,1,48
244,96,36976,2,0,L|148:92,1,96
380,20,37321,6,0,L|476:24,2,96,0|0|0,3:0|0:0|0:0,0:0:0:0:
212,92,37838,2,0,L|208:188,1,96,0|0,3:0|0:0,0:0:0:0:
304,192,38183,1,0,0:0:0:0:
72,260,38355,6,0,L|264:268,1,192,8|0,0:0|0:0,0:0:0:0:
96,340,38873,2,0,L|92:244,1,96
188,240,39217,1,0,0:0:0:0:
356,308,39390,5,0,3:0:0:0:
188,240,39562,2,0,P|208:168|308:120,1,192,0|0,3:0|3:0,0:0:0:0:
404,124,40080,2,0,L|408:28,1,96
176,96,40424,6,0,L|172:192,1,96,8|0,0:0|0:0,0:0:0:0:
340,124,40770,1,0,0:0:0:0:
356,172,40855,1,0,0:0:0:0:
340,220,40943,1,0,0:0:0:0:
300,252,41028,1,0,0:0:0:0:
184,288,41114,1,0,0:0:0:0:
128,292,41200,1,0,0:0:0:0:
184,324,41286,1,0,0:0:0:0:
240,328,41373,1,0,0:0:0:0:
64,360,41459,6,0,L|60:264,1,96,4|0,3:2|0:0,0:0:0:0:
156,260,41804,1,0,0:0:0:0:
324,192,41976,1,0,3:0:0:0:
228,188,42148,1,0,0:0:0:0:
132,184,42321,1,0,0:0:0:0:
364,116,42493,6,0,P|464:164|484:236,1,192,8|0,0:0|0:0,0:0:0:0:
316,304,43011,1,0,0:0:0:0:
412,308,43183,2,0,L|416:212,1,96,0|0,3:0|0:0,0:0:0:0:
248,144,43528,5,0,3:0:0:0:
80,72,43700,2,0,L|272:64,1,192,0|0,3:0|3:0,0:0:0:0:
176,136,44217,2,0,L|172:232,1,96
404,300,44562,6,0,L|500:296,1,96,8|0,0:0|0:0,0:0:0:0:
452,298,44821,1,0,3:0:0:0:
404,300,44907,1,0,0:0:0:0:
236,232,45080,2,0,L|332:228,1,96,0|0,3:0|0:0,0:0:0:0:
352,184,45338,2,0,L|332:228,1,48,0|0,3:0|0:0,0:0:0:0:
100,296,45597,6,0,L|92:200,1,96
188,196,45942,1,0,0:0:0:0:
356,128,46114,2,0,L|360:32,1,96,0|0,3:0|0:0,0:0:0:0:
264,28,46459,1,0,0:0:0:0:
496,96,46631,6,0,L|304:104,1,192,8|0,0:0|0:0,0:0:0:0:
136,172,47148,2,0,L|132:268,1,96
228,272,47493,1,0,0:0:0:0:
60,336,47666,5,0,3:0:0:0:
228,272,47838,2,0,L|36:264,1,192,0|0,3:0|3:0,0:0:0:0:
132,196,48355,2,0,L|228:192,1,96
396,260,48700,6,0,L|400:164,1,96,8|0,0:0|0:0,0:0:0:0:
232,128,49045,1,0,0:0:0:0:
288,124,49131,1,0,0:0:0:0:
344,88,49217,1,0,0:0:0:0:
288,84,49304,1,0,0:0:0:0:
172,120,49390,1,0,0:0:0:0:
116,124,49476,1,0,0:0:0:0:
172,160,49562,1,0,0:0:0:0:
228,164,49648,1,0,0:0:0:0:
392,316,49735,5,4,3:2:0:0:
472,268,49907,1,0,0:0:0:0:
504,180,50079,1,0,0:0:0:0:
472,92,50252,1,0,3:0:0:0:
392,44,50424,1,0,0:0:0:0:
296,40,50597,1,0,0:0:0:0:
64,108,50769,6,0,L|60:12,1,96,8|0,0:0|0:0,0:0:0:0:
156,8,51114,1,0,0:0:0:0:
324,76,51286,2,0,L|328:172,1,96
232,176,51631,1,0,0:0:0:0:
64,244,51804,5,0,3:0:0:0:
32,156,51976,1,0,3:0:0:0:
64,68,52149,1,0,0:0:0:0:
144,20,52321,1,0,3:0:0:0:
240,16,52494,1,0,0:0:0:0:
144,20,52666,1,0,0:0:0:0:
376,92,52838,6,0,L|380:188,1,96,8|0,0:0|0:0,0:0:0:0:
284,192,53183,1,0,0:0:0:0:
228,196,53269,1,0,0:0:0:0:
112,260,53355,2,0,L|108:356,1,96
204,360,53700,1,0,0:0:0:0:
436,288,53873,5,0,3:0:0:0:
468,200,54045,1,0,0:0:0:0:
436,112,54218,1,0,0:0:0:0:
356,64,54390,1,0,3:0:0:0:
260,60,54563,1,0,0:0:0:0:
356,64,54735,1,0,0:0:0:0:
124,132,54907,6,0,L|28:136,2,96,8|0|0,0:0|0:0|0:0,0:0:0:0:
292,200,55424,2,0,L|388:204,2,96
124,268,55942,5,0,3:0:0:0:
292,336,56114,1,0,3:0:0:0:
212,288,56286,1,0,0:0:0:0:
180,200,56458,1,0,3:0:0:0:
212,112,56631,1,0,0:0:0:0:
292,64,56803,1,0,0:0:0:0:
60,132,56976,6,0,L|56:228,1,96,8|0,0:0|0:0,0:0:0:0:
224,296,57321,2,0,L|228:248,1,48
164,216,57493,2,0,L|160:168,1,48
280,136,57666,1,0,0:0:0:0:
336,132,57752,1,0,0:0:0:0:
280,100,57838,1,0,0:0:0:0:
224,96,57924,1,0,0:0:0:0:
404,64,58011,5,4,3:2:0:0:
384,148,58184,1,0,0:0:0:0:
324,208,58356,1,0,0:0:0:0:
240,232,58528,1,0,3:0:0:0:
180,292,58700,1,0,0:0:0:0:
160,376,58873,1,0,0:0:0:0:
392,312,59045,6,0,L|396:216,1,96,8|0,0:0|0:0,0:0:0:0:
300,212,59390,1,0,0:0:0:0:
132,144,59562,1,0,0:0:0:0:
228,140,59735,1,0,0:0:0:0:
324,136,59907,1,0,0:0:0:0:
156,68,60080,5,0,3:0:0:0:
176,152,60253,1,0,3:0:0:0:
236,212,60425,1,0,0:0:0:0:
320,236,60597,1,0,3:0:0:0:
380,296,60769,1,0,0:0:0:0:
400,380,60942,1,0,0:0:0:0:
168,316,61114,6,0,L|164:220,1,96,8|0,0:0|0:0,0:0:0:0:
212,218,61373,1,0,3:0:0:0:
260,216,61459,1,0,0:0:0:0:
428,152,61631,2,0,L|332:148,1,96,0|0,3:0|0:0,0:0:0:0:
380,146,61890,1,0,3:0:0:0:
332,148,61976,1,0,0:0:0:0:
100,80,62149,5,0,3:0:0:0:
68,168,62321,1,0,0:0:0:0:
100,256,62494,1,0,0:0:0:0:
180,304,62666,1,0,3:0:0:0:
276,308,62838,1,0,0:0:0:0:
180,304,63011,1,0,0:0:0:0:
412,236,63183,6,0,L|416:140,1,96,8|0,0:0|0:0,0:0:0:0:
320,136,63528,1,0,0:0:0:0:
488,72,63700,2,0,L|392:68,2,96
320,136,64217,5,0,3:0:0:0:
152,72,64390,1,0,3:0:0:0:
232,120,64562,1,0,0:0:0:0:
264,208,64734,1,0,3:0:0:0:
232,296,64907,1,0,0:0:0:0:
152,344,65079,1,0,0:0:0:0:
384,280,65252,6,0,L|288:276,1,96,8|0,0:0|0:0,0:0:0:0:
56,204,65597,2,0,L|152:200,1,96
384,132,65942,2,0,L|480:128,1,96
192,60,66286,6,0,L|188:156,1,96,4|0,3:2|0:3,0:0:0:0:
244,160,66545,1,0,0:0:0:0:
80,128,66631,5,0,0:3:0:0:
24,132,66717,1,0,0:0:0:0:
80,128,66804,1,0,3:0:0:0:
132,148,66890,1,0,0:0:0:0:
164,196,66976,1,0,0:3:0:0:
164,252,67062,1,0,0:0:0:0:
132,300,67148,1,0,3:0:0:0:
80,320,67236,1,0,0:0:0:0:
256,352,67321,5,8,0:2:0:0:
272,304,67407,1,0,0:0:0:0:
256,256,67493,1,0,0:0:0:0:
216,224,67580,1,0,0:0:0:0:
100,192,67666,1,8,0:3:0:0:
84,144,67753,1,8,0:3:0:0:
100,96,67839,1,8,0:3:0:0:
140,64,67924,1,8,0:3:0:0:
320,32,68011,2,0,L|324:128,1,96,0|0,3:0|3:0,0:0:0:0:
228,132,68355,1,0,3:0:0:0:
460,204,68528,5,0,3:3:0:0:
292,272,68700,1,2,0:3:0:0:
276,224,68786,1,0,0:0:0:0:
292,176,68874,1,2,3:3:0:0:
332,144,68959,1,2,0:3:0:0:
388,140,69045,2,0,L|392:44,1,96,8|0,0:3|3:3,0:0:0:0:
160,208,69390,6,0,L|64:204,1,96,8|2,0:0|0:3,0:0:0:0:
160,136,69735,1,2,0:3:0:0:
216,132,69821,1,0,0:0:0:0:
36,168,69907,2,0,L|32:72,1,96,10|8,0:3|0:3,0:0:0:0:
88,68,70166,1,8,0:3:0:0:
144,64,70252,1,8,0:3:0:0:
376,132,70424,5,2,3:3:0:0:
408,220,70596,1,2,0:3:0:0:
376,308,70769,1,0,0:0:0:0:
296,356,70942,2,0,L|392:352,1,96,0|0,3:0|0:0,0:0:0:0:
488,348,71286,1,0,0:0:0:0:
256,280,71459,6,0,L|160:276,1,96,8|0,0:0|0:0,0:0:0:0:
156,228,71717,2,0,L|160:276,2,48
336,196,71976,1,2,0:3:0:0:
432,192,72148,1,2,3:3:0:0:
448,144,72236,1,0,0:0:0:0:
432,96,72322,1,2,0:3:0:0:
392,64,72407,1,0,0:0:0:0:
216,32,72493,5,8,3:3:0:0:
200,80,72581,1,8,0:3:0:0:
216,128,72667,1,8,3:3:0:0:
256,160,72752,1,8,0:3:0:0:
312,164,72838,1,2,0:3:0:0:
256,160,72924,1,0,0:0:0:0:
104,244,73011,2,0,L|104:340,1,96,2|0,3:3|2:0,0:0:0:0:
272,316,73355,1,0,3:0:0:0:
40,384,73528,5,8,0:3:0:0:
24,336,73614,1,8,0:3:0:0:
40,288,73700,1,8,0:3:0:0:
80,256,73787,1,8,0:3:0:0:
256,224,73873,2,0,L|276:180,3,48,8|8|8|8,0:3|0:3|0:3|0:3,0:0:0:0:
452,140,74217,1,8,0:3:0:0:
468,92,74305,1,8,0:3:0:0:
452,44,74391,1,8,0:3:0:0:
412,12,74476,1,8,0:3:0:0:
236,44,74562,6,0,L|140:48,1,96,4|2,3:2|0:3,0:0:0:0:
308,116,74907,2,0,L|328:160,2,48,2|0|0,0:3|0:0|3:0,0:0:0:0:
212,120,75252,1,2,0:3:0:0:
380,192,75424,1,2,3:3:0:0:
148,264,75597,6,0,L|52:260,1,96,8|0,0:0|0:0,0:0:0:0:
220,328,75942,2,0,L|224:232,1,96,0|2,0:0|0:3,0:0:0:0:
320,228,76286,2,0,L|324:132,1,96,2|2,3:3|0:3,0:0:0:0:
92,68,76631,5,2,3:0:0:0:
324,4,76804,2,0,L|420:0,2,96,2|0|2,3:0|3:0|3:3,0:0:0:0:
228,8,77321,2,0,L|224:104,1,96,0|2,3:0|3:3,0:0:0:0:
456,172,77666,6,0,L|460:268,1,96,2|2,3:0|3:0,0:0:0:0:
452,320,77925,1,0,0:0:0:0:
420,360,78011,1,2,0:3:0:0:
372,380,78097,1,0,0:0:0:0:
196,348,78183,1,8,0:3:0:0:
148,328,78270,1,0,0:0:0:0:
116,288,78356,1,8,0:3:0:0:
108,236,78442,1,0,0:0:0:0:
284,204,78528,2,0,L|332:200,1,48,8|8,0:3|0:3,0:0:0:0:
156,232,78700,5,0,3:0:0:0:
124,144,78872,1,0,0:0:0:0:
156,56,79045,1,0,0:0:0:0:
236,8,79218,2,0,L|140:12,1,96,0|0,3:0|0:0,0:0:0:0:
44,16,79562,1,0,3:0:0:0:
276,84,79735,5,8,2:0:0:0:
108,156,79907,2,0,L|104:60,1,96,8|2,0:3|0:3,0:0:0:0:
336,252,80252,2,0,L|240:256,1,96,8|0,0:3|0:0,0:0:0:0:
296,260,80511,1,0,0:0:0:0:
352,296,80597,1,0,0:0:0:0:
296,300,80683,1,0,0:0:0:0:
120,336,80769,5,8,3:3:0:0:
88,296,80855,1,8,0:3:0:0:
80,244,80941,1,8,3:3:0:0:
88,192,81028,1,8,0:3:0:0:
120,152,81114,1,2,0:3:0:0:
168,132,81199,1,0,0:3:0:0:
348,200,81286,2,0,L|252:196,1,96,0|2,3:0|2:3,0:0:0:0:
248,148,81545,1,0,0:0:0:0:
244,100,81631,1,0,3:0:0:0:
476,264,81804,6,0,L|484:168,1,96,8|0,0:0|0:0,0:0:0:0:
436,164,82062,1,0,0:0:0:0:
388,160,82148,1,0,0:0:0:0:
220,228,82321,2,0,L|216:180,1,48,8|0,0:3|0:0,0:0:0:0:
332,148,82493,2,0,L|380:144,2,48
92,296,82838,6,0,L|84:200,1,96,4|2,3:2|3:3,0:0:0:0:
180,132,83183,1,2,3:3:0:0:
228,128,83269,1,0,0:0:0:0:
276,124,83355,1,0,0:0:0:0:
108,56,83528,1,2,3:3:0:0:
156,52,83614,1,0,0:0:0:0:
204,48,83700,1,0,0:0:0:0:
436,260,83873,6,0,L|444:164,1,96,8|2,0:0|0:3,0:0:0:0:
276,100,84217,2,0,L|372:92,1,96,2|2,0:3|0:3,0:0:0:0:
324,88,84476,1,0,0:0:0:0:
208,56,84562,2,0,L|112:48,1,96,2|2,3:3|0:3,0:0:0:0:
160,44,84821,1,0,0:0:0:0:
316,12,84907,6,0,L|324:108,1,96,8|8,3:3|3:3,0:0:0:0:
228,116,85252,1,2,0:3:0:0:
224,164,85338,1,0,0:0:0:0:
220,212,85424,1,2,3:3:0:0:
388,280,85597,2,0,L|436:284,2,48,2|0|2,0:3|0:0|3:3,0:0:0:0:
156,348,85942,6,0,L|60:340,1,96,8|2,3:2|3:3,0:0:0:0:
108,336,86200,1,0,0:0:0:0:
224,304,86286,2,0,L|228:256,1,48,2|2,3:3|0:3,0:0:0:0:
172,252,86459,2,0,L|168:204,1,48,2|2,3:3|3:3,0:0:0:0:
284,172,86631,1,0,3:0:0:0:
324,140,86716,1,0,0:0:0:0:
340,92,86804,1,0,3:0:0:0:
324,44,86890,1,0,3:0:0:0:
168,12,86976,6,0,L|72:20,1,96,8|8,3:3|0:3,0:0:0:0:
80,72,87234,1,0,0:0:0:0:
112,112,87320,1,8,0:3:0:0:
160,132,87407,1,8,0:3:0:0:
216,136,87493,1,8,3:3:0:0:
384,204,87666,2,0,L|288:212,1,96,2|2,0:3|3:3,0:0:0:0:
56,280,88011,6,0,L|48:184,1,96,8|2,0:0|0:3,0:0:0:0:
144,116,88355,2,0,L|240:108,1,96,2|2,0:3|0:3,0:0:0:0:
192,104,88614,1,0,0:0:0:0:
76,36,88700,2,0,L|172:28,1,96,2|2,3:3|0:3,0:0:0:0:
404,96,89045,5,0,3:0:0:0:
444,128,89130,1,0,0:0:0:0:
460,176,89216,1,8,3:3:0:0:
444,224,89304,1,8,0:3:0:0:
404,256,89390,2,0,L|356:260,2,48,8|0|2,3:3|3:0|3:0,0:0:0:0:
236,324,89735,2,0,L|232:276,1,48,2|0,3:0|3:0,0:0:0:0:
288,272,89907,1,2,0:3:0:0:
56,204,90080,6,0,P|44:160|56:64,1,144,8|0,0:0|0:0,0:0:0:0:
112,60,90424,1,2,0:3:0:0:
228,96,90511,1,0,0:0:0:0:
284,100,90597,1,2,3:3:0:0:
228,132,90683,1,0,3:0:0:0:
188,164,90768,1,2,0:3:0:0:
172,212,90854,1,0,0:0:0:0:
188,260,90942,1,0,0:0:0:0:
228,292,91028,1,0,0:0:0:0:
384,324,91114,6,0,L|392:228,1,96,4|8,3:2|0:3,0:0:0:0:
296,160,91459,2,0,L|392:152,1,96,0|0,0:0|3:0,0:0:0:0:
224,220,91804,1,2,3:3:0:0:
176,216,91890,1,0,0:0:0:0:
128,212,91976,1,2,3:3:0:0:
360,284,92148,6,0,L|368:188,1,96,10|2,0:3|0:3,0:0:0:0:
272,124,92493,2,0,L|264:28,1,96,0|8,0:0|0:3,0:0:0:0:
432,100,92838,1,8,0:3:0:0:
384,104,92924,1,8,0:3:0:0:
336,108,93011,1,8,0:3:0:0:
104,40,93183,5,0,3:3:0:0:
72,80,93269,1,0,0:0:0:0:
64,132,93355,1,0,3:3:0:0:
72,184,93442,1,0,0:3:0:0:
104,224,93528,1,8,0:3:0:0:
152,244,93613,1,8,0:3:0:0:
208,248,93700,1,8,3:3:0:0:
40,316,93873,1,2,0:3:0:0:
36,268,93959,1,0,0:3:0:0:
32,220,94045,1,0,3:3:0:0:
264,292,94217,6,0,L|360:284,1,96,12|0,0:0|0:0,0:0:0:0:
364,236,94476,1,0,0:0:0:0:
248,168,94562,2,0,L|240:72,1,96,2|0,0:3|0:0,0:0:0:0:
296,68,94821,1,0,0:0:0:0:
180,140,94907,2,0,L|84:132,1,96,2|0,3:3|3:0,0:0:0:0:
316,200,95252,6,0,L|324:104,1,96,2|2,3:3|0:3,0:0:0:0:
156,36,95597,2,0,L|252:28,1,96
420,96,95942,2,0,L|440:52,2,48,2|0|2,0:3|0:0|0:3,0:0:0:0:
188,164,96286,6,0,L|180:260,1,96,8|2,0:0|0:3,0:0:0:0:
348,192,96631,2,0,L|356:288,1,96,0|8,0:0|0:3,0:0:0:0:
188,356,96976,1,8,0:3:0:0:
140,352,97062,1,0,0:0:0:0:
92,348,97148,1,8,0:3:0:0:
324,280,97321,5,2,3:3:0:0:
356,240,97407,1,0,0:0:0:0:
364,188,97493,1,0,3:0:0:0:
356,136,97580,1,0,0:0:0:0:
324,96,97666,1,0,0:0:0:0:
276,76,97751,1,0,0:0:0:0:
220,72,97838,1,0,3:0:0:0:
388,4,98011,2,0,L|436:0,2,48
156,72,98355,5,0,0:0:0:0:
116,104,98442,1,0,0:0:0:0:
100,152,98528,1,0,0:0:0:0:
116,200,98614,1,0,0:0:0:0:
232,236,98700,2,0,L|252:280,3,48
368,312,99045,1,0,0:0:0:0:
384,264,99131,1,0,0:0:0:0:
368,216,99217,1,0,0:0:0:0:
328,184,99304,1,0,0:0:0:0:
144,344,99390,5,4,0:0:0:0:
128,296,99477,1,0,0:0:0:0:
144,248,99563,1,0,0:0:0:0:
184,216,99648,1,0,0:0:0:0:
240,212,99735,1,0,0:0:0:0:
184,216,99821,1,0,0:0:0:0:
68,184,99907,5,0,3:0:0:0:
28,152,99993,1,0,0:0:0:0:
12,104,100079,1,0,0:0:0:0:
28,56,100166,1,0,3:0:0:0:
68,24,100252,1,0,3:0:0:0:
124,20,100338,1,0,0:0:0:0:
308,88,100424,6,0,L|404:96,1,96,8|0,0:0|0:0,0:0:0:0:
236,168,100769,1,8,0:3:0:0:
180,172,100855,1,8,0:3:0:0:
236,208,100942,1,8,0:3:0:0:
288,212,101028,1,8,3:3:0:0:
172,244,101114,6,0,L|76:252,1,96,2|0,3:3|3:0,0:0:0:0:
308,320,101459,2,0,L|316:224,1,96,0|2,3:0|3:3,0:0:0:0:
148,160,101804,5,2,0:3:0:0:
156,108,101889,1,0,0:0:0:0:
188,68,101975,1,2,3:3:0:0:
236,48,102062,1,0,0:0:0:0:
292,48,102148,1,8,0:3:0:0:
340,68,102234,1,8,0:3:0:0:
372,108,102320,1,8,3:0:0:0:
380,160,102406,1,8,0:3:0:0:
196,192,102493,6,0,L|192:240,1,48,8|8,0:0|0:3,0:0:0:0:
248,244,102666,2,0,L|296:248,1,48,8|8,3:3|0:3,0:0:0:0:
240,280,102838,2,0,L|192:284,1,48
352,352,103011,5,8,3:3:0:0:
368,304,103097,1,8,0:3:0:0:
352,256,103184,1,0,3:0:0:0:
312,224,103269,2,0,L|264:220,1,48,0|0,0:0|3:0,0:0:0:0:
320,188,103442,2,0,L|368:184,1,48,0|0,3:0|3:0,0:0:0:0:
136,276,103700,5,8,0:3:0:0:
96,244,103786,1,8,0:3:0:0:
80,196,103872,1,8,0:3:0:0:
96,148,103959,1,8,0:3:0:0:
136,116,104045,2,0,L|232:108,1,96,2|2,3:0|0:3,0:0:0:0:
400,40,104390,1,2,3:3:0:0:
168,180,104562,5,8,0:0:0:0:
128,212,104648,1,0,0:0:0:0:
112,260,104734,1,2,0:3:0:0:
128,308,104821,1,0,0:0:0:0:
168,340,104907,1,2,0:3:0:0:
224,344,104993,1,0,0:0:0:0:
384,312,105080,5,8,3:3:0:0:
368,264,105167,1,0,0:0:0:0:
328,232,105252,1,8,3:3:0:0:
272,228,105338,1,8,0:3:0:0:
232,196,105424,1,8,3:3:0:0:
216,148,105511,1,0,0:3:0:0:
332,116,105597,6,0,L|380:112,2,48,8|0|8,3:3|0:0|3:3,0:0:0:0:
100,184,105942,2,0,L|92:88,1,96,2|2,0:3|3:3,0:0:0:0:
148,84,106200,1,0,0:0:0:0:
264,116,106286,2,0,L|272:20,1,96,2|0,0:3|3:0,0:0:0:0:
40,88,106631,5,8,0:3:0:0:
48,140,106717,1,8,0:3:0:0:
80,180,106803,1,8,0:3:0:0:
128,200,106890,1,8,0:3:0:0:
244,236,106976,1,8,0:3:0:0:
300,240,107062,1,8,0:3:0:0:
244,276,107148,1,8,0:3:0:0:
188,280,107235,1,8,0:3:0:0:
304,316,107321,1,8,0:3:0:0:
352,296,107408,1,8,0:3:0:0:
384,256,107494,1,8,0:3:0:0:
392,204,107580,1,8,0:3:0:0:
232,260,107666,6,0,L|228:164,1,96,4|0,3:2|0:0,0:0:0:0:
396,232,108011,2,0,L|404:136,1,96,8|0,0:3|0:3,0:0:0:0:
308,68,108355,1,0,3:0:0:0:
356,64,108442,1,0,0:0:0:0:
404,60,108528,1,0,0:0:0:0:
172,304,108700,6,0,L|164:208,1,96,8|0,0:0|0:0,0:0:0:0:
332,144,109045,1,8,0:3:0:0:
164,80,109217,1,8,0:3:0:0:
220,76,109304,1,8,0:3:0:0:
276,72,109390,2,0,L|284:168,1,96,2|2,3:3|0:3,0:0:0:0:
52,236,109735,5,0,3:0:0:0:
284,304,109907,2,0,L|380:312,2,96,0|0|0,3:0|0:0|3:0,0:0:0:0:
452,236,110424,2,0,L|460:140,1,96,0|0,0:0|3:0,0:0:0:0:
228,72,110769,6,0,L|220:168,1,96,2|2,0:3|0:3,0:0:0:0:
388,236,111114,5,0,3:0:0:0:
428,204,111200,1,0,0:0:0:0:
444,156,111286,1,0,3:0:0:0:
428,108,111373,1,0,0:0:0:0:
388,76,111459,1,2,3:3:0:0:
332,72,111545,1,0,2:0:0:0:
176,40,111631,1,2,3:3:0:0:
120,36,111717,1,0,3:3:0:0:
280,68,111804,6,0,L|288:164,1,96,0|0,3:0|0:0,0:0:0:0:
192,172,112148,1,0,0:0:0:0:
360,244,112321,2,0,L|264:252,1,96,0|0,0:0|3:0,0:0:0:0:
148,284,112580,2,0,L|144:236,1,48
376,352,112838,6,0,L|472:344,2,96,8|8|0,0:0|0:3|0:0,0:0:0:0:
208,288,113355,1,0,3:0:0:0:
152,284,113442,1,0,0:0:0:0:
268,252,113528,1,2,0:3:0:0:
284,204,113614,1,0,0:0:0:0:
268,156,113700,1,2,3:3:0:0:
228,124,113786,1,0,0:0:0:0:
44,160,113873,5,8,3:3:0:0:
28,112,113959,1,8,0:3:0:0:
44,64,114045,1,8,0:3:0:0:
84,32,114131,1,0,0:0:0:0:
132,28,114217,1,10,0:3:0:0:
188,32,114304,1,0,0:0:0:0:
132,28,114390,1,10,0:3:0:0:
284,104,114562,1,8,3:0:0:0:
332,108,114648,1,8,2:3:0:0:
380,112,114735,1,8,2:3:0:0:
148,180,114907,5,0,3:0:0:0:
156,232,114993,1,0,0:0:0:0:
188,272,115079,1,2,2:3:0:0:
236,292,115166,1,0,0:0:0:0:
292,296,115252,2,0,L|296:248,1,48,0|0,3:0|0:0,0:0:0:0:
116,332,115424,5,2,2:3:0:0:
124,280,115510,1,0,0:0:0:0:
156,240,115596,1,8,3:0:0:0:
204,220,115683,1,8,0:3:0:0:
148,152,115769,2,0,L|100:148,1,48,8|8,0:3|0:3,0:0:0:0:
300,80,115942,6,0,P|356:120|299:207,1,192,4|0,0:0|0:0,0:0:0:0:
204,192,116459,2,0,P|148:232|205:319,1,192,0|0,3:0|0:0,0:0:0:0:
370,281,116976,1,8,0:0:0:0:
202,314,117148,2,0,P|227:246|338:197,1,192
232,184,117666,1,0,0:0:0:0:
136,174,117838,1,0,0:0:0:0:
232,184,118011,5,0,3:0:0:0:
399,202,118183,2,0,P|388:147|261:80,1,192,0|0,3:0|3:0,0:0:0:0:
183,84,118700,1,0,0:0:0:0:
279,79,118873,1,0,0:0:0:0:
446,112,119045,2,0,L|458:215,1,96,8|0,0:0|0:0,0:0:0:0:
360,209,119390,1,0,0:0:0:0:
194,213,119562,1,0,0:0:0:0:
97,254,119735,1,0,0:0:0:0:
191,250,119907,1,0,0:0:0:0:
359,319,120080,6,0,L|359:95,1,192,0|0,3:0|0:0,0:0:0:0:
269,163,120597,1,0,0:0:0:0:
239,254,120769,1,0,0:0:0:0:
272,344,120942,1,0,0:0:0:0:
370,362,121114,2,0,L|156:347,1,192,8|0,0:0|0:0,0:0:0:0:
371,275,121804,2,0,L|370:176,1,96
274,173,122148,5,0,3:0:0:0:
106,198,122321,2,0,P|49:160|120:82,1,192,0|0,3:0|3:0,0:0:0:0:
204,63,122838,1,0,0:0:0:0:
108,79,123011,1,0,0:0:0:0:
275,127,123183,2,0,L|277:227,1,96,8|0,0:0|0:0,0:0:0:0:
108,183,123528,2,0,L|40:183,2,48
207,221,123873,1,0,0:0:0:0:
159,224,123959,1,0,0:0:0:0:
111,227,124045,1,0,0:0:0:0:
278,250,124217,6,0,P|364:286|397:373,1,192,0|0,3:0|0:0,0:0:0:0:
298,220,124735,2,0,P|211:256|178:343,1,192,0|0,3:0|0:0,0:0:0:0:
346,335,125252,1,8,0:0:0:0:
178,343,125424,2,0,P|121:305|192:227,1,192
277,214,125942,1,0,0:0:0:0:
372,203,126114,1,0,0:0:0:0:
277,214,126286,1,0,3:0:0:0:
109,221,126459,6,0,P|142:133|228:97,1,192,0|0,3:0|3:0,0:0:0:0:
132,85,126976,1,0,0:0:0:0:
228,97,127148,1,0,0:0:0:0:
396,166,127321,2,0,L|399:64,1,96,8|0,0:0|0:0,0:0:0:0:
231,180,127666,1,0,0:0:0:0:
236,227,127752,1,0,0:0:0:0:
259,268,127838,1,0,0:0:0:0:
298,295,127924,1,0,0:0:0:0:
346,301,128011,1,0,0:0:0:0:
251,313,128183,1,0,0:0:0:0:
85,355,128355,6,0,L|77:140,1,192,0|0,3:0|0:0,0:0:0:0:
270,137,129045,2,0,L|159:124,1,96
342,293,129390,2,0,P|396:263|332:177,1,192,8|0,0:0|0:0,0:0:0:0:
243,164,129907,2,0,L|447:131,1,192
337,116,130424,1,0,3:0:0:0:
169,220,130597,6,0,P|118:181|183:86,1,192,0|0,3:0|3:0,0:0:0:0:
300,52,131114,2,0,L|302:168,1,96
253,153,131373,1,0,0:0:0:0:
138,205,131459,5,8,0:0:0:0:
90,208,131545,1,0,0:0:0:0:
138,205,131631,1,0,0:0:0:0:
185,202,131717,1,0,0:0:0:0:
301,243,131804,2,0,L|363:244,1,48
348,243,131976,2,0,L|301:243,1,48
185,202,132148,2,0,L|123:203,1,48
137,202,132320,2,0,L|184:201,1,48
364,307,132493,6,0,P|421:286|357:210,1,192,4|0,3:2|0:0,0:0:0:0:
195,234,133011,2,0,L|191:121,1,96
287,135,133355,1,0,0:0:0:0:
120,93,133528,6,0,P|52:141|118:192,1,192,8|0,0:0|0:0,0:0:0:0:
214,186,134045,1,0,0:0:0:0:
381,170,134217,2,0,L|385:293,1,96,0|0,3:0|0:0,0:0:0:0:
220,267,134562,5,0,3:0:0:0:
386,266,134735,2,0,L|501:268,1,96,0|0,3:0|0:0,0:0:0:0:
314,164,135080,2,0,L|100:161,1,192,0|0,3:0|0:0,0:0:0:0:
290,292,135597,6,0,P|280:237|133:168,1,192,8|0,0:0|0:0,0:0:0:0:
128,148,136028,1,0,0:0:0:0:
105,105,136114,1,0,0:0:0:0:
126,62,136200,1,0,0:0:0:0:
172,50,136286,1,0,0:0:0:0:
268,49,136459,1,0,0:0:0:0:
435,103,136631,6,0,L|445:313,1,192,0|0,3:0|0:0,0:0:0:0:
276,262,137148,2,0,L|166:253,2,96,0|0|0,3:0|0:0|3:0,0:0:0:0:
444,294,137666,6,0,L|223:276,1,192,8|0,0:0|0:0,0:0:0:0:
157,295,138183,1,0,0:0:0:0:
324,220,138355,2,0,L|330:338,1,96,0|0,3:0|0:0,0:0:0:0:
157,295,138700,5,0,3:0:0:0:
329,315,138873,2,0,L|442:306,1,96,0|0,3:0|0:0,0:0:0:0:
258,194,139217,2,0,L|145:185,2,96,0|0|0,3:0|0:0|0:0,0:0:0:0:
89,240,139735,6,0,L|85:114,1,96,8|0,0:0|0:0,0:0:0:0:
254,195,140080,1,0,0:0:0:0:
299,183,140166,1,0,0:0:0:0:
333,149,140252,1,0,0:0:0:0:
345,103,140338,1,0,0:0:0:0:
331,58,140424,1,0,0:0:0:0:
296,26,140511,1,0,0:0:0:0:
249,17,140597,1,0,0:0:0:0:
16,133,140769,6,0,L|10:343,1,192,4|0,3:2|0:0,0:0:0:0:
178,209,141286,2,0,L|296:217,2,96,0|0|0,3:0|0:0|3:0,0:0:0:0:
347,272,141804,6,0,P|396:241|330:142,1,192,8|0,0:0|0:0,0:0:0:0:
251,132,142321,1,0,0:0:0:0:
84,256,142493,2,0,L|76:139,1,96,0|0,3:0|0:0,0:0:0:0:
245,156,142838,5,0,3:0:0:0:
77,159,143011,2,0,L|200:158,1,96,0|0,3:0|0:0,0:0:0:0:
340,175,143355,2,0,P|330:120|183:51,1,192,0|0,3:0|0:0,0:0:0:0:
393,92,143873,6,0,L|400:303,1,192,8|0,0:0|0:0,0:0:0:0:
352,271,144304,1,0,0:0:0:0:
333,227,144390,1,0,0:0:0:0:
350,182,144476,1,0,0:0:0:0:
397,174,144562,1,0,0:0:0:0:
493,174,144735,1,0,0:0:0:0:
326,149,144907,6,0,L|128:128,1,192,0|0,3:0|0:0,0:0:0:0:
303,323,145424,2,0,L|309:204,1,96,0|0,3:0|0:0,0:0:0:0:
211,222,145769,1,0,3:0:0:0:
379,239,145942,6,0,P|426:215|354:120,1,192,8|0,0:0|0:0,0:0:0:0:
281,125,146459,1,0,0:0:0:0:
113,204,146631,2,0,L|111:93,1,96,0|0,3:0|0:0,0:0:0:0:
281,125,146976,5,4,3:2:0:0:
114,204,147148,2,0,L|226:201,1,96,0|0,3:0|0:0,0:0:0:0:
378,291,147493,2,0,L|266:288,1,96,0|0,3:0|3:0,0:0:0:0:
164,345,147838,2,0,L|161:272,1,48,0|0,3:0|0:0,0:0:0:0:
342,182,148011,6,0,L|414:181,1,48,8|0,0:0|0:0,0:0:0:0:
389,181,148183,2,0,L|341:181,1,48,0|0,3:0|3:0,0:0:0:0:
226,179,148355,1,2,3:0:0:0:
233,132,148441,1,0,0:0:0:0:
266,97,148527,1,0,3:0:0:0:
312,87,148613,1,0,3:0:0:0:
429,99,148700,2,0,L|485:99,1,48,2|0,3:0|3:0,0:0:0:0:
429,99,148873,2,0,L|381:99,1,48,0|0,3:0|3:0,0:0:0:0:
213,271,149045,6,0,L|99:271,1,96,4|0,3:2|0:0,0:0:0:0:
285,195,149390,2,0,L|399:195,1,96,2|0,0:3|3:0,0:0:0:0:
484,108,149735,2,0,L|370:108,1,96,2|0,0:3|3:0,0:0:0:0:
156,283,150080,5,8,0:0:0:0:
312,236,150252,1,2,0:3:0:0:
156,283,150424,2,0,L|42:283,1,96,2|0,0:3|3:0,0:0:0:0:
167,185,150769,2,0,L|281:185,1,96,2|2,0:3|0:3,0:0:0:0:
495,95,151114,6,0,L|505:161,3,48,8|8|8|8,3:3|0:3|3:3|0:3,0:0:0:0:
385,192,151459,2,0,L|289:192,1,96,2|2,0:3|3:3,0:0:0:0:
183,283,151804,1,2,0:3:0:0:
230,284,151890,1,2,0:3:0:0:
277,285,151976,1,2,3:3:0:0:
46,226,152148,5,8,0:0:0:0:
200,197,152321,1,2,0:3:0:0:
191,244,152407,1,0,0:0:0:0:
168,285,152493,1,0,0:0:0:0:
131,316,152579,1,0,0:0:0:0:
87,333,152665,1,2,0:3:0:0:
217,337,152838,1,0,3:0:0:0:
349,331,153011,1,0,3:0:0:0:
116,332,153183,5,8,3:3:0:0:
20,301,153355,1,8,0:3:0:0:
25,253,153441,1,0,0:0:0:0:
47,211,153527,1,8,0:3:0:0:
83,179,153613,1,8,0:3:0:0:
201,147,153700,2,0,L|272:147,1,48,8|8,0:3|0:3,0:0:0:0:
132,72,153873,2,0,L|9:73,1,96,2|2,0:3|0:3,0:0:0:0:
296,110,154217,6,0,L|300:242,1,96,8|2,0:0|0:3,0:0:0:0:
131,210,154562,1,0,0:0:0:0:
298,205,154735,2,0,L|402:215,2,96,2|2|2,2:3|3:3|0:3,0:0:0:0:
466,166,155252,5,8,3:3:0:0:
235,87,155424,1,8,3:3:0:0:
187,93,155511,1,0,0:0:0:0:
139,100,155597,1,0,0:0:0:0:
235,87,155769,1,0,3:0:0:0:
403,171,155942,2,0,L|285:157,1,96,0|0,0:0|3:0,0:0:0:0:
65,303,156286,6,0,P|74:245|158:216,1,144,8|0,0:0|0:0,0:0:0:0:
264,194,156631,2,0,L|349:194,1,48
264,194,156804,2,0,L|216:194,1,48
331,53,156976,2,0,L|340:127,3,48
167,128,157321,5,4,0:0:0:0:
16,186,157493,1,8,0:3:0:0:
167,223,157666,2,0,L|267:228,1,96,0|0,3:3|0:3,0:0:0:0:
436,182,158011,1,2,0:3:0:0:
438,229,158097,1,0,0:0:0:0:
441,276,158183,1,0,3:0:0:0:
270,226,158355,6,0,L|265:110,1,96,8|0,0:0|0:0,0:0:0:0:
361,122,158700,1,0,0:0:0:0:
193,87,158873,2,0,L|63:100,1,96,2|2,0:3|3:0,0:0:0:0:
144,104,159131,1,0,0:0:0:0:
191,111,159217,1,2,3:0:0:0:
431,290,159390,5,0,3:0:0:0:
420,243,159476,1,8,0:3:0:0:
389,206,159562,1,0,3:0:0:0:
343,189,159648,1,8,0:3:0:0:
226,197,159735,2,0,L|219:130,3,48,0|8|0|8,3:0|0:3|3:0|0:3,0:0:0:0:
338,108,160080,2,0,L|468:109,1,96,0|0,3:0|3:0,0:0:0:0:
165,187,160424,6,0,P|111:148|184:64,1,192,8|0,0:0|0:0,0:0:0:0:
337,197,160942,1,8,0:3:0:0:
289,204,161028,1,0,0:3:0:0:
241,212,161114,1,8,0:3:0:0:
143,292,161286,2,0,L|237:294,1,48,8|8,0:3|0:3,0:0:0:0:
371,341,161459,6,0,L|379:234,1,96,8|8,3:3|0:3,0:0:0:0:
269,166,161804,2,0,L|384:168,1,96,2|2,0:3|0:3,0:0:0:0:
198,88,162148,1,8,0:3:0:0:
149,90,162235,1,0,0:0:0:0:
101,92,162321,1,2,0:3:0:0:
336,159,162493,5,8,0:0:0:0:
433,159,162666,2,0,L|437:275,1,96,0|2,0:0|0:3,0:0:0:0:
269,295,163011,1,8,0:3:0:0:
173,293,163183,1,2,3:3:0:0:
220,294,163269,1,0,0:0:0:0:
267,295,163355,1,8,0:3:0:0:
434,338,163528,6,0,L|438:265,1,48,0|8,3:0|0:3,0:0:0:0:
321,269,163700,1,0,3:0:0:0:
278,247,163786,1,8,0:3:0:0:
254,206,163872,1,0,0:0:0:0:
255,159,163958,1,8,0:3:0:0:
281,119,164044,1,0,3:0:0:0:
324,99,164131,1,8,0:3:0:0:
438,124,164217,2,0,L|507:122,1,48,0|8,0:0|0:3,0:0:0:0:
438,124,164390,2,0,L|390:125,1,48,0|8,3:0|0:3,0:0:0:0:
213,124,164562,6,0,L|210:202,1,48,8|8,3:2|3:3,0:0:0:0:
400,256,164735,2,0,L|469:254,1,48,0|8,3:0|0:3,0:0:0:0:
400,256,164908,2,0,L|352:257,1,48,0|0,3:0|0:0,0:0:0:0:
400,256,165080,2,0,L|469:254,1,48,0|0,3:0|3:0,0:0:0:0:
400,256,165253,2,0,L|352:257,1,48,0|0,3:0|3:0,0:0:0:0:
400,256,165424,2,0,L|469:254,1,48,0|0,3:0|3:0,0:0:0:0:
269,343,165597,6,0,L|259:268,5,48,4|0|0|0|0|0,0:0|0:0|0:0|0:0|0:0|0:0,0:0:0:0:
379,243,166114,2,0,L|389:168,5,48
182,237,166631,6,0,L|171:150,1,48,8|0,0:0|0:0,0:0:0:0:
333,318,166804,1,0,0:0:0:0:
378,308,166890,1,0,0:0:0:0:
400,267,166976,1,8,0:3:0:0:
381,225,167062,1,8,0:3:0:0:
268,190,167148,2,0,L|177:197,1,48,8|8,0:3|0:3,0:0:0:0:
400,51,167321,2,0,L|408:186,1,96,2|2,3:0|3:3,0:0:0:0:
159,283,167666,6,0,L|43:271,1,96,0|0,3:0|3:0,0:0:0:0:
111,267,167924,1,0,0:0:0:0:
159,261,168011,1,2,0:3:0:0:
327,292,168183,2,0,L|331:217,1,48,0|0,3:0|0:0,0:0:0:0:
213,191,168355,2,0,L|143:187,1,48,2|0,0:3|0:0,0:0:0:0:
165,188,168528,2,0,L|212:190,1,48,0|0,3:0|0:0,0:0:0:0:
384,184,168700,6,0,L|388:109,1,48,8|0,0:0|0:0,0:0:0:0:
214,190,168873,2,0,L|78:201,1,96,2|2,0:3|0:3,0:0:0:0:
360,304,169217,1,2,0:3:0:0:
193,237,169390,1,0,3:0:0:0:
190,284,169476,1,0,0:0:0:0:
188,331,169562,1,2,0:3:0:0:
356,212,169735,5,0,3:0:0:0:
250,172,169907,2,0,L|177:172,1,48,2|2,0:3|0:3,0:0:0:0:
371,125,170080,2,0,L|381:50,7,48,2|0|0|0|0|0|0|0,0:3|0:0|0:0|0:0|0:0|0:0|0:0|0:0,0:0:0:0:
207,337,170769,5,8,0:0:0:0:
160,328,170855,1,0,0:0:0:0:
125,296,170941,1,0,0:0:0:0:
110,251,171027,1,0,0:0:0:0:
228,255,171114,2,0,L|238:180,3,48,8|8|8|8,0:3|0:3|0:3|0:3,0:0:0:0:
53,194,171459,2,0,L|45:66,1,96,0|2,3:0|0:3,0:0:0:0:
284,344,171804,6,0,L|412:328,1,96,0|2,3:0|3:3,0:0:0:0:
331,324,172062,1,0,0:0:0:0:
216,288,172148,1,2,0:3:0:0:
202,243,172234,1,0,0:0:0:0:
221,200,172320,1,0,3:0:0:0:
269,187,172406,1,0,0:0:0:0:
386,143,172493,2,0,L|455:144,1,48,8|0,0:3|0:0,0:0:0:0:
386,143,172666,2,0,L|317:144,1,48,8|0,3:3|0:0,0:0:0:0:
168,72,172838,6,0,L|96:72,1,48,8|8,0:3|0:3,0:0:0:0:
120,72,173011,2,0,L|168:72,1,48,8|8,0:3|0:3,0:0:0:0:
338,229,173183,2,0,L|410:229,1,48,8|8,0:3|0:3,0:0:0:0:
386,229,173356,2,0,L|338:229,1,48,8|8,0:3|0:3,0:0:0:0:
167,151,173528,2,0,L|95:151,1,48,8|8,0:3|0:3,0:0:0:0:
119,151,173701,2,0,L|167:151,1,48,8|8,0:3|0:3,0:0:0:0:
332,344,173873,6,0,L|342:269,5,48,4|0|0|0|0|0,0:0|0:0|0:0|0:0|0:0|0:0,0:0:0:0:
222,244,174390,2,0,L|212:169,5,48
382,140,174907,6,0,L|388:187,1,48,8|0,0:0|0:0,0:0:0:0:
222,333,175080,1,0,0:0:0:0:
177,323,175166,1,0,0:0:0:0:
155,282,175252,1,8,0:3:0:0:
174,240,175338,1,8,0:3:0:0:
287,205,175424,2,0,L|378:212,1,48,8|8,0:3|0:3,0:0:0:0:
156,64,175597,2,0,L|34:74,1,96,2|2,3:3|0:3,0:0:0:0:
302,331,175942,6,0,L|308:197,1,96,0|0,3:0|3:0,0:0:0:0:
258,234,176200,1,0,0:0:0:0:
141,170,176286,2,0,L|75:170,2,48,2|0|0,0:3|0:0|3:0,0:0:0:0:
310,232,176631,1,2,0:3:0:0:
301,184,176717,1,0,0:0:0:0:
274,143,176804,1,0,3:0:0:0:
227,130,176890,1,0,0:0:0:0:
56,323,176976,6,0,L|51:203,1,96,8|2,0:0|0:3,0:0:0:0:
148,223,177321,1,2,0:3:0:0:
315,192,177493,1,2,0:3:0:0:
148,223,177666,2,0,L|78:224,1,48,8|8,0:3|0:3,0:0:0:0:
148,223,177838,2,0,L|218:224,1,48,8|8,0:3|0:3,0:0:0:0:
365,233,178011,5,0,3:0:0:0:
355,186,178097,1,0,0:0:0:0:
324,149,178183,1,2,0:3:0:0:
278,135,178269,1,0,0:0:0:0:
162,104,178355,2,0,L|286:101,1,96,2|2,0:3|0:3,0:0:0:0:
424,63,178700,2,0,L|430:133,3,48,2|0|2|0,0:3|0:0|0:3|0:0,0:0:0:0:
259,216,179045,6,0,L|178:215,1,48,8|8,0:3|0:3,0:0:0:0:
259,216,179217,2,0,L|340:217,1,48,8|0,0:3|0:0,0:0:0:0:
189,308,179390,2,0,L|84:305,1,96,0|0,0:0|3:0,0:0:0:0:
260,160,179735,2,0,P|275:209|260:252,1,96,2|2,3:3|0:3,0:0:0:0:
209,253,179993,1,0,0:0:0:0:
92,200,180080,6,0,L|35:202,1,48,8|8,3:3|0:3,0:0:0:0:
92,200,180252,2,0,L|149:202,1,48,8|8,3:3|0:3,0:0:0:0:
92,200,180424,2,0,L|35:202,1,48,8|8,0:3|0:3,0:0:0:0:
92,200,180596,2,0,L|149:202,1,48,8|8,3:3|0:3,0:0:0:0:
92,200,180769,2,0,L|35:202,1,48,8|8,0:3|0:3,0:0:0:0:
92,200,180941,2,0,L|149:202,1,48,8|8,3:3|0:3,0:0:0:0:
315,228,181114,5,8,0:0:0:0:
469,230,181286,1,0,0:0:0:0:
319,228,181459,1,0,0:0:0:0:
473,230,181631,1,0,0:0:0:0:
323,228,181804,1,0,0:0:0:0:
477,230,181976,1,0,0:0:0:0:
232,126,182148,6,0,L|119:116,1,96,4|2,0:0|0:3,0:0:0:0:
184,122,182407,1,2,0:3:0:0:
231,126,182493,1,2,0:3:0:0:
399,93,182666,1,2,0:3:0:0:
231,126,182838,2,0,L|169:119,2,48,2|0|2,0:3|0:0|0:3,0:0:0:0:
474,226,183183,5,8,2:0:0:0:
458,180,183269,1,0,0:0:0:0:
424,147,183355,1,0,0:0:0:0:
379,132,183441,1,0,0:0:0:0:
262,206,183528,2,0,L|200:199,2,48,2|2|2,0:3|0:3|0:3,0:0:0:0:
430,290,183873,1,0,3:0:0:0:
382,294,183959,1,0,0:0:0:0:
334,298,184045,1,0,0:0:0:0:
92,302,184217,5,8,3:3:0:0:
51,278,184303,1,8,0:3:0:0:
33,234,184389,1,8,3:3:0:0:
51,190,184475,1,8,0:3:0:0:
94,166,184562,2,0,L|229:158,1,96,0|0,0:0|3:0,0:0:0:0:
299,73,184907,2,0,L|164:65,1,96,0|0,2:0|3:0,0:0:0:0:
437,176,185252,6,0,L|506:172,1,48,8|8,0:3|0:3,0:0:0:0:
484,173,185424,2,0,L|437:176,1,48,8|8,0:3|0:3,0:0:0:0:
263,180,185597,2,0,L|194:176,1,48,8|8,0:3|0:3,0:0:0:0:
215,177,185769,2,0,L|262:179,1,48,8|8,0:3|0:3,0:0:0:0:
437,176,185942,2,0,L|506:172,1,48,8|8,0:3|0:3,0:0:0:0:
485,173,186114,2,0,L|437:175,1,48,8|8,0:3|0:3,0:0:0:0:
264,180,186286,6,0,L|261:320,1,96,0|0,3:0|0:0,0:0:0:0:
310,279,186545,1,0,0:0:0:0:
426,281,186631,1,2,0:3:0:0:
422,233,186717,1,0,0:0:0:0:
394,195,186803,1,10,0:3:0:0:
350,178,186889,1,0,0:0:0:0:
233,111,186976,2,0,L|173:111,1,48,8|8,0:3|0:3,0:0:0:0:
233,111,187148,2,0,L|293:111,1,48,8|8,0:3|0:3,0:0:0:0:
114,303,187321,6,0,L|106:185,1,96,8|0,0:0|0:0,0:0:0:0:
203,198,187666,1,0,0:0:0:0:
370,146,187838,1,8,0:3:0:0:
201,118,188011,1,8,0:3:0:0:
153,122,188097,1,0,0:0:0:0:
105,126,188183,1,2,0:3:0:0:
344,312,188355,6,0,L|349:220,3,48,0|8|0|8,3:0|0:3|3:0|0:3,0:0:0:0:
231,248,188700,2,0,L|226:156,3,48,0|8|0|8,0:0|0:3|3:0|0:3,0:0:0:0:
344,185,189045,2,0,L|349:93,3,48,0|8|0|8,0:0|0:3|3:0|0:3,0:0:0:0:
170,87,189390,6,0,L|97:84,1,48,0|8,3:0|0:3,0:0:0:0:
122,85,189562,2,0,L|169:86,1,48,0|8,3:0|0:3,0:0:0:0:
348,87,189735,2,0,L|421:84,1,48,0|8,3:0|0:3,0:0:0:0:
396,85,189907,2,0,L|348:86,1,48,0|8,3:0|0:3,0:0:0:0:
170,87,190080,2,0,L|97:84,1,48,0|8,3:0|0:3,0:0:0:0:
122,85,190252,2,0,L|169:86,1,48,0|8,3:0|0:3,0:0:0:0:
344,185,190424,6,0,L|349:93,5,48,4|0|0|0|0|0,0:0|0:0|0:0|0:0|0:0|0:0,0:0:0:0:
229,120,190942,2,0,L|224:28,5,48
396,273,191459,6,0,L|458:270,1,48,8|0,0:0|0:0,0:0:0:0:
272,354,191631,1,0,0:0:0:0:
225,341,191717,1,0,0:0:0:0:
189,307,191804,1,8,0:3:0:0:
176,260,191890,1,8,0:3:0:0:
292,209,191976,2,0,L|295:130,1,48,8|8,0:3|0:3,0:0:0:0:
130,85,192148,2,0,L|20:78,1,96,0|2,3:0|0:3,0:0:0:0:
268,336,192493,6,0,L|397:325,1,96,0|0,3:0|3:0,0:0:0:0:
315,320,192752,1,0,0:0:0:0:
199,297,192838,2,0,L|191:212,3,48,0|0|0|0,0:0|0:0|3:0|0:0,0:0:0:0:
312,230,193183,1,2,0:3:0:0:
323,184,193269,1,0,0:0:0:0:
301,142,193355,1,2,3:3:0:0:
250,130,193441,1,0,0:0:0:0:
79,220,193528,6,0,L|70:140,1,48,8|8,0:0|0:3,0:0:0:0:
248,42,193700,2,0,L|323:42,2,48,8|8|0,0:3|0:3|0:0,0:0:0:0:
144,82,194045,1,8,0:3:0:0:
312,128,194217,1,8,0:3:0:0:
359,129,194303,1,8,0:3:0:0:
407,130,194389,1,8,0:3:0:0:
238,224,194562,6,0,L|129:222,1,96,8|8,3:2|0:3,0:0:0:0:
190,223,194821,1,8,0:3:0:0:
360,256,194907,1,8,0:3:0:0:
357,208,194993,1,8,0:3:0:0:
330,167,195080,1,8,0:3:0:0:
285,148,195166,1,8,0:3:0:0:
110,94,195252,1,8,0:3:0:0:
54,105,195338,1,8,0:3:0:0:
110,94,195424,1,8,0:3:0:0:
167,82,195511,1,8,0:3:0:0:
342,118,195597,6,0,L|472:128,1,96,8|2,0:0|0:3,0:0:0:0:
324,215,195942,2,0,L|194:225,1,96,2|8,0:3|0:3,0:0:0:0:
395,279,196286,2,0,L|404:342,2,48,2|0|2,3:3|0:0|0:3,0:0:0:0:
228,222,196631,2,0,L|221:174,1,48,0|8,3:0|0:3,0:0:0:0:
339,117,196804,2,0,L|412:116,2,48,8|8|0,3:3|0:3|0:0,0:0:0:0:
172,56,197148,2,0,L|50:58,1,96,0|0,3:0|0:0,0:0:0:0:
173,56,197493,2,0,L|257:56,1,48,0|0,3:0|0:0,0:0:0:0:
395,170,197666,6,0,L|464:166,1,48,8|8,0:0|0:3,0:0:0:0:
442,167,197838,2,0,L|395:170,1,48,8|8,0:3|0:3,0:0:0:0:
221,174,198011,2,0,L|152:170,1,48,8|8,0:3|0:3,0:0:0:0:
173,171,198183,2,0,L|220:173,1,48,8|8,0:3|0:3,0:0:0:0:
395,170,198356,2,0,L|464:166,1,48,8|8,0:3|0:3,0:0:0:0:
443,167,198528,2,0,L|395:169,1,48,8|8,0:3|0:3,0:0:0:0:
222,279,198700,6,0,P|160:269|93:160,1,192,4|0,3:2|0:0,0:0:0:0:
196,170,199217,2,0,P|258:160|325:51,1,192,0|0,3:0|0:0,0:0:0:0:
156,274,199735,6,0,L|377:264,1,192,8|0,0:0|0:0,0:0:0:0:
251,260,200252,1,0,0:0:0:0:
84,280,200424,2,0,L|80:154,1,96,0|0,3:0|0:0,0:0:0:0:
248,176,200769,5,0,3:0:0:0:
80,184,200942,2,0,L|186:181,1,96,0|0,3:0|0:0,0:0:0:0:
343,180,201286,2,0,P|333:127|194:60,1,192,0|0,3:0|0:0,0:0:0:0:
393,99,201804,6,0,L|398:213,1,96,8|0,0:0|0:0,0:0:0:0:
231,308,202148,1,0,0:0:0:0:
188,288,202234,1,0,0:0:0:0:
170,245,202320,1,0,0:0:0:0:
188,202,202406,1,0,0:0:0:0:
231,183,202492,1,0,0:0:0:0:
327,197,202666,1,0,0:0:0:0:
160,85,202838,6,0,P|92:133|158:184,1,192,0|0,3:0|0:0,0:0:0:0:
255,84,203355,2,0,P|323:132|257:183,1,192,0|0,3:0|0:0,0:0:0:0:
90,300,203873,6,0,L|311:290,1,192,8|0,0:0|0:0,0:0:0:0:
185,282,204390,1,0,0:0:0:0:
19,262,204562,2,0,L|146:256,1,96,0|0,3:0|0:0,0:0:0:0:
282,251,204907,5,0,3:0:0:0:
114,257,205080,2,0,L|112:142,1,96,0|0,3:0|0:0,0:0:0:0:
279,247,205424,2,0,P|347:295|281:346,1,192,0|0,3:0|0:0,0:0:0:0:
114,159,205942,2,0,L|5:150,1,96,8|0,0:0|0:0,0:0:0:0:
185,234,206286,1,0,0:0:0:0:
229,216,206372,1,0,0:0:0:0:
260,180,206458,1,0,0:0:0:0:
271,134,206544,1,0,0:0:0:0:
259,88,206630,1,0,0:0:0:0:
226,53,206717,1,0,0:0:0:0:
182,37,206803,1,0,0:0:0:0:
424,104,206976,6,0,L|433:321,1,192,4|0,3:2|0:0,0:0:0:0:
329,165,207493,2,0,L|320:382,1,192,0|0,3:0|0:0,0:0:0:0:
152,209,208011,6,0,P|84:257|150:308,1,192,8|0,0:0|0:0,0:0:0:0:
244,298,208528,1,0,0:0:0:0:
411,258,208700,2,0,L|414:383,1,96,0|0,3:0|0:0,0:0:0:0:
244,298,209045,5,0,3:0:0:0:
415,352,209217,2,0,L|286:347,1,96,0|0,3:0|0:0,0:0:0:0:
151,291,209562,2,0,L|381:273,1,192,0|0,3:0|2:0,0:0:0:0:
174,260,210080,6,0,L|169:152,1,96,8|0,0:0|0:0,0:0:0:0:
336,183,210424,1,0,0:0:0:0:
379,165,210510,1,0,0:0:0:0:
396,122,210596,1,0,0:0:0:0:
377,79,210682,1,0,0:0:0:0:
333,64,210768,1,0,0:0:0:0:
236,61,210942,1,0,0:0:0:0:
69,243,211114,6,0,P|14:206|92:126,1,192,0|0,3:0|0:0,0:0:0:0:
172,153,211631,2,0,P|227:116|149:36,1,192,0|0,3:0|0:0,0:0:0:0:
331,233,212148,2,0,L|102:204,1,192,8|0,0:0|0:0,0:0:0:0:
237,201,212666,1,0,0:0:0:0:
404,126,212838,2,0,L|511:138,1,96,0|0,3:0|0:0,0:0:0:0:
328,190,213183,5,0,3:0:0:0:
161,253,213355,2,0,L|158:146,1,96,0|0,3:0|0:0,0:0:0:0:
328,190,213700,2,0,L|442:189,1,96,0|0,3:0|0:0,0:0:0:0:
324,96,214045,2,0,L|257:96,1,48
160,222,214217,5,0,0:0:0:0:
133,183,214303,1,0,0:0:0:0:
152,138,214389,1,0,3:0:0:0:
199,119,214475,1,0,3:0:0:0:
316,181,214562,2,0,L|324:119,3,48,0|0|0|0,3:0|3:0|3:0|3:0,0:0:0:0:
204,119,214907,2,0,L|121:116,1,48,0|0,3:0|3:0,0:0:0:0:
204,119,215080,2,0,L|295:123,1,48,0|0,3:0|3:0,0:0:0:0:
368,34,215252,2,0,L|451:31,1,48,4|0,3:2|0:0,0:0:0:0:
368,34,215425,2,0,L|277:38,1,48,8|8,0:3|0:3,0:0:0:0:
144,287,215597,6,0,L|195:285,1,48,10|0,0:3|0:0,0:0:0:0:
370,101,215769,1,0,0:0:0:0:
413,120,215855,1,0,0:0:0:0:
439,160,215941,1,2,0:3:0:0:
439,207,216027,1,0,0:0:0:0:
415,247,216113,1,0,3:0:0:0:
372,268,216200,1,0,0:0:0:0:
175,146,216286,6,0,L|89:144,1,48,8|0,0:0|0:0,0:0:0:0:
175,146,216459,2,0,L|261:144,1,48,2|0,0:3|0:0,0:0:0:0:
340,128,216631,2,0,L|343:201,1,48,2|0,0:3|0:0,0:0:0:0:
167,251,216804,2,0,L|164:324,1,48,2|0,0:3|0:3,0:0:0:0:
342,265,216976,2,0,L|428:263,1,48,0|0,3:0|0:0,0:0:0:0:
389,263,217148,2,0,L|342:265,1,48
117,200,217321,6,0,L|4:192,1,96,0|0,3:0|3:0,0:0:0:0:
189,242,217666,1,2,0:3:0:0:
177,288,217752,1,0,0:0:0:0:
147,324,217838,1,0,3:0:0:0:
103,343,217924,1,0,0:0:0:0:
271,267,218011,2,0,L|374:260,1,96,2|0,0:3|3:0,0:0:0:0:
319,254,218269,1,0,0:0:0:0:
150,137,218355,6,0,L|77:141,1,48,8|0,0:0|0:0,0:0:0:0:
150,137,218528,2,0,L|223:141,1,48
314,223,218700,2,0,L|387:227,1,48,0|0,3:0|0:0,0:0:0:0:
314,223,218873,2,0,L|241:227,1,48,2|0,0:3|0:3,0:0:0:0:
149,263,219045,2,0,L|67:267,2,48,8|0|8,0:3|0:0|0:3,0:0:0:0:
318,268,219390,5,0,3:0:0:0:
333,222,219476,1,0,0:0:0:0:
314,177,219562,1,0,0:0:0:0:
268,162,219648,1,0,0:0:0:0:
151,168,219735,2,0,L|145:101,3,48,2|0|2|0,0:3|0:0|3:3|0:0,0:0:0:0:
265,114,220080,1,0,0:0:0:0:
311,99,220166,1,0,0:0:0:0:
330,54,220252,1,0,0:0:0:0:
315,8,220338,1,0,0:0:0:0:
148,293,220424,6,0,L|32:287,1,96,8|0,0:0|0:0,0:0:0:0:
100,288,220683,1,0,0:0:0:0:
217,232,220769,2,0,L|305:232,1,48,2|0,0:3|0:0,0:0:0:0:
265,232,220942,2,0,L|217:232,1,48
100,198,221114,2,0,L|38:197,2,48,2|0|0,3:3|0:0|0:0,0:0:0:0:
347,64,221459,6,0,L|354:127,3,48,8|8|8|8,3:3|0:3|3:3|0:3,0:0:0:0:
235,139,221804,2,0,L|124:140,1,96,8|8,0:3|3:3,0:0:0:0:
307,262,222148,2,0,L|385:262,2,48,8|0|8,0:3|0:0|3:3,0:0:0:0:
139,138,222493,1,8,3:2:0:0:
405,318,222666,5,0,0:0:0:0:
394,271,222752,1,8,0:3:0:0:
362,235,222838,1,0,0:0:0:0:
318,218,222924,1,8,0:3:0:0:
201,186,223011,2,0,L|127:186,1,48,0|8,0:0|0:3,0:0:0:0:
201,186,223183,2,0,L|249:186,1,48,0|8,0:0|0:3,0:0:0:0:
201,186,223355,2,0,L|153:186,1,48,0|8,0:0|0:3,0:0:0:0:
358,360,223528,5,4,0:0:0:0:
402,342,223614,1,0,0:0:0:0:
441,315,223700,1,0,0:0:0:0:
472,278,223786,1,0,0:0:0:0:
488,234,223872,1,0,0:0:0:0:
496,190,223959,1,0,0:0:0:0:
493,140,224045,1,0,0:0:0:0:
484,95,224131,1,0,0:0:0:0:
464,53,224217,1,0,0:0:0:0:
431,19,224303,1,0,0:0:0:0:
390,15,224390,1,0,0:0:0:0:
344,15,224476,1,0,0:0:0:0:
174,135,224562,6,0,L|90:135,1,48,8|0,0:0|0:0,0:0:0:0:
174,135,224735,2,0,L|261:137,1,48
339,188,224907,2,0,L|416:189,1,48,8|8,0:3|0:3,0:0:0:0:
386,188,225080,2,0,L|338:187,1,48,8|8,0:3|0:3,0:0:0:0:
220,230,225252,1,8,3:3:0:0:
172,230,225338,1,8,0:3:0:0:
220,230,225424,1,8,0:3:0:0:
469,290,225597,5,8,3:3:0:0:
458,243,225683,1,8,0:3:0:0:
425,209,225769,1,8,3:3:0:0:
379,198,225855,1,0,0:0:0:0:
262,142,225942,2,0,L|203:136,1,48
262,142,226114,2,0,L|321:136,1,48,8|0,3:3|0:0,0:0:0:0:
425,62,226286,2,0,L|484:56,1,48
425,62,226458,2,0,L|366:56,1,48,8|8,3:3|0:3,0:0:0:0:
203,109,226631,6,0,L|201:197,1,48,8|0,0:3|0:0,0:0:0:0:
376,316,226804,1,8,0:3:0:0:
421,301,226890,1,8,0:3:0:0:
448,263,226976,1,8,0:3:0:0:
448,216,227062,1,0,0:0:0:0:
419,178,227148,1,8,0:3:0:0:
374,165,227235,1,8,0:3:0:0:
256,312,227321,2,0,L|197:306,1,48,8|0,0:3|0:0,0:0:0:0:
256,312,227493,2,0,L|315:306,1,48,8|8,0:3|0:3,0:0:0:0:
125,285,227666,5,8,3:3:0:0:
105,239,227752,1,0,0:0:0:0:
125,197,227838,1,2,0:3:0:0:
169,179,227924,1,2,0:3:0:0:
285,210,228011,2,0,L|293:139,3,48,8|8|8|8,0:3|0:3|0:3|0:3,0:0:0:0:
174,95,228355,2,0,L|114:96,1,48,8|0,0:3|0:0,0:0:0:0:
174,95,228528,2,0,L|262:92,1,48,8|0,0:3|0:0,0:0:0:0:
396,157,228700,6,0,L|400:228,1,48,8|0,0:0|0:0,0:0:0:0:
225,319,228873,2,0,L|165:320,1,48,2|0,0:3|0:0,0:0:0:0:
225,319,229046,2,0,L|313:316,1,48,8|8,0:3|0:3,0:0:0:0:
388,304,229217,2,0,L|389:367,1,48,8|8,0:3|0:3,0:0:0:0:
271,238,229390,2,0,L|211:239,1,48,8|0,0:3|0:0,0:0:0:0:
271,238,229563,2,0,L|359:235,1,48,8|8,0:3|0:3,0:0:0:0:
141,129,229735,6,0,L|69:129,1,48,0|0,3:0|0:0,0:0:0:0:
271,156,229907,2,0,L|346:156,1,48,0|0,3:0|0:0,0:0:0:0:
319,156,230080,2,0,L|271:156,1,48,8|8,0:3|0:3,0:0:0:0:
94,284,230252,2,0,L|92:209,1,48,8|8,3:3|0:3,0:0:0:0:
272,261,230424,2,0,L|320:261,1,48,8|0,0:3|0:0,0:0:0:0:
272,261,230597,2,0,L|224:261,1,48,8|8,0:3|0:3,0:0:0:0:
76,158,230769,5,8,0:3:0:0:
23,159,230855,1,8,0:3:0:0:
76,158,230942,1,8,0:3:0:0:
128,156,231028,1,8,0:3:0:0:
309,185,231114,1,8,0:3:0:0:
362,186,231200,1,8,0:3:0:0:
309,185,231287,1,8,0:3:0:0:
257,183,231373,1,8,0:3:0:0:
85,356,231459,2,0,L|83:271,1,48,8|8,0:3|0:3,0:0:0:0:
257,183,231631,2,0,L|259:98,1,48,8|8,0:3|0:3,0:0:0:0:
71,133,231804,1,4,0:0:0:0:
