osu file format v14

[General]
AudioFilename: audio.mp3
AudioLeadIn: 0
PreviewTime: 66200
Countdown: 0
SampleSet: Soft
StackLeniency: 0.7
Mode: 2
LetterboxInBreaks: 0
WidescreenStoryboard: 1

[Editor]
Bookmarks: 223528
DistanceSpacing: 1.3
BeatDivisor: 4
GridSize: 4
TimelineZoom: 2.4

[Metadata]
Title:Pavor Nocturnus
TitleUnicode:Pavor Nocturnus
Artist:Igorrr
ArtistUnicode:Igorrr
Creator:Spectator
Version:Secre's Platter
Source:
Tags:razor sharp arthas autofanboy alienflybot afb secre chickenbible electronic other constructed language instrumental breakcore nostril gautier serre Öxxö Xööx Oxxo Xoox
BeatmapID:2814444
BeatmapSetID:1334111

[Difficulty]
HPDrainRate:4
CircleSize:3.6
OverallDifficulty:8.1
ApproachRate:8.1
SliderMultiplier:1.78
SliderTickRate:1

[Events]
//Background and Video events
0,0,"Autumn Landscape at Dusk.jpg",0,0
//Break Periods
//Storyboard Layer 0 (Background)
//Storyboard Layer 1 (Fail)
//Storyboard Layer 2 (Pass)
//Storyboard Layer 3 (Foreground)
//Storyboard Layer 4 (Overlay)
//Storyboard Sound Samples

[TimingPoints]
80,344.827586206897,6,2,1,40,1,0
8355,-100,6,2,1,45,0,0
14562,-100,6,2,1,50,0,0
15597,-100,6,2,1,55,0,0
16631,-100,6,2,1,60,0,0
49735,-100,6,2,1,70,0,0
65252,-100,6,2,1,70,0,0
66286,-100,6,2,1,70,0,0
99390,-100,6,2,1,70,0,1
115942,-100,6,2,1,40,0,0
132493,-100,6,2,1,55,0,0
149045,-100,6,2,1,70,0,0
149562,-100,6,2,1,55,0,0
150942,-100,6,2,1,70,0,0
153873,-100,6,2,1,70,0,0
154390,-100,6,2,1,55,0,0
166631,-100,6,2,1,70,0,1
181114,-100,6,2,1,70,0,1
182148,-100,6,2,1,70,0,1
198700,-100,6,2,1,60,0,0
215597,-100,6,2,1,70,0,1
228700,-100,6,2,1,70,0,1
231804,-100,6,2,2,70,0,0

[Colours]
Combo1 : 158,163,159
Combo2 : 224,166,95
Combo3 : 182,109,119

[HitObjects]
416,217,80,6,0,L|217:219,2,178,0|0|0,3:1|0:0|0:0,0:0:0:0:
112,259,1114,2,0,L|110:51,1,178,8|0,0:0|0:0,0:0:0:0:
192,75,1631,1,0,0:0:0:0:
277,117,1804,2,0,L|282:16,1,89
129,220,2148,6,0,L|308:220,2,178,0|0|0,3:0|0:0|0:0,0:0:0:0:
412,266,3183,2,0,L|412:55,1,178,8|0,0:0|0:0,0:0:0:0:
330,83,3700,1,0,0:0:0:0:
414,97,3873,2,0,L|413:-5,1,89
251,154,4217,6,0,L|73:159,2,178,0|0|0,3:0|0:0|0:0,0:0:0:0:
344,115,5080,1,0,0:0:0:0:
173,232,5252,2,0,L|165:35,1,178,8|0,0:0|0:0,0:0:0:0:
246,47,5769,1,0,0:0:0:0:
159,62,5942,2,0,L|161:158,1,89
322,163,6286,6,0,L|204:164,1,89,0|0,3:0|3:0,0:0:0:0:
322,163,6631,2,0,L|322:57,1,89,0|0,0:0|3:0,0:0:0:0:
236,76,6976,2,0,L|336:74,1,89
162,209,7321,5,8,0:0:0:0:
84,175,7493,1,0,0:0:0:0:
84,91,7665,1,0,0:0:0:0:
162,58,7838,1,0,0:0:0:0:
252,57,8011,1,0,0:0:0:0:
296,56,8097,1,0,0:0:0:0:
340,56,8183,1,0,0:0:0:0:
179,272,8355,6,0,P|116:239|223:33,1,356,0|0,3:0|0:0,0:0:0:0:
382,162,9390,2,0,L|166:161,2,178,8|0|0,0:0|0:0|0:0,0:0:0:0:
114,228,10424,6,0,L|106:111,1,89,0|0,3:0|3:0,0:0:0:0:
287,123,10942,2,0,L|298:18,1,89,0|0,3:0|0:0,0:0:0:0:
211,33,11286,1,0,0:0:0:0:
372,262,11459,2,0,P|434:209|355:-21,1,356,8|0,0:0|0:0,0:0:0:0:
279,32,12321,1,0,0:0:0:0:
115,189,12493,6,0,L|101:84,1,89,0|0,3:0|0:0,0:0:0:0:
191,88,12838,1,0,0:0:0:0:
360,194,13011,2,0,L|374:89,1,89
284,93,13356,1,0,0:0:0:0:
124,233,13528,6,0,L|112:140,1,89,8|0,0:0|0:0,0:0:0:0:
195,143,13873,2,0,L|199:38,1,89
104,95,14217,1,0,0:0:0:0:
101,50,14303,1,0,0:0:0:0:
98,6,14389,1,0,0:0:0:0:
354,113,14562,6,0,L|457:115,1,89,0|0,3:0|3:0,0:0:0:0:
354,113,14907,2,0,L|231:111,1,89
425,192,15252,2,0,L|431:73,1,89
176,167,15597,6,0,L|71:164,1,89,0|0,3:0|2:0,0:0:0:0:
176,167,15942,2,0,L|76:166,1,89,0|0,2:0|3:0,0:0:0:0:
252,259,16286,1,0,2:0:0:0:
296,257,16372,1,0,0:0:0:0:
340,256,16458,1,0,3:0:0:0:
71,229,16631,6,0,P|66:160|227:83,1,267,4|0,3:2|3:0,0:0:0:0:
312,124,17321,1,0,0:0:0:0:
221,127,17493,1,0,0:0:0:0:
385,289,17666,6,0,P|438:254|366:103,1,267,8|0,0:0|0:0,0:0:0:0:
272,165,18355,2,0,L|262:48,1,89
433,127,18700,6,0,L|251:129,2,178,0|0|0,3:0|0:0|0:0,0:0:0:0:
138,290,19735,2,0,P|83:244|176:101,1,267,8|0,0:0|0:0,0:0:0:0:
256,135,20424,2,0,L|132:135,1,89
426,88,20769,5,0,3:0:0:0:
497,134,20941,1,0,0:0:0:0:
495,220,21113,1,0,0:0:0:0:
422,264,21286,1,0,3:0:0:0:
340,211,21459,2,0,L|436:208,1,89
252,181,21804,6,0,L|242:65,1,89,8|0,0:0|0:0,0:0:0:0:
324,92,22148,2,0,L|327:-20,1,89
236,65,22493,2,0,L|226:-38,1,89
391,192,22838,6,0,L|210:192,1,178,0|0,3:0|0:0,0:0:0:0:
302,278,23355,2,0,L|488:277,1,178,0|0,3:0|0:0,0:0:0:0:
236,187,23873,6,0,L|131:187,1,89,8|0,0:0|0:0,0:0:0:0:
236,187,24217,2,0,L|343:188,1,89
281,127,24476,1,0,0:0:0:0:
237,126,24562,1,0,0:0:0:0:
191,126,24648,1,0,0:0:0:0:
237,126,24735,1,0,0:0:0:0:
481,192,24907,6,0,P|489:258|320:358,1,267,4|0,3:2|3:0,0:0:0:0:
428,291,25597,2,0,L|436:175,1,89
259,166,25942,6,0,L|68:165,1,178,8|0,0:0|0:0,0:0:0:0:
174,258,26459,1,0,2:0:0:0:
262,258,26631,1,0,2:0:0:0:
351,259,26803,1,0,0:0:0:0:
188,195,26976,6,0,L|181:105,1,89,0|0,3:0|3:0,0:0:0:0:
261,89,27321,1,0,0:0:0:0:
422,197,27493,2,0,L|431:108,1,89,0|0,3:0|0:0,0:0:0:0:
354,103,27838,1,0,0:0:0:0:
190,216,28011,6,0,L|373:214,1,178,8|0,0:0|0:0,0:0:0:0:
281,145,28528,1,0,3:0:0:0:
435,136,28700,1,0,2:0:0:0:
435,91,28786,1,0,3:0:0:0:
435,47,28872,1,0,2:0:0:0:
186,260,29045,6,0,P|109:230|205:123,1,267,0|0,3:0|3:0,0:0:0:0:
284,150,29735,2,0,L|288:44,1,89
116,140,30080,6,0,L|109:27,1,89,8|0,0:0|0:0,0:0:0:0:
196,47,30424,2,0,L|84:50,1,89
196,47,30769,2,0,L|292:48,1,89
41,238,31114,6,0,P|41:172|204:80,1,267,0|0,3:0|3:0,0:0:0:0:
289,151,31804,2,0,L|162:152,1,89
366,195,32148,5,8,0:0:0:0:
366,150,32234,1,0,0:0:0:0:
367,106,32320,1,0,0:0:0:0:
275,101,32493,2,0,L|166:100,1,89
275,101,32838,2,0,L|398:94,1,89
117,284,33183,6,0,P|71:248|181:108,1,267,4|0,3:2|3:0,0:0:0:0:
248,122,33873,2,0,L|262:21,1,89
93,157,34217,6,0,L|85:-45,1,178,8|0,0:0|0:0,0:0:0:0:
172,47,34735,1,0,0:0:0:0:
340,137,34907,2,0,L|343:32,1,89
98,263,35252,6,0,L|291:263,1,178,0|0,3:0|0:0,0:0:0:0:
186,193,35769,2,0,L|8:193,1,178,0|0,3:0|0:0,0:0:0:0:
176,117,36286,6,0,L|181:6,1,89,8|0,0:0|0:0,0:0:0:0:
92,92,36631,1,0,0:0:0:0:
90,47,36717,1,0,0:0:0:0:
88,3,36803,1,0,0:0:0:0:
175,115,36976,2,0,L|61:117,1,89
332,276,37321,6,0,P|398:229|315:76,1,267,0|0,3:0|3:0,0:0:0:0:
252,137,38011,2,0,L|375:132,1,89
183,232,38355,6,0,L|5:233,1,178,8|0,0:0|0:0,0:0:0:0:
99,171,38873,1,0,0:0:0:0:
182,161,39045,2,0,L|72:163,1,89
343,224,39390,6,0,L|445:221,2,89,0|0|0,3:0|3:0|0:0,0:0:0:0:
257,172,39907,1,0,3:0:0:0:
343,149,40080,2,0,L|347:20,1,89
181,103,40424,6,0,L|172:11,1,89,8|0,0:0|0:0,0:0:0:0:
261,37,40769,1,0,0:0:0:0:
216,39,40855,1,0,0:0:0:0:
172,42,40941,1,0,0:0:0:0:
261,133,41114,1,0,0:0:0:0:
305,131,41200,1,0,0:0:0:0:
349,130,41286,1,0,0:0:0:0:
110,281,41459,6,0,P|36:258|126:143,1,267,4|0,3:2|3:0,0:0:0:0:
192,146,42148,2,0,L|286:147,1,89
107,275,42493,6,0,P|111:215|312:158,1,267,8|0,0:0|0:0,0:0:0:0:
366,182,43183,2,0,L|374:76,1,89,0|0,3:0|0:0,0:0:0:0:
130,258,43528,6,0,L|308:278,2,178,0|0|0,3:0|0:0|0:0,0:0:0:0:
396,307,44562,2,0,P|457:270|373:125,1,267,8|0,0:0|3:0,0:0:0:0:
227,185,45252,2,0,L|221:67,1,89
478,103,45597,6,0,P|488:174|326:286,1,267,0|0,0:0|3:0,0:0:0:0:
441,259,46286,2,0,L|453:143,1,89
286,148,46631,6,0,L|90:150,1,178,8|0,0:0|0:0,0:0:0:0:
194,239,47148,1,0,0:0:0:0:
108,212,47321,1,0,0:0:0:0:
22,192,47493,1,0,0:0:0:0:
257,180,47666,6,0,L|460:182,1,178,0|0,3:0|0:0,0:0:0:0:
346,129,48183,1,0,3:0:0:0:
426,127,48355,1,0,0:0:0:0:
509,128,48527,1,0,0:0:0:0:
254,236,48700,6,0,L|246:132,1,89,8|0,0:0|0:0,0:0:0:0:
333,148,49045,2,0,L|338:41,1,89
179,64,49390,2,0,L|62:66,1,89
356,153,49735,5,4,3:2:0:0:
432,188,49907,1,0,0:0:0:0:
434,272,50079,1,0,0:0:0:0:
358,311,50252,1,0,3:0:0:0:
434,272,50424,2,0,L|441:167,1,89
184,229,50769,5,8,0:0:0:0:
111,187,50941,1,0,0:0:0:0:
121,104,51113,1,0,0:0:0:0:
203,82,51286,1,0,0:0:0:0:
291,85,51459,2,0,L|195:83,1,89
446,253,51804,6,0,L|450:152,1,89,0|0,3:0|3:0,0:0:0:0:
369,171,52148,2,0,L|468:171,1,89,0|0,0:0|3:0,0:0:0:0:
369,171,52493,2,0,L|274:171,1,89
29,207,52838,6,0,L|27:109,1,89,8|0,0:0|0:0,0:0:0:0:
114,109,53183,2,0,L|1:111,1,89
114,109,53528,2,0,L|223:109,1,89
471,113,53873,6,0,L|475:222,2,89,0|0|0,3:0|0:0|0:0,0:0:0:0:
390,101,54390,1,0,3:0:0:0:
238,167,54562,2,0,L|236:47,1,89
487,98,54907,6,0,L|490:208,1,89,8|0,0:0|0:0,0:0:0:0:
406,185,55252,1,0,0:0:0:0:
248,182,55424,1,0,0:0:0:0:
336,183,55596,1,0,0:0:0:0:
425,184,55768,1,0,0:0:0:0:
179,231,55942,6,0,L|176:116,1,89,0|0,3:0|3:0,0:0:0:0:
263,127,56286,2,0,L|265:23,1,89,0|0,0:0|3:0,0:0:0:0:
176,124,56631,2,0,L|170:14,1,89
420,64,56976,5,8,0:0:0:0:
495,100,57148,1,0,0:0:0:0:
493,184,57320,1,0,0:0:0:0:
415,217,57493,1,0,0:0:0:0:
331,190,57666,1,0,0:0:0:0:
375,190,57752,1,0,0:0:0:0:
420,190,57838,1,0,0:0:0:0:
156,153,58011,5,4,3:2:0:0:
79,188,58183,1,0,0:0:0:0:
77,272,58355,1,0,0:0:0:0:
153,311,58528,1,0,3:0:0:0:
77,272,58700,2,0,L|71:167,1,89
328,229,59045,5,8,0:0:0:0:
400,187,59217,1,0,0:0:0:0:
390,104,59389,1,0,0:0:0:0:
308,82,59562,1,0,0:0:0:0:
221,85,59735,2,0,L|317:83,1,89
66,253,60080,6,0,L|62:152,1,89,0|0,3:0|3:0,0:0:0:0:
143,171,60424,2,0,L|44:171,1,89,0|0,0:0|3:0,0:0:0:0:
143,171,60769,2,0,L|238:171,1,89
483,207,61114,6,0,L|485:109,1,89,8|0,0:0|0:0,0:0:0:0:
398,109,61459,2,0,L|511:111,1,89,0|0,0:0|3:0,0:0:0:0:
398,109,61804,2,0,L|289:109,1,89
41,113,62149,6,0,L|37:222,2,89,0|0|0,3:0|0:0|0:0,0:0:0:0:
122,101,62666,1,0,3:0:0:0:
274,167,62838,2,0,L|276:47,1,89
25,98,63183,6,0,L|22:208,1,89,8|0,0:0|0:0,0:0:0:0:
106,185,63528,1,0,0:0:0:0:
264,182,63700,1,0,0:0:0:0:
175,183,63872,1,0,0:0:0:0:
86,184,64044,1,0,0:0:0:0:
333,231,64218,6,0,L|336:116,1,89,0|0,3:0|3:0,0:0:0:0:
249,127,64562,2,0,L|247:23,1,89,0|0,0:0|3:0,0:0:0:0:
336,124,64907,2,0,L|342:14,1,89
85,222,65252,6,0,L|190:222,3,89,8|0|0|0,0:0|0:0|0:0|0:0,0:0:0:0:
339,217,65942,2,0,L|343:87,1,89
92,221,66286,5,4,3:2:0:0:
50,208,66372,1,0,0:0:0:0:
33,168,66458,1,0,0:3:0:0:
53,130,66544,1,0,0:0:0:0:
95,121,66630,1,0,0:3:0:0:
183,112,66804,1,0,3:0:0:0:
341,139,66976,1,0,0:3:0:0:
341,94,67062,1,0,0:0:0:0:
341,50,67148,1,0,3:0:0:0:
80,233,67321,5,8,0:2:0:0:
76,188,67407,1,0,0:0:0:0:
73,144,67493,1,0,0:0:0:0:
163,141,67666,2,0,L|53:141,1,89,8|8,0:3|0:3,0:0:0:0:
163,141,68011,2,0,L|266:142,1,89,0|0,3:0|3:0,0:0:0:0:
491,229,68355,6,0,L|493:119,1,89,0|0,3:0|3:3,0:0:0:0:
402,137,68700,1,2,0:3:0:0:
446,136,68786,1,0,0:0:0:0:
490,135,68872,1,2,3:3:0:0:
402,137,69045,1,8,0:3:0:0:
490,135,69217,1,0,3:3:0:0:
226,158,69390,6,0,L|220:45,1,89,8|2,0:0|0:3,0:0:0:0:
305,57,69735,1,2,0:3:0:0:
131,164,69907,1,10,0:3:0:0:
127,119,69993,1,2,0:3:0:0:
123,75,70079,1,8,0:3:0:0:
208,73,70252,1,8,0:3:0:0:
444,226,70424,6,0,L|446:125,3,89,2|2|0|0,3:3|0:3|0:0|3:0,0:0:0:0:
360,139,71114,2,0,L|358:36,1,89
117,169,71459,6,0,L|112:71,1,89,8|0,0:0|0:0,0:0:0:0:
193,92,71804,1,0,0:0:0:0:
193,47,71890,1,0,0:0:0:0:
193,3,71976,1,2,0:3:0:0:
284,92,72148,1,2,3:3:0:0:
284,47,72234,1,0,0:0:0:0:
284,3,72320,1,2,0:3:0:0:
122,245,72493,5,8,3:3:0:0:
81,230,72579,1,8,0:3:0:0:
64,190,72665,1,8,3:3:0:0:
82,151,72751,1,8,0:3:0:0:
123,138,72837,1,2,0:3:0:0:
206,143,73011,1,2,3:3:0:0:
123,138,73183,1,0,2:0:0:0:
206,143,73355,1,0,3:0:0:0:
460,111,73528,6,0,L|464:194,10,44.5,8|8|8|8|8|8|8|8|8|8|8,0:3|0:3|0:3|0:3|0:3|0:3|0:3|0:3|0:3|0:3|0:3,0:0:0:0:
220,174,74562,6,0,L|214:78,1,89,4|2,3:2|0:3,0:0:0:0:
295,89,74907,2,0,L|302:-18,1,89,2|0,0:3|3:0,0:0:0:0:
220,172,75252,2,0,L|321:171,1,89,2|2,0:3|3:3,0:0:0:0:
53,257,75597,6,0,L|55:159,1,89,8|0,0:0|0:0,0:0:0:0:
134,160,75942,1,0,0:0:0:0:
219,167,76114,2,0,L|226:77,1,89,2|2,0:3|3:3,0:0:0:0:
140,89,76459,1,2,0:3:0:0:
387,198,76631,6,0,L|392:160,1,22.25,2|0,3:0|0:0,0:0:0:0:
455,147,76804,2,0,L|457:112,1,22.25,2|0,3:0|0:0,0:0:0:0:
336,273,76976,2,0,L|331:151,1,89,0|2,3:0|3:3,0:0:0:0:
429,201,77321,2,0,L|431:90,1,89,0|2,3:0|3:3,0:0:0:0:
187,172,77666,6,0,L|284:170,1,89,2|2,3:0|3:0,0:0:0:0:
187,172,78011,1,2,0:3:0:0:
145,161,78097,1,0,0:0:0:0:
125,123,78183,1,8,0:3:0:0:
142,83,78269,1,0,0:0:0:0:
183,70,78355,1,8,0:3:0:0:
271,73,78528,1,8,0:3:0:0:
30,234,78700,6,0,L|23:139,1,89,0|0,3:0|0:0,0:0:0:0:
112,157,79045,1,0,0:0:0:0:
111,112,79131,1,0,0:0:0:0:
111,68,79217,1,0,3:0:0:0:
193,71,79390,2,0,L|87:73,1,89,0|0,0:0|3:0,0:0:0:0:
268,197,79735,6,0,L|364:199,1,89,8|8,2:0|0:3,0:0:0:0:
268,197,80080,2,0,L|170:197,1,89,2|8,0:3|0:3,0:0:0:0:
268,197,80424,1,0,0:0:0:0:
268,152,80510,1,0,0:0:0:0:
269,108,80596,1,0,0:0:0:0:
23,198,80769,5,8,3:3:0:0:
17,154,80855,1,8,0:3:0:0:
33,113,80941,1,8,3:3:0:0:
68,86,81027,1,8,0:3:0:0:
112,81,81113,1,2,0:3:0:0:
197,85,81286,1,0,3:0:0:0:
281,145,81459,2,0,L|294:30,1,89,2|0,2:3|3:0,0:0:0:0:
130,228,81804,6,0,L|123:123,1,89,8|0,0:0|0:0,0:0:0:0:
212,133,82148,2,0,L|117:139,1,89,0|8,0:0|0:3,0:0:0:0:
284,206,82493,1,0,0:0:0:0:
328,205,82579,1,0,0:0:0:0:
372,205,82665,1,0,0:0:0:0:
112,201,82838,6,0,L|106:104,1,89,4|2,3:2|3:3,0:0:0:0:
189,102,83183,1,2,3:3:0:0:
144,103,83269,1,0,0:0:0:0:
100,104,83355,1,0,0:0:0:0:
188,180,83528,1,2,3:3:0:0:
232,179,83614,1,0,0:0:0:0:
276,179,83700,1,0,0:0:0:0:
121,237,83873,6,0,L|118:118,1,89,8|2,0:0|0:3,0:0:0:0:
207,131,84217,2,0,L|206:17,1,89,2|2,0:3|0:3,0:0:0:0:
161,48,84476,1,0,0:0:0:0:
112,113,84562,2,0,L|106:9,1,89,2|2,3:3|0:3,0:0:0:0:
268,150,84907,5,8,3:3:0:0:
348,173,85079,1,8,3:3:0:0:
352,257,85251,1,2,0:3:0:0:
275,289,85424,1,2,3:3:0:0:
352,257,85597,1,2,0:3:0:0:
351,212,85683,1,0,0:0:0:0:
350,168,85769,1,2,3:3:0:0:
95,206,85942,6,0,L|90:98,1,89,8|2,3:2|3:3,0:0:0:0:
180,106,86286,1,2,3:3:0:0:
180,61,86372,1,2,0:3:0:0:
180,17,86458,1,2,3:3:0:0:
132,26,86545,1,2,3:3:0:0:
84,126,86631,1,0,3:0:0:0:
82,81,86717,1,0,0:0:0:0:
81,37,86803,1,0,3:0:0:0:
244,209,86976,6,0,L|374:207,1,89,8|8,3:3|0:3,0:0:0:0:
244,209,87321,1,8,0:3:0:0:
199,209,87407,1,8,0:3:0:0:
155,209,87493,1,8,3:3:0:0:
244,209,87666,2,0,L|353:209,1,89,2|2,0:3|3:3,0:0:0:0:
171,283,88011,6,0,L|169:151,1,89,8|2,0:0|0:3,0:0:0:0:
254,150,88355,2,0,L|255:40,1,89,2|2,0:3|0:3,0:0:0:0:
207,56,88614,1,0,0:0:0:0:
160,63,88700,2,0,L|62:66,1,89,2|2,3:3|0:3,0:0:0:0:
235,288,89045,5,0,3:0:0:0:
307,244,89217,1,8,3:3:0:0:
302,160,89389,1,8,3:3:0:0:
224,126,89562,1,2,3:0:0:0:
302,160,89735,1,2,3:0:0:0:
346,159,89821,1,0,3:0:0:0:
391,159,89907,1,2,0:3:0:0:
230,244,90080,6,0,L|31:246,2,178,8|2|2,0:0|0:3|0:3,0:0:0:0:
317,188,90942,1,0,0:0:0:0:
76,192,91114,6,0,L|246:257,2,178,4|0|2,3:2|0:0|3:3,0:0:0:0:
160,139,91976,1,2,3:3:0:0:
401,212,92148,6,0,L|231:277,2,178,10|0|8,0:3|0:0|0:3,0:0:0:0:
313,163,93011,1,8,0:3:0:0:
79,220,93183,6,0,L|264:252,1,178,0|8,3:3|0:3,0:0:0:0:
427,165,93873,1,2,0:3:0:0:
22,187,94217,6,0,L|212:186,2,178,12|2|2,0:0|0:3|3:3,0:0:0:0:
118,119,95080,1,0,3:0:0:0:
386,192,95252,6,0,L|200:194,2,178,2|0|2,3:3|0:0|0:3,0:0:0:0:
475,145,96114,1,2,0:3:0:0:
212,189,96286,6,0,L|405:184,2,178,8|0|8,0:0|0:0|0:3,0:0:0:0:
125,127,97148,1,8,0:3:0:0:
396,63,97321,6,0,L|419:272,1,178,2|0,3:3|0:0,0:0:0:0:
134,203,98011,2,0,L|127:98,1,89
387,123,98355,6,0,L|191:121,2,178
474,109,99217,1,0,0:0:0:0:
212,237,99390,5,4,0:0:0:0:
169,225,99476,1,0,0:0:0:0:
134,198,99562,1,0,0:0:0:0:
112,159,99648,1,0,0:0:0:0:
106,115,99734,1,0,0:0:0:0:
117,73,99821,1,0,0:0:0:0:
143,37,99907,1,0,3:0:0:0:
181,14,99993,1,0,0:0:0:0:
225,8,100079,1,0,0:0:0:0:
310,32,100252,1,0,3:0:0:0:
151,267,100424,5,8,0:0:0:0:
149,222,100510,1,0,0:0:0:0:
147,178,100596,1,0,0:0:0:0:
237,159,100769,1,8,0:3:0:0:
238,114,100855,1,8,0:3:0:0:
239,70,100941,1,8,0:3:0:0:
82,80,101114,2,0,L|76:-32,1,89,2|0,3:3|3:0,0:0:0:0:
236,272,101459,6,0,L|343:273,1,89,0|2,3:0|3:3,0:0:0:0:
236,272,101804,1,2,0:3:0:0:
191,272,101890,1,0,0:0:0:0:
147,272,101976,1,2,3:3:0:0:
236,272,102148,1,8,0:3:0:0:
280,271,102234,1,8,0:3:0:0:
324,271,102320,1,8,3:0:0:0:
168,202,102493,5,8,0:0:0:0:
127,185,102579,1,8,0:3:0:0:
110,146,102665,1,8,3:3:0:0:
126,105,102751,1,8,0:3:0:0:
166,88,102837,1,0,0:0:0:0:
328,150,103011,1,8,3:3:0:0:
372,150,103097,1,8,0:3:0:0:
417,150,103183,1,0,3:0:0:0:
461,150,103269,1,0,0:0:0:0:
506,150,103355,1,0,3:0:0:0:
340,231,103528,5,0,3:0:0:0:
251,187,103700,1,8,0:3:0:0:
209,177,103786,1,8,0:3:0:0:
189,138,103872,1,8,0:3:0:0:
207,99,103958,1,8,0:3:0:0:
249,88,104044,1,2,3:0:0:0:
344,110,104217,2,0,L|345:6,1,89,2|2,0:3|3:3,0:0:0:0:
193,213,104562,6,0,L|12:210,1,178,8|2,0:0|0:3,0:0:0:0:
106,151,105080,1,8,3:3:0:0:
194,153,105252,1,8,3:3:0:0:
195,108,105338,1,8,0:3:0:0:
197,64,105424,1,8,3:3:0:0:
37,234,105597,5,8,3:3:0:0:
38,189,105683,1,0,0:0:0:0:
59,151,105769,1,8,3:3:0:0:
96,127,105855,1,0,0:0:0:0:
140,124,105941,1,2,0:3:0:0:
228,128,106114,1,2,3:3:0:0:
140,124,106286,1,2,0:3:0:0:
138,79,106372,1,0,0:0:0:0:
135,35,106458,1,0,3:0:0:0:
301,194,106631,6,0,L|302:93,1,89,8|8,0:3|0:3,0:0:0:0:
386,111,106976,2,0,L|389:17,1,89,8|8,0:3|0:3,0:0:0:0:
472,77,107321,2,0,L|477:-18,1,89,8|8,0:3|0:3,0:0:0:0:
223,237,107666,6,0,P|168:212|229:139,1,178,4|8,3:2|0:3,0:0:0:0:
267,125,108097,1,8,0:3:0:0:
311,124,108183,1,0,0:3:0:0:
224,154,108355,1,0,3:0:0:0:
179,154,108441,1,0,0:0:0:0:
135,154,108527,1,0,0:0:0:0:
302,251,108700,6,0,L|400:246,1,89,8|0,0:0|0:0,0:0:0:0:
302,251,109045,2,0,L|300:147,1,89,8|8,0:3|0:3,0:0:0:0:
385,160,109390,2,0,L|387:53,1,89,2|2,3:3|0:3,0:0:0:0:
226,110,109735,6,0,L|225:71,1,22.25,0|0,3:0|0:0,0:0:0:0:
160,71,109907,2,0,L|157:39,1,22.25,0|0,3:0|0:0,0:0:0:0:
287,202,110080,2,0,L|388:201,1,89,0|0,0:0|3:0,0:0:0:0:
287,202,110424,1,0,0:0:0:0:
242,202,110510,1,0,0:0:0:0:
198,202,110596,1,0,3:0:0:0:
444,194,110769,6,0,L|451:94,1,89,2|2,0:3|0:3,0:0:0:0:
296,174,111114,1,0,3:0:0:0:
266,141,111200,1,0,0:0:0:0:
256,98,111286,1,0,3:0:0:0:
270,57,111372,1,0,0:0:0:0:
303,28,111458,1,2,3:3:0:0:
346,20,111545,1,0,2:0:0:0:
387,35,111631,1,2,3:3:0:0:
234,200,111804,6,0,L|38:203,1,178,0|0,3:0|0:0,0:0:0:0:
143,138,112321,1,0,0:0:0:0:
230,141,112493,2,0,L|232:39,1,89,0|0,3:0|0:0,0:0:0:0:
68,207,112838,6,0,L|63:110,1,89,8|8,0:0|0:3,0:0:0:0:
155,155,113183,2,0,L|161:53,1,89,0|0,0:0|3:0,0:0:0:0:
113,72,113442,1,0,0:0:0:0:
64,119,113528,1,2,0:3:0:0:
63,74,113614,1,0,0:0:0:0:
63,30,113700,1,2,3:3:0:0:
226,219,113873,6,0,L|327:219,1,89,8|8,3:3|0:3,0:0:0:0:
226,219,114217,2,0,L|113:218,1,89,10|10,0:3|0:3,0:0:0:0:
226,219,114562,2,0,L|324:219,1,89,8|8,3:0|2:3,0:0:0:0:
149,182,114907,6,0,L|146:79,1,89,0|2,3:0|2:3,0:0:0:0:
238,117,115252,1,0,3:0:0:0:
238,72,115338,1,0,0:0:0:0:
238,28,115424,1,2,2:3:0:0:
326,107,115597,2,0,L|329:9,1,89,8|8,3:0|0:3,0:0:0:0:
74,262,115942,6,0,P|61:224|384:114,1,534,4|8,0:0|0:0,0:0:0:0:
212,252,117321,2,0,L|207:65,1,178
354,202,118011,6,0,L|358:106,1,89,0|0,3:0|3:0,0:0:0:0:
208,143,118528,2,0,L|386:141,1,178,0|0,3:0|0:0,0:0:0:0:
304,228,119045,2,0,L|106:237,2,178,8|0|0,0:0|0:0|0:0,0:0:0:0:
459,250,120080,6,0,L|466:50,1,178,0|0,3:0|0:0,0:0:0:0:
292,64,120769,1,0,0:0:0:0:
131,199,121114,2,0,L|117:15,1,178,8|0,0:0|0:0,0:0:0:0:
205,47,121631,1,0,0:0:0:0:
336,111,121976,1,0,0:0:0:0:
261,127,122148,6,0,L|66:127,2,178,0|0|0,3:0|0:0|0:0,0:0:0:0:
415,170,123183,2,0,L|420:71,1,89,8|0,0:0|0:0,0:0:0:0:
335,111,123528,1,0,0:0:0:0:
379,109,123614,1,0,0:0:0:0:
423,108,123700,1,0,0:0:0:0:
335,111,123873,1,0,0:0:0:0:
290,111,123959,1,0,0:0:0:0:
246,111,124045,1,0,0:0:0:0:
406,255,124217,6,0,L|409:54,1,178,0|0,3:0|0:0,0:0:0:0:
329,78,124735,1,0,3:0:0:0:
408,77,124907,1,0,0:0:0:0:
486,75,125080,1,0,0:0:0:0:
334,186,125252,6,0,L|151:191,1,178,8|0,0:0|0:0,0:0:0:0:
249,265,125769,2,0,L|443:263,1,178
271,200,126286,6,0,L|263:13,1,178,0|0,3:0|0:0,0:0:0:0:
354,92,126804,2,0,L|358:287,1,178,0|0,3:0|0:0,0:0:0:0:
201,164,127321,6,0,L|191:51,1,89,8|0,0:0|0:0,0:0:0:0:
111,88,127666,2,0,L|101:-12,1,89
194,83,128011,2,0,L|95:87,1,89
262,203,128355,6,0,L|465:203,1,178,0|0,3:0|0:0,0:0:0:0:
354,138,128873,1,0,3:0:0:0:
265,137,129045,1,0,0:0:0:0:
176,136,129217,1,0,0:0:0:0:
336,263,129390,6,0,P|390:225|315:157,1,178,8|0,0:0|0:0,0:0:0:0:
250,144,129907,1,0,0:0:0:0:
336,127,130080,1,0,0:0:0:0:
421,122,130252,1,0,0:0:0:0:
271,234,130424,6,0,L|266:139,1,89,0|0,3:0|3:0,0:0:0:0:
341,133,130769,1,0,0:0:0:0:
185,123,130942,1,0,3:0:0:0:
100,123,131114,1,0,0:0:0:0:
16,123,131286,1,0,0:0:0:0:
262,233,131459,5,8,0:0:0:0:
261,188,131545,1,0,0:0:0:0:
261,144,131631,1,0,0:0:0:0:
213,122,131717,1,0,0:0:0:0:
167,109,131804,1,0,0:0:0:0:
212,75,131890,1,0,0:0:0:0:
257,83,131976,1,0,0:0:0:0:
301,83,132062,1,0,0:0:0:0:
346,83,132148,1,0,0:0:0:0:
301,83,132235,1,0,0:0:0:0:
257,83,132321,1,0,0:0:0:0:
498,299,132493,6,0,P|502:242|318:149,1,267,4|0,3:2|0:0,0:0:0:0:
261,192,133183,2,0,L|380:194,1,89
191,259,133528,6,0,P|116:217|243:47,1,356,8|0,0:0|3:0,0:0:0:0:
313,73,134390,1,0,0:0:0:0:
162,207,134562,6,0,L|151:102,1,89,0|0,3:0|3:0,0:0:0:0:
67,130,134907,2,0,L|56:29,1,89,0|0,0:0|3:0,0:0:0:0:
148,61,135252,2,0,L|26:65,1,89
227,207,135597,6,0,L|423:204,1,178,8|0,0:0|0:0,0:0:0:0:
319,137,136114,1,0,0:0:0:0:
401,131,136286,2,0,L|399:14,1,89
162,256,136631,6,0,P|109:223|208:91,1,267,0|0,3:0|3:0,0:0:0:0:
282,113,137321,2,0,L|291:5,1,89,0|0,0:0|3:0,0:0:0:0:
131,202,137666,6,0,L|323:199,1,178,8|0,0:0|0:0,0:0:0:0:
221,136,138183,1,0,0:0:0:0:
138,136,138355,1,0,3:0:0:0:
221,136,138528,1,0,0:0:0:0:
470,165,138700,6,0,P|480:234|325:345,1,267,0|0,3:0|3:0,0:0:0:0:
426,267,139390,2,0,L|429:144,1,89
342,169,139735,6,0,L|446:168,1,89,8|0,0:0|0:0,0:0:0:0:
342,169,140080,2,0,L|253:169,1,89
342,169,140424,2,0,L|446:168,1,89
187,253,140769,6,0,P|180:205|357:106,1,267,4|0,3:2|3:0,0:0:0:0:
251,181,141459,2,0,L|240:71,1,89,0|0,0:0|3:0,0:0:0:0:
407,95,141804,6,0,P|425:146|263:272,1,267,8|0,0:0|0:0,0:0:0:0:
385,256,142493,2,0,L|386:149,1,89,0|0,3:0|0:0,0:0:0:0:
138,193,142838,6,0,L|317:243,2,178,0|0|0,3:0|0:0|0:0,0:0:0:0:
417,178,143873,2,0,L|234:217,1,178,8|0,0:0|0:0,0:0:0:0:
72,130,144562,1,0,0:0:0:0:
478,306,144907,6,0,P|481:233|248:88,1,356,0|0,3:0|0:0,0:0:0:0:
362,131,145769,1,0,3:0:0:0:
209,128,145942,2,0,L|18:130,2,178,8|0|0,0:0|0:0|3:0,0:0:0:0:
127,61,146804,1,0,0:0:0:0:
378,185,146976,6,0,L|379:59,1,89,4|0,3:2|3:0,0:0:0:0:
290,117,147321,2,0,L|288:10,1,89,0|0,0:0|3:0,0:0:0:0:
202,86,147666,2,0,L|200:-3,1,89,0|0,3:0|3:0,0:0:0:0:
458,80,148011,5,8,0:0:0:0:
460,124,148097,1,0,0:0:0:0:
463,168,148183,1,0,3:0:0:0:
380,208,148355,1,2,3:0:0:0:
424,208,148441,1,0,0:0:0:0:
469,208,148527,1,0,3:0:0:0:
380,208,148700,1,2,3:0:0:0:
335,208,148786,1,0,3:0:0:0:
291,208,148872,1,0,3:0:0:0:
44,223,149045,6,0,L|34:105,1,89,4|0,3:2|0:0,0:0:0:0:
126,113,149390,2,0,L|36:113,1,89,2|0,0:3|3:0,0:0:0:0:
126,113,149735,2,0,L|36:113,1,89,2|0,0:3|3:0,0:0:0:0:
204,264,150080,6,0,L|418:260,1,178,8|2,0:0|0:3,0:0:0:0:
297,202,150597,1,0,3:0:0:0:
145,192,150769,2,0,L|138:76,1,89,2|2,0:3|0:3,0:0:0:0:
298,65,151114,5,8,3:3:0:0:
339,75,151200,1,8,0:3:0:0:
360,112,151286,1,8,3:3:0:0:
345,153,151372,1,8,0:3:0:0:
305,168,151459,1,2,0:3:0:0:
220,187,151631,1,2,3:3:0:0:
301,240,151804,1,2,0:3:0:0:
386,238,151976,1,2,3:3:0:0:
140,184,152148,6,0,L|134:5,1,178,8|0,0:0|0:0,0:0:0:0:
219,45,152666,1,2,0:3:0:0:
135,46,152838,1,0,3:0:0:0:
50,48,153011,1,0,3:0:0:0:
213,233,153183,6,0,L|316:234,1,89,8|8,3:3|0:3,0:0:0:0:
256,170,153442,1,0,0:0:0:0:
211,168,153528,1,8,0:3:0:0:
167,128,153614,1,8,0:3:0:0:
209,79,153700,1,8,0:3:0:0:
297,79,153873,2,0,L|182:78,1,89,2|2,0:3|0:3,0:0:0:0:
372,204,154217,6,0,L|372:83,1,89,8|2,0:0|0:3,0:0:0:0:
285,155,154562,2,0,L|393:154,1,89,0|2,0:0|2:3,0:0:0:0:
285,155,154907,2,0,L|160:157,1,89,2|2,3:3|0:3,0:0:0:0:
356,127,155252,6,0,L|361:220,1,89,8|8,3:3|3:3,0:0:0:0:
278,229,155597,1,0,0:0:0:0:
197,229,155769,2,0,L|189:127,1,89,0|0,3:0|0:0,0:0:0:0:
271,120,156114,1,0,3:0:0:0:
31,278,156286,6,0,P|22:228|200:124,1,267,8|0,0:0|0:0,0:0:0:0:
260,188,156976,1,0,0:0:0:0:
215,188,157062,1,0,0:0:0:0:
171,188,157148,1,0,0:0:0:0:
427,211,157321,6,0,L|424:116,1,89,4|8,0:0|0:3,0:0:0:0:
336,126,157666,2,0,L|438:126,1,89,0|0,3:3|0:3,0:0:0:0:
336,126,158011,1,2,0:3:0:0:
380,126,158097,1,0,0:0:0:0:
425,126,158183,1,0,3:0:0:0:
254,222,158355,6,0,L|158:224,2,89,8|0|0,0:0|0:0|0:0,0:0:0:0:
416,293,158873,1,2,0:3:0:0:
456,277,158959,1,0,0:0:0:0:
473,237,159045,1,2,3:0:0:0:
456,197,159131,1,0,0:0:0:0:
416,181,159217,1,2,3:0:0:0:
258,188,159390,5,0,3:0:0:0:
255,143,159476,1,8,0:3:0:0:
253,99,159562,1,0,3:0:0:0:
337,96,159735,1,0,3:0:0:0:
292,97,159821,1,8,0:3:0:0:
248,98,159907,1,0,3:0:0:0:
337,96,160080,2,0,L|454:98,1,89,0|0,3:0|3:0,0:0:0:0:
269,253,160424,6,0,P|206:222|290:183,1,178,8|0,0:0|0:0,0:0:0:0:
352,159,160942,1,8,0:3:0:0:
262,148,161114,2,0,L|165:148,1,89,8|8,0:3|0:3,0:0:0:0:
344,232,161459,6,0,L|350:127,1,89,8|8,3:3|0:3,0:0:0:0:
265,147,161804,2,0,L|256:42,1,89,2|2,0:3|0:3,0:0:0:0:
351,58,162148,1,8,0:3:0:0:
395,59,162234,1,0,0:0:0:0:
439,60,162320,1,2,0:3:0:0:
274,201,162493,6,0,L|158:204,2,89,8|0|2,0:0|0:0|0:3,0:0:0:0:
114,147,163011,1,8,0:3:0:0:
71,141,163097,1,8,0:3:0:0:
51,103,163183,1,2,3:3:0:0:
71,65,163269,1,0,0:0:0:0:
113,59,163355,1,8,0:3:0:0:
275,152,163528,6,0,L|371:152,2,89,0|0|0,3:0|3:0|0:0,0:0:0:0:
114,227,164045,2,0,P|62:174|133:113,1,178,0|0,3:0|3:0,0:0:0:0:
216,145,164562,5,8,3:2:0:0:
171,144,164648,1,8,3:3:0:0:
127,143,164734,1,0,3:0:0:0:
286,231,164907,2,0,L|292:129,1,89,0|0,3:0|3:0,0:0:0:0:
381,143,165252,2,0,L|390:44,1,89,0|0,3:0|3:0,0:0:0:0:
143,181,165597,6,0,L|141:78,1,89,4|0,0:0|0:0,0:0:0:0:
232,75,165942,1,0,0:0:0:0:
275,82,166028,1,0,0:0:0:0:
308,110,166114,1,0,0:0:0:0:
322,152,166200,1,0,0:0:0:0:
312,195,166286,1,0,0:0:0:0:
282,227,166373,1,0,0:0:0:0:
240,238,166459,1,0,0:0:0:0:
484,265,166631,6,0,L|484:162,1,89,8|0,0:0|0:0,0:0:0:0:
401,182,166976,2,0,L|494:177,1,89,8|8,0:3|0:3,0:0:0:0:
401,182,167321,2,0,L|288:185,1,89,2|2,3:0|3:3,0:0:0:0:
70,222,167666,6,0,L|75:114,1,89,0|0,3:0|3:0,0:0:0:0:
166,131,168011,2,0,L|172:38,1,89,2|0,0:3|3:0,0:0:0:0:
261,81,168355,2,0,L|267:-12,1,89,2|0,0:3|3:0,0:0:0:0:
425,246,168700,6,0,L|420:138,1,89,8|2,0:0|0:3,0:0:0:0:
329,155,169045,2,0,L|323:62,1,89,2|2,0:3|0:3,0:0:0:0:
234,105,169389,2,0,L|228:12,1,89,0|2,3:0|0:3,0:0:0:0:
479,161,169735,6,0,L|484:280,1,89,0|2,3:0|0:3,0:0:0:0:
396,301,170080,1,2,0:3:0:0:
352,292,170166,1,0,0:0:0:0:
321,262,170252,1,0,0:0:0:0:
310,219,170338,1,0,0:0:0:0:
324,178,170424,1,0,0:0:0:0:
359,151,170511,1,0,0:0:0:0:
402,146,170597,1,0,0:0:0:0:
244,129,170769,6,0,L|139:130,1,89,8|0,0:0|0:0,0:0:0:0:
244,129,171114,2,0,L|368:127,1,89,8|8,0:3|0:3,0:0:0:0:
244,129,171459,2,0,L|139:130,1,89,0|2,3:0|0:3,0:0:0:0:
409,114,171804,6,0,L|419:222,1,89,0|2,3:0|3:3,0:0:0:0:
337,207,172148,1,2,0:3:0:0:
183,186,172321,2,0,L|177:82,1,89,0|8,3:0|0:3,0:0:0:0:
257,82,172666,1,8,3:3:0:0:
100,149,172838,5,8,0:3:0:0:
98,104,172924,1,8,0:3:0:0:
96,60,173010,1,8,0:3:0:0:
187,101,173183,1,8,0:3:0:0:
188,56,173269,1,8,0:3:0:0:
189,12,173355,1,8,0:3:0:0:
280,104,173528,1,8,0:3:0:0:
281,59,173614,1,8,0:3:0:0:
283,15,173700,1,8,0:3:0:0:
36,266,173873,5,4,0:0:0:0:
25,222,173959,1,0,0:0:0:0:
29,178,174045,1,0,0:0:0:0:
46,137,174131,1,0,0:0:0:0:
75,104,174217,1,0,0:0:0:0:
113,81,174304,1,0,0:0:0:0:
156,71,174390,1,0,0:0:0:0:
200,75,174476,1,0,0:0:0:0:
241,93,174562,1,0,0:0:0:0:
160,159,174735,1,0,0:0:0:0:
321,186,174907,6,0,L|329:76,1,89,8|0,0:0|0:0,0:0:0:0:
411,109,175252,2,0,L|415:8,1,89,8|8,0:3|0:3,0:0:0:0:
498,116,175597,2,0,L|503:7,1,89,2|2,3:3|0:3,0:0:0:0:
252,209,175942,6,0,L|152:209,2,89,0|0|2,3:0|3:0|0:3,0:0:0:0:
161,127,176459,2,0,L|35:125,2,89,0|2|0,3:0|0:3|3:0,0:0:0:0:
327,167,176976,6,0,L|328:68,1,89,8|2,0:0|0:3,0:0:0:0:
240,82,177321,2,0,L|236:-12,1,89,2|2,0:3|0:3,0:0:0:0:
282,125,177580,1,0,0:0:0:0:
324,56,177666,2,0,L|324:-33,1,89,8|8,0:3|0:3,0:0:0:0:
71,186,178011,5,0,3:0:0:0:
67,141,178097,1,0,0:0:0:0:
64,97,178183,1,2,0:3:0:0:
156,96,178355,1,2,0:3:0:0:
111,95,178441,1,0,0:0:0:0:
67,94,178527,1,2,0:3:0:0:
156,96,178700,2,0,L|256:95,1,89,2|2,0:3|0:3,0:0:0:0:
84,253,179045,6,0,L|80:64,1,178,8|0,0:3|0:0,0:0:0:0:
170,80,179562,2,0,L|368:78,1,178,0|2,3:0|0:3,0:0:0:0:
190,227,180080,5,8,3:3:0:0:
190,182,180166,1,8,0:3:0:0:
190,138,180252,1,8,3:3:0:0:
284,146,180424,1,8,0:3:0:0:
284,101,180510,1,8,0:3:0:0:
284,57,180596,1,8,3:3:0:0:
190,227,180769,1,8,0:3:0:0:
190,182,180855,1,8,0:3:0:0:
190,138,180941,1,8,3:3:0:0:
438,217,181114,6,0,L|441:179,1,22.25,8|0,0:0|0:0,0:0:0:0:
375,164,181286,2,0,L|375:129,1,22.25
309,117,181459,2,0,L|309:87,1,22.25
245,73,181631,2,0,L|243:45,1,22.25
311,53,181804,2,0,L|311:22,1,22.25
379,53,181976,2,0,L|380:25,1,22.25
178,217,182148,6,0,P|125:190|195:115,1,178,4|2,0:0|0:3,0:0:0:0:
329,172,182666,1,2,0:3:0:0:
331,127,182752,1,0,0:0:0:0:
334,83,182838,1,2,0:3:0:0:
246,62,183011,1,2,0:3:0:0:
411,107,183183,5,8,2:0:0:0:
454,115,183269,1,0,0:0:0:0:
486,145,183355,1,0,0:0:0:0:
498,187,183441,1,0,0:0:0:0:
485,230,183527,1,2,0:3:0:0:
453,259,183614,1,2,0:3:0:0:
410,268,183700,1,2,0:3:0:0:
325,219,183873,2,0,L|423:219,1,89,0|0,3:0|0:0,0:0:0:0:
251,168,184217,5,8,3:3:0:0:
248,123,184303,1,8,0:3:0:0:
246,79,184389,1,8,3:3:0:0:
335,78,184562,2,0,L|246:79,1,89,0|0,0:0|3:0,0:0:0:0:
335,78,184907,2,0,L|338:184,1,89,0|0,2:0|3:0,0:0:0:0:
177,213,185252,5,8,0:3:0:0:
174,168,185338,1,8,0:3:0:0:
171,124,185424,1,8,0:3:0:0:
259,109,185597,1,8,0:3:0:0:
214,109,185683,1,8,0:3:0:0:
170,109,185769,1,8,0:3:0:0:
259,109,185942,1,8,0:3:0:0:
262,64,186028,1,8,0:3:0:0:
265,20,186114,1,8,0:3:0:0:
19,207,186286,5,0,3:0:0:0:
18,162,186372,1,0,0:0:0:0:
18,118,186458,1,0,0:0:0:0:
108,117,186631,2,0,L|10:117,1,89,2|10,0:3|0:3,0:0:0:0:
108,117,186976,2,0,L|217:117,1,89,8|8,0:3|0:3,0:0:0:0:
358,236,187321,6,0,L|359:55,1,178,8|0,0:0|0:0,0:0:0:0:
204,134,187838,1,8,0:3:0:0:
202,89,187924,1,0,0:0:0:0:
201,45,188010,1,8,0:3:0:0:
286,40,188183,1,2,0:3:0:0:
120,152,188355,6,0,L|113:56,1,89,0|0,3:0|3:0,0:0:0:0:
205,122,188700,2,0,L|206:31,1,89,0|0,0:0|3:0,0:0:0:0:
295,109,189045,2,0,L|301:14,1,89,0|0,0:0|3:0,0:0:0:0:
140,213,189390,6,0,L|49:209,1,89,0|0,3:0|3:0,0:0:0:0:
140,213,189735,2,0,L|236:210,1,89,0|0,3:0|3:0,0:0:0:0:
140,213,190080,2,0,L|45:216,1,89,0|0,3:0|3:0,0:0:0:0:
312,259,190424,5,4,0:0:0:0:
351,239,190510,1,0,0:0:0:0:
380,206,190596,1,0,0:0:0:0:
395,164,190682,1,0,0:0:0:0:
392,120,190768,1,0,0:0:0:0:
374,80,190855,1,0,0:0:0:0:
341,50,190941,1,0,0:0:0:0:
300,34,191027,1,0,0:0:0:0:
256,35,191113,1,0,0:0:0:0:
352,159,191286,1,0,0:0:0:0:
191,186,191458,6,0,L|183:76,1,89,8|0,0:0|0:0,0:0:0:0:
101,109,191803,2,0,L|97:8,1,89,8|8,0:3|0:3,0:0:0:0:
14,116,192148,2,0,L|9:7,1,89,0|2,3:0|0:3,0:0:0:0:
260,209,192493,6,0,L|360:209,2,89,0|0|0,3:0|3:0|0:0,0:0:0:0:
351,127,193010,2,0,L|477:125,2,89,0|2|2,3:0|0:3|3:3,0:0:0:0:
185,167,193527,6,0,L|184:68,1,89,8|8,0:0|0:3,0:0:0:0:
272,82,193872,2,0,L|276:-12,1,89,0|8,0:0|0:3,0:0:0:0:
230,125,194131,1,0,0:0:0:0:
188,56,194217,2,0,L|188:-33,1,89,8|8,0:3|0:3,0:0:0:0:
441,186,194562,5,8,3:2:0:0:
445,141,194648,1,0,0:0:0:0:
448,97,194734,1,8,0:3:0:0:
400,138,194821,1,8,0:3:0:0:
356,96,194906,1,8,0:3:0:0:
401,95,194992,1,8,0:3:0:0:
445,94,195080,1,8,0:3:0:0:
401,49,195166,1,8,0:3:0:0:
356,96,195251,2,0,L|256:95,1,89,8|8,0:3|0:3,0:0:0:0:
428,253,195597,6,0,L|432:64,1,178,8|2,0:0|0:3,0:0:0:0:
342,80,196114,2,0,L|144:78,1,178,8|2,0:3|0:3,0:0:0:0:
325,205,196631,5,0,3:0:0:0:
326,160,196717,1,8,0:3:0:0:
327,116,196803,1,8,3:3:0:0:
241,128,196976,2,0,L|341:129,1,89,0|0,0:0|3:0,0:0:0:0:
241,128,197321,2,0,L|341:129,1,89,0|0,0:0|3:0,0:0:0:0:
162,235,197666,5,8,0:0:0:0:
161,190,197752,1,8,0:3:0:0:
161,146,197838,1,8,0:3:0:0:
253,132,198011,1,8,0:3:0:0:
253,87,198097,1,8,0:3:0:0:
254,43,198183,1,8,0:3:0:0:
162,235,198355,1,8,0:3:0:0:
161,190,198441,1,8,0:3:0:0:
161,146,198527,1,8,0:3:0:0:
416,117,198700,6,0,P|470:147|373:294,1,267,4|0,3:2|3:0,0:0:0:0:
492,252,199390,2,0,L|497:139,1,89
330,228,199735,2,0,P|266:188|447:29,1,445,8|0,0:0|0:0,0:0:0:0:
285,131,200769,6,0,L|-3:128,1,267,0|0,3:0|3:0,0:0:0:0:
102,196,201459,1,0,0:0:0:0:
22,195,201631,1,0,0:0:0:0:
193,173,201804,6,0,L|191:77,1,89,8|0,0:0|0:0,0:0:0:0:
109,113,202148,2,0,L|99:0,1,89
183,52,202493,2,0,L|76:52,1,89
258,116,202838,6,0,P|328:145|250:270,1,267,0|0,3:0|3:0,0:0:0:0:
161,188,203528,2,0,L|155:78,1,89
316,123,203873,2,0,L|507:119,2,178,8|0|0,0:0|0:0|3:0,0:0:0:0:
32,174,204907,6,0,L|223:170,2,178,0|0|0,3:0|0:0|0:0,0:0:0:0:
307,214,205942,2,0,L|312:110,1,89,8|0,0:0|0:0,0:0:0:0:
231,109,206286,2,0,L|220:21,1,89
309,71,206631,1,0,0:0:0:0:
309,26,206717,1,0,0:0:0:0:
309,0,206803,1,0,0:0:0:0:
29,200,206976,6,0,P|28:104|180:52,1,267,4|0,3:2|3:0,0:0:0:0:
255,65,207666,2,0,L|157:60,1,89
334,70,208011,2,0,P|342:150|177:236,1,267,8|0,0:0|0:0,0:0:0:0:
114,194,208700,2,0,L|108:87,1,89,0|0,3:0|0:0,0:0:0:0:
356,93,209045,6,0,P|412:122|331:269,1,267,0|0,3:0|3:0,0:0:0:0:
430,268,209735,2,0,L|434:162,1,89,0|0,2:0|2:0,0:0:0:0:
276,146,210080,6,0,L|273:37,1,89,8|0,0:0|0:0,0:0:0:0:
360,99,210424,1,0,0:0:0:0:
361,54,210510,1,0,0:0:0:0:
362,10,210596,1,0,0:0:0:0:
446,105,210769,2,0,L|449:7,1,89
291,145,211114,6,0,L|83:147,1,178,0|0,3:0|0:0,0:0:0:0:
202,232,211631,2,0,L|319:230,2,89,0|0|0,3:0|0:0|0:0,0:0:0:0:
41,212,212148,6,0,P|36:148|197:54,1,267,8|0,0:0|0:0,0:0:0:0:
265,109,212838,2,0,L|173:137,1,89,0|0,3:0|0:0,0:0:0:0:
345,180,213183,6,0,L|349:81,1,89,0|0,3:0|3:0,0:0:0:0:
274,83,213528,1,0,0:0:0:0:
110,200,213700,2,0,L|104:9,1,178,0|0,3:0|0:0,0:0:0:0:
267,127,214217,5,0,0:0:0:0:
270,171,214303,1,0,0:0:0:0:
273,215,214389,1,0,3:0:0:0:
187,240,214562,1,0,3:0:0:0:
231,238,214648,1,0,3:0:0:0:
275,236,214734,1,0,3:0:0:0:
369,190,214907,1,0,3:0:0:0:
370,145,214993,1,0,3:0:0:0:
371,101,215079,1,0,3:0:0:0:
211,93,215252,5,4,3:2:0:0:
166,93,215338,1,0,0:0:0:0:
122,93,215424,1,8,0:3:0:0:
284,159,215597,1,10,0:3:0:0:
285,114,215683,1,0,0:0:0:0:
286,70,215769,1,0,0:0:0:0:
203,87,215942,1,2,0:3:0:0:
200,42,216028,1,0,0:0:0:0:
198,0,216114,1,0,3:0:0:0:
355,44,216286,6,0,P|417:86|344:141,1,178,8|2,0:0|0:3,0:0:0:0:
267,226,216804,1,2,0:3:0:0:
270,182,216890,1,0,0:3:0:0:
292,144,216976,1,0,3:0:0:0:
330,121,217062,1,0,0:0:0:0:
374,117,217148,1,0,0:0:0:0:
220,113,217321,6,0,L|212:9,1,89,0|0,3:0|3:0,0:0:0:0:
306,35,217666,2,0,L|314:-70,1,89,2|0,0:3|3:0,0:0:0:0:
229,157,218011,1,2,0:3:0:0:
273,156,218097,1,0,0:3:0:0:
317,155,218183,1,0,3:0:0:0:
151,170,218355,5,8,0:0:0:0:
147,125,218441,1,0,0:0:0:0:
144,81,218527,1,0,0:0:0:0:
229,86,218700,1,0,3:0:0:0:
231,41,218786,1,0,0:0:0:0:
234,0,218872,1,2,0:3:0:0:
144,81,219045,1,8,0:3:0:0:
100,81,219131,1,0,0:0:0:0:
55,82,219217,1,8,0:3:0:0:
217,187,219390,6,0,L|431:186,1,178,0|2,3:0|0:3,0:0:0:0:
311,112,219907,2,0,L|120:113,1,178,2|0,3:3|0:0,0:0:0:0:
300,233,220424,6,0,L|305:114,1,89,8|0,0:0|0:0,0:0:0:0:
394,129,220769,1,2,0:3:0:0:
394,84,220855,1,0,0:0:0:0:
394,40,220941,1,0,0:0:0:0:
351,38,221028,1,0,0:0:0:0:
306,63,221114,1,2,3:3:0:0:
303,18,221200,1,0,0:0:0:0:
301,0,221286,1,0,0:0:0:0:
472,75,221459,5,8,3:3:0:0:
475,119,221545,1,8,0:3:0:0:
479,163,221631,1,8,3:3:0:0:
395,176,221804,2,0,L|496:177,1,89,8|8,0:3|3:3,0:0:0:0:
395,176,222148,1,8,0:3:0:0:
350,176,222234,1,0,0:0:0:0:
306,176,222320,1,8,3:3:0:0:
146,167,222493,6,0,L|141:54,1,89,8|0,3:2|0:0,0:0:0:0:
231,78,222838,1,0,0:0:0:0:
186,78,222924,1,8,0:3:0:0:
142,78,223010,1,0,0:0:0:0:
231,78,223183,2,0,L|127:78,1,89
393,271,223528,5,4,0:0:0:0:
435,262,223614,1,0,0:0:0:0:
467,231,223700,1,0,0:0:0:0:
477,188,223786,1,0,0:0:0:0:
463,147,223872,1,0,0:0:0:0:
429,119,223959,1,0,0:0:0:0:
385,115,224045,1,0,0:0:0:0:
302,153,224217,1,0,0:0:0:0:
346,153,224303,1,0,0:0:0:0:
390,153,224389,1,0,0:0:0:0:
231,164,224562,6,0,L|223:51,1,89,8|0,0:0|0:0,0:0:0:0:
313,66,224907,1,8,0:3:0:0:
268,67,224993,1,8,0:3:0:0:
224,68,225079,1,8,0:3:0:0:
313,66,225252,1,8,3:3:0:0:
357,66,225338,1,8,0:3:0:0:
401,66,225424,1,8,0:3:0:0:
146,217,225597,5,8,3:3:0:0:
104,203,225683,1,8,0:3:0:0:
75,170,225769,1,8,3:3:0:0:
68,126,225855,1,0,0:0:0:0:
85,86,225941,1,0,0:0:0:0:
120,60,226028,1,0,0:0:0:0:
164,56,226114,1,8,3:3:0:0:
249,63,226286,2,0,L|157:62,1,89,0|8,0:0|3:3,0:0:0:0:
321,177,226631,5,8,0:3:0:0:
409,177,226803,1,8,0:3:0:0:
498,178,226975,1,8,0:3:0:0:
410,116,227148,1,8,0:3:0:0:
493,124,227321,2,0,L|495:22,1,89,8|8,0:3|0:3,0:0:0:0:
344,87,227666,5,8,3:3:0:0:
255,87,227838,1,2,0:3:0:0:
166,87,228010,1,8,0:3:0:0:
258,171,228183,2,0,L|361:168,2,89,8|8|8,0:3|0:3|0:3,0:0:0:0:
18,210,228700,5,8,0:0:0:0:
11,166,228786,1,0,0:0:0:0:
29,126,228872,1,2,0:3:0:0:
64,100,228958,1,0,0:0:0:0:
108,97,229044,1,8,0:3:0:0:
199,106,229217,1,8,0:3:0:0:
116,99,229390,1,8,0:3:0:0:
33,72,229562,1,8,0:3:0:0:
296,62,229735,5,0,3:0:0:0:
377,77,229907,1,0,3:0:0:0:
385,160,230079,1,8,0:3:0:0:
307,190,230252,1,8,3:3:0:0:
221,163,230424,2,0,L|107:164,1,89,8|8,0:3|0:3,0:0:0:0:
398,119,230769,5,8,0:3:0:0:
400,163,230855,1,8,0:3:0:0:
402,207,230941,1,8,0:3:0:0:
315,211,231114,1,8,0:3:0:0:
312,166,231200,1,8,0:3:0:0:
309,122,231286,1,8,0:3:0:0:
224,172,231459,1,8,0:3:0:0:
221,127,231545,1,8,0:3:0:0:
218,83,231631,1,8,0:3:0:0:
480,192,231804,5,4,0:0:0:0:
