osu file format v14

[General]
AudioFilename: Igorrr - Pavor Nocturnus [2015].mp3
AudioLeadIn: 0
PreviewTime: -1
Countdown: 1
SampleSet: Soft
StackLeniency: 0.2
Mode: 0
LetterboxInBreaks: 1
WidescreenStoryboard: 0

[Editor]
Bookmarks: 16711,39642
DistanceSpacing: 0.8
BeatDivisor: 8
GridSize: 4
TimelineZoom: 1.5

[Metadata]
Title:Pavor Nocturnus [2015]
TitleUnicode:Pavor Nocturnus [2015]
Artist:Igorrr
ArtistUnicode:Igorrr
Creator:grumd
Version:Difficulty
Source:soundfuckingcloud
Tags:music dubstep anime
BeatmapID:1088867
BeatmapSetID:512357

[Difficulty]
HPDrainRate:7
CircleSize:4
OverallDifficulty:8
ApproachRate:9
SliderMultiplier:1.5
SliderTickRate:1

[Events]
//Background and Video events
0,0,"bg.jpg",0,0
//Break Periods
//Storyboard Layer 0 (Background)
//Storyboard Layer 1 (Fail)
//Storyboard Layer 2 (Pass)
//Storyboard Layer 3 (Foreground)
//Storyboard Sound Samples

[TimingPoints]
160,344.827586206897,3,2,0,36,1,0
10160,-166.666666666667,3,2,0,36,0,0
10332,-100,3,2,0,36,0,0
16711,-83.3333333333333,3,2,0,36,0,0
49815,-80,3,2,0,36,0,0
65332,-71.4285714285714,3,2,0,36,0,0
92228,-66.6666666666667,3,2,0,36,0,0
99470,-50,3,2,0,36,0,0

[Colours]
Combo1 : 148,82,99
Combo2 : 118,86,65
Combo3 : 139,54,54
Combo4 : 160,129,63

[HitObjects]
360,272,160,6,0,P|456:236|452:120,1,225
368,80,849,2,0,L|216:100,1,150
40,256,1539,2,0,P|44:296|56:332,1,75
168,232,1884,2,0,P|176:192|172:152,1,75
248,320,2228,6,0,P|288:352|424:260,1,225
384,200,2918,2,0,P|332:164|332:80,1,150
408,40,3435,1,0,0:0:0:0:
211,112,3608,2,0,L|129:99,1,75
11,241,3953,2,0,L|101:228,1,75
217,284,4297,5,0,0:0:0:0:
299,253,4470,1,0,0:0:0:0:
379,102,4642,1,0,0:0:0:0:
364,188,4815,1,0,0:0:0:0:
458,336,4987,1,0,0:0:0:0:
391,280,5160,1,0,0:0:0:0:
364,188,5332,2,0,P|401:126|498:137,1,150
299,253,5849,1,0,0:0:0:0:
215,133,6022,2,0,L|227:53,1,75
88,290,6366,5,0,0:0:0:0:
227,259,6539,1,0,0:0:0:0:
31,221,6711,2,0,P|17:185|14:146,1,75
227,259,7056,2,0,P|223:296|209:330,1,75
185,179,7401,1,0,0:0:0:0:
341,246,7573,1,0,0:0:0:0:
88,290,7746,1,0,0:0:0:0:
88,290,7832,1,0,0:0:0:0:
88,290,7918,1,0,0:0:0:0:
329,340,8091,1,0,0:0:0:0:
329,340,8177,1,0,0:0:0:0:
329,340,8263,2,0,L|368:334,1,37.5
435,284,8435,6,0,L|439:256,22,18.75
431,239,9470,1,0,0:0:0:0:
411,216,9556,1,0,0:0:0:0:
385,201,9642,1,0,0:0:0:0:
355,196,9728,1,0,0:0:0:0:
324,199,9815,1,0,0:0:0:0:
295,207,9901,1,0,0:0:0:0:
269,223,9987,1,0,0:0:0:0:
250,246,10073,1,0,0:0:0:0:
237,273,10160,2,0,L|248:324,1,44.999998626709
172,368,10504,5,0,0:0:0:0:
212,132,10677,1,0,0:0:0:0:
150,206,10849,2,0,L|66:219,1,75
297,95,11194,2,0,L|380:105,1,75
435,174,11539,2,0,L|462:168,6,18.75
410,211,11884,2,0,L|372:203,1,37.5
351,294,12056,2,0,L|310:300,1,37.5
219,344,12229,1,0,0:0:0:0:
196,324,12315,1,0,0:0:0:0:
168,312,12401,1,0,0:0:0:0:
138,309,12487,1,0,0:0:0:0:
108,316,12573,5,0,0:0:0:0:
19,377,12746,1,0,0:0:0:0:
76,200,12918,1,0,0:0:0:0:
189,229,13091,1,0,0:0:0:0:
71,66,13263,2,0,L|61:23,1,37.5
138,133,13435,1,0,0:0:0:0:
138,133,13522,1,0,0:0:0:0:
138,133,13608,2,0,P|174:146|216:144,1,75
238,135,13866,1,0,0:0:0:0:
264,119,13953,2,0,L|272:72,1,37.5
327,181,14125,2,0,P|332:220|349:255,1,75
478,54,14470,1,0,0:0:0:0:
450,42,14556,1,0,0:0:0:0:
420,39,14642,6,0,P|380:39|338:50,1,75
247,225,14987,2,0,L|256:272,1,37.5
148,340,15160,2,0,L|153:290,1,37.5
60,185,15332,2,0,L|66:224,1,37.5
3,363,15504,2,0,L|12:323,1,37.5
159,195,15677,1,0,0:0:0:0:
171,167,15763,1,0,0:0:0:0:
171,137,15849,1,0,0:0:0:0:
157,110,15935,1,0,0:0:0:0:
134,89,16022,6,0,L|87:80,1,37.5
272,36,16194,1,0,0:0:0:0:
272,36,16280,1,0,0:0:0:0:
272,36,16366,6,0,L|316:30,1,37.5
459,206,16539,1,0,0:0:0:0:
459,206,16625,1,0,0:0:0:0:
459,206,16711,6,0,P|342:205|319:260,1,179.999994506836
361,362,17228,1,0,0:0:0:0:
199,165,17401,2,0,P|211:120|235:81,1,89.9999972534181
243,313,17746,2,0,P|205:353|81:346,1,179.999994506836
38,241,18263,1,0,0:0:0:0:
103,20,18435,1,0,0:0:0:0:
103,20,18522,1,0,0:0:0:0:
103,20,18608,1,0,0:0:0:0:
334,114,18780,1,0,0:0:0:0:
250,309,18953,1,0,0:0:0:0:
173,101,19125,1,0,0:0:0:0:
360,225,19297,1,0,0:0:0:0:
124,297,19470,2,0,L|30:280,1,89.9999972534181
317,145,19815,6,0,P|405:144|455:218,1,179.999994506836
457,249,20246,1,0,0:0:0:0:
447,283,20332,1,0,0:0:0:0:
424,311,20418,1,0,0:0:0:0:
392,327,20504,1,0,0:0:0:0:
211,232,20677,1,0,0:0:0:0:
317,45,20849,6,0,L|411:30,1,89.9999972534181
229,113,21194,1,0,0:0:0:0:
132,76,21366,1,0,0:0:0:0:
57,256,21539,2,0,L|72:351,1,89.9999972534181
326,126,21884,2,0,P|313:58|211:15,1,179.999994506836
32,98,22401,1,0,0:0:0:0:
326,276,22573,2,0,P|373:269|412:243,1,89.9999972534181
432,219,22832,1,0,0:0:0:0:
447,186,22918,5,0,0:0:0:0:
382,6,23091,1,0,0:0:0:0:
142,84,23263,1,0,0:0:0:0:
342,153,23435,1,0,0:0:0:0:
119,70,23608,2,0,L|138:168,1,89.9999972534181
7,364,23953,6,0,P|59:312|135:310,1,134.999995880127
143,320,24297,2,0,L|133:269,1,44.999998626709
225,169,24470,2,0,L|216:213,1,44.999998626709
246,306,24642,1,0,0:0:0:0:
273,328,24728,1,0,0:0:0:0:
306,340,24815,1,0,0:0:0:0:
341,342,24901,1,0,0:0:0:0:
375,332,24987,5,0,0:0:0:0:
326,98,25160,1,0,0:0:0:0:
437,255,25332,1,0,0:0:0:0:
284,178,25504,1,0,0:0:0:0:
476,91,25677,2,0,P|496:53|505:2,1,89.9999972534181
284,178,26022,2,0,P|309:240|418:253,1,179.999994506836
326,92,26539,1,0,0:0:0:0:
191,164,26711,1,0,0:0:0:0:
155,157,26797,1,0,0:0:0:0:
119,150,26884,1,0,0:0:0:0:
34,340,27056,1,0,0:0:0:0:
2,182,27228,1,0,0:0:0:0:
205,304,27401,1,0,0:0:0:0:
68,252,27573,1,0,0:0:0:0:
314,169,27746,1,0,0:0:0:0:
141,191,27918,1,0,0:0:0:0:
377,297,28091,6,0,B|420:286|420:286|466:291,1,89.9999972534181
227,365,28435,1,0,0:0:0:0:
195,344,28522,1,0,0:0:0:0:
176,314,28608,1,0,0:0:0:0:
170,277,28694,1,0,0:0:0:0:
176,242,28780,1,0,0:0:0:0:
360,169,28953,1,0,0:0:0:0:
242,56,29125,6,0,P|201:71|152:71,1,89.9999972534181
36,234,29470,2,0,P|66:207|115:191,1,89.9999972534181
379,332,29815,2,0,P|337:332|290:310,1,89.9999972534181
226,138,30160,1,0,0:0:0:0:
400,86,30332,1,0,0:0:0:0:
178,222,30504,2,0,L|131:212,1,44.999998626709
235,128,30677,2,0,L|281:117,1,44.999998626709
186,235,30849,2,0,L|84:214,1,89.9999972534181
97,216,31108,1,0,0:0:0:0:
97,216,31194,1,0,0:0:0:0:
23,261,31366,1,0,0:0:0:0:
23,261,31453,1,0,0:0:0:0:
23,261,31539,1,0,0:0:0:0:
97,315,31711,1,0,0:0:0:0:
97,315,31798,1,0,0:0:0:0:
97,315,31884,2,0,L|200:329,1,89.9999972534181
395,217,32228,6,0,P|326:187|316:83,1,179.999994506836
332,60,32660,1,0,0:0:0:0:
362,40,32746,2,0,L|419:32,1,44.999998626709
223,164,32918,2,0,L|273:173,1,44.999998626709
39,45,33091,1,0,0:0:0:0:
62,72,33177,1,0,0:0:0:0:
78,103,33263,6,0,P|87:149|78:192,1,89.9999972534181
333,355,33608,2,0,P|293:328|275:292,1,89.9999972534181
465,35,33953,2,0,P|461:80|435:119,1,89.9999972534181
251,151,34297,2,0,P|222:97|123:73,1,134.999995880127
121,78,34642,1,0,0:0:0:0:
45,290,34815,1,0,0:0:0:0:
31,142,34987,1,0,0:0:0:0:
151,328,35160,1,0,0:0:0:0:
371,255,35332,6,0,L|356:162,1,89.9999972534181
309,327,35677,1,0,0:0:0:0:
461,235,35849,1,0,0:0:0:0:
182,203,36022,1,0,0:0:0:0:
371,255,36194,1,0,0:0:0:0:
118,340,36366,2,0,P|51:304|51:203,1,179.999994506836
70,180,36797,1,0,0:0:0:0:
104,167,36884,2,0,L|154:177,1,44.999998626709
292,131,37056,2,0,L|337:122,1,44.999998626709
469,182,37228,1,0,0:0:0:0:
279,266,37401,6,0,L|371:281,1,89.9999972534181
50,198,37746,2,0,L|147:183,1,89.9999972534181
1,114,38091,1,0,0:0:0:0:
29,300,38263,1,0,0:0:0:0:
113,79,38435,2,0,P|194:65|257:133,1,179.999994506836
159,295,38953,1,0,0:0:0:0:
357,343,39125,2,0,L|459:328,1,89.9999972534181
272,321,39470,1,0,0:0:0:0:
299,236,39642,2,0,L|401:221,1,89.9999972534181
214,214,39987,1,0,0:0:0:0:
243,129,40160,2,0,L|345:114,1,89.9999972534181
155,321,40504,2,0,P|88:334|17:251,1,179.999994506836
16,222,40935,1,0,0:0:0:0:
25,186,41022,1,0,0:0:0:0:
48,158,41108,1,0,0:0:0:0:
79,140,41194,2,0,P|122:159|164:158,1,89.9999972534181
318,34,41539,6,0,L|305:124,1,89.9999972534181
481,129,41884,2,0,L|496:222,1,89.9999972534181
271,317,42228,1,0,0:0:0:0:
377,292,42401,1,0,0:0:0:0:
116,181,42573,2,0,P|67:217|56:292,1,134.999995880127
72,318,42918,2,0,L|163:335,1,89.9999972534181
338,268,43263,1,0,0:0:0:0:
279,65,43435,1,0,0:0:0:0:
214,238,43608,5,0,0:0:0:0:
426,177,43780,1,0,0:0:0:0:
209,229,43953,2,0,L|111:211,1,89.9999972534181
420,168,44297,2,0,L|322:150,1,89.9999972534181
490,309,44642,2,0,L|355:328,1,134.999995880127
321,319,44987,2,0,L|374:312,1,44.999998626709
196,283,45160,2,0,L|249:276,1,44.999998626709
339,209,45332,2,0,L|294:203,1,44.999998626709
464,173,45505,2,0,L|419:167,1,44.999998626709
367,79,45677,5,0,0:0:0:0:
247,208,45849,1,0,0:0:0:0:
207,88,46022,1,0,0:0:0:0:
141,276,46194,2,0,L|123:183,1,89.9999972534181
23,354,46539,1,0,0:0:0:0:
277,265,46711,2,0,P|327:268|371:285,1,89.9999972534181
450,381,47056,1,0,0:0:0:0:
388,187,47228,1,0,0:0:0:0:
512,91,47401,1,0,0:0:0:0:
284,69,47573,5,0,0:0:0:0:
284,69,47660,1,0,0:0:0:0:
284,69,47746,1,0,0:0:0:0:
236,190,47918,1,0,0:0:0:0:
236,190,48004,1,0,0:0:0:0:
236,190,48091,1,0,0:0:0:0:
164,86,48263,1,0,0:0:0:0:
164,86,48349,1,0,0:0:0:0:
164,86,48435,2,0,L|73:73,1,89.9999972534181
37,303,48780,6,0,P|113:267|168:269,1,134.999995880127
196,281,49125,1,0,0:0:0:0:
224,302,49211,1,0,0:0:0:0:
257,313,49297,1,0,0:0:0:0:
293,312,49384,1,0,0:0:0:0:
327,300,49470,1,0,0:0:0:0:
453,100,49642,2,0,L|464:154,1,44.999998626709
238,34,49815,5,0,0:0:0:0:
180,224,49987,1,0,0:0:0:0:
146,57,50160,1,0,0:0:0:0:
155,235,50332,1,0,0:0:0:0:
61,96,50504,1,0,0:0:0:0:
136,253,50677,1,0,0:0:0:0:
351,123,50849,6,0,L|445:138,1,93.75
237,220,51194,1,0,0:0:0:0:
461,268,51366,1,0,0:0:0:0:
213,305,51539,1,0,0:0:0:0:
445,244,51711,1,0,0:0:0:0:
300,60,51884,2,0,L|201:72,1,93.75
68,305,52228,1,0,0:0:0:0:
53,169,52401,1,0,0:0:0:0:
182,300,52573,1,0,0:0:0:0:
120,117,52746,1,0,0:0:0:0:
302,244,52918,1,0,0:0:0:0:
163,48,53091,1,0,0:0:0:0:
32,178,53263,1,0,0:0:0:0:
21,213,53349,1,0,0:0:0:0:
26,250,53435,1,0,0:0:0:0:
46,281,53522,1,0,0:0:0:0:
78,299,53608,1,0,0:0:0:0:
182,269,53780,1,0,0:0:0:0:
340,363,53953,2,0,B|385:379|385:379|432:374,1,93.75
504,201,54297,1,0,0:0:0:0:
347,347,54470,2,0,B|394:344|394:344|435:321,1,93.75
388,119,54814,1,0,0:0:0:0:
231,281,54987,2,0,B|180:298|180:298|76:287,1,140.625
61,269,55332,2,0,L|54:217,1,46.875
99,137,55504,1,0,0:0:0:0:
321,182,55677,2,0,P|368:177|410:157,1,93.75
234,56,56022,1,0,0:0:0:0:
175,258,56194,1,0,0:0:0:0:
254,133,56366,1,0,0:0:0:0:
272,337,56539,1,0,0:0:0:0:
305,193,56711,1,0,0:0:0:0:
398,346,56884,1,0,0:0:0:0:
492,130,57056,2,0,P|455:83|356:67,1,140.625
342,72,57401,2,0,L|331:124,1,46.875
234,245,57573,2,0,L|223:193,1,46.875
141,159,57746,1,0,0:0:0:0:
72,333,57918,1,0,0:0:0:0:
72,333,58004,1,0,0:0:0:0:
72,333,58091,1,0,0:0:0:0:
334,297,58263,1,0,0:0:0:0:
118,248,58435,1,0,0:0:0:0:
336,308,58608,1,0,0:0:0:0:
189,189,58780,1,0,0:0:0:0:
338,321,58953,1,0,0:0:0:0:
435,162,59125,2,0,L|424:62,1,93.75
348,229,59470,1,0,0:0:0:0:
146,147,59642,1,0,0:0:0:0:
321,89,59815,1,0,0:0:0:0:
188,267,59987,1,0,0:0:0:0:
164,49,60160,2,0,L|70:27,1,93.75
333,215,60504,2,0,L|427:193,1,93.75
491,354,60849,1,0,0:0:0:0:
255,284,61022,1,0,0:0:0:0:
372,71,61194,1,0,0:0:0:0:
436,207,61366,1,0,0:0:0:0:
254,95,61539,1,0,0:0:0:0:
221,113,61625,1,0,0:0:0:0:
201,144,61711,1,0,0:0:0:0:
196,181,61797,1,0,0:0:0:0:
205,217,61884,1,0,0:0:0:0:
312,271,62056,1,0,0:0:0:0:
142,347,62228,2,0,L|46:334,1,93.75
320,288,62573,1,0,0:0:0:0:
362,88,62746,1,0,0:0:0:0:
430,313,62918,1,0,0:0:0:0:
409,168,63091,1,0,0:0:0:0:
234,342,63263,2,0,P|285:290|284:222,1,140.625
260,197,63608,1,0,0:0:0:0:
141,234,63780,1,0,0:0:0:0:
47,49,63953,1,0,0:0:0:0:
4,202,64125,2,0,L|14:153,1,46.875
120,107,64297,1,0,0:0:0:0:
229,287,64470,2,0,L|221:233,1,46.875
99,195,64642,1,0,0:0:0:0:
134,358,64815,2,0,L|143:301,1,46.875
322,279,64987,1,0,0:0:0:0:
256,47,65160,1,0,0:0:0:0:
129,159,65332,6,0,L|71:147,1,52.4999983978272
383,225,65504,2,0,L|441:237,1,52.4999983978272
88,244,65677,2,0,L|35:255,1,52.4999983978272
424,140,65849,2,0,L|477:129,1,52.4999983978272
69,109,66022,2,0,L|12:98,1,52.4999983978272
443,275,66194,2,0,L|494:284,1,52.4999983978272
153,266,66366,6,0,L|117:275,22,26.2499991989136
47,238,67401,1,0,0:0:0:0:
25,201,67487,1,0,0:0:0:0:
24,159,67573,1,0,0:0:0:0:
45,122,67660,1,0,0:0:0:0:
82,103,67746,1,0,0:0:0:0:
123,100,67832,1,0,0:0:0:0:
160,118,67918,1,0,0:0:0:0:
186,150,68004,1,0,0:0:0:0:
199,190,68091,2,0,P|195:219|182:248,1,52.4999983978272
326,138,68263,2,0,P|337:165|341:196,1,52.4999983978272
240,75,68435,1,0,0:0:0:0:
444,204,68608,1,0,0:0:0:0:
341,340,68780,2,0,L|304:333,2,26.2499991989136
248,296,68953,1,0,0:0:0:0:
213,319,69039,1,0,0:0:0:0:
172,329,69125,1,0,0:0:0:0:
4,177,69297,1,0,0:0:0:0:
299,95,69470,1,0,0:0:0:0:
177,40,69642,1,0,0:0:0:0:
142,63,69728,1,0,0:0:0:0:
118,98,69815,1,0,0:0:0:0:
114,139,69901,1,0,0:0:0:0:
124,179,69987,1,0,0:0:0:0:
304,295,70160,1,0,0:0:0:0:
344,285,70246,1,0,0:0:0:0:
384,273,70332,2,0,L|393:217,1,52.4999983978272
345,128,70504,1,0,0:0:0:0:
35,262,70677,1,0,0:0:0:0:
343,366,70849,1,0,0:0:0:0:
109,177,71022,1,0,0:0:0:0:
205,359,71194,1,0,0:0:0:0:
285,62,71366,1,0,0:0:0:0:
290,304,71539,1,0,0:0:0:0:
182,94,71711,1,0,0:0:0:0:
157,288,71884,1,0,0:0:0:0:
339,150,72056,1,0,0:0:0:0:
119,181,72228,2,0,L|87:173,2,26.2499991989136
61,106,72401,1,0,0:0:0:0:
61,106,72487,1,0,0:0:0:0:
61,106,72573,2,0,L|74:49,1,52.4999983978272
208,194,72746,2,0,L|199:142,1,52.4999983978272
290,83,72918,1,0,0:0:0:0:
308,70,73004,1,0,0:0:0:0:
325,58,73091,2,0,B|331:105|331:105|341:123|341:123|346:162,1,104.999996795654
326,329,73435,1,0,0:0:0:0:
321,312,73521,1,0,0:0:0:0:
316,297,73608,2,0,P|291:287|260:283,1,52.4999983978272
113,200,73780,2,0,P|81:208|50:210,1,52.4999983978272
248,59,73953,2,0,P|268:44|297:33,1,52.4999983978272
498,242,74125,2,0,L|445:248,1,52.4999983978272
182,142,74297,1,0,0:0:0:0:
182,142,74384,1,0,0:0:0:0:
182,142,74470,2,0,L|237:152,1,52.4999983978272
388,350,74642,1,0,0:0:0:0:
458,143,74815,1,0,0:0:0:0:
267,278,74987,2,0,L|263:315,2,26.2499991989136
344,246,75160,1,0,0:0:0:0:
275,44,75332,1,0,0:0:0:0:
78,83,75504,1,0,0:0:0:0:
147,250,75677,2,0,L|182:255,2,26.2499991989136
76,303,75849,2,0,L|41:308,2,26.2499991989136
155,333,76022,1,0,0:0:0:0:
83,175,76194,1,0,0:0:0:0:
324,124,76366,2,0,L|376:134,1,52.4999983978272
435,201,76539,1,0,0:0:0:0:
278,322,76711,2,0,L|272:357,2,26.2499991989136
354,283,76884,2,0,L|360:318,2,26.2499991989136
301,218,77056,1,0,0:0:0:0:
219,52,77228,1,0,0:0:0:0:
154,254,77400,1,0,0:0:0:0:
333,107,77573,1,0,0:0:0:0:
123,166,77746,2,0,L|89:160,2,26.2499991989136
210,150,77918,2,0,L|248:143,2,26.2499991989136
179,231,78091,1,0,0:0:0:0:
164,270,78177,1,0,0:0:0:0:
173,310,78263,1,0,0:0:0:0:
202,339,78349,1,0,0:0:0:0:
243,344,78435,1,0,0:0:0:0:
283,331,78522,1,0,0:0:0:0:
315,305,78608,1,0,0:0:0:0:
354,292,78694,1,0,0:0:0:0:
395,294,78780,2,0,P|451:312|489:353,1,104.999996795654
319,61,79125,2,0,L|266:69,1,52.4999983978272
206,144,79297,1,0,0:0:0:0:
431,223,79470,1,0,0:0:0:0:
235,272,79642,1,0,0:0:0:0:
319,61,79815,1,0,0:0:0:0:
427,238,79987,1,0,0:0:0:0:
185,136,80160,2,0,L|176:197,1,52.4999983978272
235,272,80332,1,0,0:0:0:0:
45,310,80504,2,0,L|38:352,6,26.2499991989136
120,350,80849,1,0,0:0:0:0:
142,314,80935,1,0,0:0:0:0:
178,293,81022,1,0,0:0:0:0:
219,289,81108,1,0,0:0:0:0:
257,305,81194,1,0,0:0:0:0:
298,311,81280,1,0,0:0:0:0:
339,302,81366,1,0,0:0:0:0:
369,273,81453,1,0,0:0:0:0:
382,233,81539,1,0,0:0:0:0:
374,191,81625,1,0,0:0:0:0:
348,158,81711,1,0,0:0:0:0:
121,195,81884,1,0,0:0:0:0:
166,72,82056,1,0,0:0:0:0:
20,51,82228,2,0,B|51:155|51:155|45:208,1,157.499995193482
61,277,82573,2,0,L|69:220,1,52.4999983978272
244,114,82746,2,0,L|251:165,1,52.4999983978272
193,263,82918,1,0,0:0:0:0:
475,179,83091,1,0,0:0:0:0:
325,72,83263,1,0,0:0:0:0:
391,345,83435,1,0,0:0:0:0:
290,209,83608,2,0,L|322:214,2,26.2499991989136
404,262,83780,2,0,L|369:268,2,26.2499991989136
312,315,83953,1,0,0:0:0:0:
143,269,84125,1,0,0:0:0:0:
21,310,84297,1,0,0:0:0:0:
127,176,84469,1,0,0:0:0:0:
43,19,84642,2,0,L|47:53,2,26.2499991989136
128,58,84815,2,0,L|123:94,2,26.2499991989136
58,134,84987,2,0,L|170:117,1,104.999996795654
394,84,85332,1,0,0:0:0:0:
352,76,85418,1,0,0:0:0:0:
310,69,85504,1,0,0:0:0:0:
235,216,85677,2,0,L|296:227,1,52.4999983978272
358,289,85849,2,0,L|396:283,2,26.2499991989136
432,215,86022,1,0,0:0:0:0:
208,129,86194,1,0,0:0:0:0:
141,352,86366,2,0,L|129:297,1,52.4999983978272
21,183,86538,2,0,L|8:245,1,52.4999983978272
176,212,86711,1,0,0:0:0:0:
107,44,86884,1,0,0:0:0:0:
40,325,87056,1,0,0:0:0:0:
193,231,87228,1,0,0:0:0:0:
229,208,87315,1,0,0:0:0:0:
270,207,87401,1,0,0:0:0:0:
307,224,87487,1,0,0:0:0:0:
333,256,87573,1,0,0:0:0:0:
370,276,87660,1,0,0:0:0:0:
411,274,87746,2,0,L|443:266,2,26.2499991989136
449,186,87918,2,0,L|479:193,2,26.2499991989136
411,106,88091,1,0,0:0:0:0:
253,293,88263,1,0,0:0:0:0:
67,234,88435,1,0,0:0:0:0:
145,123,88608,2,0,L|138:97,2,26.2499991989136
229,152,88780,2,0,L|225:183,2,26.2499991989136
283,83,88953,2,0,L|280:54,2,26.2499991989136
358,128,89125,1,0,0:0:0:0:
479,331,89297,1,0,0:0:0:0:
462,291,89384,1,0,0:0:0:0:
428,265,89470,1,0,0:0:0:0:
386,258,89556,1,0,0:0:0:0:
346,273,89642,1,0,0:0:0:0:
146,341,89815,1,0,0:0:0:0:
105,330,89901,1,0,0:0:0:0:
64,319,89987,1,0,0:0:0:0:
259,219,90160,2,0,P|286:170|196:66,1,209.999993591309
32,202,90677,2,0,L|22:261,1,52.4999983978272
201,292,90849,2,0,L|211:352,1,52.4999983978272
386,234,91022,1,0,0:0:0:0:
426,243,91108,1,0,0:0:0:0:
466,253,91194,2,0,L|474:291,2,26.2499991989136
498,173,91366,2,0,L|502:146,2,26.2499991989136
436,97,91539,1,0,0:0:0:0:
224,205,91711,1,0,0:0:0:0:
72,110,91884,2,0,L|69:82,2,26.2499991989136
118,191,92056,2,0,L|113:219,2,26.2499991989136
168,109,92228,2,0,B|236:89|286:146|286:146|317:186|372:182,1,225.000008583069
491,100,92746,2,0,L|498:72,2,28.1250010728836
460,185,92918,1,0,0:0:0:0:
417,200,93004,1,0,0:0:0:0:
371,199,93091,1,0,0:0:0:0:
331,177,93177,1,0,0:0:0:0:
306,139,93263,2,0,L|315:79,1,56.2500021457673
51,284,93435,2,0,L|59:342,1,56.2500021457673
179,76,93608,2,0,L|170:15,1,56.2500021457673
348,316,93780,2,0,L|339:379,1,56.2500021457673
169,212,93953,1,0,0:0:0:0:
463,152,94125,1,0,0:0:0:0:
80,89,94297,2,0,B|-8:142|30:241|30:241|85:262,1,225.000008583069
198,358,94815,2,0,L|240:350,2,37.5000014305115
252,266,94987,2,0,L|288:275,2,37.5000014305115
345,212,95160,1,0,0:0:0:0:
345,212,95246,1,0,0:0:0:0:
345,212,95332,2,0,L|362:98,1,112.500004291535
10,32,95677,2,0,L|28:146,1,112.500004291535
160,296,96022,2,0,L|200:288,2,28.1250010728836
264,335,96194,1,0,0:0:0:0:
457,133,96366,1,0,0:0:0:0:
498,317,96539,1,0,0:0:0:0:
321,79,96711,1,0,0:0:0:0:
174,210,96884,1,0,0:0:0:0:
70,31,97056,2,0,L|5:39,1,56.2500021457673
194,197,97228,2,0,L|259:206,1,56.2500021457673
42,248,97401,1,0,0:0:0:0:
34,292,97487,1,0,0:0:0:0:
49,334,97573,1,0,0:0:0:0:
88,357,97660,1,0,0:0:0:0:
132,364,97746,1,0,0:0:0:0:
174,350,97832,1,0,0:0:0:0:
204,317,97918,1,0,0:0:0:0:
221,275,98004,1,0,0:0:0:0:
249,239,98091,1,0,0:0:0:0:
290,221,98177,1,0,0:0:0:0:
334,220,98263,1,0,0:0:0:0:
376,234,98349,1,0,0:0:0:0:
406,266,98435,2,0,P|415:296|417:331,1,56.2500021457673
237,81,98608,2,0,P|240:53|251:23,1,56.2500021457673
314,326,98780,2,0,P|288:342|259:351,1,56.2500021457673
27,182,98953,2,0,P|58:195|86:199,1,56.2500021457673
329,76,99125,1,0,0:0:0:0:
410,99,99211,1,0,0:0:0:0:
453,169,99297,1,0,0:0:0:0:
440,250,99384,1,0,0:0:0:0:
365,290,99470,2,0,L|324:279,22,37.5
