osu file format v14

[General]
AudioFilename: Igorrr - Pavor Nocturnus 2015 ver..mp3
AudioLeadIn: 0
PreviewTime: 259682
Countdown: 0
SampleSet: None
StackLeniency: 1
Mode: 2
LetterboxInBreaks: 0
WidescreenStoryboard: 0

[Editor]
Bookmarks: 554,22154,43754,65354,86954,94165,110716,143820,160371,176923,193475,210027,226578,243130,259682,276233,292785,309337,325889,339509,339682,347958
DistanceSpacing: 1
BeatDivisor: 16
GridSize: 8
TimelineZoom: 3.099999

[Metadata]
Title:Pavor Nocturnus [2015]
TitleUnicode:Pavor Nocturnus [2015]
Artist:Igorrr
ArtistUnicode:Igorrr
Creator:Kyptoric
Version:Despair
Source:
Tags:2015 breakcore baroquecore corpo-mente arsalein night
BeatmapID:952291
BeatmapSetID:442876

[Difficulty]
HPDrainRate:7
CircleSize:4
OverallDifficulty:9.4
ApproachRate:9.4
SliderMultiplier:2.08
SliderTickRate:2

[Events]
//Background and Video events
0,0,"Pavor Nocturnus 2015 BG.jpg",0,0
//Break Periods
2,210054,217762
//Storyboard Layer 0 (Background)
//Storyboard Layer 1 (Fail)
//Storyboard Layer 2 (Pass)
//Storyboard Layer 3 (Foreground)
//Storyboard Sound Samples

[TimingPoints]
554,600,4,2,0,25,1,0
22154,-80,4,2,0,40,0,0
94165,344.827586206897,4,1,0,50,1,0
108647,-100,4,1,0,60,0,0
109682,-100,4,1,0,70,0,0
110716,-100,4,1,0,50,0,0
143820,-100,4,1,0,50,0,0
159337,-100,4,3,0,90,0,0
160371,-100,4,3,0,75,0,1
176923,-100,4,3,0,50,0,0
190027,-100,4,3,0,55,0,0
191061,-100,4,3,0,60,0,0
192096,-100,4,3,0,65,0,0
193130,-100,4,3,0,70,0,0
193475,-100,4,3,0,75,0,1
210027,-100,4,3,0,75,0,0
218302,-100,4,1,0,50,0,0
226578,-100,4,1,0,50,0,0
242096,-100,4,1,0,65,0,0
242785,-100,4,1,0,70,0,0
243130,-100,4,3,0,80,0,1
259509,-100,4,3,0,75,0,0
259682,-100,4,3,0,75,0,1
275199,-100,4,3,0,90,0,1
276233,-100,4,3,0,75,0,1
291751,-100,4,3,0,90,0,1
292785,-100,4,1,0,65,0,0
307958,-100,4,3,0,70,0,0
308647,-100,4,3,0,75,0,0
309337,-100,4,3,0,80,0,1
321751,-100,4,3,0,85,0,1
322785,-100,4,3,0,90,0,1
323820,-100,4,3,0,95,0,1
324854,-100,4,3,0,100,0,1
325889,-200,4,2,0,50,0,0
337699,-200,4,2,0,45,0,0
339768,-200,4,2,0,40,0,0
342613,-200,4,2,0,35,0,0
344768,-200,4,2,0,25,0,0
347785,-200,4,2,0,5,0,0
347958,-200,4,2,0,10,0,0

[Colours]
Combo1 : 111,111,111
Combo2 : 41,41,41
Combo3 : 0,0,0

[HitObjects]
432,264,554,6,0,L|392:136,3,104
336,160,1754,1,2,0:0:0:0:
304,160,2054,1,2,0:0:0:0:
88,272,2354,6,0,L|128:152,3,104
184,168,3554,1,2,0:0:0:0:
80,168,3854,1,2,0:0:0:0:
360,176,4154,6,0,L|311:268,1,104
247,268,4754,2,0,L|303:164,1,104
184,264,5354,1,2,0:0:0:0:
272,296,5654,1,2,0:0:0:0:
72,192,5954,6,0,L|8:72,1,104
208,192,6554,2,0,L|272:72,1,104
352,96,7154,1,2,0:0:0:0:
432,160,7454,1,0,0:0:0:0:
344,160,7604,1,0,0:0:0:0:
256,192,7754,6,0,L|224:320,3,104
136,296,8954,1,2,0:0:0:0:
232,320,9254,1,2,0:0:0:0:
376,288,9554,6,0,L|296:184,1,104
440,288,10154,2,0,L|360:184,1,104
488,192,10754,1,2,0:0:0:0:
504,160,11054,1,2,0:0:0:0:
408,112,11204,1,0,0:0:0:0:
312,112,11354,1,0,0:0:0:0:
88,120,11654,6,0,L|120:264,2,104
24,96,12554,1,2,0:0:0:0:
264,64,12854,1,2,0:0:0:0:
176,192,13154,6,0,L|152:328,1,104
72,296,13754,2,0,L|96:160,1,104
192,128,14354,1,2,0:0:0:0:
296,128,14654,1,2,0:0:0:0:
224,184,14804,2,0,L|160:184,1,52
328,272,15254,5,0,0:0:0:0:
208,272,15554,1,0,0:0:0:0:
360,240,15854,1,0,0:0:0:0:
240,240,16154,1,2,0:0:0:0:
288,240,16454,1,2,0:0:0:0:
80,192,16754,5,0,0:0:0:0:
64,160,17054,1,0,0:0:0:0:
200,160,17354,1,0,0:0:0:0:
216,128,17654,1,0,0:0:0:0:
368,128,17954,1,2,0:0:0:0:
280,80,18254,1,0,0:0:0:0:
368,40,18404,1,0,0:0:0:0:
280,168,18554,6,0,L|200:280,1,104
120,256,19154,2,0,L|200:368,1,104
320,352,19754,1,2,0:0:0:0:
248,352,20054,1,2,0:0:0:0:
408,304,20354,5,0,0:0:0:0:
508,304,20654,2,0,L|456:304,1,52,4|0,0:0|0:0,0:0:0:0:
208,32,20954,2,0,P|136:64|192:168,1,208
192,168,21629,6,0,L|168:200,5,26
400,232,22154,6,0,L|512:232,1,86.6666666666667,8|0,0:0|0:0,0:0:0:0:
440,208,22454,1,0,0:0:0:0:
280,128,22654,2,0,L|216:128,1,43.3333333333333,0|8,0:0|0:0,0:0:0:0:
80,64,22954,2,0,L|32:64,1,43.3333333333333
216,208,23254,1,0,0:0:0:0:
104,208,23354,1,12,0:0:0:0:
320,304,23554,2,0,L|248:304,2,43.3333333333333
440,304,23854,6,0,L|496:304,1,43.3333333333333,0|8,0:0|0:0,0:0:0:0:
288,192,24154,1,0,0:0:0:0:
328,192,24254,2,0,L|232:192,1,86.6666666666667
144,192,24554,2,0,L|296:192,2,130,8|0|12,0:0|0:0|0:0,0:0:0:0:
48,144,25354,2,0,L|0:144,2,43.3333333333333
328,56,25654,6,0,L|384:56,1,43.3333333333333,0|8,0:0|0:0,0:0:0:0:
216,112,25954,2,0,L|160:112,1,43.3333333333333
368,96,26254,2,0,L|424:96,1,43.3333333333333,0|8,0:0|0:0,0:0:0:0:
256,152,26554,2,0,L|200:152,2,43.3333333333333
328,152,26854,1,0,0:0:0:0:
416,152,26954,1,12,0:0:0:0:
104,200,27154,2,0,L|32:200,3,43.3333333333333
184,200,27554,6,0,L|296:200,1,86.6666666666667,8|0,0:0|0:0,0:0:0:0:
368,200,27854,2,0,L|264:200,1,86.6666666666667
400,232,28154,1,8,0:0:0:0:
480,232,28454,1,0,0:0:0:0:
312,280,28754,1,12,0:0:0:0:
160,280,29054,1,0,0:0:0:0:
312,216,29254,6,0,L|384:216,1,43.3333333333333,0|8,0:0|0:0,0:0:0:0:
160,192,29554,2,0,L|88:192,1,43.3333333333333
288,128,29854,2,0,L|224:128,1,43.3333333333333,0|8,0:0|0:0,0:0:0:0:
448,160,30154,2,0,L|520:160,1,43.3333333333333
320,96,30454,1,0,0:0:0:0:
416,96,30554,2,0,L|488:240,2,130,12|0|8,0:0|0:0|0:0,0:0:0:0:
240,96,31354,2,0,L|296:96,2,43.3333333333333
24,96,31654,6,0,L|24:144,1,43.3333333333333,0|8,0:0|0:0,0:0:0:0:
176,184,31954,2,0,L|176:248,1,43.3333333333333
48,168,32254,2,0,L|0:168,1,43.3333333333333,0|8,0:0|0:0,0:0:0:0:
200,256,32554,2,0,L|256:256,2,43.3333333333333
448,192,32854,6,0,L|504:192,1,43.3333333333333,0|12,0:0|0:0,0:0:0:0:
328,112,33154,2,0,L|248:112,1,43.3333333333333
144,48,33454,2,0,L|72:48,1,43.3333333333333,0|8,0:0|0:0,0:0:0:0:
256,176,33754,2,0,L|336:176,1,43.3333333333333
504,224,34154,1,12,0:0:0:0:
304,272,34354,2,0,L|240:272,1,43.3333333333333
176,272,34554,1,0,0:0:0:0:
88,272,34654,6,0,L|40:272,1,43.3333333333333,0|8,0:0|0:0,0:0:0:0:
240,32,34954,1,0,0:0:0:0:
280,32,35054,2,0,L|152:32,1,86.6666666666667
408,128,35354,2,0,L|504:128,1,86.6666666666667,8|0,0:0|0:0,0:0:0:0:
376,168,35654,2,0,L|280:168,1,86.6666666666667
88,168,35954,1,12,0:0:0:0:
48,112,36254,2,0,L|0:112,1,43.3333333333333
344,288,36454,6,0,L|416:288,1,43.3333333333333,0|8,0:0|0:0,0:0:0:0:
200,288,36754,2,0,L|264:288,1,43.3333333333333
56,288,37054,2,0,L|104:288,1,43.3333333333333,0|8,0:0|0:0,0:0:0:0:
240,232,37354,2,0,L|160:232,1,43.3333333333333
448,192,37754,1,12,0:0:0:0:
320,144,37954,2,0,L|376:144,1,43.3333333333333
96,96,38254,1,0,0:0:0:0:
56,96,38354,6,0,L|8:200,1,86.6666666666667,8|0,0:0|0:0,0:0:0:0:
136,176,38654,2,0,L|184:280,1,86.6666666666667
32,176,38954,2,0,L|32:272,1,86.6666666666667,8|0,0:0|0:0,0:0:0:0:
160,256,39254,2,0,L|160:352,1,86.6666666666667
368,192,39554,2,0,L|408:288,1,86.6666666666667,12|0,0:0|0:0,0:0:0:0:
448,272,39854,2,0,L|400:272,1,43.3333333333333
112,32,40054,6,0,L|64:32,1,43.3333333333333,0|8,0:0|0:0,0:0:0:0:
240,32,40354,2,0,L|304:32,1,43.3333333333333
160,64,40654,2,0,L|112:64,1,43.3333333333333,0|8,0:0|0:0,0:0:0:0:
288,64,40954,2,0,L|352:64,1,43.3333333333333
480,192,41254,2,0,L|400:192,1,43.3333333333333,0|12,0:0|0:0,0:0:0:0:
320,192,41554,2,0,L|248:192,1,43.3333333333333
160,192,41854,1,0,0:0:0:0:
96,192,41954,6,0,L|71:228,2,43.3333333333333,8|0|0,0:0|0:0|0:0,0:0:0:0:
160,192,42254,2,0,L|186:228,2,43.3333333333333
64,128,42554,2,0,L|41:164,2,43.3333333333333,8|0|0,0:0|0:0|0:0,0:0:0:0:
150,90,42854,2,0,L|128:128,2,43.3333333333333
424,248,43154,2,8,L|488:248,2,43.3333333333333,8|0|0,0:0|0:0|0:0,0:0:0:0:
168,248,43454,2,0,L|104:248,2,43.3333333333333,8|0|0,0:0|0:0|0:0,0:0:0:0:
344,312,43754,6,0,P|400:240|288:128,1,260,4|0,0:0|0:0,0:0:0:0:
208,120,44554,2,0,L|160:120,1,43.3333333333333
32,192,44954,2,0,L|184:192,1,130,12|0,0:0|0:0,0:0:0:0:
296,288,45554,2,0,B|120:192|464:240|312:96,1,260,0|8,0:0|0:0,0:0:0:0:
200,56,46454,2,0,L|352:56,2,130,0|12|0,0:0|0:0|0:0,0:0:0:0:
88,88,47354,6,0,P|48:168|344:288,1,520,8|12,0:0|0:0,0:0:0:0:
472,288,48854,2,0,L|520:240,1,43.3333333333333
192,32,49154,2,0,L|128:128,1,86.6666666666667,8|8,0:0|0:0,0:0:0:0:
256,32,49454,2,0,L|320:128,1,86.6666666666667
168,64,49754,6,0,L|168:160,1,86.6666666666667,8|0,0:0|0:0,0:0:0:0:
280,64,50054,2,0,L|280:160,1,86.6666666666667,4|0,0:0|0:0,0:0:0:0:
144,160,50354,2,0,L|208:240,1,86.6666666666667,12|0,0:0|0:0,0:0:0:0:
304,160,50654,2,0,L|240:240,1,86.6666666666667
144,336,50954,6,2,B|32:304|144:272|144:272|256:240|144:216|144:216|32:184|144:152|144:152|256:120|144:88|144:88|72:56|184:24,1,650
368,336,52754,2,2,B|480:304|368:272|368:272|256:240|368:216|368:216|480:184|368:152|368:152|256:120|368:88|368:88|440:56|328:24,1,650
256,32,54554,2,0,B|120:32|120:32|256:32|256:32|120:32|120:32|256:32|256:32,1,520,8|12,0:0|0:0,0:0:0:0:
408,96,56054,2,0,L|480:96,2,43.3333333333333,0|0|8,0:0|0:0|0:0,0:0:0:0:
208,176,56354,6,0,L|128:248,1,86.6666666666667,8|0,0:0|0:0,0:0:0:0:
80,232,56654,2,0,L|0:304,1,86.6666666666667
144,344,56954,2,0,L|80:287,1,86.6666666666667,8|0,0:0|0:0,0:0:0:0:
344,256,57254,2,0,L|432:336,1,86.6666666666667,8|0,0:0|0:0,0:0:0:0:
176,32,57554,2,0,L|32:32,1,130,12|0,0:0|0:0,0:0:0:0:
352,32,58154,6,0,P|464:56|344:208,1,390,8|0,0:0|0:0,0:0:0:0:
184,208,59354,1,12,0:0:0:0:
328,208,59654,1,0,0:0:0:0:
160,32,59954,2,0,P|96:104|224:176,1,260,8|8,0:0|0:0,0:0:0:0:
288,112,60854,1,8,0:0:0:0:
120,80,61154,6,0,P|24:136|32:240,1,195,12|0,0:0|0:0,0:0:0:0:
256,280,61754,2,0,B|392:280|392:280|256:288|256:288|392:288|392:288|256:296,1,520,8|8,0:0|0:0,0:0:0:0:
424,304,63254,1,0,0:0:0:0:
216,160,63554,2,0,P|144:184|232:296,2,260,12|12|12,0:0|0:0|0:0,0:0:0:0:
64,136,65054,1,4,0:0:0:0:
352,24,65354,6,0,B|488:24|488:24|352:32|352:32|480:32|480:32|352:40,1,520,12|12,0:0|0:0,0:0:0:0:
488,176,66854,1,2,0:0:0:0:
264,176,67154,1,8,0:0:0:0:
384,152,67454,1,0,0:0:0:0:
184,192,67754,2,0,B|48:192|48:192|184:200|184:200|56:200|56:200|184:208,1,520,8|8,0:0|0:0,0:0:0:0:
272,208,69254,5,2,0:0:0:0:
448,160,69554,1,8,0:0:0:0:
352,160,69854,1,0,0:0:0:0:
256,160,70154,2,0,P|176:152|144:40,1,195,12|0,0:0|0:0,0:0:0:0:
352,40,70754,6,8,L|456:40,1,86.6666666666667
352,88,71054,2,0,L|264:88,1,86.6666666666667,2|0,0:0|0:0,0:0:0:0:
178,88,71354,2,0,L|274:88,1,86.6666666666667,8|0,0:0|0:0,0:0:0:0:
144,120,71654,1,8,0:0:0:0:
256,264,71954,2,0,L|392:264,1,130,12|0,0:0|0:0,0:0:0:0:
208,352,72554,6,0,B|80:352|80:352|216:352|216:352|144:352|144:352|336:352,1,520,8|12,0:0|0:0,0:0:0:0:
192,216,74054,1,2,0:0:0:0:
304,136,74354,1,8,0:0:0:0:
408,80,74654,2,0,P|472:112|312:240,1,390,4|8,0:0|0:0,0:0:0:0:
144,248,75854,1,2,0:0:0:0:
280,224,76154,6,0,B|40:104|288:24|288:24|480:16,1,520,8|12,0:0|0:0,0:0:0:0:
72,64,77654,1,2,0:0:0:0:
224,160,77854,1,8,0:0:0:0:
272,160,77954,2,0,L|320:64,1,86.6666666666667,8|0,0:0|0:0,0:0:0:0:
392,160,78254,2,0,L|344:64,1,86.6666666666667,2|0,0:0|0:0,0:0:0:0:
256,216,78554,6,0,L|328:128,1,86.6666666666667,8|0,0:0|0:0,0:0:0:0:
408,216,78854,2,0,L|336:128,1,86.6666666666667,8|0,0:0|0:0,0:0:0:0:
240,256,79154,2,0,L|328:192,1,86.6666666666667,12|0,0:0|0:0,0:0:0:0:
424,256,79454,2,0,L|328:184,1,86.6666666666667,2|0,0:0|0:0,0:0:0:0:
152,32,79754,2,0,B|16:32|16:32|152:40|152:40|16:40|16:40|152:48,1,520,8|12,0:0|0:0,0:0:0:0:
288,72,81254,2,0,L|368:72,1,65,2|0,0:0|0:0,0:0:0:0:
144,192,81554,6,0,B|80:192|80:192|152:192,2,130,8|0|2,0:0|0:0|0:0,0:0:0:0:
216,192,82304,1,0,0:0:0:0:
376,192,82454,2,8,L|290:192,1,86.6666666666667
448,192,82754,2,0,P|480:120|392:64,1,195,12|0,0:0|0:0,0:0:0:0:
72,352,83354,6,0,L|248:144,2,260
256,32,84854,1,0,0:0:0:0:
440,352,85154,2,0,L|264:144,1,260
248,112,85854,1,8,0:0:0:0:
248,72,85954,1,8,0:0:0:0:
272,40,86054,1,8,0:0:0:0:
456,24,86354,5,0,0:0:0:0:
480,64,86454,1,8,0:0:0:0:
464,104,86554,1,8,0:0:0:0:
424,120,86654,1,8,0:0:0:0:
256,192,86954,1,12,0:0:0:0:
256,192,87254,12,0,93854,0:0:0:0:
288,352,94165,6,0,L|384:256,1,104,8|0,0:0|0:0,0:0:0:0:
232,272,94509,2,0,L|136:176,2,104,2|0|0,0:0|0:0|0:0,0:0:0:0:
328,272,95027,1,0,0:0:0:0:
48,248,95199,2,0,P|16:168|128:112,1,208,8|0,0:0|0:0,0:0:0:0:
168,104,95716,1,2,0:0:0:0:
104,72,95889,1,0,0:0:0:0:
344,40,96061,1,0,0:0:0:0:
408,32,96233,6,0,L|448:160,1,104,2|0,0:0|0:0,0:0:0:0:
304,136,96578,2,0,L|264:264,1,104,2|0,0:0|0:0,0:0:0:0:
400,272,96923,2,0,L|512:312,1,104,2|0,0:0|0:0,0:0:0:0:
232,336,97268,2,0,P|112:288|208:176,1,312,8|0,0:0|0:0,0:0:0:0:
320,160,97958,2,0,L|240:80,1,104,2|0,0:0|0:0,0:0:0:0:
408,104,98302,6,0,B|512:104|512:104|384:104,2,208,4|0|0,0:0|0:0|0:0,0:0:0:0:
312,104,99165,1,2,0:0:0:0:
48,312,99337,2,0,P|48:224|168:168,1,208,8|0,0:0|0:0,0:0:0:0:
240,176,99854,2,0,L|328:264,1,104
200,288,100199,1,2,0:0:0:0:
488,56,100371,5,8,0:0:0:0:
384,48,100544,1,8,0:0:0:0:
504,88,100716,2,0,L|440:200,2,104
400,176,101233,1,2,0:0:0:0:
112,352,101406,6,0,L|-24:352,1,104
176,264,101751,1,2,0:0:0:0:
152,232,101837,1,0,0:0:0:0:
128,200,101923,1,0,0:0:0:0:
296,208,102096,1,2,0:0:0:0:
272,176,102182,1,0,0:0:0:0:
248,144,102268,1,0,0:0:0:0:
384,88,102440,6,0,L|480:168,1,104,2|0,0:0|0:0,0:0:0:0:
432,160,102699,1,0,0:0:0:0:
400,160,102785,2,2,L|376:240,7,52,4|0|8|0|4|0|8|0,0:0|0:0|0:0|0:0|0:0|0:0|0:0|0:0,0:0:0:0:
288,208,103475,6,0,L|336:144,1,52,8|0,0:0|0:0,0:0:0:0:
350,124,103647,2,0,L|318:165,1,52
216,208,103820,2,0,L|264:144,1,52,8|0,0:0|0:0,0:0:0:0:
278,124,103992,2,0,L|246:165,1,52
144,208,104165,6,0,L|24:208,1,104,8|0,0:0|0:0,0:0:0:0:
200,288,104509,1,2,0:0:0:0:
120,288,104682,2,0,L|264:288,1,104,8|0,0:0|0:0,0:0:0:0:
384,256,105027,2,0,L|272:256,1,104,2|8,0:0|0:0,0:0:0:0:
360,256,105371,1,0,0:0:0:0:
128,32,105544,6,0,L|96:120,5,52,4|0|4|0|8|0,0:0|0:0|0:0|0:0|0:0|0:0,0:0:0:0:
184,88,106061,2,0,L|200:38,1,52,8|0,0:0|0:0,0:0:0:0:
272,88,106233,2,0,L|288:38,1,52
360,88,106406,2,0,L|384:16,1,52,8|0,0:0|0:0,0:0:0:0:
112,200,106578,6,0,L|8:288,2,104,0|0|8,0:0|0:0|0:0,0:0:0:0:
272,184,107096,2,0,L|336:312,1,104,0|8,0:0|0:0,0:0:0:0:
280,304,107354,1,0,0:0:0:0:
440,184,107440,6,0,L|480:128,2,52,0|0|8,0:0|0:0|0:0,0:0:0:0:
376,184,107699,1,0,0:0:0:0:
320,184,107785,2,0,L|288:96,1,52
128,32,107958,1,0,0:0:0:0:
80,32,108044,1,0,0:0:0:0:
32,32,108130,2,8,L|16:160,1,104
200,304,108389,5,0,0:0:0:0:
240,304,108432,1,0,0:0:0:0:
264,288,108475,1,0,0:0:0:0:
272,248,108518,1,0,0:0:0:0:
256,208,108561,1,0,0:0:0:0:
432,168,108647,6,0,L|480:128,1,52,8|0,0:0|0:0,0:0:0:0:
296,168,108820,1,0,0:0:0:0:
232,168,108906,1,0,0:0:0:0:
88,176,108992,2,0,L|32:128,2,52,0|0|8,0:0|0:0|0:0,0:0:0:0:
328,280,109251,2,0,L|376:240,1,52
168,280,109423,2,0,L|104:224,2,52
440,32,109682,6,0,L|464:120,1,52,8|0,0:0|0:0,0:0:0:0:
344,32,109854,2,0,L|320:120,1,52
424,64,110027,2,0,L|448:152,1,52,8|0,0:0|0:0,0:0:0:0:
328,64,110199,2,0,L|304:152,1,52
408,96,110371,2,0,L|432:184,1,52,8|0,0:0|0:0,0:0:0:0:
184,56,110544,1,0,0:0:0:0:
136,80,110630,1,0,0:0:0:0:
104,120,110716,6,0,P|88:200|200:272,1,208,12|0,0:0|0:0,0:0:0:0:
280,256,111233,2,0,L|352:136,1,104,2|0,0:0|0:0,0:0:0:0:
232,160,111578,1,0,0:0:0:0:
416,32,111751,6,0,P|464:88|384:192,1,208,8|0,0:0|0:0,0:0:0:0:
288,168,112268,2,0,L|352:64,1,104,2|0,0:0|0:0,0:0:0:0:
208,72,112613,1,4,0:0:0:0:
160,72,112699,1,0,0:0:0:0:
112,72,112785,6,0,P|48:120|128:200,1,208
240,200,113302,2,0,L|160:96,2,104,2|0|0,0:0|0:0|0:0,0:0:0:0:
408,200,113820,6,0,P|472:152|488:8,1,208,8|4,0:0|0:0,0:0:0:0:
464,32,114251,1,0,0:0:0:0:
432,32,114337,1,8,0:0:0:0:
280,80,114509,1,4,0:0:0:0:
320,104,114596,1,0,0:0:0:0:
336,144,114682,1,8,0:0:0:0:
328,192,114768,1,0,0:0:0:0:
296,224,114854,6,0,L|112:104,1,208,2|0,0:0|0:0,0:0:0:0:
256,160,115371,2,0,L|288:24,1,104,2|0,0:0|0:0,0:0:0:0:
192,48,115716,1,0,0:0:0:0:
400,40,115889,2,0,P|448:64|408:216,1,208,8|0,0:0|0:0,0:0:0:0:
336,200,116406,1,2,0:0:0:0:
416,232,116578,1,0,0:0:0:0:
136,32,116751,5,4,0:0:0:0:
88,56,116837,1,0,0:0:0:0:
64,104,116923,2,0,P|72:176|200:224,1,208
336,168,117440,1,0,0:0:0:0:
256,136,117613,1,2,0:0:0:0:
360,120,117785,1,0,0:0:0:0:
64,48,117958,6,0,P|8:112|104:184,1,208,8|4,0:0|0:0,0:0:0:0:
120,184,118389,1,0,0:0:0:0:
168,176,118475,1,8,0:0:0:0:
224,168,118561,1,8,0:0:0:0:
400,40,118647,2,0,L|480:144,1,104
336,176,118992,6,0,P|312:248|176:256,1,208,8|0,0:0|0:0,0:0:0:0:
72,256,119509,2,0,L|144:136,2,104,2|0|0,0:0|0:0|0:0,0:0:0:0:
256,192,120027,6,0,P|216:128|320:48,1,208,8|0,0:0|0:0,0:0:0:0:
408,64,120544,2,0,L|328:184,1,104,0|4,0:0|0:0,0:0:0:0:
376,184,120802,1,0,0:0:0:0:
416,200,120889,1,0,0:0:0:0:
176,336,121061,6,0,L|64:336,1,104,2|0,0:0|0:0,0:0:0:0:
224,256,121406,2,0,L|256:128,1,104,2|0,0:0|0:0,0:0:0:0:
112,192,121751,2,0,L|80:64,1,104,2|0,0:0|0:0,0:0:0:0:
336,40,122096,6,0,P|424:64|424:192,1,208,8|4,0:0|0:0,0:0:0:0:
424,200,122527,1,0,0:0:0:0:
392,232,122613,1,0,0:0:0:0:
344,248,122699,1,0,0:0:0:0:
288,248,122785,1,2,0:0:0:0:
424,304,122958,1,0,0:0:0:0:
160,32,123130,6,0,P|72:56|120:160,1,208,8|0,0:0|0:0,0:0:0:0:
144,152,123647,1,0,0:0:0:0:
200,152,123820,1,2,0:0:0:0:
88,224,123992,1,0,0:0:0:0:
264,256,124165,6,0,P|328:200|256:80,1,208,8|0,0:0|0:0,0:0:0:0:
176,40,124682,2,0,L|280:128,1,104,2|0,0:0|0:0,0:0:0:0:
120,104,125027,5,8,0:0:0:0:
80,128,125113,1,0,0:0:0:0:
64,168,125199,1,4,0:0:0:0:
200,216,125371,1,8,0:0:0:0:
208,256,125458,1,0,0:0:0:0:
240,288,125544,1,4,0:0:0:0:
368,288,125716,1,8,0:0:0:0:
408,264,125802,1,0,0:0:0:0:
432,224,125889,5,4,0:0:0:0:
56,96,126061,1,0,0:0:0:0:
224,80,126233,2,8,L|392:240,1,208
256,304,126751,5,8,0:0:0:0:
208,288,126837,1,0,0:0:0:0:
176,248,126923,1,8,0:0:0:0:
168,200,127009,1,0,0:0:0:0:
176,152,127096,1,8,0:0:0:0:
208,120,127182,1,0,0:0:0:0:
248,104,127268,6,0,L|432:224,1,208,4|0,0:0|0:0,0:0:0:0:
328,224,127785,2,0,L|256:336,1,104,2|0,0:0|0:0,0:0:0:0:
368,312,128130,1,0,0:0:0:0:
80,288,128302,6,0,P|32:232|120:144,1,208,8|0,0:0|0:0,0:0:0:0:
280,136,128820,1,8,0:0:0:0:
200,168,128992,1,10,0:0:0:0:
280,200,129165,1,0,0:0:0:0:
360,232,129337,6,0,P|400:176|304:80,1,208,4|0,0:0|0:0,0:0:0:0:
240,80,129854,1,0,0:0:0:0:
376,72,130027,2,0,L|448:184,1,104,2|0,0:0|0:0,0:0:0:0:
192,360,130371,2,0,P|120:304|184:176,1,208,8|8,0:0|0:0,0:0:0:0:
176,200,130802,5,0,0:0:0:0:
80,200,130889,1,8,0:0:0:0:
48,200,130975,1,0,0:0:0:0:
136,136,131061,1,2,0:0:0:0:
224,136,131233,1,0,0:0:0:0:
312,136,131406,6,0,P|368:168|408:328,1,208,4|0,0:0|0:0,0:0:0:0:
304,312,131923,2,0,L|368:208,2,104,2|0|0,0:0|0:0|0:0,0:0:0:0:
144,328,132440,6,0,P|64:248|128:168,1,208,8|0,0:0|0:0,0:0:0:0:
232,192,132958,2,0,L|160:80,1,104,2|0,0:0|0:0,0:0:0:0:
320,56,133302,1,4,0:0:0:0:
360,72,133389,1,0,0:0:0:0:
384,104,133475,6,0,L|304:224,1,104,2|0,0:0|0:0,0:0:0:0:
208,288,133820,2,0,L|280:176,1,104,2|0,0:0|0:0,0:0:0:0:
136,200,134165,2,0,L|79:287,1,104,2|0,0:0|0:0,0:0:0:0:
312,288,134509,2,0,L|512:184,1,208,8|8,0:0|0:0,0:0:0:0:
488,144,134940,5,0,0:0:0:0:
464,104,135027,1,8,0:0:0:0:
416,80,135113,1,0,0:0:0:0:
360,72,135199,1,8,0:0:0:0:
248,72,135371,1,0,0:0:0:0:
56,128,135544,6,0,P|72:208|200:264,1,208,4|0,0:0|0:0,0:0:0:0:
272,248,136061,2,0,L|344:136,1,104,2|0,0:0|0:0,0:0:0:0:
248,136,136406,1,0,0:0:0:0:
424,32,136578,6,0,P|480:72|400:184,1,208,8|0,0:0|0:0,0:0:0:0:
336,176,137096,2,0,L|408:288,2,104,2|0|0,0:0|0:0|0:0,0:0:0:0:
200,80,137613,2,0,L|168:216,1,104,2|0,0:0|0:0,0:0:0:0:
48,136,137958,2,0,L|16:272,1,104,2|0,0:0|0:0,0:0:0:0:
160,184,138302,2,0,L|192:320,1,104,2|0,0:0|0:0,0:0:0:0:
344,288,138647,6,0,L|504:136,1,208,8|4,0:0|0:0,0:0:0:0:
480,112,139078,1,0,0:0:0:0:
440,88,139165,1,0,0:0:0:0:
280,152,139337,1,4,0:0:0:0:
296,120,139423,1,0,0:0:0:0:
328,88,139509,1,0,0:0:0:0:
176,88,139682,6,0,L|80:168,1,104,8|0,0:0|0:0,0:0:0:0:
224,168,140027,2,0,L|128:248,2,104,0|2|0,0:0|0:0|0:0,0:0:0:0:
112,232,140544,1,0,0:0:0:0:
352,320,140716,6,0,P|440:240|376:160,1,208,8|0,0:0|0:0,0:0:0:0:
312,176,141233,2,0,L|376:72,1,104,2|0,0:0|0:0,0:0:0:0:
88,32,141578,5,8,0:0:0:0:
56,64,141665,1,0,0:0:0:0:
24,96,141751,1,4,0:0:0:0:
184,104,141923,1,8,0:0:0:0:
216,136,142010,1,0,0:0:0:0:
248,168,142096,1,4,0:0:0:0:
112,232,142268,6,0,L|145:192,2,52,8|0|4,0:0|0:0|0:0,0:0:0:0:
8,272,142613,1,0,0:0:0:0:
344,352,142785,6,0,P|416:312|328:240,1,208,8|8,0:0|0:0,0:0:0:0:
200,200,143302,1,8,0:0:0:0:
248,192,143389,1,0,0:0:0:0:
296,184,143475,1,8,0:0:0:0:
144,152,143647,1,0,0:0:0:0:
400,32,143820,6,0,L|480:136,3,104,6|0|2|0,0:0|0:0|0:0|0:0,0:0:0:0:
304,184,144509,2,0,L|367:101,1,104,2|2,0:0|0:0,0:0:0:0:
240,80,144854,6,0,L|160:184,3,104,14|0|2|8,0:0|0:0|0:0|0:0,0:0:0:0:
48,168,145544,2,0,L|144:288,1,104,8|0,0:0|0:0,0:0:0:0:
392,344,145889,6,0,L|448:232,1,104,2|0,0:0|0:0,0:0:0:0:
272,288,146233,2,0,L|216:176,1,104,2|0,0:0|0:0,0:0:0:0:
376,208,146578,2,0,L|320:96,1,104,2|2,0:0|0:0,0:0:0:0:
24,40,146923,6,0,L|152:96,1,104,14|0,0:0|0:0,0:0:0:0:
296,112,147268,2,0,L|168:168,1,104,2|0,0:0|0:0,0:0:0:0:
24,184,147613,2,0,L|152:240,1,104,2|2,0:0|0:0,0:0:0:0:
416,352,147958,6,0,L|472:240,1,104,2|0,0:0|0:0,0:0:0:0:
208,352,148302,2,0,L|152:240,1,104,2|0,0:0|0:0,0:0:0:0:
304,352,148647,2,2,L|360:240,1,104
96,32,148992,6,0,L|40:144,1,104,14|0,0:0|0:0,0:0:0:0:
304,32,149337,2,0,L|360:144,1,104,2|0,0:0|0:0,0:0:0:0:
208,32,149681,2,2,L|152:144,1,104
424,304,150027,6,0,L|496:208,3,104,2|0|2|0,0:0|0:0|0:0|0:0,0:0:0:0:
336,304,150716,2,2,L|248:192,1,104
136,216,151061,6,0,L|216:112,1,104,14|0,0:0|0:0,0:0:0:0:
48,176,151406,2,0,L|128:72,1,104,2|0,0:0|0:0,0:0:0:0:
152,64,151665,1,8,0:0:0:0:
208,56,151751,1,10,0:0:0:0:
328,72,151923,2,0,L|384:120,1,52,2|0,0:0|0:0,0:0:0:0:
328,104,152096,6,0,L|232:200,1,104,2|0,0:0|0:0,0:0:0:0:
128,192,152440,2,0,L|216:304,3,104,2|0|2|2,0:0|0:0|0:0|0:0,0:0:0:0:
440,224,153130,2,0,L|504:104,1,104,14|0,0:0|0:0,0:0:0:0:
360,96,153475,2,0,L|272:208,2,104,2|0|2,0:0|0:0|0:0,0:0:0:0:
424,96,153992,1,2,0:0:0:0:
176,32,154165,5,2,0:0:0:0:
40,40,154337,1,0,0:0:0:0:
192,80,154509,1,2,0:0:0:0:
24,80,154682,1,0,0:0:0:0:
176,120,154854,1,2,0:0:0:0:
40,120,155026,1,2,0:0:0:0:
336,40,155199,5,14,0:0:0:0:
472,40,155371,1,0,0:0:0:0:
320,80,155544,1,2,0:0:0:0:
488,80,155716,1,0,0:0:0:0:
336,120,155888,1,2,0:0:0:0:
472,120,156060,1,2,0:0:0:0:
88,352,156233,6,0,L|8:224,1,104,2|0,0:0|0:0,0:0:0:0:
200,352,156578,2,0,L|120:224,1,104,2|0,0:0|0:0,0:0:0:0:
312,352,156923,2,2,L|232:224,1,104
424,192,157268,6,0,L|512:104,1,104,14|0,0:0|0:0,0:0:0:0:
312,192,157613,2,0,L|400:104,1,104,2|0,0:0|0:0,0:0:0:0:
200,192,157958,2,2,L|288:96,1,104,2|10,0:0|0:0,0:0:0:0:
248,72,158216,1,0,0:0:0:0:
200,64,158302,5,4,0:0:0:0:
32,160,158475,1,8,0:0:0:0:
80,160,158561,1,0,0:0:0:0:
128,160,158647,1,4,0:0:0:0:
392,208,158820,1,8,0:0:0:0:
328,208,158906,1,0,0:0:0:0:
264,208,158992,1,4,0:0:0:0:
424,280,159165,1,2,0:0:0:0:
112,288,159337,6,0,L|95:238,1,52,12|0,0:0|0:0,0:0:0:0:
192,288,159509,2,0,L|208:238,1,52,12|0,0:0|0:0,0:0:0:0:
96,288,159682,2,0,L|56:254,1,52,12|0,0:0|0:0,0:0:0:0:
288,242,159854,2,0,L|327:208,1,52,12|0,0:0|0:0,0:0:0:0:
80,288,160027,2,0,L|28:288,1,52,12|0,0:0|0:0,0:0:0:0:
376,240,160199,2,0,L|440:240,1,52,12|0,0:0|0:0,0:0:0:0:
256,128,160371,6,0,L|240:176,22,26,12|0|0|0|0|0|0|0|8|0|0|0|0|0|0|0|8|0|0|0|0|0|0,0:0|0:0|0:0|0:0|0:0|0:0|0:0|0:0|0:0|0:0|0:0|0:0|0:0|0:0|0:0|0:0|0:0|0:0|0:0|0:0|0:0|0:0|0:0,0:0:0:0:
216,176,161406,6,0,L|144:176,1,52,8|0,0:0|0:0,0:0:0:0:
112,176,161578,2,0,L|176:176,1,52
272,232,161751,2,0,L|200:232,1,52,8|0,0:0|0:0,0:0:0:0:
168,232,161923,2,0,L|232:232,1,52
400,232,162096,6,0,L|488:160,2,104,8|0|8,0:0|0:0|0:0,0:0:0:0:
232,168,162613,1,0,0:0:0:0:
352,112,162785,2,0,L|352:80,2,26,8|0|0,0:0|0:0|0:0,0:0:0:0:
336,64,162958,2,0,L|288:24,1,52
112,32,163130,2,0,L|16:88,1,104,8|0,0:0|0:0,0:0:0:0:
312,176,163475,5,8,0:0:0:0:
200,144,163647,1,8,0:0:0:0:
168,184,163733,1,0,0:0:0:0:
184,232,163820,1,8,0:0:0:0:
232,256,163906,1,0,0:0:0:0:
448,256,163992,2,0,L|456:232,2,26,8|0|0,0:0|0:0|0:0,0:0:0:0:
416,208,164165,2,0,L|368:168,1,52,8|0,0:0|0:0,0:0:0:0:
160,64,164337,2,0,L|88:64,1,52,8|0,0:0|0:0,0:0:0:0:
304,296,164509,6,0,L|400:216,2,104,8|0|8,0:0|0:0|0:0,0:0:0:0:
120,232,165027,1,0,0:0:0:0:
256,192,165199,1,8,0:0:0:0:
96,152,165371,1,2,0:0:0:0:
232,112,165544,1,12,0:0:0:0:
480,104,165716,2,0,L|384:184,1,104,0|8,0:0|0:0,0:0:0:0:
288,240,166061,1,0,0:0:0:0:
400,264,166233,2,0,L|432:288,2,26,8|0|0,0:0|0:0|0:0,0:0:0:0:
200,328,166406,5,8,0:0:0:0:
144,320,166492,1,0,0:0:0:0:
96,296,166578,1,8,0:0:0:0:
64,256,166665,1,0,0:0:0:0:
56,208,166751,1,8,0:0:0:0:
64,160,166837,1,0,0:0:0:0:
96,120,166923,2,0,L|176:48,2,104,8|0|8,0:0|0:0|0:0,0:0:0:0:
424,208,167440,1,2,0:0:0:0:
280,256,167613,6,0,L|216:208,1,52,8|0,0:0|0:0,0:0:0:0:
400,104,167785,2,0,L|464:56,1,52,8|0,0:0|0:0,0:0:0:0:
216,256,167958,2,0,L|152:208,1,52,8|0,0:0|0:0,0:0:0:0:
336,104,168130,2,0,L|400:56,1,52,8|0,0:0|0:0,0:0:0:0:
152,256,168302,2,0,L|88:208,1,52,8|0,0:0|0:0,0:0:0:0:
272,104,168475,2,0,L|336:56,1,52,8|0,0:0|0:0,0:0:0:0:
112,64,168647,6,0,L|-16:120,1,104,8|0,0:0|0:0,0:0:0:0:
144,184,168992,1,8,0:0:0:0:
160,216,169035,1,2,0:0:0:0:
176,248,169078,2,0,L|336:160,1,156,0|8,0:0|0:0,0:0:0:0:
208,152,169509,1,0,0:0:0:0:
440,112,169682,6,0,L|496:160,1,52,8|0,0:0|0:0,0:0:0:0:
304,56,169854,2,0,L|232:168,2,104,0|8|0,0:0|0:0|0:0,0:0:0:0:
136,56,170371,2,0,L|208:168,1,104,8|0,0:0|0:0,0:0:0:0:
40,184,170716,5,8,0:0:0:0:
24,208,170759,1,2,0:0:0:0:
16,240,170802,1,0,0:0:0:0:
224,224,170889,1,8,0:0:0:0:
240,248,170932,1,2,0:0:0:0:
248,280,170975,1,0,0:0:0:0:
168,272,171061,5,8,0:0:0:0:
448,160,171233,1,4,0:0:0:0:
328,104,171406,1,8,0:0:0:0:
472,64,171578,1,4,0:0:0:0:
232,208,171751,5,8,0:0:0:0:
224,232,171794,1,2,0:0:0:0:
232,256,171837,1,0,0:0:0:0:
424,264,171923,1,8,0:0:0:0:
432,288,171966,1,2,0:0:0:0:
424,312,172009,1,0,0:0:0:0:
152,40,172096,5,8,0:0:0:0:
104,64,172182,1,0,0:0:0:0:
72,104,172268,1,8,0:0:0:0:
56,152,172354,1,0,0:0:0:0:
64,200,172440,1,8,0:0:0:0:
96,240,172527,1,0,0:0:0:0:
144,256,172613,1,8,0:0:0:0:
192,256,172699,1,0,0:0:0:0:
384,256,172785,6,0,L|496:208,1,104,8|0,0:0|0:0,0:0:0:0:
208,88,173130,2,0,L|208:120,2,26,8|0|0,0:0|0:0|0:0,0:0:0:0:
384,168,173302,2,0,L|424:112,1,52,8|0,0:0|0:0,0:0:0:0:
256,312,173475,2,0,L|216:256,1,52,8|0,0:0|0:0,0:0:0:0:
384,232,173647,2,0,L|424:176,1,52,8|0,0:0|0:0,0:0:0:0:
184,200,173820,5,8,0:0:0:0:
32,200,173992,1,2,0:0:0:0:
192,232,174165,1,8,0:0:0:0:
24,232,174337,1,2,0:0:0:0:
304,48,174509,5,8,0:0:0:0:
352,48,174596,1,0,0:0:0:0:
400,48,174682,2,0,L|416:96,2,26,8|0|0,0:0|0:0|0:0,0:0:0:0:
216,72,174854,2,0,L|152:152,1,52,8|0,0:0|0:0,0:0:0:0:
96,72,175027,2,0,L|32:152,1,52,8|0,0:0|0:0,0:0:0:0:
152,152,175199,2,0,L|88:232,1,52,8|0,0:0|0:0,0:0:0:0:
32,152,175371,2,0,L|-32:232,1,52,8|0,0:0|0:0,0:0:0:0:
304,344,175544,6,0,L|432:344,1,104,8|0,0:0|0:0,0:0:0:0:
152,352,175889,2,0,P|80:312|168:264,1,208,12|0,0:0|0:0,0:0:0:0:
432,176,176406,1,8,0:0:0:0:
304,192,176578,1,8,0:0:0:0:
432,208,176751,1,2,0:0:0:0:
160,32,176923,6,0,L|56:136,2,104,4|0|8,0:0|0:0|0:0,0:0:0:0:
24,24,177440,1,0,0:0:0:0:
272,240,177613,1,8,0:0:0:0:
304,240,177656,1,2,0:0:0:0:
336,240,177699,1,0,0:0:0:0:
400,240,177785,2,0,L|488:128,2,104,0|12|0,0:0|0:0|0:0,0:0:0:0:
144,80,178302,6,0,L|56:168,1,104,8|0,0:0|0:0,0:0:0:0:
200,224,178647,2,0,L|200:184,2,26,8|0|0,0:0|0:0|0:0,0:0:0:0:
304,200,178820,2,0,L|304:160,2,26
408,184,178992,5,8,0:0:0:0:
504,184,179165,1,4,0:0:0:0:
408,216,179337,1,8,0:0:0:0:
128,48,179509,1,4,0:0:0:0:
256,48,179682,1,8,0:0:0:0:
104,104,179854,2,0,L|88:152,4,26,0|0|0|0|8,0:0|0:0|0:0|0:0|0:0,0:0:0:0:
144,96,180113,5,0,0:0:0:0:
352,96,180199,2,0,L|456:184,1,104,0|8,0:0|0:0,0:0:0:0:
240,312,180458,1,0,0:0:0:0:
192,280,180544,1,8,0:0:0:0:
176,224,180630,1,0,0:0:0:0:
192,168,180716,1,8,0:0:0:0:
304,96,180889,5,4,0:0:0:0:
144,40,181061,1,8,0:0:0:0:
392,272,181233,6,0,L|416:192,1,52,4|0,0:0|0:0,0:0:0:0:
488,216,181406,2,0,L|512:136,1,52,12|0,0:0|0:0,0:0:0:0:
304,200,181578,2,0,L|280:120,1,52,4|0,0:0|0:0,0:0:0:0:
208,144,181751,2,0,L|184:64,1,52,12|0,0:0|0:0,0:0:0:0:
344,32,181923,6,0,L|448:120,2,104,0|12|0,0:0|0:0|0:0,0:0:0:0:
248,32,182440,1,8,0:0:0:0:
400,104,182613,1,0,0:0:0:0:
80,136,182785,6,0,L|80:168,2,26,8|0|0,0:0|0:0|0:0,0:0:0:0:
144,168,182958,2,0,L|144:200,2,26
80,200,183130,2,0,L|-8:288,1,104,8|8,0:0|0:0,0:0:0:0:
240,344,183389,5,0,0:0:0:0:
288,312,183475,1,8,0:0:0:0:
312,264,183561,1,0,0:0:0:0:
296,216,183647,1,8,0:0:0:0:
376,144,183820,1,8,0:0:0:0:
224,120,183992,1,4,0:0:0:0:
472,48,184165,6,0,L|480:64,16,13,12|0|0|0|0|0|0|0|0|0|0|0|0|0|0|0|8,0:0|0:0|0:0|0:0|0:0|0:0|0:0|0:0|0:0|0:0|0:0|0:0|0:0|0:0|0:0|0:0|0:0,0:0:0:0:
496,88,184552,2,0,L|512:120,1,26
504,144,184682,1,8,0:0:0:0:
488,176,184768,1,0,0:0:0:0:
456,208,184854,1,8,0:0:0:0:
408,224,184940,1,0,0:0:0:0:
352,224,185027,1,8,0:0:0:0:
288,224,185113,1,0,0:0:0:0:
40,192,185199,6,0,L|160:192,2,104,8|0|8,0:0|0:0|0:0,0:0:0:0:
336,48,185716,1,0,0:0:0:0:
216,48,185889,1,8,0:0:0:0:
200,72,185932,1,2,0:0:0:0:
184,96,185975,1,0,0:0:0:0:
400,208,186061,2,0,L|472:208,1,52,8|0,0:0|0:0,0:0:0:0:
248,352,186233,6,0,L|136:352,2,104,12|0|8,0:0|0:0|0:0,0:0:0:0:
352,352,186751,2,0,L|376:320,2,26
120,208,186923,5,8,0:0:0:0:
72,184,187009,1,0,0:0:0:0:
56,144,187096,1,8,0:0:0:0:
72,104,187182,1,0,0:0:0:0:
240,40,187268,5,8,0:0:0:0:
288,64,187354,1,0,0:0:0:0:
304,104,187440,1,8,0:0:0:0:
288,144,187527,1,0,0:0:0:0:
128,304,187613,6,0,L|102:258,1,52,8|0,0:0|0:0,0:0:0:0:
384,240,187785,2,0,L|416:296,1,52,8|0,0:0|0:0,0:0:0:0:
224,192,187958,2,0,L|96:192,2,104,8|0|12,0:0|0:0|0:0,0:0:0:0:
72,192,188475,1,0,0:0:0:0:
32,160,188561,1,0,0:0:0:0:
384,192,188647,2,0,L|472:120,1,104,8|8,0:0|0:0,0:0:0:0:
472,96,188863,2,0,L|448:64,1,26
192,32,188992,5,8,0:0:0:0:
136,40,189078,1,0,0:0:0:0:
88,72,189165,1,8,0:0:0:0:
64,120,189251,1,0,0:0:0:0:
72,176,189337,6,0,L|176:176,2,104,8|0|8,0:0|0:0|0:0,0:0:0:0:
448,240,189854,2,0,L|312:240,1,104,0|12,0:0|0:0,0:0:0:0:
312,240,190070,1,2,0:0:0:0:
280,240,190113,1,0,0:0:0:0:
104,312,190199,6,0,L|64:256,1,52,8|0,0:0|0:0,0:0:0:0:
224,136,190371,2,0,L|254:178,1,52,8|0,0:0|0:0,0:0:0:0:
72,176,190544,2,0,L|41:133,1,52,8|0,0:0|0:0,0:0:0:0:
256,32,190716,2,0,L|384:32,1,104,8|0,0:0|0:0,0:0:0:0:
112,48,191061,6,0,L|40:48,1,52,8|0,0:0|0:0,0:0:0:0:
352,248,191233,2,0,L|400:248,2,26,8|0|0,0:0|0:0|0:0,0:0:0:0:
176,104,191406,2,0,L|104:104,1,52,8|0,0:0|0:0,0:0:0:0:
456,208,191578,6,0,L|496:128,1,52,8|0,0:0|0:0,0:0:0:0:
280,168,191751,2,0,L|240:88,1,52,8|0,0:0|0:0,0:0:0:0:
456,114,191923,2,0,L|479:160,1,52,8|0,0:0|0:0,0:0:0:0:
72,40,192096,6,0,L|0:40,1,52,8|0,0:0|0:0,0:0:0:0:
216,256,192268,2,0,L|280:256,1,52,8|0,0:0|0:0,0:0:0:0:
72,72,192440,2,0,L|8:72,1,52,8|0,0:0|0:0,0:0:0:0:
216,224,192613,1,8,0:0:0:0:
280,224,192699,1,0,0:0:0:0:
448,224,192785,6,0,L|500:224,1,52,12|0,0:0|0:0,0:0:0:0:
168,48,192958,2,0,L|116:48,1,52,12|0,0:0|0:0,0:0:0:0:
344,256,193130,2,0,L|396:256,1,52,12|0,0:0|0:0,0:0:0:0:
64,80,193302,2,0,L|12:80,1,52,12|0,0:0|0:0,0:0:0:0:
336,32,193475,6,0,L|352:72,22,26,8|0|0|0|0|0|0|0|0|0|0|0|0|0|0|0|0|0|0|0|0|0|0,0:0|0:0|0:0|0:0|0:0|0:0|0:0|0:0|0:0|0:0|0:0|0:0|0:0|0:0|0:0|0:0|0:0|0:0|0:0|0:0|0:0|0:0|0:0,0:0:0:0:
384,72,194509,6,8,L|448:72,1,52
488,72,194682,2,0,L|408:72,1,52,8|0,0:0|0:0,0:0:0:0:
320,128,194854,2,0,L|384:128,1,52,8|0,0:0|0:0,0:0:0:0:
424,128,195027,2,0,L|344:128,1,52,8|0,0:0|0:0,0:0:0:0:
160,48,195199,6,0,L|64:168,2,104,8|0|8,0:0|0:0|0:0,0:0:0:0:
32,40,195716,1,4,0:0:0:0:
264,176,195889,1,8,0:0:0:0:
296,176,195932,1,2,0:0:0:0:
328,176,195975,1,0,0:0:0:0:
392,176,196061,5,8,0:0:0:0:
440,152,196147,1,0,0:0:0:0:
472,112,196233,1,8,0:0:0:0:
488,64,196320,1,0,0:0:0:0:
480,32,196406,1,8,0:0:0:0:
456,24,196492,1,0,0:0:0:0:
192,40,196578,6,0,L|144:112,1,52,8|0,0:0|0:0,0:0:0:0:
328,112,196751,2,0,L|376:184,1,52,8|0,0:0|0:0,0:0:0:0:
144,112,196923,2,0,L|96:184,1,52,8|0,0:0|0:0,0:0:0:0:
280,184,197096,2,0,L|304:216,2,26,8|0|0,0:0|0:0|0:0,0:0:0:0:
96,184,197268,5,8,0:0:0:0:
56,216,197354,1,0,0:0:0:0:
48,264,197440,1,8,0:0:0:0:
80,304,197527,1,0,0:0:0:0:
336,320,197613,2,0,L|408:320,1,52,8|0,0:0|0:0,0:0:0:0:
200,240,197785,2,0,L|184:200,8,26,12|0|0|0|0|0|0|0|8,0:0|0:0|0:0|0:0|0:0|0:0|0:0|0:0|0:0,0:0:0:0:
248,240,198216,5,0,0:0:0:0:
80,32,198302,2,0,L|16:32,1,52,8|0,0:0|0:0,0:0:0:0:
336,40,198475,1,8,0:0:0:0:
360,40,198518,1,2,0:0:0:0:
384,40,198561,1,0,0:0:0:0:
200,136,198647,2,0,L|80:136,2,104,8|0|8,0:0|0:0|0:0,0:0:0:0:
280,136,199165,1,4,0:0:0:0:
128,216,199337,6,0,L|104:240,2,26,8|0|0,0:0|0:0|0:0,0:0:0:0:
184,232,199509,2,0,L|240:280,1,52,8|0,0:0|0:0,0:0:0:0:
432,160,199682,2,0,L|384:200,1,52,8|0,0:0|0:0,0:0:0:0:
224,120,199854,2,0,L|280:168,1,52,8|0,0:0|0:0,0:0:0:0:
472,48,200027,2,0,L|368:48,1,104,8|0,0:0|0:0,0:0:0:0:
128,40,200371,2,0,P|56:80|144:136,1,208,8|8,0:0|0:0,0:0:0:0:
192,144,200802,5,4,0:0:0:0:
264,144,200889,1,8,0:0:0:0:
192,176,200975,1,4,0:0:0:0:
128,176,201061,1,8,0:0:0:0:
192,208,201147,1,4,0:0:0:0:
264,208,201233,1,8,0:0:0:0:
336,208,201320,1,4,0:0:0:0:
128,32,201406,2,0,L|16:32,1,104,8|0,0:0|0:0,0:0:0:0:
344,32,201751,6,0,L|416:144,2,104,8|0|8,0:0|0:0|0:0,0:0:0:0:
336,64,202139,1,2,0:0:0:0:
328,96,202182,1,0,0:0:0:0:
312,128,202268,1,4,0:0:0:0:
160,184,202440,1,8,0:0:0:0:
304,184,202613,1,4,0:0:0:0:
72,288,202785,6,0,L|8:168,1,104,8|0,0:0|0:0,0:0:0:0:
176,128,203130,1,8,0:0:0:0:
240,96,203302,1,0,0:0:0:0:
176,64,203475,1,8,0:0:0:0:
464,208,203647,1,0,0:0:0:0:
320,264,203820,6,0,L|320:224,2,26,8|0|0,0:0|0:0|0:0,0:0:0:0:
384,264,203992,2,0,L|384:224,2,26
320,296,204165,6,0,L|224:216,2,104,8|0|8,0:0|0:0|0:0,0:0:0:0:
456,336,204682,1,0,0:0:0:0:
96,56,204854,6,0,L|96:80,5,13,8|0|0|0|0|0,0:0|0:0|0:0|0:0|0:0|0:0,0:0:0:0:
160,56,205027,2,0,L|160:80,5,13
96,112,205199,5,8,0:0:0:0:
48,144,205285,1,0,0:0:0:0:
24,192,205371,1,8,0:0:0:0:
32,240,205458,1,0,0:0:0:0:
72,272,205544,1,8,0:0:0:0:
128,272,205630,1,0,0:0:0:0:
344,216,205716,2,0,L|384:160,1,52,8|0,0:0|0:0,0:0:0:0:
208,112,205889,6,0,L|112:232,1,104,8|0,0:0|0:0,0:0:0:0:
224,224,206233,1,8,0:0:0:0:
72,192,206406,2,0,L|8:96,2,104,0|8|0,0:0|0:0|0:0,0:0:0:0:
312,272,206923,2,12,L|504:152,1,208,0|8,0:0|0:0,0:0:0:0:
312,88,207440,1,0,0:0:0:0:
408,48,207613,5,8,0:0:0:0:
440,80,207699,1,0,0:0:0:0:
448,128,207785,1,8,0:0:0:0:
424,176,207871,1,0,0:0:0:0:
384,200,207958,1,8,0:0:0:0:
208,192,208130,5,0,0:0:0:0:
256,168,208216,1,0,0:0:0:0:
304,144,208302,1,8,0:0:0:0:
136,128,208475,1,8,0:0:0:0:
120,160,208561,1,0,0:0:0:0:
104,192,208647,1,8,0:0:0:0:
192,248,208820,1,0,0:0:0:0:
48,320,208992,6,8,L|128:320,1,52
280,240,209165,1,0,0:0:0:0:
432,168,209337,2,8,L|484:168,1,52
208,136,209510,1,0,0:0:0:0:
64,24,209682,2,8,L|-24:24,1,52
256,32,209854,1,0,0:0:0:0:
256,216,218302,5,8,0:0:0:0:
376,80,218475,1,0,0:0:0:0:
408,120,218561,1,0,0:0:0:0:
424,168,218647,1,0,0:0:0:0:
408,216,218733,1,0,0:0:0:0:
376,256,218820,1,0,0:0:0:0:
488,304,218992,1,2,0:0:0:0:
120,160,219165,1,2,0:0:0:0:
256,216,219337,6,0,L|352:136,1,104,12|0,0:0|0:0,0:0:0:0:
352,112,219596,1,0,0:0:0:0:
320,80,219682,1,0,0:0:0:0:
208,48,219854,1,0,0:0:0:0:
480,184,220027,2,0,L|400:304,1,104,0|8,0:0|0:0,0:0:0:0:
392,312,220285,5,8,0:0:0:0:
352,336,220371,1,8,0:0:0:0:
304,320,220458,1,0,0:0:0:0:
272,280,220544,1,0,0:0:0:0:
264,224,220630,1,0,0:0:0:0:
288,184,220716,1,0,0:0:0:0:
416,176,220889,5,0,0:0:0:0:
456,144,220975,1,0,0:0:0:0:
472,96,221061,2,0,L|440:40,1,52,2|2,0:0|0:0,0:0:0:0:
160,56,221233,1,0,0:0:0:0:
48,88,221406,2,2,B|-16:200|112:232|112:232|232:232|232:232|112:232,1,416,10|2,0:0|0:0,0:0:0:0:
304,264,222268,5,8,0:0:0:0:
336,224,222354,1,8,0:0:0:0:
368,184,222440,2,0,B|264:184|264:184|368:176|368:176|264:176|264:176|368:168,1,416,0|2,0:0|0:0,0:0:0:0:
200,296,223475,2,0,B|144:256|144:256|176:232|176:232|120:232|120:232|160:208|160:208|104:208|104:208|144:184|144:184|88:184|88:184|120:160|120:160|88:160|88:160|88:136|88:136|88:136,1,416,8|2,0:0|0:0,0:0:0:0:
176,112,224337,1,0,0:0:0:0:
440,32,224509,5,8,0:0:0:0:
456,48,224552,1,2,0:0:0:0:
472,64,224596,1,0,0:0:0:0:
480,88,224639,1,0,0:0:0:0:
488,112,224682,1,0,0:0:0:0:
488,136,224725,1,0,0:0:0:0:
488,160,224768,1,0,0:0:0:0:
480,184,224811,1,0,0:0:0:0:
472,208,224854,5,0,0:0:0:0:
456,224,224897,1,0,0:0:0:0:
440,240,224940,1,0,0:0:0:0:
416,248,224983,1,0,0:0:0:0:
392,256,225027,1,0,0:0:0:0:
368,256,225070,1,0,0:0:0:0:
344,256,225113,1,0,0:0:0:0:
320,256,225156,1,0,0:0:0:0:
296,256,225199,6,0,L|280:208,7,26,2|0|0|0|0|0|0|0,0:0|0:0|0:0|0:0|0:0|0:0|0:0|0:0,0:0:0:0:
216,256,225544,6,0,L|232:208,7,26,2|0|0|0|0|0|0|0,0:0|0:0|0:0|0:0|0:0|0:0|0:0|0:0,0:0:0:0:
152,256,225889,6,2,L|40:256,1,104,6|2,0:0|0:0,0:0:0:0:
360,256,226233,2,0,L|472:256,1,104,4|8,0:0|0:0,0:0:0:0:
432,216,226492,1,8,0:0:0:0:
168,32,226578,6,0,P|88:64|112:168,1,208,8|0,0:0|0:0,0:0:0:0:
232,192,227096,2,0,L|152:312,1,104,0|2,0:0|0:0,0:0:0:0:
272,280,227440,1,0,0:0:0:0:
440,272,227613,6,0,P|472:216|360:112,1,208,12|0,0:0|0:0,0:0:0:0:
288,96,228130,2,0,L|360:208,1,104,0|2,0:0|0:0,0:0:0:0:
208,184,228475,1,8,0:0:0:0:
160,184,228561,1,8,0:0:0:0:
112,184,228647,6,0,L|40:72,2,104,0|2|0,0:0|0:0|0:0,0:0:0:0:
360,256,229165,2,0,L|432:144,2,104,0|2|0,0:0|0:0|0:0,0:0:0:0:
208,240,229682,6,0,P|152:184|248:112,1,208,12|4,0:0|0:0,0:0:0:0:
264,104,230113,1,0,0:0:0:0:
304,104,230199,1,0,0:0:0:0:
192,176,230371,1,2,0:0:0:0:
336,176,230544,1,0,0:0:0:0:
40,248,230716,6,0,P|24:160|152:88,1,208,8|0,0:0|0:0,0:0:0:0:
208,80,231233,2,0,L|272:184,1,104,0|2,0:0|0:0,0:0:0:0:
128,192,231578,1,0,0:0:0:0:
368,336,231751,6,0,P|432:312|456:176,1,208,12|0,0:0|0:0,0:0:0:0:
360,192,232268,2,0,L|296:88,1,104,0|2,0:0|0:0,0:0:0:0:
64,48,232613,1,8,0:0:0:0:
24,88,232699,1,8,0:0:0:0:
40,136,232785,6,0,L|144:224,2,104,0|2|0,0:0|0:0|0:0,0:0:0:0:
312,168,233302,2,0,L|208:256,2,104,0|2|0,0:0|0:0|0:0,0:0:0:0:
448,240,233820,6,0,P|480:168|368:128,1,208,12|0,0:0|0:0,0:0:0:0:
248,128,234337,2,0,L|328:128,1,52,2|0,0:0|0:0,0:0:0:0:
352,128,234509,2,0,L|272:128,1,52,4|0,0:0|0:0,0:0:0:0:
80,120,234682,2,0,L|8:120,1,52,2|0,0:0|0:0,0:0:0:0:
80,152,234854,6,0,L|240:320,1,208,8|0,0:0|0:0,0:0:0:0:
120,280,235371,2,0,L|56:176,2,104,0|2|0,0:0|0:0|0:0,0:0:0:0:
392,312,235889,6,0,P|448:248|344:200,1,208,12|0,0:0|0:0,0:0:0:0:
264,184,236406,1,0,0:0:0:0:
368,216,236578,1,2,0:0:0:0:
136,32,236751,2,0,L|72:32,1,52
32,32,236923,6,0,P|0:96|128:160,1,208,8|0,0:0|0:0,0:0:0:0:
200,176,237440,2,0,L|128:288,1,104,0|2,0:0|0:0,0:0:0:0:
456,312,237785,1,0,0:0:0:0:
304,264,237958,6,0,P|240:216|320:128,1,208,12|8,0:0|0:0,0:0:0:0:
344,136,238389,1,0,0:0:0:0:
368,168,238475,1,8,0:0:0:0:
368,216,238561,1,0,0:0:0:0:
344,256,238647,1,8,0:0:0:0:
224,304,238820,1,2,0:0:0:0:
72,296,238992,6,4,P|40:192|288:56,1,416
256,192,240027,12,0,241751,0:0:0:0:
328,160,241923,6,0,L|384:208,1,52
184,280,242096,5,12,0:0:0:0:
136,256,242182,1,0,0:0:0:0:
112,208,242268,1,0,0:0:0:0:
128,160,242354,1,0,0:0:0:0:
360,32,242440,5,4,0:0:0:0:
400,64,242527,1,0,0:0:0:0:
408,112,242613,1,0,0:0:0:0:
384,160,242699,1,0,0:0:0:0:
200,200,242785,6,0,L|264:256,1,52,4|0,0:0|0:0,0:0:0:0:
424,264,242958,2,0,L|360:320,1,52,4|0,0:0|0:0,0:0:0:0:
104,40,243130,6,0,L|8:120,2,104,8|0|8,0:0|0:0|0:0,0:0:0:0:
400,40,243647,1,0,0:0:0:0:
256,80,243820,2,0,L|248:120,2,26,8|0|0,0:0|0:0|0:0,0:0:0:0:
432,184,243992,1,4,0:0:0:0:
176,256,244165,1,8,0:0:0:0:
320,296,244337,2,0,L|336:264,2,26,4|0|0,0:0|0:0|0:0,0:0:0:0:
56,120,244509,5,8,0:0:0:0:
184,136,244682,1,0,0:0:0:0:
56,152,244854,1,8,0:0:0:0:
336,32,245027,5,0,0:0:0:0:
384,56,245113,1,0,0:0:0:0:
408,96,245199,2,0,L|368:152,1,52,8|0,0:0|0:0,0:0:0:0:
120,192,245371,2,0,L|160:248,1,52,8|0,0:0|0:0,0:0:0:0:
368,176,245544,2,0,L|304:208,1,52,8|0,0:0|0:0,0:0:0:0:
80,264,245716,2,0,L|144:296,1,52,8|0,0:0|0:0,0:0:0:0:
328,328,245889,5,8,0:0:0:0:
384,312,245975,1,0,0:0:0:0:
424,272,246061,2,0,L|440:224,4,26,8|0|0|0|0,0:0|0:0|0:0|0:0|0:0,0:0:0:0:
128,72,246406,1,2,0:0:0:0:
256,32,246578,5,8,0:0:0:0:
304,40,246665,1,0,0:0:0:0:
352,64,246751,1,8,0:0:0:0:
384,104,246837,1,0,0:0:0:0:
400,152,246923,1,8,0:0:0:0:
392,208,247009,1,0,0:0:0:0:
368,256,247096,1,8,0:0:0:0:
336,288,247182,1,0,0:0:0:0:
136,288,247268,6,0,L|32:200,1,104,8|0,0:0|0:0,0:0:0:0:
104,192,247527,1,2,0:0:0:0:
344,160,247613,6,0,L|360:96,1,52,8|0,0:0|0:0,0:0:0:0:
168,160,247785,2,0,L|152:96,1,52,8|0,0:0|0:0,0:0:0:0:
384,248,247958,2,0,L|496:248,2,104,8|0|12,0:0|0:0|0:0,0:0:0:0:
280,248,248475,1,0,0:0:0:0:
440,128,248647,1,8,0:0:0:0:
96,40,248820,6,0,L|88:72,2,26
264,112,248992,1,8,0:0:0:0:
136,136,249165,2,0,L|128:168,2,26,4|0|0,0:0|0:0|0:0,0:0:0:0:
464,256,249337,1,8,0:0:0:0:
336,336,249509,5,8,0:0:0:0:
288,320,249595,1,0,0:0:0:0:
256,288,249682,1,8,0:0:0:0:
248,240,249768,1,0,0:0:0:0:
256,192,249854,1,8,0:0:0:0:
288,152,249940,1,0,0:0:0:0:
80,32,250027,6,0,L|64:72,5,26,8|0|0|2|0|2,0:0|0:0|0:0|0:0|0:0|0:0,0:0:0:0:
344,32,250371,5,8,0:0:0:0:
368,40,250415,1,0,0:0:0:0:
384,56,250458,1,0,0:0:0:0:
400,72,250501,1,0,0:0:0:0:
408,96,250544,5,0,0:0:0:0:
408,120,250587,1,0,0:0:0:0:
408,144,250630,1,0,0:0:0:0:
400,168,250673,1,0,0:0:0:0:
392,192,250716,5,8,0:0:0:0:
376,208,250759,1,0,0:0:0:0:
360,224,250802,1,0,0:0:0:0:
336,232,250846,1,0,0:0:0:0:
312,232,250889,6,0,L|296:272,6,26,0|0|0|0|8|0|0,0:0|0:0|0:0|0:0|0:0|0:0|0:0,0:0:0:0:
160,232,251233,1,8,0:0:0:0:
112,224,251320,1,0,0:0:0:0:
72,192,251406,6,0,L|192:192,2,104,8|0|8,0:0|0:0|0:0,0:0:0:0:
328,32,251923,1,0,0:0:0:0:
440,72,252096,1,8,0:0:0:0:
432,120,252182,1,4,0:0:0:0:
392,144,252268,1,0,0:0:0:0:
120,128,252440,2,0,L|248:128,1,104,8|0,0:0|0:0,0:0:0:0:
368,224,252785,1,8,0:0:0:0:
80,280,252958,6,0,L|72:264,8,13,0|0|0|0|0|0|0|0|8,0:0|0:0|0:0|0:0|0:0|0:0|0:0|0:0|0:0,0:0:0:0:
128,304,253216,1,0,0:0:0:0:
296,224,253302,1,8,0:0:0:0:
320,216,253346,1,0,0:0:0:0:
336,200,253389,1,0,0:0:0:0:
344,176,253432,1,0,0:0:0:0:
336,152,253475,6,0,L|272:104,2,52,8|0|8,0:0|0:0|0:0,0:0:0:0:
376,152,253733,2,0,L|352:80,1,52,0|8,0:0|0:0,0:0:0:0:
128,24,253906,1,0,0:0:0:0:
80,40,253992,1,8,0:0:0:0:
56,80,254078,1,0,0:0:0:0:
64,128,254165,6,0,L|168:216,1,104,8|0,0:0|0:0,0:0:0:0:
384,264,254509,2,0,L|504:264,1,104,12|0,0:0|0:0,0:0:0:0:
440,232,254768,1,2,0:0:0:0:
184,344,254854,2,0,L|136:232,1,104,8|0,0:0|0:0,0:0:0:0:
192,232,255113,1,2,0:0:0:0:
408,24,255199,2,0,L|456:88,1,52,8|0,0:0|0:0,0:0:0:0:
240,40,255371,1,8,0:0:0:0:
184,48,255458,1,0,0:0:0:0:
144,80,255544,6,0,L|40:184,2,104,8|0|8,0:0|0:0|0:0,0:0:0:0:
24,64,256061,1,0,0:0:0:0:
304,192,256233,2,0,L|320:240,4,26,8|0|0|0|0,0:0|0:0|0:0|0:0|0:0,0:0:0:0:
176,168,256578,1,12,0:0:0:0:
496,104,256751,2,0,L|368:56,1,104,0|8,0:0|0:0,0:0:0:0:
168,32,257096,6,0,L|152:80,2,26
336,160,257268,2,0,L|408:160,1,52,8|0,0:0|0:0,0:0:0:0:
72,192,257440,2,0,L|56:240,2,26,8|0|0,0:0|0:0|0:0,0:0:0:0:
112,160,257613,1,8,0:0:0:0:
160,152,257699,1,0,0:0:0:0:
392,304,257785,6,0,L|440:240,1,52,8|0,0:0|0:0,0:0:0:0:
192,280,257958,2,0,L|144:216,1,52,8|0,0:0|0:0,0:0:0:0:
432,224,258130,2,0,L|480:160,1,52,8|0,0:0|0:0,0:0:0:0:
232,200,258302,2,0,L|184:136,1,52,8|0,0:0|0:0,0:0:0:0:
432,32,258475,6,0,L|512:32,1,52,8|0,0:0|0:0,0:0:0:0:
192,32,258647,2,4,L|112:32,1,52,6|4,0:0|0:0,0:0:0:0:
320,96,258820,2,0,L|400:96,1,52,8|0,0:0|0:0,0:0:0:0:
80,96,258992,2,0,L|0:96,1,52,6|0,0:0|0:0,0:0:0:0:
432,160,259165,2,0,L|512:160,1,52,8|0,0:0|0:0,0:0:0:0:
192,160,259337,2,0,L|112:160,1,52,6|0,0:0|0:0,0:0:0:0:
312,224,259509,2,0,L|392:224,1,52,8|0,0:0|0:0,0:0:0:0:
40,224,259682,6,0,L|24:264,22,26,8|0|0|0|0|0|0|0|0|0|0|0|0|0|0|0|0|0|0|0|0|0|0,0:0|0:0|0:0|0:0|0:0|0:0|0:0|0:0|0:0|0:0|0:0|0:0|0:0|0:0|0:0|0:0|0:0|0:0|0:0|0:0|0:0|0:0|0:0,0:0:0:0:
344,216,260716,6,0,L|424:216,1,52,12|0,0:0|0:0,0:0:0:0:
448,216,260889,2,0,L|384:216,1,52,8|0,0:0|0:0,0:0:0:0:
208,136,261061,2,0,L|156:136,1,52,8|0,0:0|0:0,0:0:0:0:
304,136,261234,2,0,L|356:136,1,52,8|0,0:0|0:0,0:0:0:0:
112,32,261406,6,0,L|-16:32,2,104,8|0|8,0:0|0:0|0:0,0:0:0:0:
376,32,261923,1,0,0:0:0:0:
240,24,262096,1,8,0:0:0:0:
216,40,262139,1,2,0:0:0:0:
200,56,262182,1,0,0:0:0:0:
184,104,262268,1,8,0:0:0:0:
200,144,262354,1,0,0:0:0:0:
448,344,262440,6,0,L|488:296,1,52,8|0,0:0|0:0,0:0:0:0:
192,336,262613,2,0,L|152:288,1,52,8|0,0:0|0:0,0:0:0:0:
256,296,262785,2,0,L|216:248,1,52,8|0,0:0|0:0,0:0:0:0:
144,272,262958,2,0,L|104:224,1,52,4|0,0:0|0:0,0:0:0:0:
208,232,263130,2,0,L|272:232,1,52,8|0,0:0|0:0,0:0:0:0:
440,240,263302,2,0,L|464:208,2,26,4|0|0,0:0|0:0|0:0,0:0:0:0:
200,32,263475,5,8,0:0:0:0:
152,48,263561,1,0,0:0:0:0:
128,88,263647,1,8,0:0:0:0:
144,128,263733,1,0,0:0:0:0:
360,160,263820,2,0,L|424:104,1,52,8|0,0:0|0:0,0:0:0:0:
80,272,263992,2,0,L|16:216,1,52,8|0,0:0|0:0,0:0:0:0:
256,240,264165,6,0,L|272:288,14,26,8|0|0|0|0|0|0|0|0|0|0|0|0|0|0,0:0|0:0|0:0|0:0|0:0|0:0|0:0|0:0|0:0|0:0|0:0|0:0|0:0|0:0|0:0,0:0:0:0:
464,296,264854,6,0,L|496:232,1,52,8|0,0:0|0:0,0:0:0:0:
336,216,265027,2,0,L|304:152,1,52,4|0,0:0|0:0,0:0:0:0:
48,296,265199,2,0,L|16:232,1,52,8|0,0:0|0:0,0:0:0:0:
176,216,265371,2,0,L|208:152,1,52,4|0,0:0|0:0,0:0:0:0:
424,64,265544,6,0,L|320:64,2,104,8|0|8,0:0|0:0|0:0,0:0:0:0:
120,112,266061,1,0,0:0:0:0:
240,56,266233,1,8,0:0:0:0:
264,64,266277,1,2,0:0:0:0:
288,72,266320,1,0,0:0:0:0:
312,112,266406,1,0,0:0:0:0:
296,160,266492,1,0,0:0:0:0:
80,248,266578,6,0,L|8:248,1,52,8|0,0:0|0:0,0:0:0:0:
224,248,266751,1,8,0:0:0:0:
288,248,266837,1,0,0:0:0:0:
432,248,266923,2,0,L|504:248,1,52,8|0,0:0|0:0,0:0:0:0:
240,144,267096,2,0,L|152:144,1,52,4|0,0:0|0:0,0:0:0:0:
384,208,267268,6,0,L|456:208,1,52,8|0,0:0|0:0,0:0:0:0:
192,104,267440,2,0,L|104:104,1,52,4|0,0:0|0:0,0:0:0:0:
336,168,267613,2,0,L|408:168,1,52,8|0,0:0|0:0,0:0:0:0:
144,64,267786,2,0,L|56:64,1,52,4|0,0:0|0:0,0:0:0:0:
304,72,267958,6,0,L|320:120,22,26,8|0|0|0|0|0|0|0|0|0|0|0|0|0|0|0|0|0|0|0|0|0|0,0:0|0:0|0:0|0:0|0:0|0:0|0:0|0:0|0:0|0:0|0:0|0:0|0:0|0:0|0:0|0:0|0:0|0:0|0:0|0:0|0:0|0:0|0:0,0:0:0:0:
48,288,268992,6,0,L|8:232,1,52,8|0,0:0|0:0,0:0:0:0:
168,216,269165,2,0,L|208:152,1,52,4|0,0:0|0:0,0:0:0:0:
464,296,269337,2,0,L|504:232,1,52,8|0,0:0|0:0,0:0:0:0:
344,216,269509,2,0,L|304:152,1,52,4|0,0:0|0:0,0:0:0:0:
152,48,269682,6,0,L|48:48,1,104,8|0,0:0|0:0,0:0:0:0:
280,80,270027,2,0,L|344:184,1,104,8|0,0:0|0:0,0:0:0:0:
216,216,270371,2,0,L|176:240,2,26,8|2|0,0:0|0:0|0:0,0:0:0:0:
264,200,270544,1,8,0:0:0:0:
320,216,270630,1,0,0:0:0:0:
352,256,270716,1,8,0:0:0:0:
344,304,270802,1,0,0:0:0:0:
312,336,270889,1,8,0:0:0:0:
264,344,270975,1,0,0:0:0:0:
56,72,271061,5,8,0:0:0:0:
184,40,271233,1,2,0:0:0:0:
56,104,271406,1,8,0:0:0:0:
384,72,271578,2,0,L|392:88,4,13
176,184,271751,1,8,0:0:0:0:
304,216,271923,1,0,0:0:0:0:
72,304,272096,6,0,L|40:272,2,26,8|2|0,0:0|0:0|0:0,0:0:0:0:
248,264,272268,2,0,L|272:232,2,26,8|2|0,0:0|0:0|0:0,0:0:0:0:
160,264,272440,2,0,L|136:232,2,26,4|2|0,0:0|0:0|0:0,0:0:0:0:
408,320,272613,5,8,0:0:0:0:
440,272,272699,1,0,0:0:0:0:
448,216,272785,1,8,0:0:0:0:
432,168,272871,1,0,0:0:0:0:
392,128,272958,1,8,0:0:0:0:
344,104,273044,1,0,0:0:0:0:
120,48,273130,6,0,L|80:104,1,52,8|0,0:0|0:0,0:0:0:0:
264,56,273302,2,0,L|304:112,1,52,4|0,0:0|0:0,0:0:0:0:
16,264,273475,1,8,0:0:0:0:
152,264,273647,1,0,0:0:0:0:
16,296,273820,1,8,0:0:0:0:
320,352,273992,1,4,0:0:0:0:
368,328,274078,1,4,0:0:0:0:
400,288,274165,6,8,L|440:232,1,52
208,192,274337,2,0,L|160:128,1,52,8|0,0:0|0:0,0:0:0:0:
344,288,274509,2,0,L|384:232,1,52,8|0,0:0|0:0,0:0:0:0:
152,192,274682,2,0,L|104:128,1,52,8|0,0:0|0:0,0:0:0:0:
288,288,274854,2,0,L|328:232,1,52,8|0,0:0|0:0,0:0:0:0:
96,192,275026,2,0,L|48:128,1,52,8|0,0:0|0:0,0:0:0:0:
456,32,275199,6,0,L|528:32,1,52,12|0,0:0|0:0,0:0:0:0:
56,32,275371,2,0,L|-16:32,1,52,12|0,0:0|0:0,0:0:0:0:
468,62,275544,2,0,L|524:110,1,52,12|0,0:0|0:0,0:0:0:0:
44,62,275716,2,0,L|-12:110,1,52,12|0,0:0|0:0,0:0:0:0:
480,96,275889,2,0,L|520:176,1,52,12|0,0:0|0:0,0:0:0:0:
32,96,276061,2,0,L|-8:176,1,52,12|0,0:0|0:0,0:0:0:0:
288,240,276233,6,0,L|400:240,1,104,8|0,0:0|0:0,0:0:0:0:
352,208,276492,1,2,0:0:0:0:
144,312,276578,1,8,0:0:0:0:
96,296,276665,1,0,0:0:0:0:
72,256,276751,2,0,L|64:232,2,26,8|0|0,0:0|0:0|0:0,0:0:0:0:
288,48,276923,6,0,L|368:48,1,52,8|0,0:0|0:0,0:0:0:0:
392,48,277096,2,0,L|320:48,1,52,8|0,0:0|0:0,0:0:0:0:
136,48,277268,1,8,0:0:0:0:
80,64,277354,1,0,0:0:0:0:
48,112,277440,1,8,0:0:0:0:
40,152,277527,2,0,L|28:128,2,26,0|0|8,0:0|0:0|0:0,0:0:0:0:
264,304,277699,5,0,0:0:0:0:
288,296,277742,1,0,0:0:0:0:
312,288,277785,1,8,0:0:0:0:
360,272,277871,1,0,0:0:0:0:
312,232,277958,1,8,0:0:0:0:
264,200,278044,1,0,0:0:0:0:
360,168,278130,5,8,0:0:0:0:
400,128,278216,1,0,0:0:0:0:
392,72,278302,1,8,0:0:0:0:
352,40,278389,1,0,0:0:0:0:
176,32,278475,6,0,L|48:32,1,104,0|8,0:0|0:0,0:0:0:0:
112,64,278733,1,0,0:0:0:0:
360,264,278820,1,2,0:0:0:0:
400,224,278906,2,0,L|272:224,1,104
256,224,279165,1,0,0:0:0:0:
232,184,279251,1,2,0:0:0:0:
448,32,279337,6,0,L|496:96,1,52,8|0,0:0|0:0,0:0:0:0:
280,72,279509,2,0,L|248:160,1,52,4|0,0:0|0:0,0:0:0:0:
344,72,279682,2,0,L|376:160,1,52,8|0,0:0|0:0,0:0:0:0:
64,32,279854,2,0,L|16:96,1,52,4|0,0:0|0:0,0:0:0:0:
232,72,280026,2,0,L|264:160,1,52,8|0,0:0|0:0,0:0:0:0:
168,72,280199,2,0,L|136:160,1,52,4|0,0:0|0:0,0:0:0:0:
408,288,280371,6,0,L|432:256,2,26,8|2|0,0:0|0:0|0:0,0:0:0:0:
184,240,280544,2,0,L|160:208,2,26,8|2|0,0:0|0:0|0:0,0:0:0:0:
336,192,280716,5,8,0:0:0:0:
360,176,280759,1,2,0:0:0:0:
376,152,280802,1,0,0:0:0:0:
392,104,280889,1,8,0:0:0:0:
376,56,280975,1,0,0:0:0:0:
344,24,281061,1,8,0:0:0:0:
296,16,281147,1,0,0:0:0:0:
104,32,281233,2,0,L|32:32,1,52,8|0,0:0|0:0,0:0:0:0:
296,352,281406,6,0,L|360:232,1,104,8|0,0:0|0:0,0:0:0:0:
296,256,281665,1,2,0:0:0:0:
72,240,281751,2,0,L|128:184,1,52,8|0,0:0|0:0,0:0:0:0:
360,64,281923,2,0,L|396:100,1,52,8|0,0:0|0:0,0:0:0:0:
120,32,282096,6,0,L|48:32,1,52,8|0,0:0|0:0,0:0:0:0:
304,128,282268,2,0,L|328:160,2,26,8|0|0,0:0|0:0|0:0,0:0:0:0:
48,176,282440,6,0,L|16:264,1,52,8|0,0:0|0:0,0:0:0:0:
240,224,282613,2,0,L|222:272,1,52,4|0,0:0|0:0,0:0:0:0:
72,144,282785,2,0,L|40:232,1,52,8|0,0:0|0:0,0:0:0:0:
264,192,282958,2,0,L|246:240,1,52,4|0,0:0|0:0,0:0:0:0:
96,112,283130,2,0,L|24:112,1,52,8|0,0:0|0:0,0:0:0:0:
232,208,283299,1,4,0:0:0:0:
298,208,283389,1,0,0:0:0:0:
464,208,283475,6,0,L|496:120,1,52,8|0,0:0|0:0,0:0:0:0:
272,160,283648,2,0,L|289:111,1,52,4|0,0:0|0:0,0:0:0:0:
440,240,283820,2,0,L|472:152,1,52,8|0,0:0|0:0,0:0:0:0:
248,192,283992,2,0,L|265:143,1,52,4|0,0:0|0:0,0:0:0:0:
416,272,284165,2,0,L|448:184,1,52,8|0,0:0|0:0,0:0:0:0:
112,224,284338,2,0,L|48:224,1,52,4|0,0:0|0:0,0:0:0:0:
312,64,284509,6,0,L|328:112,22,26,8|0|0|0|0|0|0|0|0|0|0|0|0|0|0|0|0|0|0|0|0|0|0,0:0|0:0|0:0|0:0|0:0|0:0|0:0|0:0|0:0|0:0|0:0|0:0|0:0|0:0|0:0|0:0|0:0|0:0|0:0|0:0|0:0|0:0|0:0,0:0:0:0:
264,64,285544,6,0,L|192:64,1,52,12|0,0:0|0:0,0:0:0:0:
264,96,285716,2,0,L|328:96,1,52,8|0,0:0|0:0,0:0:0:0:
96,64,285889,2,0,L|24:64,1,52,8|0,0:0|0:0,0:0:0:0:
96,96,286061,2,0,L|160:96,1,52,8|0,0:0|0:0,0:0:0:0:
360,192,286233,2,0,L|216:192,1,104,8|0,0:0|0:0,0:0:0:0:
392,240,286578,1,8,0:0:0:0:
56,272,286751,6,0,L|48:256,7,13
24,224,286923,2,0,L|16:200,2,26,8|2|0,0:0|0:0|0:0,0:0:0:0:
32,224,287052,1,0,0:0:0:0:
72,200,287096,1,8,0:0:0:0:
112,176,287182,1,0,0:0:0:0:
144,136,287268,1,8,0:0:0:0:
136,88,287354,1,0,0:0:0:0:
104,48,287440,1,8,0:0:0:0:
56,40,287527,1,0,0:0:0:0:
336,288,287613,6,0,L|368:224,1,52,8|0,0:0|0:0,0:0:0:0:
176,288,287785,2,0,L|144:224,1,52,8|0,0:0|0:0,0:0:0:0:
432,152,287958,2,0,L|496:152,1,52,8|0,0:0|0:0,0:0:0:0:
224,184,288130,5,8,0:0:0:0:
216,176,288152,1,0,0:0:0:0:
208,168,288173,1,0,0:0:0:0:
208,160,288195,1,0,0:0:0:0:
208,152,288216,1,0,0:0:0:0:
288,112,288302,1,8,0:0:0:0:
48,40,288475,1,4,0:0:0:0:
368,176,288647,6,0,L|464:296,1,104,8|0,0:0|0:0,0:0:0:0:
392,256,288906,1,2,0:0:0:0:
136,256,288992,2,0,L|72:312,1,52,8|0,0:0|0:0,0:0:0:0:
360,224,289165,2,0,L|296:280,1,52,4|0,0:0|0:0,0:0:0:0:
104,224,289337,2,0,L|40:280,1,52,8|0,0:0|0:0,0:0:0:0:
328,192,289509,2,0,L|264:248,1,52,4|0,0:0|0:0,0:0:0:0:
72,192,289681,2,0,L|8:248,1,52,8|0,0:0|0:0,0:0:0:0:
344,48,289854,6,0,L|472:48,2,104,2|8|2,0:0|0:0|0:0,0:0:0:0:
184,40,290371,1,8,0:0:0:0:
152,48,290415,1,2,0:0:0:0:
136,72,290458,1,0,0:0:0:0:
128,128,290544,1,8,0:0:0:0:
168,168,290630,1,0,0:0:0:0:
376,200,290716,6,0,L|448:200,1,52,8|0,0:0|0:0,0:0:0:0:
480,200,290889,2,0,L|400:200,1,52,4|0,0:0|0:0,0:0:0:0:
200,200,291061,6,0,L|112:200,1,52,8|0,0:0|0:0,0:0:0:0:
312,200,291234,2,0,L|376:200,1,52,4|0,0:0|0:0,0:0:0:0:
136,200,291406,6,0,L|64:200,1,52,8|0,0:0|0:0,0:0:0:0:
32,200,291579,2,0,L|112:200,1,52,4|0,0:0|0:0,0:0:0:0:
496,32,291751,6,0,L|528:128,1,52,12|0,0:0|0:0,0:0:0:0:
16,32,291923,2,0,L|-16:128,1,52,12|0,0:0|0:0,0:0:0:0:
496,64,292096,2,0,L|528:160,1,52,12|0,0:0|0:0,0:0:0:0:
16,64,292268,2,0,L|-16:160,1,52,12|0,0:0|0:0,0:0:0:0:
496,96,292440,2,0,L|528:192,1,52,12|0,0:0|0:0,0:0:0:0:
16,96,292612,2,0,L|-16:192,1,52,12|0,0:0|0:0,0:0:0:0:
256,344,292785,6,0,P|392:336|240:264,1,416,8|0,0:0|0:0,0:0:0:0:
128,312,293820,2,0,P|64:272|96:144,1,208,12|0,0:0|0:0,0:0:0:0:
136,120,294337,1,8,0:0:0:0:
80,88,294509,1,0,0:0:0:0:
200,32,294682,1,0,0:0:0:0:
320,80,294854,6,0,L|248:216,2,104,2|0|0,0:0|0:0|0:0,0:0:0:0:
408,176,295371,2,0,L|496:264,2,104,2|0|0,0:0|0:0|0:0,0:0:0:0:
128,360,295889,2,0,P|80:320|168:232,1,208,8|4,0:0|0:0,0:0:0:0:
192,224,296320,1,0,0:0:0:0:
232,224,296406,1,0,0:0:0:0:
344,224,296578,2,2,L|264:104,1,104
464,248,296923,6,0,P|496:184|240:48,1,416,4|0,0:0|0:0,0:0:0:0:
56,88,297958,6,0,L|120:192,2,104,8|0|0,0:0|0:0|0:0,0:0:0:0:
176,80,298475,1,0,0:0:0:0:
56,120,298647,1,0,0:0:0:0:
288,200,298820,1,2,0:0:0:0:
328,200,298906,1,0,0:0:0:0:
368,200,298992,1,4,0:0:0:0:
264,160,299165,1,0,0:0:0:0:
392,160,299337,6,0,L|480:72,1,104,2|0,0:0|0:0,0:0:0:0:
224,128,299682,2,0,L|312:40,1,104,2|0,0:0|0:0,0:0:0:0:
64,288,300027,2,0,B|-32:176|136:144|136:144|224:144|224:144|120:144|120:144|224:136|224:136|224:136|224:136|192:136,1,520,12|0,0:0|0:0,0:0:0:0:
360,224,301061,6,0,L|472:176,1,104,2|0,0:0|0:0,0:0:0:0:
304,128,301406,2,0,L|272:24,1,104,2|0,0:0|0:0,0:0:0:0:
416,144,301751,2,0,L|448:40,1,104,2|0,0:0|0:0,0:0:0:0:
216,192,302096,6,0,L|8:192,1,208,12|0,0:0|0:0,0:0:0:0:
312,184,302613,2,0,L|255:271,1,104,2|0,0:0|0:0,0:0:0:0:
392,288,302958,1,0,0:0:0:0:
144,24,303130,2,0,L|368:24,1,208,8|0,0:0|0:0,0:0:0:0:
120,120,303647,2,0,L|177:207,1,104,2|0,0:0|0:0,0:0:0:0:
40,224,303992,1,0,0:0:0:0:
400,344,304165,6,0,P|472:294|398:246,1,208,12|2,0:0|0:0,0:0:0:0:
360,224,304596,1,0,0:0:0:0:
336,192,304682,1,0,0:0:0:0:
328,152,304768,1,0,0:0:0:0:
336,112,304854,1,2,0:0:0:0:
432,72,305027,1,2,0:0:0:0:
152,40,305199,6,0,B|80:120|80:120|152:48|152:48|80:128|80:128|152:56|152:56|80:136|80:136|152:64,1,624,4|8,0:0|0:0,0:0:0:0:
280,80,306406,2,0,L|200:200,1,104,2|0,0:0|0:0,0:0:0:0:
112,224,306751,1,0,0:0:0:0:
352,312,306923,2,0,L|480:256,1,104,2|0,0:0|0:0,0:0:0:0:
136,32,307268,5,8,0:0:0:0:
88,32,307354,1,0,0:0:0:0:
40,32,307440,1,0,0:0:0:0:
216,88,307613,1,8,0:0:0:0:
168,88,307699,1,0,0:0:0:0:
120,88,307785,1,0,0:0:0:0:
376,352,307958,5,8,0:0:0:0:
424,352,308044,1,4,0:0:0:0:
472,352,308130,1,0,0:0:0:0:
296,296,308303,1,8,0:0:0:0:
344,296,308389,1,4,0:0:0:0:
392,296,308475,1,0,0:0:0:0:
128,224,308647,6,0,L|56:160,1,52,8|0,0:0|0:0,0:0:0:0:
304,184,308820,2,0,L|376:120,1,52,8|0,0:0|0:0,0:0:0:0:
160,168,308992,2,0,L|88:104,1,52,8|0,0:0|0:0,0:0:0:0:
336,128,309165,2,0,L|408:64,1,52,8|0,0:0|0:0,0:0:0:0:
48,32,309337,5,8,0:0:0:0:
32,48,309380,1,2,0:0:0:0:
16,64,309423,1,0,0:0:0:0:
288,80,309509,1,8,0:0:0:0:
304,96,309552,1,2,0:0:0:0:
320,112,309596,1,0,0:0:0:0:
128,200,309682,2,0,L|128:216,4,13,8|0|0|0|0,0:0|0:0|0:0|0:0|0:0,0:0:0:0:
112,240,309854,5,8,0:0:0:0:
72,272,309940,1,0,0:0:0:0:
56,320,310027,1,8,0:0:0:0:
72,352,310113,1,0,0:0:0:0:
112,360,310199,1,8,0:0:0:0:
168,360,310285,1,0,0:0:0:0:
416,304,310371,6,0,L|464:240,1,52,8|0,0:0|0:0,0:0:0:0:
208,176,310544,2,0,L|184:144,2,26,4|0|0,0:0|0:0|0:0,0:0:0:0:
360,120,310716,2,0,L|384:88,2,26,8|0|0,0:0|0:0|0:0,0:0:0:0:
112,32,310889,2,0,L|-16:32,1,104,12|0,0:0|0:0,0:0:0:0:
48,48,311147,5,2,0:0:0:0:
296,232,311233,2,0,L|352:184,1,52,8|0,0:0|0:0,0:0:0:0:
168,144,311406,2,0,L|112:96,1,52,8|0,0:0|0:0,0:0:0:0:
408,80,311578,2,0,L|432:112,2,26,8|0|0,0:0|0:0|0:0,0:0:0:0:
232,256,311751,6,0,L|192:176,1,52,8|0,0:0|0:0,0:0:0:0:
296,208,311923,2,0,L|256:128,1,52,8|0,0:0|0:0,0:0:0:0:
176,144,312096,2,0,L|296:144,1,104,8|0,0:0|0:0,0:0:0:0:
40,256,312440,2,0,L|8:128,1,104,12|0,0:0|0:0,0:0:0:0:
56,144,312699,1,2,0:0:0:0:
288,64,312785,5,8,0:0:0:0:
296,64,312807,1,0,0:0:0:0:
304,64,312828,1,0,0:0:0:0:
312,64,312850,1,0,0:0:0:0:
320,64,312871,1,0,0:0:0:0:
160,64,312958,6,0,L|88:64,1,52,8|0,0:0|0:0,0:0:0:0:
56,64,313130,2,0,L|136:64,1,52,8|0,0:0|0:0,0:0:0:0:
344,200,313302,2,0,L|416:200,1,52,8|0,0:0|0:0,0:0:0:0:
48,352,313475,6,0,L|16:256,1,52,8|0,0:0|0:0,0:0:0:0:
256,352,313647,2,0,L|224:256,1,52,8|0,0:0|0:0,0:0:0:0:
152,352,313820,2,0,L|120:256,1,52,8|0,0:0|0:0,0:0:0:0:
392,352,313992,2,0,L|360:256,1,52,8|0,0:0|0:0,0:0:0:0:
288,352,314165,2,0,L|256:256,1,52,8|0,0:0|0:0,0:0:0:0:
472,232,314337,2,0,L|504:136,1,52,8|0,0:0|0:0,0:0:0:0:
224,208,314509,6,0,L|112:120,1,104,12|0,0:0|0:0,0:0:0:0:
128,144,314725,1,0,0:0:0:0:
142,143,314768,1,0,0:0:0:0:
336,72,314854,2,0,L|360:104,2,26,8|0|0,0:0|0:0|0:0,0:0:0:0:
136,24,315027,5,8,0:0:0:0:
88,40,315113,1,0,0:0:0:0:
72,88,315199,1,8,0:0:0:0:
96,128,315285,1,0,0:0:0:0:
304,208,315371,2,0,L|384:248,1,52,8|0,0:0|0:0,0:0:0:0:
104,328,315544,6,0,L|72:296,2,26,8|0|0,0:0|0:0|0:0,0:0:0:0:
336,336,315716,5,8,0:0:0:0:
360,328,315759,1,0,0:0:0:0:
384,320,315802,1,0,0:0:0:0:
400,304,315846,1,0,0:0:0:0:
408,280,315889,5,8,0:0:0:0:
416,256,315932,1,0,0:0:0:0:
416,232,315975,1,0,0:0:0:0:
408,208,316018,1,0,0:0:0:0:
392,192,316061,5,8,0:0:0:0:
376,176,316104,1,0,0:0:0:0:
360,160,316147,1,0,0:0:0:0:
104,168,316233,6,0,L|32:232,1,52,8|0,0:0|0:0,0:0:0:0:
160,248,316406,2,0,L|199:282,1,52,8|0,0:0|0:0,0:0:0:0:
304,312,316578,2,0,P|352:264|240:200,1,208,12|0,0:0|0:0,0:0:0:0:
216,184,317009,5,2,0:0:0:0:
392,48,317096,2,0,L|480:48,1,52,8|0,0:0|0:0,0:0:0:0:
240,152,317268,2,0,L|168:152,1,52,8|0,0:0|0:0,0:0:0:0:
424,80,317440,2,0,L|496:80,1,52,8|0,0:0|0:0,0:0:0:0:
144,32,317613,6,0,L|128:80,22,26,8|0|0|0|0|0|0|0|0|0|0|0|0|0|0|0|0|0|0|0|0|0|0,0:0|0:0|0:0|0:0|0:0|0:0|0:0|0:0|0:0|0:0|0:0|0:0|0:0|0:0|0:0|0:0|0:0|0:0|0:0|0:0|0:0|0:0|0:0,0:0:0:0:
135,56,318647,6,0,L|56:56,1,52,8|0,0:0|0:0,0:0:0:0:
31,56,318820,2,0,L|95:56,1,52,4|0,0:0|0:0,0:0:0:0:
377,328,318992,2,0,L|456:328,1,52,8|0,0:0|0:0,0:0:0:0:
481,328,319165,2,0,L|417:328,1,52,4|0,0:0|0:0,0:0:0:0:
160,272,319337,6,0,L|136:200,1,52,8|0,0:0|0:0,0:0:0:0:
312,192,319509,2,0,L|336:112,1,52,4|0,0:0|0:0,0:0:0:0:
88,88,319682,2,0,L|16:88,1,52,8|0,0:0|0:0,0:0:0:0:
296,32,319854,2,0,L|368:32,1,52,4|0,0:0|0:0,0:0:0:0:
160,128,320027,2,0,L|88:128,1,52,8|0,0:0|0:0,0:0:0:0:
368,72,320199,2,0,L|440:72,1,52,4|0,0:0|0:0,0:0:0:0:
88,168,320371,6,0,L|16:168,1,52,8|0,0:0|0:0,0:0:0:0:
296,112,320544,2,0,L|368:112,1,52,4|0,0:0|0:0,0:0:0:0:
24,240,320716,6,0,L|-8:336,1,52,8|0,0:0|0:0,0:0:0:0:
224,288,320889,1,4,0:0:0:0:
288,288,320975,1,0,0:0:0:0:
488,288,321061,6,0,L|520:192,1,52,8|0,0:0|0:0,0:0:0:0:
288,224,321233,1,4,0:0:0:0:
224,224,321319,1,0,0:0:0:0:
24,224,321405,6,0,L|-8:128,1,52,8|0,0:0|0:0,0:0:0:0:
224,168,321578,1,4,0:0:0:0:
288,168,321664,1,0,0:0:0:0:
488,168,321751,6,0,L|504:118,1,52,8|0,0:0|0:0,0:0:0:0:
264,112,321923,2,0,L|247:62,1,52,4|0,0:0|0:0,0:0:0:0:
448,200,322096,2,0,L|464:150,1,52,8|0,0:0|0:0,0:0:0:0:
224,144,322268,2,0,L|207:94,1,52,4|0,0:0|0:0,0:0:0:0:
352,280,322440,5,8,0:0:0:0:
424,280,322527,1,0,0:0:0:0:
496,280,322613,1,4,0:0:0:0:
424,248,322699,1,0,0:0:0:0:
24,168,322785,6,0,L|7:118,1,52,8|0,0:0|0:0,0:0:0:0:
304,112,322958,2,0,L|320:62,1,52,4|0,0:0|0:0,0:0:0:0:
112,168,323130,6,0,L|95:118,1,52,8|0,0:0|0:0,0:0:0:0:
392,112,323302,2,0,L|408:62,1,52,4|0,0:0|0:0,0:0:0:0:
200,168,323475,6,0,L|183:118,1,52,8|0,0:0|0:0,0:0:0:0:
480,112,323647,2,0,L|496:62,1,52,4|0,0:0|0:0,0:0:0:0:
128,296,323820,6,0,L|128:224,1,52,12|0,0:0|0:0,0:0:0:0:
384,296,323992,2,0,L|384:224,1,52,12|0,0:0|0:0,0:0:0:0:
96,264,324165,6,0,L|120:192,1,52,12|0,0:0|0:0,0:0:0:0:
416,264,324337,2,0,L|392:192,1,52,12|0,0:0|0:0,0:0:0:0:
64,232,324509,6,0,L|112:168,1,52,12|0,0:0|0:0,0:0:0:0:
448,232,324682,2,0,L|400:168,1,52,12|0,0:0|0:0,0:0:0:0:
32,200,324854,6,0,L|96:168,1,52,12|0,0:0|0:0,0:0:0:0:
480,200,325027,2,0,L|416:168,1,52,12|0,0:0|0:0,0:0:0:0:
0,168,325199,6,0,L|72:168,1,52,12|0,0:0|0:0,0:0:0:0:
512,168,325371,2,0,L|440:168,1,52,12|0,0:0|0:0,0:0:0:0:
0,136,325544,5,12,0:0:0:0:
72,136,325630,1,0,0:0:0:0:
512,136,325716,1,12,0:0:0:0:
440,136,325802,1,0,0:0:0:0:
256,192,325889,6,0,B|248:120|24:24|-16:224|64:392|296:384|520:208|256:160|240:152|208:136|184:112|144:96|144:96|104:80,1,702
336,336,328647,6,0,P|400:280|152:328,1,936,2|4,0:0|0:0,0:0:0:0:
272,360,332096,6,0,B|328:344|376:328|552:328|384:248|360:224|328:224|264:240|192:240|192:200|176:184|256:152|264:152|344:144|368:176,1,520,2|4,0:0|0:0,0:0:0:0:
240,288,334165,6,0,P|200:248|400:80,2,416,2|0|4,0:0|0:0|0:0,0:0:0:0:
288,304,337096,2,0,L|368:184,1,130,8|4,0:0|0:0,0:0:0:0:
256,200,337699,6,0,B|384:104|160:8|80:184|232:248|416:272|472:104|384:40|216:48,1,572
136,56,339768,6,0,B|224:112|256:216|112:312|112:312|192:344|264:304|216:184|128:176|88:264|120:320|120:320|288:320,1,806
360,320,342613,2,0,B|400:312|456:304|512:264|512:192|504:120|456:48|368:24|264:40|248:40|184:88|192:160|216:192,1,624
256,192,344768,12,0,347785,0:0:0:0:
256,192,347958,5,4,0:0:0:0:
