osu file format v14

[General]
AudioFilename: audio.mp3
AudioLeadIn: 0
PreviewTime: -1
Countdown: 0
SampleSet: Normal
StackLeniency: 0.2
Mode: 0
LetterboxInBreaks: 0
WidescreenStoryboard: 0

[Editor]
DistanceSpacing: 0.7
BeatDivisor: 4
GridSize: 8
TimelineZoom: 3.299998

[Metadata]
Title:Opus Brain
TitleUnicode:Opus Brain
Artist:Igorrr
ArtistUnicode:Igorrr
Creator:Artemis99
Version:
Source:
Tags:
BeatmapID:1857872
BeatmapSetID:888846

[Difficulty]
HPDrainRate:6
CircleSize:4.3
OverallDifficulty:9
ApproachRate:9.7
SliderMultiplier:2
SliderTickRate:1

[Events]
//Background and Video events
0,0,"bgopusbrain.png",0,0
//Break Periods
2,69518,78309
//Storyboard Layer 0 (Background)
//Storyboard Layer 1 (Fail)
//Storyboard Layer 2 (Pass)
//Storyboard Layer 3 (Foreground)
//Storyboard Sound Samples

[TimingPoints]
4519,342.857142857143,3,1,0,50,1,0
17376,-111.111111111111,3,1,0,50,0,0
18747,-90.9090909090909,3,1,0,50,0,0
31604,-83.3333333333333,3,1,0,50,0,0
32976,342.857142857143,3,1,0,50,1,0
89204,342.857142857143,4,1,0,50,1,0
89204,-90.9090909090909,4,1,0,50,0,0
118004,-100,4,1,0,50,0,0
134461,-333.333333333333,4,1,0,50,0,0
274346,228.571428571429,3,1,0,50,1,0

[HitObjects]
474,229,4518,6,0,P|425:238|375:233,1,100
267,171,4861,1,0,0:0:0:0:
433,26,5033,2,0,P|442:75|437:125,1,100
266,46,5376,1,0,0:0:0:0:
375,233,5547,1,0,0:0:0:0:
158,233,5719,6,0,L|50:223,1,100
29,45,6061,1,0,0:0:0:0:
175,215,6233,2,0,L|165:322,1,100
375,233,6576,2,0,B|303:226|303:226|268:255,1,100,0|0,2:0|0:0,0:0:0:0:
361,382,6919,1,0,0:0:0:0:
497,161,7090,2,0,B|503:89|503:89|474:54,1,100,0|0,2:0|0:0,0:0:0:0:
347,147,7433,1,0,0:0:0:0:
480,44,7604,1,0,0:0:0:0:
241,78,7776,6,0,P|192:81|142:80,1,100
24,16,8119,1,0,0:0:0:0:
21,40,8204,1,0,0:0:0:0:
64,104,8290,1,0,0:0:0:0:
66,128,8375,1,0,0:0:0:0:
24,192,8461,1,0,0:0:0:0:
22,216,8546,1,0,0:0:0:0:
64,280,8633,6,0,P|113:283|163:282,1,100
258,188,8976,1,0,0:0:0:0:
242,77,9147,6,0,P|238:126|239:176,1,100
400,261,9490,1,0,0:0:0:0:
175,264,9661,1,0,0:0:0:0:
414,156,9833,1,0,0:0:0:0:
242,77,10004,1,0,0:0:0:0:
224,77,10061,1,0,0:0:0:0:
208,78,10118,1,0,0:0:0:0:
191,80,10175,1,0,0:0:0:0:
400,261,10347,2,0,P|426:320|364:298,1,150
175,263,10690,6,0,P|223:253|272:260,1,100
156,375,11033,1,0,0:0:0:0:
64,244,11204,6,0,P|53:195|60:146,1,100
175,263,11547,1,0,0:0:0:0:
44,355,11719,1,0,0:0:0:0:
86,125,11890,2,0,P|160:137|230:113,1,150
248,98,12233,1,0,0:0:0:0:
175,263,12404,1,0,0:0:0:0:
149,6,12576,1,0,0:0:0:0:
347,190,12747,6,0,L|337:301,1,100
248,98,13090,1,0,0:0:0:0:
370,99,13261,6,0,L|258:89,1,100
462,0,13604,1,0,0:0:0:0:
347,190,13776,1,0,0:0:0:0:
491,147,13947,2,0,P|497:197|487:246,1,100
370,99,14290,1,0,0:0:0:0:
324,281,14461,2,0,P|275:271|225:277,1,100
88,368,14804,6,0,B|114:338|114:338|121:258,1,100
31,154,15147,1,0,0:0:0:0:
267,67,15319,2,0,B|240:96|240:96|233:176,1,100
324,281,15662,1,0,0:0:0:0:
119,278,15833,1,0,0:0:0:0:
426,201,16004,6,0,L|476:206,1,50
417,120,16176,2,0,L|463:99,1,50
369,54,16347,2,0,L|398:13,1,50,0|0,0:3|0:3,0:3:0:0:
195,9,16519,1,0,0:0:0:0:
180,28,16604,1,0,0:0:0:0:
167,49,16690,2,0,L|117:53,1,50
12,137,16861,1,0,0:0:0:0:
168,273,17033,6,0,L|118:277,1,50
25,158,17204,2,0,L|74:162,1,50
305,216,17376,2,0,P|301:260|315:303,1,89.9999972534181
457,374,17719,2,0,P|460:329|446:286,1,89.9999972534181
426,268,17976,1,0,0:0:0:0:
464,168,18061,5,0,0:3:0:0:
432,175,18146,1,0,0:3:0:0:
409,99,18233,5,0,0:3:0:0:
384,121,18318,1,0,0:3:0:0:
326,66,18404,5,0,0:3:0:0:
316,98,18489,1,0,0:3:0:0:
237,78,18576,5,0,0:3:0:0:
244,111,18661,1,0,0:3:0:0:
164,132,18747,6,0,P|109:126|54:132,1,110.000003356934
144,351,19090,1,0,0:0:0:0:
150,146,19261,6,0,P|95:140|40:146,1,110.000003356934
129,364,19604,1,0,0:0:0:0:
248,265,19776,1,0,0:0:0:0:
30,244,19947,1,0,0:0:0:0:
255,384,20119,1,0,0:0:0:0:
255,384,20204,1,0,0:0:0:0:
255,384,20290,6,0,P|309:389|364:383,1,110.000003356934
497,294,20633,1,0,0:3:0:0:
471,169,20804,2,0,L|481:288,1,110.000003356934
361,159,21147,1,0,0:0:0:0:
248,265,21319,2,0,L|128:275,1,110.000003356934
258,155,21662,1,0,0:0:0:0:
364,382,21833,1,0,0:0:0:0:
118,165,22004,6,0,L|115:137,3,27.5000008392334
97,184,22176,1,0,0:0:0:0:
77,203,22261,1,0,0:0:0:0:
57,221,22347,1,0,0:0:0:0:
3,62,22519,1,0,0:0:0:0:
23,44,22605,1,0,0:0:0:0:
43,25,22690,2,0,L|114:18,1,55.0000016784668
258,155,22861,6,0,L|377:144,1,110.000003356934
473,34,23204,1,0,0:0:0:0:
239,139,23376,2,0,L|249:258,1,110.000003356934
360,354,23719,1,0,0:0:0:0:
506,309,23890,1,0,0:0:0:0:
248,248,24061,6,0,L|208:251,1,27.5000008392334
50,264,24233,2,0,L|80:237,1,27.5000008392334
200,133,24404,2,0,L|191:171,1,27.5000008392334
155,328,24576,2,0,L|139:291,1,27.5000008392334
78,144,24747,2,0,L|112:164,1,27.5000008392334
272,257,24919,6,0,P|327:264|381:257,1,110.000003356934
391,248,25176,1,0,0:0:0:0:
400,238,25261,1,0,0:0:0:0:
485,27,25433,2,0,P|478:81|485:135,1,110.000003356934
339,73,25776,1,0,0:0:0:0:
508,260,25947,1,0,0:0:0:0:
316,59,26119,6,0,P|262:52|208:59,1,110.000003356934
185,75,26376,1,0,0:0:0:0:
163,91,26461,2,0,L|157:154,1,55.0000016784668
35,279,26633,1,0,0:0:0:0:
67,277,26718,1,0,0:0:0:0:
113,246,26804,1,0,0:0:0:0:
145,249,26889,1,0,0:0:0:0:
191,280,26976,6,0,L|230:276,3,27.5000008392334
251,339,27147,2,0,L|290:342,3,27.5000008392334
311,280,27319,2,0,L|350:277,3,27.5000008392334
371,339,27490,2,0,L|410:342,3,27.5000008392334
456,287,27661,2,0,L|458:259,3,27.5000008392334
399,210,27833,2,0,L|396:182,3,27.5000008392334
456,133,28004,2,0,L|458:105,3,27.5000008392334
399,55,28176,6,0,P|345:67|291:58,1,110.000003356934
291,58,28433,1,0,0:0:0:0:
291,58,28519,1,0,0:0:0:0:
135,0,28690,2,0,P|146:53|137:107,1,110.000003356934
51,267,29033,6,0,L|21:263,3,27.5000008392334
112,219,29204,2,0,L|115:188,3,27.5000008392334
160,281,29376,2,0,L|190:284,3,27.5000008392334
98,328,29547,2,0,L|94:358,3,27.5000008392334
39,190,29719,6,0,L|43:163,3,27.5000008392334
84,103,29890,2,0,L|109:92,3,27.5000008392334
181,98,30061,2,0,L|202:114,3,27.5000008392334
232,178,30233,2,0,L|359:166,1,110.000003356934
355,151,30490,1,0,0:0:0:0:
368,133,30576,1,0,0:0:0:0:
512,88,30747,5,0,0:0:0:0:
499,106,30833,1,0,0:0:0:0:
499,143,30919,5,0,0:0:0:0:
486,161,31005,1,0,0:0:0:0:
486,198,31090,5,0,0:0:0:0:
473,216,31176,1,0,0:0:0:0:
473,253,31261,5,0,0:0:0:0:
460,271,31347,1,0,0:0:0:0:
460,308,31433,5,0,0:0:0:0:
447,326,31519,1,0,0:0:0:0:
447,363,31604,2,0,B|409:335|409:335|313:327,1,119.999996337891
222,384,31947,2,0,B|184:356|184:356|88:348,1,119.999996337891
24,240,32290,2,0,L|39:241,28,14.9999995422363
91,174,32976,6,0,P|96:124|89:74,1,100
212,257,33318,1,0,0:0:0:0:
109,157,33490,6,0,P|114:107|107:57,1,100
230,240,33832,1,0,0:0:0:0:
0,114,34004,1,0,0:0:0:0:
257,7,34176,2,0,L|360:16,1,100
109,157,34518,1,0,0:0:0:0:
235,149,34690,2,0,L|135:140,1,100
321,100,35033,6,0,P|332:148|320:197,1,100
177,327,35376,1,0,0:0:0:0:
465,301,35547,2,0,L|365:292,1,100
235,149,35890,1,0,0:0:0:0:
351,319,36061,1,0,0:0:0:0:
441,134,36233,6,0,B|419:100|419:100|426:20,1,100
256,8,36576,1,0,0:0:0:0:
226,5,36661,1,0,0:0:0:0:
192,42,36747,1,0,0:0:0:0:
162,45,36832,1,0,0:0:0:0:
128,8,36918,1,0,0:0:0:0:
98,5,37003,1,0,0:0:0:0:
64,42,37090,6,0,P|75:90|73:140,1,100
1,310,37433,1,0,0:0:0:0:
99,132,37604,2,0,P|148:128|197:139,1,100
186,322,37947,1,0,0:0:0:0:
351,240,38118,1,0,0:0:0:0:
94,316,38290,5,0,0:0:0:0:
373,336,38461,1,0,0:0:0:0:
389,330,38518,1,0,0:0:0:0:
404,323,38575,1,0,0:0:0:0:
417,313,38632,1,0,0:0:0:0:
238,97,38804,2,0,P|197:140|269:124,1,150
334,93,39147,6,0,P|382:82|431:89,1,100
351,240,39490,1,0,0:0:0:0:
342,69,39661,6,0,P|390:58|439:65,1,100
359,216,40004,1,0,0:0:0:0:
512,149,40176,1,0,0:0:0:0:
238,97,40347,6,0,B|182:92|182:92|151:73|151:73|93:68,1,150
76,47,40690,2,0,P|90:94|79:142,1,100
0,263,41033,1,0,0:0:0:0:
259,207,41204,6,0,L|359:216,1,100
375,240,41461,1,0,0:0:0:0:
392,264,41547,1,0,0:0:0:0:
130,235,41718,1,0,0:0:0:0:
147,259,41804,1,0,0:0:0:0:
164,283,41890,2,0,L|237:289,1,50
259,207,42061,2,0,L|332:213,1,50
354,131,42233,2,0,L|427:137,1,50
175,55,42404,6,0,L|75:46,1,100
259,207,42747,1,0,0:0:0:0:
362,31,42918,2,0,L|354:131,1,100
484,271,43261,2,0,L|476:371,1,100
495,121,43604,1,0,0:0:0:0:
349,336,43776,2,0,P|299:344|250:339,1,100
354,130,44118,1,0,0:0:0:0:
484,271,44290,1,0,0:0:0:0:
213,260,44461,5,0,0:0:0:0:
183,258,44546,1,0,0:0:0:0:
141,287,44633,5,0,0:0:0:0:
111,286,44718,1,0,0:0:0:0:
68,314,44804,2,0,L|-5:311,1,50
13,103,44976,5,0,0:0:0:0:
43,101,45061,1,0,0:0:0:0:
85,130,45148,5,0,0:0:0:0:
115,129,45233,1,0,0:0:0:0:
157,100,45319,2,0,L|230:97,1,50
292,5,45490,5,0,0:0:0:0:
322,3,45575,1,0,0:0:0:0:
364,32,45662,5,0,0:0:0:0:
394,31,45747,1,0,0:0:0:0:
436,2,45833,2,0,L|509:-1,1,50
354,130,46004,2,0,L|427:127,1,50
479,258,46176,5,0,0:0:0:0:
480,288,46261,1,0,0:0:0:0:
509,330,46347,2,0,L|512:403,1,50
326,314,46518,2,0,L|327:356,1,25
191,360,46690,2,0,L|192:402,1,25
279,179,46861,2,0,L|280:221,1,25
144,225,47033,2,0,L|145:267,1,25
101,49,47204,6,0,L|100:7,3,25
148,103,47376,2,0,L|184:123,3,25
77,116,47547,2,0,L|41:137,3,25
290,25,47718,6,0,L|289:-17,3,25
337,79,47890,2,0,L|373:99,3,25
266,92,48061,2,0,L|230:113,3,25
144,225,48233,2,0,L|165:212,3,25
322,190,48404,6,0,L|286:211,3,25
221,310,48576,2,0,L|185:331,1,25
223,330,48661,2,0,L|187:351,1,25
225,350,48747,2,0,L|189:371,3,25
296,375,48918,2,0,L|317:362,3,25
352,297,49090,2,0,L|373:284,3,25
50,227,49261,6,0,L|28:239,3,25
74,157,49433,2,0,L|73:132,3,25
122,212,49604,2,0,L|143:224,3,25
194,107,49776,6,0,L|172:119,3,25
218,37,49948,2,0,L|217:12,3,25
266,92,50119,2,0,L|287:104,3,25
300,202,50290,2,0,L|321:214,3,25
444,136,50461,2,0,L|465:148,3,25
469,330,50633,1,0,0:0:0:0:
469,330,50718,1,0,0:0:0:0:
469,330,50804,2,0,L|518:358,1,50
225,350,50976,1,0,0:0:0:0:
225,350,51061,1,0,0:0:0:0:
225,350,51147,2,0,L|175:321,1,50
77,73,51318,6,0,P|81:122|78:172,1,100
7,364,51661,1,0,0:0:0:0:
92,92,51833,6,0,P|96:141|93:191,1,100
225,350,52176,1,0,0:0:0:0:
22,383,52347,1,0,0:0:0:0:
275,204,52518,2,0,L|306:201,3,25
338,264,52690,2,0,L|369:261,3,25
430,220,52861,2,0,P|423:170|426:120,1,100
411,101,53118,1,0,0:0:0:0:
395,81,53204,2,0,L|331:75,1,50,0|0,0:3|0:3,0:3:0:0:
248,15,53376,6,0,L|202:10,3,25,0|0|0|0,0:3|0:3|0:3|0:3,0:3:0:0:
133,62,53547,2,0,L|87:57,1,25,0|0,0:3|0:3,0:3:0:0:
116,94,53633,2,0,L|70:89,1,25,0|0,0:3|0:3,0:3:0:0:
99,126,53718,2,0,L|39:119,1,50,0|0,0:3|0:3,0:3:0:0:
0,242,53890,2,0,L|64:248,1,50,0|0,0:3|0:3,0:3:0:0:
169,355,54062,2,0,L|215:360,3,25,0|0|0|0,0:3|0:3|0:3|0:3,0:3:0:0:
241,308,54233,2,0,L|287:313,3,25,0|0|0|0,0:3|0:3|0:3|0:3,0:3:0:0:
313,261,54404,2,0,L|359:266,3,25,0|0|0|0,0:3|0:3|0:3|0:3,0:3:0:0:
237,122,54576,6,0,L|283:127,3,25,0|0|0|0,0:3|0:3|0:3|0:3,0:3:0:0:
395,81,54747,2,0,L|315:74,1,50
470,188,54918,2,0,P|477:250|472:305,1,100
465,313,55176,1,0,0:0:0:0:
455,338,55261,2,0,L|375:331,1,50
337,263,55433,2,0,L|313:261,3,25,0|0|0|0,0:3|0:3|0:3|0:3,0:3:0:0:
265,310,55604,2,0,L|241:308,3,25,0|0|0|0,0:3|0:3|0:3|0:3,0:3:0:0:
193,357,55776,2,0,L|169:355,3,25,0|0|0|0,0:3|0:3|0:3|0:3,0:3:0:0:
261,124,55947,2,0,L|236:121,3,25,0|0|0|0,0:3|0:3|0:3|0:3,0:3:0:0:
189,171,56118,2,0,L|164:168,3,25,0|0|0|0,0:3|0:3|0:3|0:3,0:3:0:0:
117,218,56290,2,0,L|92:215,3,25,0|0|0|0,0:3|0:3|0:3|0:3,0:3:0:0:
45,265,56461,2,0,L|20:262,3,25,0|0|0|0,0:3|0:3|0:3|0:3,0:3:0:0:
0,24,56633,6,0,L|103:33,1,100,0|0,0:3|0:3,0:3:0:0:
115,51,56890,1,0,0:0:0:0:
131,70,56976,1,0,0:0:0:0:
360,132,57147,2,0,L|260:123,1,100,0|0,0:3|0:3,0:3:0:0:
504,16,57490,6,0,L|501:47,3,25
440,80,57661,2,0,L|442:111,3,25
504,144,57833,2,0,L|501:175,3,25
360,132,58004,6,0,L|357:163,3,25
296,196,58175,2,0,L|298:227,3,25
360,260,58347,2,0,L|357:291,3,25
296,324,58518,2,0,L|298:355,3,25
124,293,58690,6,0,L|126:268,3,25
64,194,58861,2,0,L|66:169,1,25
52,185,58947,2,0,L|54:160,1,25
40,176,59033,2,0,L|44:126,1,50
198,25,59204,2,0,L|195:49,1,25
210,34,59290,2,0,L|207:58,1,25
222,43,59376,6,0,L|217:92,1,50
296,196,59547,2,0,L|291:245,1,50
390,0,59718,2,0,L|385:49,1,50
464,153,59889,2,0,L|459:202,1,50
291,245,60061,6,0,L|288:269,4,25
106,22,60404,1,0,0:0:0:0:
96,26,60490,1,0,0:0:0:0:
86,30,60576,2,0,L|95:141,1,100
444,145,60918,5,0,0:0:0:0:
454,149,61004,1,0,0:0:0:0:
464,153,61090,2,0,L|454:264,1,100
106,22,61433,5,0,0:0:0:0:
96,26,61519,1,0,0:0:0:0:
86,30,61605,2,0,L|95:141,1,100
444,145,61947,5,0,0:0:0:0:
454,149,62033,1,0,0:0:0:0:
464,153,62118,1,0,0:0:0:0:
446,351,62290,1,0,0:0:0:0:
333,3,62461,1,0,0:0:0:0:
256,192,62547,12,0,69318,0:0:0:0:
471,114,78804,5,0,0:0:0:0:
470,126,78861,1,0,0:0:0:0:
469,139,78918,2,0,L|464:186,3,33.3333333333333
363,171,79147,5,0,0:0:0:0:
364,183,79204,1,0,0:0:0:0:
365,195,79261,2,0,L|369:242,3,33.3333333333333
480,259,79490,5,0,0:0:0:0:
478,271,79547,1,0,0:0:0:0:
477,283,79604,2,0,L|472:330,3,33.3333333333333
371,315,79833,5,0,0:0:0:0:
372,327,79890,1,0,0:0:0:0:
373,339,79947,2,0,L|377:386,3,33.3333333333333
237,299,80176,2,0,L|232:251,1,33.3333333333333
104,223,80290,5,0,0:0:0:0:
105,239,80347,1,0,0:0:0:0:
106,256,80404,1,0,0:0:0:0:
108,272,80461,1,0,0:0:0:0:
108,288,80518,2,0,L|110:321,1,33.3333333333333
230,200,80633,5,0,0:0:0:0:
231,216,80690,1,0,0:0:0:0:
232,233,80747,1,0,0:0:0:0:
234,249,80804,1,0,0:0:0:0:
234,265,80861,2,0,L|236:298,1,33.3333333333333
26,82,80976,5,0,0:0:0:0:
27,98,81033,1,0,0:0:0:0:
28,115,81090,1,0,0:0:0:0:
30,131,81147,1,0,0:0:0:0:
30,147,81204,2,0,L|32:180,1,33.3333333333333
152,59,81319,5,0,0:0:0:0:
153,75,81376,1,0,0:0:0:0:
154,92,81433,1,0,0:0:0:0:
156,108,81490,1,0,0:0:0:0:
156,124,81547,2,0,L|158:157,1,33.3333333333333
278,36,81661,1,0,0:0:0:0:
256,192,81747,12,0,85347,0:0:0:0:
486,20,89204,5,0,0:0:0:0:
312,180,89375,2,0,P|236:176|184:180,1,110.000003356934
347,300,89718,1,0,0:0:0:0:
277,60,89889,1,0,0:0:0:0:
127,294,90061,2,0,P|68:316|116:242,1,220.000006713867
347,300,90575,2,0,P|445:336|354:264,1,330.000010070801
235,361,91261,5,0,0:0:0:0:
344,174,91432,2,0,B|355:107|331:22|331:22|308:46|266:65,1,220.000006713867
276,59,91946,1,0,0:0:0:0:
74,166,92118,2,0,B|146:179|210:172|210:172|159:156|124:125,1,220.000006713867
0,16,92632,2,0,L|128:27,1,110.000003356934
51,182,92975,1,0,0:0:0:0:
51,182,93146,1,0,0:0:0:0:
276,59,93318,5,0,0:0:0:0:
235,361,93489,2,0,B|149:353|149:353|112:326|112:326|24:318,1,220.000006713867
276,59,94004,1,0,0:0:0:0:
388,334,94175,2,0,P|310:321|389:265,1,220.000006713867
427,192,94689,2,0,P|272:195|231:343,1,330.000010070801
388,334,95375,1,0,0:0:0:0:
169,138,95546,2,0,B|89:131|89:131|64:144|64:144|0:139|0:139|76:97,1,220.000006713867
173,32,96061,6,0,L|285:41,1,110.000003356934
383,219,96575,1,0,0:0:0:0:
397,233,96746,2,0,P|487:262|390:200,1,330.000010070801
323,272,97432,6,0,P|220:305|116:275,1,220.000006713867
78,193,97861,1,0,0:0:0:0:
75,165,97946,1,0,0:0:0:0:
73,138,98032,1,0,0:0:0:0:
70,110,98118,1,0,0:0:0:0:
94,359,98289,1,0,0:0:0:0:
116,275,98461,1,0,0:0:0:0:
299,23,98804,5,0,0:0:0:0:
323,272,98975,2,0,P|301:231|370:273,1,220.000006713867
251,363,99489,1,0,0:0:0:0:
472,271,99661,2,0,P|467:180|356:102,1,220.000006713867
104,152,100175,6,0,L|213:161,1,110.000003356934
251,363,100689,1,0,0:0:0:0:
371,103,100861,1,0,0:0:0:0:
104,152,101032,2,0,B|95:247|95:247|77:270|77:270|69:364,1,220.000006713867
84,379,101546,5,0,0:0:0:0:
194,114,101718,2,0,P|111:53|19:102,1,220.000006713867
180,211,102232,1,0,0:0:0:0:
180,211,102404,1,0,0:0:0:0:
270,173,102575,2,0,L|389:183,1,110.000003356934
251,363,102918,5,0,0:0:0:0:
279,88,103089,2,0,B|358:94|358:94|409:67|409:67|491:74,1,220.000006713867
379,182,103604,1,0,0:0:0:0:
501,347,103775,2,0,P|437:358|510:295,1,220.000006713867
79,333,104289,2,0,P|168:348|66:260,1,330.000010070801
270,377,104975,1,0,0:0:0:0:
244,181,105146,2,0,P|147:136|42:162,1,220.000006713867
235,72,105661,6,0,L|244:181,1,110.000003356934
477,264,106004,1,0,0:0:0:0:
477,264,106175,1,0,0:0:0:0:
479,42,106346,5,0,0:0:0:0:
446,49,106431,1,0,0:0:0:0:
413,50,106517,1,0,0:0:0:0:
381,45,106603,1,0,0:0:0:0:
339,9,106689,5,0,0:0:0:0:
297,2,106775,1,0,0:0:0:0:
254,3,106861,1,0,0:0:0:0:
212,14,106946,1,0,0:0:0:0:
158,1,107032,5,0,0:0:0:0:
188,46,107117,1,0,0:0:0:0:
198,100,107203,1,0,0:0:0:0:
188,153,107289,1,0,0:0:0:0:
157,199,107375,1,0,0:0:0:0:
124,242,107460,1,0,0:0:0:0:
124,296,107546,1,0,0:0:0:0:
155,339,107632,1,0,0:0:0:0:
207,356,107718,2,0,L|278:362,3,55.0000016784668
350,287,108061,2,0,L|404:291,3,55.0000016784668
486,140,108404,5,0,0:0:0:0:
451,124,108489,1,0,0:0:0:0:
414,117,108575,1,0,0:0:0:0:
375,121,108661,1,0,0:0:0:0:
340,135,108746,1,0,0:0:0:0:
304,149,108831,1,0,0:0:0:0:
266,153,108917,1,0,0:0:0:0:
228,146,109003,1,0,0:0:0:0:
194,130,109089,5,0,0:0:0:0:
210,164,109174,1,0,0:0:0:0:
217,202,109260,1,0,0:0:0:0:
211,240,109346,1,0,0:0:0:0:
195,275,109432,2,0,L|131:280,1,55.0000016784668
0,221,109604,2,0,L|63:215,1,55.0000016784668
46,0,109775,5,0,0:0:0:0:
15,22,109860,1,0,0:0:0:0:
3,58,109946,1,0,0:0:0:0:
14,95,110032,1,0,0:0:0:0:
42,119,110117,1,0,0:0:0:0:
79,124,110203,1,0,0:0:0:0:
113,107,110289,1,0,0:0:0:0:
132,73,110375,1,0,0:0:0:0:
129,35,110461,5,0,0:0:0:0:
168,55,110546,1,0,0:0:0:0:
211,64,110632,1,0,0:0:0:0:
255,59,110718,1,0,0:0:0:0:
295,43,110804,1,0,0:0:0:0:
336,27,110889,1,0,0:0:0:0:
380,22,110975,1,0,0:0:0:0:
423,31,111061,1,0,0:0:0:0:
462,50,111146,6,0,L|467:105,3,55.0000016784668
372,129,111489,2,0,L|376:183,3,55.0000016784668
507,237,111832,2,0,L|511:291,3,55.0000016784668
416,315,112175,2,0,L|420:369,3,55.0000016784668
273,206,112518,5,0,0:0:0:0:
238,180,112603,1,0,0:0:0:0:
195,178,112689,1,0,0:0:0:0:
158,201,112775,1,0,0:0:0:0:
141,241,112860,1,0,0:0:0:0:
151,284,112946,1,0,0:0:0:0:
182,313,113032,2,0,L|237:318,1,55.0000016784668
15,111,113204,5,0,0:0:0:0:
3,147,113289,1,0,0:0:0:0:
2,185,113375,1,0,0:0:0:0:
13,222,113461,1,0,0:0:0:0:
24,259,113547,1,0,0:0:0:0:
23,297,113633,1,0,0:0:0:0:
13,335,113718,2,0,L|68:340,1,55.0000016784668
239,91,113889,5,0,0:0:0:0:
203,66,113974,1,0,0:0:0:0:
159,67,114060,1,0,0:0:0:0:
125,92,114146,1,0,0:0:0:0:
111,133,114231,1,0,0:0:0:0:
123,175,114317,1,0,0:0:0:0:
158,201,114404,2,0,L|213:206,1,55.0000016784668
507,118,114575,5,0,0:0:0:0:
512,79,114660,1,0,0:0:0:0:
499,44,114746,1,0,0:0:0:0:
469,20,114832,1,0,0:0:0:0:
432,13,114917,1,0,0:0:0:0:
396,25,115003,1,0,0:0:0:0:
372,54,115089,1,0,0:0:0:0:
364,92,115175,1,0,0:0:0:0:
376,128,115261,5,0,0:0:0:0:
330,110,115346,1,0,0:0:0:0:
285,127,115432,1,0,0:0:0:0:
263,170,115518,1,0,0:0:0:0:
276,217,115603,1,0,0:0:0:0:
317,242,115689,1,0,0:0:0:0:
358,267,115775,1,0,0:0:0:0:
371,314,115860,1,0,0:0:0:0:
349,357,115946,5,0,0:0:0:0:
304,374,116032,1,0,0:0:0:0:
259,357,116117,1,0,0:0:0:0:
209,347,116204,1,0,0:0:0:0:
160,355,116289,2,0,P|168:316|165:281,1,55.0000016784668
40,160,116461,2,0,P|32:199|35:234,1,55.0000016784668
250,5,116632,5,0,0:0:0:0:
195,5,116717,1,0,0:0:0:0:
152,37,116803,1,0,0:0:0:0:
137,89,116889,1,0,0:0:0:0:
155,139,116974,1,0,0:0:0:0:
200,169,117060,1,0,0:0:0:0:
254,166,117146,1,0,0:0:0:0:
295,132,117232,1,0,0:0:0:0:
308,79,117318,5,0,0:0:0:0:
336,33,117403,1,0,0:0:0:0:
386,12,117489,1,0,0:0:0:0:
438,25,117575,1,0,0:0:0:0:
473,67,117660,1,0,0:0:0:0:
475,121,117746,1,0,0:0:0:0:
445,165,117832,1,0,0:0:0:0:
424,216,117918,1,0,0:0:0:0:
424,271,118004,5,0,0:0:0:0:
224,87,118175,2,0,B|178:97|149:70|149:70|132:76|132:76|115:83|115:83|86:56|36:68,1,200
126,326,118689,1,0,0:0:0:0:
245,76,118861,2,0,P|294:68|343:73,1,100
512,284,119204,1,0,0:0:0:0:
510,300,119261,1,0,0:0:0:0:
509,317,119318,1,0,0:0:0:0:
507,333,119375,6,0,P|457:341|408:336,1,100
256,192,119718,2,0,B|192:197|192:197|166:183|166:183|110:188,1,150
75,191,120061,1,0,0:0:0:0:
307,276,120232,2,0,P|354:193|309:108,1,200
256,192,120746,1,0,0:0:0:0:
89,28,120918,2,0,P|34:24|98:77,1,200,0|0,0:3|0:3,0:3:0:0:
195,28,121432,2,0,P|245:22|295:25,1,100
413,96,121775,2,0,P|462:99|512:93,1,100
295,25,122118,5,0,0:0:0:0:
207,279,122289,2,0,P|256:282|306:276,1,100
413,96,122632,1,0,0:0:0:0:
170,146,122804,1,0,0:0:0:0:
379,210,122975,2,0,P|400:303|332:371,1,200
207,279,123489,6,0,L|87:289,1,100
0,376,123832,2,0,L|119:386,1,100
16,104,124175,1,0,0:0:0:0:
207,279,124346,2,0,L|215:378,1,100
400,213,124689,1,0,0:0:0:0:
412,203,124746,1,0,0:0:0:0:
424,195,124803,1,0,0:0:0:0:
438,185,124861,6,0,L|504:179,2,66.6666666666667
273,273,125204,2,0,L|206:278,2,66.6666666666667
313,361,125546,5,0,0:3:0:0:
273,273,125661,1,0,0:3:0:0:
330,194,125775,1,0,0:3:0:0:
290,106,125889,2,0,L|284:39,2,66.6666666666667,0|0|0,0:3|0:3|0:3,0:3:0:0:
86,354,126232,5,0,0:3:0:0:
95,320,126317,1,0,0:3:0:0:
99,285,126403,1,0,0:3:0:0:
93,250,126489,1,0,0:3:0:0:
79,218,126574,1,0,0:3:0:0:
58,191,126661,1,0,0:3:0:0:
35,164,126746,1,0,0:3:0:0:
26,131,126832,1,0,0:3:0:0:
31,96,126918,5,0,0:3:0:0:
50,67,127003,1,0,0:3:0:0:
80,48,127089,1,0,0:3:0:0:
114,43,127175,1,0,0:3:0:0:
147,53,127261,1,0,0:3:0:0:
174,75,127346,1,0,0:3:0:0:
189,106,127432,1,0,0:3:0:0:
190,142,127518,1,0,0:3:0:0:
179,174,127604,1,0,0:3:0:0:
256,192,127689,12,0,132061,0:0:0:0:
365,137,134461,6,0,B|301:131|301:131|262:112|262:112|221:124|221:124|161:119,1,209.999993591309
126,99,135832,2,0,P|137:147|126:191,1,89.9999972534181
58,234,136518,2,0,P|35:264|175:265,1,329.9999899292
259,243,138575,2,0,P|269:270|326:315,1,89.9999972534181
493,143,139261,2,0,P|483:116|426:70,1,89.9999972534181
426,310,139946,2,0,P|453:300|498:243,1,89.9999972534181
326,76,140632,2,0,P|299:86|253:143,1,89.9999972534181
119,120,141318,2,0,P|90:303|263:234,1,449.99998626709
157,220,144061,2,0,P|172:177|204:146,1,89.9999972534181
309,161,144746,2,0,P|294:203|262:234,1,89.9999972534181
322,55,145432,2,0,P|364:69|395:101,1,89.9999972534181
