osu file format v14

[General]
AudioFilename: audio.mp3
AudioLeadIn: 0
PreviewTime: 28749
Countdown: 0
SampleSet: None
StackLeniency: 0.7
Mode: 2
LetterboxInBreaks: 0
WidescreenStoryboard: 0

[Editor]
DistanceSpacing: 1
BeatDivisor: 4
GridSize: 16
TimelineZoom: 1.5

[Metadata]
Title:Mastication Numrique
TitleUnicode:Mastication Numérique
Artist:Igorrr
ArtistUnicode:Igorrr
Creator:-Ken
Version:Nostalgique
Source:
Tags:
BeatmapID:1345750
BeatmapSetID:634189

[Difficulty]
HPDrainRate:6
CircleSize:4
OverallDifficulty:9.5
ApproachRate:9.5
SliderMultiplier:2
SliderTickRate:2

[Events]
//Background and Video events
0,0,"bg.jpg",0,0
//Break Periods
//Storyboard Layer 0 (Background)
//Storyboard Layer 1 (Fail)
//Storyboard Layer 2 (Pass)
//Storyboard Layer 3 (Foreground)
//Storyboard Sound Samples

[TimingPoints]
659,272.727272727273,4,2,0,50,1,0
659,-142.857142857143,4,2,0,50,0,0
3727,-100,4,2,0,50,0,0
3931,-100,4,3,0,50,0,0
13204,-100,4,3,0,50,0,0
31749,-83.3333333333333,4,3,0,50,0,0
32568,-100,4,3,0,50,0,0
35022,-83.3333333333333,4,3,0,50,0,0
35840,-100,4,3,0,50,0,0
38295,-83.3333333333333,4,3,0,50,0,0
39113,-100,4,3,0,50,0,0
45659,-125,4,3,0,50,0,0
62022,-125,4,3,0,50,0,1
62090,-76.9230769230769,4,3,0,50,0,1
66931,-76.9230769230769,4,3,0,50,0,0
68568,-100,4,3,0,50,0,0
71840,-100,4,3,0,50,0,1
75113,-100,4,3,0,50,0,0
86568,-100,4,3,0,50,0,1
86704,-90.9090909090909,4,3,0,50,0,1
88204,-76.9230769230769,4,3,0,50,0,0
88477,-100,4,3,0,50,0,0
93113,-100,4,3,0,50,0,1
94749,-100,4,3,0,50,0,0
101022,-200,4,3,0,50,0,0
102386,-200,4,3,0,50,0,0
114386,-100,4,3,0,50,0,0

[Colours]
Combo1 : 162,162,162
Combo2 : 157,157,0
Combo3 : 166,83,0
Combo4 : 128,64,64

[HitObjects]
128,288,659,6,0,P|128:224|208:208,2,139.999995727539,0|0|0,0:0|0:0|0:0,0:0:0:0:
384,288,1477,2,0,P|384:224|304:208,2,139.999995727539,0|0|0,0:0|0:0|0:0,0:0:0:0:
160,192,2295,2,0,P|224:144|272:176,2,139.999995727539,0|0|0,0:0|0:0|0:0,0:0:0:0:
384,64,3113,2,0,P|416:80|432:176,1,139.999995727539,0|0,0:0|0:0,0:0:0:0:
368,208,3454,5,0,0:0:0:0:
295,224,3522,1,0,0:0:0:0:
222,209,3590,1,0,0:0:0:0:
161,165,3658,1,0,0:0:0:0:
224,160,3727,2,0,L|288:160,2,50,0|0|0,0:0|0:0|0:0,0:0:0:0:
128,160,3931,6,0,P|80:128|112:32,1,150,0|0,0:0|0:0,0:0:0:0:
288,96,4204,2,0,P|352:80|384:0,1,150,0|0,0:0|0:0,0:0:0:0:
304,32,4477,2,0,L|160:32,1,100,0|0,0:0|0:0,0:0:0:0:
464,48,4749,6,0,P|512:96|480:192,1,150
336,160,5022,2,0,L|160:160,1,150,0|0,0:0|0:0,0:0:0:0:
400,32,5295,2,0,P|448:64|432:144,1,100,0|0,0:0|0:0,0:0:0:0:
192,192,5568,6,0,P|128:192|112:112,1,150,0|0,0:0|0:0,0:0:0:0:
192,112,5840,2,0,L|352:112,1,150,0|0,0:0|0:0,0:0:0:0:
128,112,6113,2,0,P|96:160|128:208,1,100,0|0,0:0|0:0,0:0:0:0:
336,283,6386,2,0,P|386:290|363:190,1,200,0|0,0:0|0:0,0:0:0:0:
315,200,6727,5,0,0:0:0:0:
271,179,6795,1,0,0:0:0:0:
250,134,6863,1,0,0:0:0:0:
262,87,6931,1,0,0:0:0:0:
301,58,6999,1,0,0:0:0:0:
349,58,7068,1,0,0:0:0:0:
387,90,7136,1,0,0:0:0:0:
128,208,7204,6,0,L|32:80,1,150,0|0,0:0|0:0,0:0:0:0:
128,96,7477,2,0,L|288:96,1,150,0|0,0:0|0:0,0:0:0:0:
128,208,7749,2,0,L|16:112,1,100,0|0,0:0|0:0,0:0:0:0:
384,208,8022,6,0,L|480:80,1,150,0|0,0:0|0:0,0:0:0:0:
384,96,8295,2,0,L|224:96,1,150,0|0,0:0|0:0,0:0:0:0:
384,208,8567,2,0,L|464:112,1,100,0|0,0:0|0:0,0:0:0:0:
240,208,8840,6,0,L|320:80,1,150,0|0,0:0|0:0,0:0:0:0:
96,208,9113,2,0,L|160:64,1,150,0|0,0:0|0:0,0:0:0:0:
400,32,9386,2,0,L|432:144,1,100,0|0,0:0|0:0,0:0:0:0:
144,256,9659,2,0,P|96:192|176:112,1,200,0|0,0:0|0:0,0:0:0:0:
224,112,9999,5,0,0:0:0:0:
273,112,10067,1,0,0:0:0:0:
323,107,10135,1,0,0:0:0:0:
372,97,10203,1,0,0:0:0:0:
420,81,10271,1,0,0:0:0:0:
465,60,10339,1,0,0:0:0:0:
508,34,10408,1,0,0:0:0:0:
448,32,10477,5,0,0:0:0:0:
160,48,10613,1,0,0:0:0:0:
464,144,10749,1,0,0:0:0:0:
336,144,10886,1,0,0:0:0:0:
464,144,11022,1,0,0:0:0:0:
144,160,11159,1,0,0:0:0:0:
256,160,11295,5,0,0:0:0:0:
348,150,11431,1,0,0:0:0:0:
361,58,11567,1,0,0:0:0:0:
275,23,11704,1,0,0:0:0:0:
16,64,11840,2,0,L|128:64,1,100,0|0,0:0|0:0,0:0:0:0:
464,128,12113,6,0,L|352:128,1,100,0|0,0:0|0:0,0:0:0:0:
144,176,12386,2,0,L|256:176,1,100,0|0,0:0|0:0,0:0:0:0:
400,160,12659,2,0,L|272:160,1,100,0|0,0:0|0:0,0:0:0:0:
16,144,12931,1,0,0:0:0:0:
368,272,13204,5,0,0:0:0:0:
318,276,13272,1,0,0:0:0:0:
268,271,13340,1,0,0:0:0:0:
220,257,13408,1,0,0:0:0:0:
176,234,13476,1,0,0:0:0:0:
144,208,13545,1,0,0:0:0:0:
137,159,13613,1,0,0:0:0:0:
166,120,13681,1,0,0:0:0:0:
400,192,13749,6,0,L|496:64,1,150,0|0,0:0|0:0,0:0:0:0:
400,192,14022,2,0,L|464:352,1,150,0|0,0:0|0:0,0:0:0:0:
32,304,14295,2,0,L|96:224,1,100,0|0,0:0|0:0,0:0:0:0:
400,192,14568,6,0,L|496:64,1,150,0|0,0:0|0:0,0:0:0:0:
400,192,14841,2,0,L|464:336,1,150,0|0,0:0|0:0,0:0:0:0:
32,304,15114,2,0,L|96:224,1,100,0|0,0:0|0:0,0:0:0:0:
400,240,15386,6,0,P|432:160|368:80,1,150,0|0,0:0|0:0,0:0:0:0:
176,176,15659,2,0,P|128:128|192:64,1,150,0|0,0:0|0:0,0:0:0:0:
384,144,15931,2,0,P|384:80|352:80,1,100,0|0,0:0|0:0,0:0:0:0:
128,64,16204,2,0,P|64:96|144:144,1,200,0|0,0:0|0:0,0:0:0:0:
176,144,16545,5,0,0:0:0:0:
224,152,16613,1,0,0:0:0:0:
262,184,16681,1,0,0:0:0:0:
280,230,16749,1,0,0:0:0:0:
273,279,16817,1,0,0:0:0:0:
242,318,16885,1,0,0:0:0:0:
197,337,16954,1,0,0:0:0:0:
368,304,17022,6,0,P|432:256|400:208,1,150,0|0,0:0|0:0,0:0:0:0:
320,208,17295,2,0,P|256:208|208:144,1,150,0|0,0:0|0:0,0:0:0:0:
384,128,17568,2,0,L|496:128,1,100,0|0,0:0|0:0,0:0:0:0:
144,304,17840,6,0,P|80:256|112:208,1,150,0|0,0:0|0:0,0:0:0:0:
192,208,18113,2,0,P|256:208|304:144,1,150,0|0,0:0|0:0,0:0:0:0:
128,128,18386,2,0,L|16:128,1,100,0|0,0:0|0:0,0:0:0:0:
368,256,18659,6,0,P|400:192|336:128,1,150,0|0,0:0|0:0,0:0:0:0:
160,160,18931,2,0,P|224:80|304:64,1,150,0|0,0:0|0:0,0:0:0:0:
112,64,19204,2,0,L|0:64,1,100,0|0,0:0|0:0,0:0:0:0:
432,48,19477,2,0,P|496:160|432:208,1,200,0|0,0:0|0:0,0:0:0:0:
352,208,19818,6,0,L|288:208,1,50,0|0,0:0|0:0,0:0:0:0:
240,208,19954,2,0,L|320:208,1,50,0|0,0:0|0:0,0:0:0:0:
240,208,20090,2,0,L|304:208,1,50,0|0,0:0|0:0,0:0:0:0:
336,208,20227,1,0,0:0:0:0:
192,176,20295,6,0,P|128:176|64:112,1,150,0|0,0:0|0:0,0:0:0:0:
144,112,20568,2,0,P|224:96|240:32,1,150,0|0,0:0|0:0,0:0:0:0:
112,32,20840,2,0,L|0:32,1,100,0|0,0:0|0:0,0:0:0:0:
288,160,21113,6,0,P|352:160|416:96,1,150,0|0,0:0|0:0,0:0:0:0:
320,112,21386,2,0,P|240:96|224:32,1,150,0|0,0:0|0:0,0:0:0:0:
352,32,21658,2,0,L|464:32,1,100,0|0,0:0|0:0,0:0:0:0:
112,208,21931,6,0,P|64:160|128:80,1,150,0|0,0:0|0:0,0:0:0:0:
320,112,22204,2,0,B|400:128|400:128|304:144,1,150,0|0,0:0|0:0,0:0:0:0:
144,192,22477,2,0,L|0:192,1,100,0|0,0:0|0:0,0:0:0:0:
336,272,22749,2,0,P|400:240|336:144,1,200,0|0,0:0|0:0,0:0:0:0:
304,144,23090,5,0,0:0:0:0:
260,165,23158,1,0,0:0:0:0:
212,153,23226,1,0,0:0:0:0:
184,113,23294,1,0,0:0:0:0:
190,64,23362,1,0,0:0:0:0:
225,31,23430,1,0,0:0:0:0:
274,29,23499,1,0,0:0:0:0:
352,32,23568,5,0,0:0:0:0:
96,192,23704,1,0,0:0:0:0:
464,192,23840,1,0,0:0:0:0:
352,192,23977,1,0,0:0:0:0:
240,192,24113,1,0,0:0:0:0:
496,144,24249,1,0,0:0:0:0:
16,144,24386,5,0,0:0:0:0:
128,144,24522,1,0,0:0:0:0:
240,144,24659,1,0,0:0:0:0:
144,96,24795,1,0,0:0:0:0:
256,96,24931,1,0,0:0:0:0:
160,48,25068,1,0,0:0:0:0:
464,96,25204,5,0,0:0:0:0:
478,193,25340,1,0,0:0:0:0:
434,281,25476,1,0,0:0:0:0:
347,328,25613,1,0,0:0:0:0:
249,318,25749,1,0,0:0:0:0:
96,240,25886,2,0,L|160:240,2,50,0|0|0,0:0|0:0|0:0,0:0:0:0:
192,160,26295,5,0,0:0:0:0:
128,112,26568,1,0,0:0:0:0:
192,192,26840,1,0,0:0:0:0:
128,192,27113,1,0,0:0:0:0:
224,128,27386,1,0,0:0:0:0:
128,96,27659,1,0,0:0:0:0:
176,176,27931,1,0,0:0:0:0:
112,208,28204,1,0,0:0:0:0:
176,272,28477,1,0,0:0:0:0:
128,160,28749,5,0,0:0:0:0:
176,168,28817,1,0,0:0:0:0:
219,145,28886,1,0,0:0:0:0:
239,101,28954,1,0,0:0:0:0:
228,53,29022,1,0,0:0:0:0:
190,22,29090,1,0,0:0:0:0:
140,21,29158,1,0,0:0:0:0:
101,51,29226,1,0,0:0:0:0:
320,256,29295,6,0,L|464:256,1,100,0|0,0:0|0:0,0:0:0:0:
128,256,29568,2,0,L|64:256,1,50,0|0,0:0|0:0,0:0:0:0:
128,256,29704,2,0,L|64:256,1,50,0|0,0:0|0:0,0:0:0:0:
416,272,29840,2,0,P|464:240|480:192,1,100,0|0,0:0|0:0,0:0:0:0:
176,160,30113,6,0,L|48:160,1,100,0|0,0:0|0:0,0:0:0:0:
384,256,30386,2,0,L|448:256,1,50,0|0,0:0|0:0,0:0:0:0:
384,256,30522,2,0,L|448:256,1,50,0|0,0:0|0:0,0:0:0:0:
96,272,30659,2,0,P|48:240|32:192,1,100,0|0,0:0|0:0,0:0:0:0:
352,192,30931,5,0,0:0:0:0:
397,178,30999,1,0,0:0:0:0:
410,131,31067,1,0,0:0:0:0:
377,97,31135,1,0,0:0:0:0:
224,96,31204,2,0,L|112:96,1,100,0|0,0:0|0:0,0:0:0:0:
352,80,31477,2,0,P|416:144|368:208,1,150,0|0,0:0|0:0,0:0:0:0:
160,240,31749,2,0,B|48:192|48:192|192:144,1,239.999992675781,0|0,0:0|0:0,0:0:0:0:
224,160,32090,5,0,0:0:0:0:
281,174,32158,1,0,0:0:0:0:
333,148,32226,1,0,0:0:0:0:
357,94,32294,1,0,0:0:0:0:
340,38,32362,1,0,0:0:0:0:
291,5,32430,1,0,0:0:0:0:
233,12,32499,1,0,0:0:0:0:
32,224,32568,6,0,L|144:176,1,100,0|0,0:0|0:0,0:0:0:0:
384,224,32840,2,0,L|432:208,1,50,0|0,0:0|0:0,0:0:0:0:
480,210,32977,2,0,L|480:160,1,50,0|0,0:0|0:0,0:0:0:0:
144,192,33113,2,0,P|112:128|144:80,1,100,0|0,0:0|0:0,0:0:0:0:
464,160,33386,6,0,L|352:144,1,100,0|0,0:0|0:0,0:0:0:0:
144,176,33659,2,0,L|96:160,1,50,0|0,0:0|0:0,0:0:0:0:
32,160,33795,2,0,L|32:80,1,50,0|0,0:0|0:0,0:0:0:0:
288,128,33931,2,0,L|416:128,1,100,0|0,0:0|0:0,0:0:0:0:
112,208,34204,5,0,0:0:0:0:
73,178,34272,1,0,0:0:0:0:
65,130,34340,1,0,0:0:0:0:
93,90,34408,1,0,0:0:0:0:
144,80,34477,2,0,L|256:80,1,100,0|0,0:0|0:0,0:0:0:0:
480,80,34749,1,0,0:0:0:0:
112,240,35022,2,0,P|32:208|128:128,1,239.999992675781,0|0,0:0|0:0,0:0:0:0:
176,112,35363,5,0,0:0:0:0:
234,114,35431,1,0,0:0:0:0:
278,75,35499,1,0,0:0:0:0:
285,17,35567,1,0,0:0:0:0:
250,0,35635,1,0,0:0:0:0:
193,0,35703,1,0,0:0:0:0:
144,32,35772,1,0,0:0:0:0:
368,208,35840,6,0,L|480:208,1,100,0|0,0:0|0:0,0:0:0:0:
64,224,36113,1,0,0:0:0:0:
23,198,36181,1,0,0:0:0:0:
20,150,36249,1,0,0:0:0:0:
58,120,36317,1,0,0:0:0:0:
240,128,36386,2,0,L|368:128,1,100,0|0,0:0|0:0,0:0:0:0:
48,96,36659,6,0,L|160:96,1,100,0|0,0:0|0:0,0:0:0:0:
448,64,36931,1,0,0:0:0:0:
479,102,36999,1,0,0:0:0:0:
482,151,37067,1,0,0:0:0:0:
457,193,37135,1,0,0:0:0:0:
224,224,37204,2,0,L|112:224,1,100,0|0,0:0|0:0,0:0:0:0:
400,224,37477,5,0,0:0:0:0:
350,227,37545,1,0,0:0:0:0:
306,206,37613,1,0,0:0:0:0:
277,166,37681,1,0,0:0:0:0:
272,112,37749,2,0,L|432:112,1,150,0|0,0:0|0:0,0:0:0:0:
176,96,38022,2,0,L|64:96,1,100,0|0,0:0|0:0,0:0:0:0:
368,48,38295,2,0,P|448:96|368:144,1,179.999994506836,0|0,0:0|0:0,0:0:0:0:
336,144,38568,5,0,0:0:0:0:
277,140,38636,1,0,0:0:0:0:
226,172,38704,1,0,0:0:0:0:
204,226,38772,1,0,0:0:0:0:
217,284,38840,1,0,0:0:0:0:
260,324,38908,1,0,0:0:0:0:
319,331,38977,1,0,0:0:0:0:
371,303,39045,1,0,0:0:0:0:
320,288,39113,5,0,0:0:0:0:
48,256,39249,1,0,0:0:0:0:
176,224,39386,1,0,0:0:0:0:
48,176,39522,1,0,0:0:0:0:
368,176,39659,1,0,0:0:0:0:
96,96,39795,1,0,0:0:0:0:
320,16,39931,5,0,0:0:0:0:
416,80,40067,1,0,0:0:0:0:
428,196,40203,1,0,0:0:0:0:
347,279,40340,1,0,0:0:0:0:
96,208,40477,1,0,0:0:0:0:
352,176,40613,1,0,0:0:0:0:
240,160,40749,5,0,0:0:0:0:
126,170,40885,1,0,0:0:0:0:
80,275,41021,1,0,0:0:0:0:
150,365,41158,1,0,0:0:0:0:
263,348,41294,1,0,0:0:0:0:
368,304,41431,1,0,0:0:0:0:
368,224,41568,1,0,0:0:0:0:
128,240,41840,5,0,0:0:0:0:
81,225,41908,1,0,0:0:0:0:
63,180,41976,1,0,0:0:0:0:
86,138,42044,1,0,0:0:0:0:
160,128,42113,5,0,0:0:0:0:
192,124,42158,1,0,0:0:0:0:
214,100,42203,1,0,0:0:0:0:
216,67,42249,1,0,0:0:0:0:
196,42,42294,1,0,0:0:0:0:
164,35,42340,1,0,0:0:0:0:
48,48,42385,5,0,0:0:0:0:
272,48,42659,1,0,0:0:0:0:
80,112,42931,1,0,0:0:0:0:
288,112,43204,1,0,0:0:0:0:
480,112,43477,1,0,0:0:0:0:
288,96,43749,1,0,0:0:0:0:
128,192,44022,5,0,0:0:0:0:
352,192,44295,1,0,0:0:0:0:
160,144,44499,1,0,0:0:0:0:
96,144,44568,1,0,0:0:0:0:
336,112,44840,1,0,0:0:0:0:
144,96,45113,1,0,0:0:0:0:
352,64,45386,1,0,0:0:0:0:
144,192,45659,6,0,L|336:192,2,160,0|0|0,0:0|0:0|0:0,0:0:0:0:
368,192,46477,2,0,L|176:192,2,160,0|0|0,0:0|0:0|0:0,0:0:0:0:
160,240,47295,2,0,P|128:160|160:112,1,120,0|0,0:0|0:0,0:0:0:0:
240,128,47568,2,0,P|272:48|240:0,1,120,0|0,0:0|0:0,0:0:0:0:
160,240,47840,2,0,P|128:160|160:112,1,120,0|0,0:0|0:0,0:0:0:0:
336,16,48113,1,0,0:0:0:0:
208,128,48386,6,0,L|256:112,1,40,0|0,0:0|0:0,0:0:0:0:
192,96,48522,2,0,L|240:80,1,40,0|0,0:0|0:0,0:0:0:0:
176,48,48659,2,0,L|224:32,1,40,0|0,0:0|0:0,0:0:0:0:
272,16,48795,1,0,0:0:0:0:
400,96,48931,6,0,L|240:128,2,160,0|0|0,0:0|0:0|0:0,0:0:0:0:
240,208,49749,2,0,L|400:240,2,160,0|0|0,0:0|0:0|0:0,0:0:0:0:
448,128,50568,5,0,0:0:0:0:
256,144,50840,1,0,0:0:0:0:
448,80,51045,1,0,0:0:0:0:
384,80,51113,1,0,0:0:0:0:
160,80,51386,2,0,L|320:80,2,160,0|0|0,0:0|0:0|0:0,0:0:0:0:
320,160,52204,6,0,L|160:160,2,160,0|0|0,0:0|0:0|0:0,0:0:0:0:
160,208,53022,1,0,0:0:0:0:
336,176,53295,1,0,0:0:0:0:
160,144,53568,1,0,0:0:0:0:
336,128,53840,6,0,L|416:128,1,80,0|0,0:0|0:0,0:0:0:0:
288,240,54113,2,0,L|256:208,1,40,0|0,0:0|0:0,0:0:0:0:
336,240,54249,2,0,L|368:208,1,40,0|0,0:0|0:0,0:0:0:0:
288,208,54386,2,0,L|224:160,1,80,0|0,0:0|0:0,0:0:0:0:
352,128,54659,6,0,L|400:112,1,40,0|0,0:0|0:0,0:0:0:0:
320,128,54795,2,0,L|272:112,1,40,0|0,0:0|0:0,0:0:0:0:
352,96,54931,2,0,L|400:80,1,40,0|0,0:0|0:0,0:0:0:0:
320,96,55068,2,0,L|272:64,1,40,0|0,0:0|0:0,0:0:0:0:
368,48,55204,2,0,L|448:48,1,80
240,64,55477,6,0,L|64:64,2,160,0|0|0,0:0|0:0|0:0,0:0:0:0:
48,192,56295,2,0,L|224:192,2,160,0|0|0,0:0|0:0|0:0,0:0:0:0:
256,192,57113,1,0,0:0:0:0:
464,192,57386,1,0,0:0:0:0:
256,192,57659,1,0,0:0:0:0:
32,192,57931,1,0,0:0:0:0:
256,192,58204,6,0,L|400:192,1,120,0|0,0:0|0:0,0:0:0:0:
432,192,58477,2,0,L|256:192,2,160,0|0|0,0:0|0:0|0:0,0:0:0:0:
272,144,59295,1,0,0:0:0:0:
432,96,59568,2,0,L|272:96,2,160,0|0|0,0:0|0:0|0:0,0:0:0:0:
208,272,60386,1,0,0:0:0:0:
272,272,60522,1,0,0:0:0:0:
336,272,60659,1,0,0:0:0:0:
387,271,60749,1,0,0:0:0:0:
418,230,60840,1,0,0:0:0:0:
404,180,60931,1,0,0:0:0:0:
144,176,61204,1,0,0:0:0:0:
272,176,61477,6,0,L|160:128,1,120,0|0,0:0|0:0,0:0:0:0:
96,128,61749,2,0,L|256:128,1,160
320,160,62090,5,0,0:0:0:0:
352,224,62158,1,0,0:0:0:0:
304,272,62226,1,0,0:0:0:0:
112,272,62295,5,0,0:0:0:0:
90,211,62363,1,0,0:0:0:0:
115,153,62431,1,0,0:0:0:0:
173,126,62499,1,0,0:0:0:0:
336,128,62568,6,0,L|400:128,1,64.9999970245363
160,64,62704,2,0,L|96:64,1,64.9999970245363
368,64,62840,5,0,0:0:0:0:
416,64,62909,1,0,0:0:0:0:
368,64,62977,1,0,0:0:0:0:
416,64,63045,1,0,0:0:0:0:
240,64,63113,5,0,0:0:0:0:
192,64,63182,1,0,0:0:0:0:
240,64,63250,1,0,0:0:0:0:
192,64,63318,1,0,0:0:0:0:
368,64,63386,1,0,0:0:0:0:
427,84,63454,1,0,0:0:0:0:
454,141,63522,1,0,0:0:0:0:
431,200,63590,1,0,0:0:0:0:
192,224,63659,6,0,L|144:176,1,64.9999970245363
336,176,63795,2,0,L|384:128,1,64.9999970245363
144,176,63931,2,0,L|96:128,1,64.9999970245363
381,130,64068,2,0,L|429:82,1,64.9999970245363
98,130,64204,2,0,L|80:48,1,64.9999970245363
432,80,64340,2,0,L|448:16,1,64.9999970245363
98,130,64477,6,0,L|96:64,1,64.9999970245363
432,80,64613,2,0,L|432:16,1,64.9999970245363
98,130,64749,2,0,L|128:64,1,64.9999970245363
432,80,64886,2,0,L|400:0,1,64.9999970245363
98,130,65022,2,0,L|144:80,1,64.9999970245363
432,80,65159,2,0,L|368:0,1,64.9999970245363
98,130,65295,2,0,L|192:64,1,64.9999970245363
432,80,65431,2,0,L|336:16,1,64.9999970245363
98,130,65568,2,0,L|176:96,1,64.9999970245363
432,80,65704,2,0,L|352:48,1,64.9999970245363
80,144,65840,2,0,L|144:128,1,64.9999970245363
432,80,65977,2,0,L|336:64,1,64.9999970245363
80,144,66113,5,0,0:0:0:0:
23,166,66181,1,0,0:0:0:0:
16,227,66249,1,0,0:0:0:0:
67,262,66317,1,0,0:0:0:0:
368,272,66386,1,0,0:0:0:0:
430,256,66454,1,0,0:0:0:0:
477,212,66522,1,0,0:0:0:0:
496,151,66590,1,0,0:0:0:0:
224,176,66659,5,0,0:0:0:0:
160,128,66749,1,0,0:0:0:0:
224,80,66840,1,0,0:0:0:0:
448,144,66931,5,0,0:0:0:0:
320,224,67068,1,0,0:0:0:0:
432,192,67204,1,0,0:0:0:0:
224,192,67340,1,0,0:0:0:0:
336,144,67477,1,0,0:0:0:0:
398,141,67545,1,0,0:0:0:0:
435,89,67613,1,0,0:0:0:0:
419,29,67681,1,0,0:0:0:0:
362,4,67749,1,0,0:0:0:0:
160,96,67886,5,0,0:0:0:0:
72,182,68022,1,0,0:0:0:0:
115,297,68158,1,0,0:0:0:0:
238,304,68295,1,0,0:0:0:0:
336,240,68431,1,0,0:0:0:0:
240,224,68568,2,0,L|176:224,2,50,0|0|0,0:0|0:0|0:0,0:0:0:0:
400,208,68840,2,0,L|400:144,1,50,0|0,0:0|0:0,0:0:0:0:
480,192,68977,2,0,L|448:128,1,50,0|0,0:0|0:0,0:0:0:0:
384,144,69113,2,0,L|400:64,1,50,0|0,0:0|0:0,0:0:0:0:
464,80,69249,1,0,0:0:0:0:
208,112,69386,6,0,P|176:176|272:256,1,200,0|0,0:0|0:0,0:0:0:0:
304,256,69727,1,0,0:0:0:0:
353,243,69795,1,0,0:0:0:0:
393,214,69863,1,0,0:0:0:0:
421,173,69931,1,0,0:0:0:0:
352,176,69999,2,0,L|320:128,1,50,0|0,0:0|0:0,0:0:0:0:
64,240,70204,6,0,P|33:219|96:96,1,200,0|0,0:0|0:0,0:0:0:0:
128,80,70545,1,0,0:0:0:0:
208,80,70613,2,0,L|160:64,1,50,0|0,0:0|0:0,0:0:0:0:
80,96,70749,2,0,L|128:80,1,50,0|0,0:0|0:0,0:0:0:0:
208,80,70886,1,0,0:0:0:0:
432,64,71022,2,0,P|480:96|432:224,1,200,0|0,0:0|0:0,0:0:0:0:
400,224,71363,1,0,0:0:0:0:
350,231,71431,1,0,0:0:0:0:
300,231,71499,1,0,0:0:0:0:
251,222,71567,1,0,0:0:0:0:
304,192,71636,2,0,L|368:192,1,50,0|0,0:0|0:0,0:0:0:0:
112,176,71840,6,0,L|112:112,1,50,0|0,0:0|0:0,0:0:0:0:
288,128,71977,2,0,L|288:64,1,50,0|0,0:0|0:0,0:0:0:0:
64,128,72113,2,0,L|64:32,1,50,0|0,0:0|0:0,0:0:0:0:
368,144,72249,2,0,L|368:80,1,50,0|0,0:0|0:0,0:0:0:0:
160,224,72386,2,0,L|160:144,1,50,0|0,0:0|0:0,0:0:0:0:
400,288,72522,2,0,L|400:224,1,50,0|0,0:0|0:0,0:0:0:0:
208,208,72659,2,0,L|272:208,1,50,0|0,0:0|0:0,0:0:0:0:
400,224,72795,2,0,L|336:224,1,50,0|0,0:0|0:0,0:0:0:0:
192,160,72931,2,0,L|256:160,1,50,0|0,0:0|0:0,0:0:0:0:
384,176,73068,2,0,L|320:176,1,50,0|0,0:0|0:0,0:0:0:0:
176,96,73204,2,0,L|240:96,1,50,0|0,0:0|0:0,0:0:0:0:
368,48,73340,1,0,0:0:0:0:
416,56,73408,1,0,0:0:0:0:
456,85,73476,5,0,0:0:0:0:
477,130,73544,1,0,0:0:0:0:
476,179,73612,1,0,0:0:0:0:
432,208,73681,1,0,0:0:0:0:
368,208,73749,5,0,0:0:0:0:
144,208,73886,1,0,0:0:0:0:
368,208,74022,1,0,0:0:0:0:
144,208,74159,1,0,0:0:0:0:
368,208,74295,1,0,0:0:0:0:
144,208,74431,1,0,0:0:0:0:
368,208,74568,1,0,0:0:0:0:
144,208,74704,1,0,0:0:0:0:
368,208,74840,1,0,0:0:0:0:
144,208,74977,1,0,0:0:0:0:
240,208,75113,6,0,P|304:208|416:80,1,200,0|0,0:0|0:0,0:0:0:0:
224,128,75522,2,0,L|192:80,1,50,0|0,0:0|0:0,0:0:0:0:
288,112,75659,2,0,L|304:64,1,50,0|0,0:0|0:0,0:0:0:0:
208,64,75795,2,0,L|160:32,1,50,0|0,0:0|0:0,0:0:0:0:
64,32,75931,2,0,P|16:128|80:224,1,200,0|0,0:0|0:0,0:0:0:0:
192,240,76340,2,0,L|240:224,1,50,0|0,0:0|0:0,0:0:0:0:
304,240,76477,2,0,L|272:192,1,50,0|0,0:0|0:0,0:0:0:0:
160,192,76613,2,0,L|208:176,1,50,0|0,0:0|0:0,0:0:0:0:
288,144,76749,6,0,B|384:144|384:144|272:144,1,200,0|0,0:0|0:0,0:0:0:0:
80,144,77159,1,0,0:0:0:0:
98,97,77227,1,0,0:0:0:0:
133,62,77295,1,0,0:0:0:0:
179,44,77363,1,0,0:0:0:0:
228,45,77431,1,0,0:0:0:0:
273,67,77499,1,0,0:0:0:0:
512,160,77568,2,0,B|464:192|272:304|512:208|512:208|384:176,1,400,0|0,0:0|0:0,0:0:0:0:
368,176,78147,5,0,0:0:0:0:
343,180,78181,1,0,0:0:0:0:
320,171,78215,1,0,0:0:0:0:
306,151,78249,1,0,0:0:0:0:
304,126,78283,1,0,0:0:0:0:
315,105,78317,1,0,0:0:0:0:
337,92,78351,1,0,0:0:0:0:
464,80,78386,1,0,0:0:0:0:
288,240,78659,6,0,L|336:208,1,50,0|0,0:0|0:0,0:0:0:0:
416,208,78795,2,0,L|384:160,1,50,0|0,0:0|0:0,0:0:0:0:
304,176,78931,1,0,0:0:0:0:
257,162,78999,1,0,0:0:0:0:
243,116,79067,1,0,0:0:0:0:
272,78,79135,1,0,0:0:0:0:
320,80,79203,1,0,0:0:0:0:
176,256,79477,6,0,L|224:224,1,50,0|0,0:0|0:0,0:0:0:0:
272,256,79613,2,0,L|224:224,1,50,0|0,0:0|0:0,0:0:0:0:
176,256,79749,6,0,L|224:224,1,50,0|0,0:0|0:0,0:0:0:0:
272,256,79885,2,0,L|224:224,1,50,0|0,0:0|0:0,0:0:0:0:
176,192,80022,5,0,0:0:0:0:
480,192,80159,1,0,0:0:0:0:
368,192,80295,1,0,0:0:0:0:
480,192,80431,1,0,0:0:0:0:
32,192,80568,1,0,0:0:0:0:
144,192,80704,1,0,0:0:0:0:
256,192,80840,1,0,0:0:0:0:
32,192,80977,1,0,0:0:0:0:
368,192,81113,1,0,0:0:0:0:
512,192,81249,1,0,0:0:0:0:
368,192,81385,1,0,0:0:0:0:
512,192,81522,1,0,0:0:0:0:
160,176,81659,6,0,B|64:160|64:160|176:176,1,200,0|0,0:0|0:0,0:0:0:0:
208,176,81999,1,0,0:0:0:0:
256,171,82067,1,0,0:0:0:0:
287,133,82135,1,0,0:0:0:0:
281,85,82203,1,0,0:0:0:0:
243,55,82271,1,0,0:0:0:0:
195,62,82339,1,0,0:0:0:0:
243,55,82409,1,0,0:0:0:0:
288,64,82477,6,0,B|384:32|384:32|256:48,1,200,0|0,0:0|0:0,0:0:0:0:
240,80,82818,1,0,0:0:0:0:
214,122,82886,1,0,0:0:0:0:
205,171,82954,1,0,0:0:0:0:
213,220,83022,1,0,0:0:0:0:
239,262,83090,1,0,0:0:0:0:
278,293,83158,1,0,0:0:0:0:
336,304,83227,1,0,0:0:0:0:
400,304,83295,6,0,B|448:272|448:272|416:240|304:240,1,200,0|0,0:0|0:0,0:0:0:0:
272,240,83636,1,0,0:0:0:0:
208,208,83704,2,0,L|256:160,1,50,0|0,0:0|0:0,0:0:0:0:
304,192,83840,2,0,L|352:144,1,50,0|0,0:0|0:0,0:0:0:0:
272,144,83977,2,0,L|320:96,1,50,0|0,0:0|0:0,0:0:0:0:
240,112,84113,6,0,P|176:32|256:32,1,200,0|0,0:0|0:0,0:0:0:0:
336,32,84522,1,0,0:0:0:0:
417,82,84658,1,0,0:0:0:0:
412,177,84794,1,0,0:0:0:0:
256,192,84931,6,0,P|224:128|320:80,1,200,0|0,0:0|0:0,0:0:0:0:
368,48,85272,1,0,0:0:0:0:
317,78,85340,2,0,L|272:48,1,50,0|0,0:0|0:0,0:0:0:0:
317,78,85477,2,0,L|384:48,1,50,0|0,0:0|0:0,0:0:0:0:
317,78,85613,2,0,L|272:48,1,50,0|0,0:0|0:0,0:0:0:0:
384,32,85749,6,0,P|432:48|400:192,1,200,0|0,0:0|0:0,0:0:0:0:
368,176,86090,1,0,0:0:0:0:
321,161,86158,1,0,0:0:0:0:
274,175,86226,1,0,0:0:0:0:
243,214,86294,1,0,0:0:0:0:
240,263,86362,1,0,0:0:0:0:
265,305,86430,1,0,0:0:0:0:
310,325,86499,1,0,0:0:0:0:
368,320,86568,1,0,0:0:0:0:
240,256,86704,6,0,L|176:256,1,55.0000016784668
416,192,86840,2,0,L|480:192,1,55.0000016784668
224,160,86977,2,0,L|160:144,1,55.0000016784668
464,128,87113,2,0,L|496:80,1,55.0000016784668
240,192,87249,2,0,L|256:112,1,55.0000016784668
416,96,87386,2,0,L|480:64,1,55.0000016784668
160,147,87522,2,0,L|176:64,1,55.0000016784668
448,224,87659,2,0,L|496:176,1,55.0000016784668
144,208,87795,2,0,L|96:160,1,55.0000016784668
304,112,87931,2,0,L|368:112,1,55.0000016784668
224,64,88068,2,0,L|160:64,1,55.0000016784668
368,48,88204,6,0,P|432:112|368:256,1,259.999988098145,0|0,0:0|0:0,0:0:0:0:
288,256,88545,2,0,L|288:192,1,50,0|0,0:0|0:0,0:0:0:0:
208,208,88681,2,0,L|208:144,1,50,0|0,0:0|0:0,0:0:0:0:
128,160,88818,2,0,L|128:96,1,50,0|0,0:0|0:0,0:0:0:0:
64,112,88954,1,0,0:0:0:0:
192,80,89022,6,0,P|256:112|192:224,1,200,0|0,0:0|0:0,0:0:0:0:
160,224,89363,1,0,0:0:0:0:
111,229,89431,1,0,0:0:0:0:
78,265,89499,1,0,0:0:0:0:
76,314,89567,1,0,0:0:0:0:
106,352,89635,1,0,0:0:0:0:
154,361,89703,1,0,0:0:0:0:
197,337,89772,1,0,0:0:0:0:
48,224,89840,6,0,P|32:176|160:112,1,200,0|0,0:0|0:0,0:0:0:0:
176,96,90181,1,0,0:0:0:0:
240,96,90249,2,0,L|176:96,1,50,0|0,0:0|0:0,0:0:0:0:
128,96,90386,2,0,L|192:96,1,50,0|0,0:0|0:0,0:0:0:0:
240,96,90522,2,0,L|320:96,1,50,0|0,0:0|0:0,0:0:0:0:
128,96,90659,2,0,P|64:144|144:240,2,200,0|0|0,0:0|0:0|0:0,0:0:0:0:
352,224,91477,6,0,L|144:224,1,200,0|0,0:0|0:0,0:0:0:0:
96,224,91818,1,0,0:0:0:0:
88,174,91886,1,0,0:0:0:0:
104,127,91954,1,0,0:0:0:0:
138,92,92022,1,0,0:0:0:0:
185,76,92090,1,0,0:0:0:0:
234,83,92158,1,0,0:0:0:0:
275,111,92227,1,0,0:0:0:0:
224,128,92295,6,0,L|64:0,1,200,0|0,0:0|0:0,0:0:0:0:
144,48,92636,2,0,L|208:48,1,50,0|0,0:0|0:0,0:0:0:0:
272,48,92772,2,0,L|208:48,1,50,0|0,0:0|0:0,0:0:0:0:
128,80,92909,2,0,L|192:80,1,50,0|0,0:0|0:0,0:0:0:0:
240,80,93045,1,0,0:0:0:0:
160,176,93113,6,0,L|240:176,1,50,0|0,0:0|0:0,0:0:0:0:
368,176,93249,2,0,L|304:176,1,50,0|0,0:0|0:0,0:0:0:0:
144,256,93386,2,0,L|224:256,1,50,0|0,0:0|0:0,0:0:0:0:
400,256,93522,2,0,L|320:256,1,50,0|0,0:0|0:0,0:0:0:0:
160,176,93659,2,0,L|224:176,1,50,0|0,0:0|0:0,0:0:0:0:
416,160,93795,2,0,L|352:160,1,50,0|0,0:0|0:0,0:0:0:0:
48,176,93931,2,0,L|80:96,1,50,0|0,0:0|0:0,0:0:0:0:
464,192,94068,2,0,L|432:112,1,50,0|0,0:0|0:0,0:0:0:0:
48,176,94204,2,0,L|80:96,1,50,0|0,0:0|0:0,0:0:0:0:
464,192,94341,2,0,L|432:112,1,50,0|0,0:0|0:0,0:0:0:0:
48,176,94477,2,0,L|80:96,1,50,0|0,0:0|0:0,0:0:0:0:
464,192,94614,2,0,L|432:112,1,50,0|0,0:0|0:0,0:0:0:0:
176,144,94749,6,0,P|128:128|208:48,1,200,0|0,0:0|0:0,0:0:0:0:
240,32,95090,1,0,0:0:0:0:
286,47,95158,1,0,0:0:0:0:
314,87,95226,1,0,0:0:0:0:
310,136,95294,1,0,0:0:0:0:
277,173,95362,1,0,0:0:0:0:
229,181,95430,1,0,0:0:0:0:
186,158,95499,1,0,0:0:0:0:
128,112,95568,6,0,P|144:48|192:128,1,200,0|0,0:0|0:0,0:0:0:0:
186,158,95909,1,0,0:0:0:0:
161,200,95977,1,0,0:0:0:0:
166,249,96045,1,0,0:0:0:0:
198,286,96113,1,0,0:0:0:0:
246,297,96181,1,0,0:0:0:0:
292,278,96249,1,0,0:0:0:0:
317,236,96318,1,0,0:0:0:0:
256,224,96386,6,0,P|208:208|288:128,1,200,0|0,0:0|0:0,0:0:0:0:
304,112,96727,1,0,0:0:0:0:
352,112,96795,1,0,0:0:0:0:
304,112,96863,1,0,0:0:0:0:
256,112,96931,1,0,0:0:0:0:
304,112,96999,1,0,0:0:0:0:
352,112,97068,1,0,0:0:0:0:
304,112,97136,1,0,0:0:0:0:
224,112,97204,6,0,P|112:80|80:0,2,200,0|0|0,0:0|0:0|0:0,0:0:0:0:
288,112,97818,2,0,L|368:112,2,50,0|0|0,0:0|0:0|0:0,0:0:0:0:
224,112,98022,1,0,0:0:0:0:
177,128,98090,1,0,0:0:0:0:
145,166,98158,1,0,0:0:0:0:
135,214,98226,1,0,0:0:0:0:
151,261,98294,1,0,0:0:0:0:
189,294,98362,1,0,0:0:0:0:
237,304,98431,1,0,0:0:0:0:
284,288,98499,1,0,0:0:0:0:
336,256,98568,2,0,L|272:240,1,50,0|0,0:0|0:0,0:0:0:0:
224,240,98704,2,0,L|288:192,1,50,0|0,0:0|0:0,0:0:0:0:
368,192,98840,6,0,P|416:160|336:96,1,200,0|0,0:0|0:0,0:0:0:0:
288,112,99181,1,0,0:0:0:0:
259,152,99249,1,0,0:0:0:0:
248,200,99317,1,0,0:0:0:0:
258,249,99385,1,0,0:0:0:0:
286,290,99453,1,0,0:0:0:0:
329,316,99521,1,0,0:0:0:0:
378,323,99590,1,0,0:0:0:0:
464,320,99659,1,0,0:0:0:0:
208,192,99931,5,0,0:0:0:0:
304,192,100068,1,0,0:0:0:0:
208,192,100204,1,0,0:0:0:0:
32,192,100477,1,0,0:0:0:0:
448,192,100749,1,0,0:0:0:0:
272,192,101022,6,0,L|160:192,1,100
400,144,101568,1,0,0:0:0:0:
176,144,101840,1,0,0:0:0:0:
400,144,102113,1,0,0:0:0:0:
48,272,102386,5,0,0:0:0:0:
18,232,102522,1,0,0:0:0:0:
21,183,102658,1,0,0:0:0:0:
55,147,102795,1,0,0:0:0:0:
192,144,102931,2,0,L|304:144,1,100
144,80,103477,1,0,0:0:0:0:
400,64,103749,1,0,0:0:0:0:
64,160,104022,5,0,0:0:0:0:
96,144,104090,1,0,0:0:0:0:
130,140,104159,1,0,0:0:0:0:
176,144,104227,1,0,0:0:0:0:
208,160,104295,6,0,P|240:192|224:256,1,100,0|0,0:0|0:0,0:0:0:0:
64,256,104840,1,0,0:0:0:0:
224,256,105113,1,0,0:0:0:0:
64,256,105386,1,0,0:0:0:0:
400,256,105659,1,0,0:0:0:0:
416,144,105931,1,0,0:0:0:0:
192,240,106204,6,0,P|176:208|192:144,1,100,0|0,0:0|0:0,0:0:0:0:
304,144,106749,1,0,0:0:0:0:
96,144,107022,5,0,0:0:0:0:
432,144,107295,5,0,0:0:0:0:
468,176,107431,1,0,0:0:0:0:
480,224,107567,1,0,0:0:0:0:
464,271,107704,1,0,0:0:0:0:
425,301,107840,5,0,0:0:0:0:
128,272,108113,2,0,L|240:272,2,100
464,192,108931,2,0,L|352:192,2,100
224,192,109749,2,0,L|288:96,1,100
96,128,110295,1,0,0:0:0:0:
464,128,110568,1,0,0:0:0:0:
368,160,110704,1,0,0:0:0:0:
464,128,110840,1,0,0:0:0:0:
368,160,110977,1,0,0:0:0:0:
256,160,111113,6,0,P|208:128|208:80,1,100
304,48,111522,1,0,0:0:0:0:
384,80,111659,1,0,0:0:0:0:
448,192,111795,1,0,0:0:0:0:
464,208,111840,1,0,0:0:0:0:
464,224,111886,1,0,0:0:0:0:
448,240,111931,1,0,0:0:0:0:
164,307,112204,5,0,0:0:0:0:
106,265,112340,1,0,0:0:0:0:
125,200,112476,1,0,0:0:0:0:
187,181,112613,1,0,0:0:0:0:
336,176,112749,1,0,0:0:0:0:
192,128,113022,6,0,L|256:128,1,50,0|0,0:0|0:0,0:0:0:0:
384,80,113295,2,0,L|320:80,1,50,0|0,0:0|0:0,0:0:0:0:
176,96,113568,2,0,L|288:96,1,100,0|0,0:0|0:0,0:0:0:0:
96,160,114113,6,0,L|160:160,1,50,0|0,0:0|0:0,0:0:0:0:
272,272,114386,1,0,0:0:0:0:
353,219,114522,1,0,0:0:0:0:
360,123,114658,1,0,0:0:0:0:
288,59,114795,1,0,0:0:0:0:
176,96,114931,1,0,0:0:0:0:
240,176,115068,1,0,0:0:0:0:
352,176,115204,2,0,P|384:112|224:48,1,300
352,112,115749,1,0,0:0:0:0:
224,47,115886,1,0,0:0:0:0:
352,112,116022,2,0,P|416:192|352:256,1,200
304,256,116363,1,0,0:0:0:0:
240,256,116431,1,0,0:0:0:0:
176,256,116499,1,0,0:0:0:0:
240,256,116568,1,0,0:0:0:0:
512,208,116840,1,0,0:0:0:0:
