osu file format v14

[General]
AudioFilename: audio.mp3
AudioLeadIn: 0
PreviewTime: 152642
Countdown: 0
SampleSet: Drum
StackLeniency: 1
Mode: 3
LetterboxInBreaks: 0
SpecialStyle: 1
WidescreenStoryboard: 0

[Editor]
DistanceSpacing: 0.8
BeatDivisor: 4
GridSize: 32
TimelineZoom: 1.8

[Metadata]
Title:Houmous
TitleUnicode:Houmous
Artist:Igorrr
ArtistUnicode:Igorrr
Creator:Herkkupala
Version:treat
Source:
Tags:breakcore metal hummus savage sinusoid dump because it is more interesting that way
BeatmapID:2128574
BeatmapSetID:1016977

[Difficulty]
HPDrainRate:8.5
CircleSize:4
OverallDifficulty:9
ApproachRate:5
SliderMultiplier:1.4
SliderTickRate:1

[Events]
//Background and Video events
0,0,"bg.png",0,0
//Break Periods
//Storyboard Layer 0 (Background)
//Storyboard Layer 1 (Fail)
//Storyboard Layer 2 (Pass)
//Storyboard Layer 3 (Foreground)
//Storyboard Layer 4 (Overlay)
//Storyboard Sound Samples

[TimingPoints]
904,260.869565,4,3,0,20,1,0
904,-100,4,3,0,20,0,0
1687,130.434783,4,3,0,20,1,0
1687,-200,4,3,0,20,0,0
1818,260.869565,4,3,0,20,1,0
1818,-100,4,3,0,20,0,0
3122,130.434783,4,3,0,20,1,0
3122,-200,4,3,0,20,0,0
3252,260.869565,4,3,0,20,1,0
3252,-100,4,3,0,20,0,0
4035,130.434783,4,3,0,20,1,0
4035,-200,4,3,0,20,0,0
4165,260.869565,4,3,0,20,1,0
4165,-100,4,3,0,20,0,0
4948,130.434783,4,3,0,20,1,0
4948,-200,4,3,0,20,0,0
5078,260.869565,4,3,0,20,1,0
5078,-100,4,3,0,20,0,0
5861,130.434783,4,3,0,20,1,0
5861,-200,4,3,0,20,0,0
5991,260.869565,4,3,0,20,1,0
5991,-100,4,3,0,20,0,0
7296,130.434783,4,3,0,20,1,0
7296,-200,4,3,0,20,0,0
7426,260.869565,4,3,0,20,1,0
7426,-100,4,3,0,20,0,0
8209,130.434783,4,3,0,20,1,0
8209,-200,4,3,0,20,0,0
8339,260.869565,4,3,0,20,1,0
8339,-100,4,3,0,20,0,0
9122,130.434783,4,3,0,20,1,0
9122,-200,4,3,0,20,0,0
9252,260.869565,4,3,0,20,1,0
9252,-100,4,3,0,20,0,0
10557,130.434783,4,3,0,20,1,0
10557,-200,4,3,0,20,0,0
10687,260.869565,4,3,0,20,1,0
10687,-100,4,3,0,20,0,1
10687,-100,4,3,0,20,0,0
11470,130.434783,4,3,0,20,1,1
11470,-200,4,3,0,20,0,1
11600,260.869565,4,3,0,20,1,1
11600,-100,4,3,0,20,0,1
12904,130.434783,4,3,0,20,1,1
12904,-200,4,3,0,20,0,1
13035,260.869565,4,3,0,20,1,1
13035,-100,4,3,0,20,0,1
13818,130.434783,4,3,0,20,1,1
13818,-200,4,3,0,20,0,1
13948,260.869565,4,3,0,20,1,1
13948,-100,4,3,0,20,0,1
14731,130.434783,4,3,0,20,1,1
14731,-200,4,3,0,20,0,1
14861,260.869565,4,3,0,20,1,1
14861,-100,4,3,0,20,0,1
15644,130.434783,4,3,0,20,1,1
15644,-200,4,3,0,20,0,1
15774,260.869565,4,3,0,20,1,1
15774,-100,4,3,0,20,0,1
17078,130.434783,4,3,0,20,1,1
17078,-200,4,3,0,20,0,1
17209,260.869565,4,3,0,20,1,1
17209,-100,4,3,0,20,0,1
17991,130.434783,4,3,0,20,1,1
17991,-200,4,3,0,20,0,1
18121,-100,4,3,0,20,0,0
18122,260.869565,4,3,0,20,1,0
18122,-100,4,3,0,20,0,0
18904,130.434783,4,3,0,20,1,0
18904,-200,4,3,0,20,0,0
19035,260.869565,4,3,0,20,1,0
19035,-100,4,3,0,20,0,0
32600,-100,4,3,0,20,0,1
36774,-100,4,3,0,20,0,0
49818,444.444444,4,3,0,20,1,0
49818,-58.8235294117647,4,3,0,20,0,0
50262,472.440945,4,3,0,20,1,0
50262,-55.2486187845304,4,3,0,20,0,0
50734,260.869565,4,3,0,20,1,0
50734,-100,4,3,0,20,0,1
58168,-100,4,3,0,20,0,0
63777,-100,4,3,0,20,0,1
69516,-100,4,3,0,20,0,0
81256,387.096774,4,3,0,20,1,0
81256,-67.5675675675676,4,3,0,20,0,0
81643,260.869565,4,3,0,20,1,0
81643,-100,4,3,0,20,0,0
82425,-100,4,3,0,20,0,1
86208,315.789474,4,3,0,20,1,1
86208,-82.6446280991736,4,3,0,20,0,1
86366,247.933884,4,3,0,20,1,1
86366,-105.263157894737,4,3,0,20,0,1
86552,363.636364,4,3,0,20,1,1
86552,-71.9424460431655,4,3,0,20,0,1
86643,203.389831,4,3,0,20,1,1
86643,-128.205128205128,4,3,0,20,0,0
87253,260.869565,4,3,0,20,1,0
87253,-100,4,3,0,20,0,1
89601,196.721311,4,3,0,20,1,1
89601,-133.333333333333,4,3,0,20,0,1
89995,260.869565,4,3,0,20,1,1
89995,-100,4,3,0,20,0,0
96255,-100,4,3,0,20,0,1
102516,-100,4,3,0,20,0,0
110603,301.507538,4,3,0,20,1,0
110603,-86.2068965517241,4,3,0,20,0,0
110905,260.869565,4,3,0,20,1,0
110905,-100,4,3,0,20,0,0
121601,279.069767,4,3,0,20,1,0
121601,-93.4579439252336,4,3,0,20,0,0
121880,260.869565,4,3,0,20,1,0
121880,-100,4,3,0,20,0,0
122662,198.019802,4,3,0,20,1,0
122662,-131.578947368421,4,3,0,20,0,0
122860,283.018868,4,3,0,20,1,0
122860,-92.5925925925926,4,3,0,20,0,0
123426,260.869565,4,3,0,20,1,0
123426,-100,4,3,0,20,0,0
139600,255.319149,4,3,0,20,1,0
139600,-102.040816326531,4,3,0,20,0,0
139855,263.157895,4,3,0,20,1,0
139855,-99.009900990099,4,3,0,20,0,0
140119,288.461538,4,3,0,20,1,0
140119,-90.0900900900901,4,3,0,20,0,0
140407,269.058296,4,3,0,20,1,0
140407,-97.0873786407767,4,3,0,20,0,0
140676,254.237288,4,3,0,20,1,0
140676,-103.092783505155,4,3,0,20,0,0
140930,262.008734,4,3,0,20,1,0
140930,-100,4,3,0,20,0,0
141192,250,4,3,0,20,1,0
141192,-104.166666666667,4,3,0,20,0,0
141442,264.317181,4,3,0,20,1,0
141442,-99.009900990099,4,3,0,20,0,0
141707,263.157895,4,3,0,20,1,0
141707,-99.009900990099,4,3,0,20,0,0
141970,254.237288,4,3,0,20,1,0
141970,-103.092783505155,4,3,0,20,0,0
142224,256.410256,4,3,0,20,1,0
142224,-102.040816326531,4,3,0,20,0,0
142481,253.164557,4,3,0,20,1,0
142481,-103.092783505155,4,3,0,20,0,0
142734,248.962656,4,3,0,20,1,0
142734,-105.263157894737,4,3,0,20,0,0
142983,254.237288,4,3,0,20,1,0
142983,-103.092783505155,4,3,0,20,0,0
143237,259.74026,4,3,0,20,1,0
143237,-100,4,3,0,20,0,0
143497,257.51073,4,3,0,20,1,0
143497,-101.010101010101,4,3,0,20,0,0
143754,272.727273,4,3,0,20,1,0
143754,-95.2380952380952,4,3,0,20,0,0
144300,246.91358,4,3,0,20,1,0
144300,-105.263157894737,4,3,0,20,0,0
144547,262.008734,4,3,0,20,1,0
144547,-100,4,3,0,20,0,0
144809,266.666667,4,3,0,20,1,0
144809,-98.0392156862745,4,3,0,20,0,0
145342,256.410256,4,3,0,20,1,0
145342,-102.040816326531,4,3,0,20,0,0
145598,248.962656,4,3,0,20,1,0
145598,-105.263157894737,4,3,0,20,0,0
145847,269.058296,4,3,0,20,1,0
145847,-97.0873786407767,4,3,0,20,0,0
146116,259.74026,4,3,0,20,1,0
146116,-100,4,3,0,20,0,0
146376,270.27027,4,3,0,20,1,0
146376,-96.1538461538461,4,3,0,20,0,0
146646,264.317181,4,3,0,20,1,0
146646,-99.009900990099,4,3,0,20,0,0
146911,252.10084,4,3,0,20,1,0
146911,-103.092783505155,4,3,0,20,0,0
147079,256.410256,4,3,0,20,1,0
147079,-102.040816326531,4,3,0,20,0,0
147164,262.008734,4,3,0,20,1,0
147164,-100,4,3,0,20,0,0
147426,260.869565,4,3,0,20,1,0
147426,-100,4,3,0,20,0,0
147687,265.486726,4,3,0,20,1,0
147687,-98.0392156862745,4,3,0,20,0,0
147953,273.972603,4,3,0,20,1,0
147953,-95.2380952380952,4,3,0,20,0,0
148226,255.319149,4,3,0,20,1,0
148226,-102.040816326531,4,3,0,20,0,0
148482,265.486726,4,3,0,20,1,0
148482,-98.0392156862745,4,3,0,20,0,0
148747,252.10084,4,3,0,20,1,0
148747,-103.092783505155,4,3,0,20,0,0
148999,230.769231,4,3,0,20,1,0
148999,-113.636363636364,4,3,0,20,0,0
149076,275.229358,4,3,0,20,1,0
149076,-94.3396226415094,4,3,0,20,0,0
149168,317.460317,4,3,0,20,1,0
149168,-81.9672131147541,4,3,0,20,0,0
149274,208.333333,4,3,0,20,1,0
149274,-125,4,3,0,20,0,0
149343,247.933884,4,3,0,20,1,0
149343,-105.263157894737,4,3,0,20,0,0
149426,342.857143,4,3,0,20,1,0
149426,-76.3358778625954,4,3,0,20,0,0
149540,244.897959,4,3,0,20,1,0
149540,-106.382978723404,4,3,0,20,0,0
149785,241.935484,4,3,0,20,1,0
149785,-107.52688172043,4,3,0,20,0,0
149866,272.727273,4,3,0,20,1,0
149866,-95.2380952380952,4,3,0,20,0,0
150048,226.415094,4,3,0,20,1,0
150048,-114.942528735632,4,3,0,20,0,0
150123,258.62069,4,3,0,20,1,0
150123,-101.010101010101,4,3,0,20,0,0
150209,309.278351,4,3,0,20,1,0
150209,-84.0336134453782,4,3,0,20,0,0
150312,216.606498,4,3,0,20,1,0
150312,-120.481927710843,4,3,0,20,0,0
150385,260.869565,4,3,0,20,1,0
150385,-100,4,3,0,20,0,0
151341,252.10084,4,3,0,20,1,0
151341,-103.092783505155,4,3,0,20,0,0
151593,266.666667,4,3,0,20,1,0
151593,-98.0392156862745,4,3,0,20,0,0
151860,260.869565,4,3,0,20,1,0
151860,-100,4,3,0,20,0,0
155773,-100,4,3,0,20,0,1
163599,-100,4,3,0,20,0,0
165164,-100,4,3,0,20,0,1
174555,-100,4,3,0,20,0,0
176642,230.769231,4,3,0,20,1,0
176642,-113.636363636364,4,3,0,20,0,0
176873,383.877159,4,3,0,20,1,0
176873,-68.0272108843538,4,3,0,20,0,0
177641,260.869565,4,3,0,20,1,0
177641,-100,4,3,0,20,0,0
178424,130.434783,4,3,0,20,1,0
178424,-200,4,3,0,20,0,0
178554,260.869565,4,3,0,20,1,0
178554,-100,4,3,0,20,0,0
179858,130.434783,4,3,0,20,1,0
179858,-200,4,3,0,20,0,0
179989,260.869565,4,3,0,20,1,0
179989,-100,4,3,0,20,0,0
180771,130.434783,4,3,0,20,1,0
180771,-200,4,3,0,20,0,0
180902,260.869565,4,3,0,20,1,0
180902,-100,4,3,0,20,0,0
181684,130.434783,4,3,0,20,1,0
181684,-200,4,3,0,20,0,0
181815,260.869565,4,3,0,20,1,0
181815,-100,4,3,0,20,0,0
182598,130.434783,4,3,0,20,1,0
182598,-200,4,3,0,20,0,0
182728,260.869565,4,3,0,20,1,0
182728,-100,4,3,0,20,0,0
184032,130.434783,4,3,0,20,1,0
184032,-200,4,3,0,20,0,0
184163,260.869565,4,3,0,20,1,0
184163,-100,4,3,0,20,0,0
184945,130.434783,4,3,0,20,1,0
184945,-200,4,3,0,20,0,0
185076,260.869565,4,3,0,20,1,0
185076,-100,4,3,0,20,0,0
185858,130.434783,4,3,0,20,1,0
185858,-200,4,3,0,20,0,0
185989,260.869565,4,3,0,20,1,0
185989,-100,4,3,0,20,0,0
187032,392.156863,4,3,0,20,1,0
187032,-66.6666666666667,4,3,0,20,0,0
187424,260.869565,4,3,0,20,1,0
187424,-100,4,3,0,20,0,0
188207,130.434783,4,3,0,20,1,0
188207,-200,4,3,0,20,0,0
188338,260.869565,4,3,0,20,1,0
188338,-100,4,3,0,20,0,0
189642,130.434783,4,3,0,20,1,0
189642,-200,4,3,0,20,0,0
189772,260.869565,4,3,0,20,1,0
189772,-100,4,3,0,20,0,0
190555,130.434783,4,3,0,20,1,0
190555,-200,4,3,0,20,0,0
190685,260.869565,4,3,0,20,1,0
190685,-100,4,3,0,20,0,0
191468,130.434783,4,3,0,20,1,0
191468,-200,4,3,0,20,0,0
191598,260.869565,4,3,0,20,1,0
191598,-100,4,3,0,20,0,0
192381,130.434783,4,3,0,20,1,0
192381,-200,4,3,0,20,0,0
192511,260.869565,4,3,0,20,1,0
192511,-100,4,3,0,20,0,0
193816,130.434783,4,3,0,20,1,0
193816,-200,4,3,0,20,0,0
193946,260.869565,4,3,0,20,1,0
193946,-100,4,3,0,20,0,0
194729,130.434783,4,3,0,20,1,0
194729,-200,4,3,0,20,0,0
194859,260.869565,4,3,0,20,1,0
194859,-100,4,3,0,20,0,0
195642,130.434783,4,3,0,20,1,0
195642,-200,4,3,0,20,0,0
195772,260.869565,4,3,0,20,1,0
195772,-100,4,3,0,20,0,0
196555,130.434783,4,3,0,20,1,0
196555,-200,4,3,0,20,0,0
196685,260.869565,4,3,0,20,1,0
196685,-100,4,3,0,20,0,0
200077,196.721311,4,3,0,20,1,0
200077,-133.333333333333,4,3,0,20,0,0
200470,260.869565,4,3,0,20,1,0
200470,-100,4,3,0,20,0,1
201253,130.434783,4,3,0,20,1,1
201253,-200,4,3,0,20,0,1
201383,260.869565,4,3,0,20,1,1
201383,-100,4,3,0,20,0,1
202166,130.434783,4,3,0,20,1,1
202166,-200,4,3,0,20,0,1
202296,260.869565,4,3,0,20,1,1
202296,-100,4,3,0,20,0,1
203601,130.434783,4,3,0,20,1,1
203601,-200,4,3,0,20,0,1
203731,260.869565,4,3,0,20,1,1
203731,-100,4,3,0,20,0,1
204514,130.434783,4,3,0,20,1,1
204514,-200,4,3,0,20,0,1
204644,260.869565,4,3,0,20,1,1
204644,-100,4,3,0,20,0,1
205427,130.434783,4,3,0,20,1,1
205427,-200,4,3,0,20,0,1
205557,260.869565,4,3,0,20,1,1
205557,-100,4,3,0,20,0,1
206991,-100,4,3,0,20,0,0

[HitObjects]
192,192,904,5,0,0:0:0:0:
448,192,904,128,0,990:0:0:0:0:
192,192,1164,1,0,0:0:0:0:
448,192,1164,128,0,1251:0:0:0:0:
192,192,1425,1,0,0:0:0:0:
448,192,1425,128,0,1512:0:0:0:0:
64,192,1512,128,0,1687:0:0:0:0:
320,192,1687,128,0,1730:0:0:0:0:
192,192,1818,1,0,0:0:0:0:
448,192,1818,128,0,1904:0:0:0:0:
192,192,2078,1,0,0:0:0:0:
448,192,2078,128,0,2165:0:0:0:0:
192,192,2339,1,0,0:0:0:0:
448,192,2339,128,0,2426:0:0:0:0:
192,192,2600,1,0,0:0:0:0:
448,192,2600,128,0,2687:0:0:0:0:
192,192,2861,1,0,0:0:0:0:
448,192,2861,128,0,3035:0:0:0:0:
320,192,2926,128,0,3122:0:0:0:0:
64,192,3122,128,0,3165:0:0:0:0:
192,192,3252,128,0,3338:0:0:0:0:
320,192,3252,1,0,0:0:0:0:
192,192,3512,128,0,3599:0:0:0:0:
320,192,3512,1,0,0:0:0:0:
192,192,3773,128,0,3860:0:0:0:0:
320,192,3773,1,0,0:0:0:0:
64,192,3860,128,0,3947:0:0:0:0:
320,192,4035,128,0,4078:0:0:0:0:
192,192,4165,1,0,0:0:0:0:
448,192,4165,128,0,4251:0:0:0:0:
192,192,4425,1,0,0:0:0:0:
448,192,4425,128,0,4512:0:0:0:0:
192,192,4686,1,0,0:0:0:0:
448,192,4686,128,0,4860:0:0:0:0:
64,192,4773,128,0,4948:0:0:0:0:
320,192,4948,128,0,4991:0:0:0:0:
192,192,5078,1,0,0:0:0:0:
448,192,5078,128,0,5164:0:0:0:0:
192,192,5338,1,0,0:0:0:0:
448,192,5338,128,0,5425:0:0:0:0:
192,192,5599,1,0,0:0:0:0:
448,192,5599,128,0,5773:0:0:0:0:
320,192,5686,128,0,5861:0:0:0:0:
64,192,5861,128,0,5904:0:0:0:0:
192,192,5991,1,0,0:0:0:0:
448,192,5991,128,0,6077:0:0:0:0:
192,192,6251,1,0,0:0:0:0:
448,192,6251,128,0,6338:0:0:0:0:
192,192,6512,1,0,0:0:0:0:
448,192,6512,128,0,6599:0:0:0:0:
192,192,6773,1,0,0:0:0:0:
448,192,6773,128,0,6860:0:0:0:0:
192,192,7034,1,0,0:0:0:0:
448,192,7034,128,0,7208:0:0:0:0:
320,192,7121,128,0,7296:0:0:0:0:
64,192,7296,128,0,7339:0:0:0:0:
192,192,7426,128,0,7512:0:0:0:0:
320,192,7426,1,0,0:0:0:0:
192,192,7686,128,0,7773:0:0:0:0:
320,192,7686,1,0,0:0:0:0:
192,192,7947,128,0,8209:0:0:0:0:
320,192,7947,1,0,0:0:0:0:
448,192,8034,128,0,8121:0:0:0:0:
320,192,8209,128,0,8252:0:0:0:0:
64,192,8339,128,0,8425:0:0:0:0:
320,192,8339,1,0,0:0:0:0:
64,192,8599,128,0,8686:0:0:0:0:
320,192,8599,1,0,0:0:0:0:
64,192,8860,128,0,9034:0:0:0:0:
320,192,8860,1,0,0:0:0:0:
64,192,9122,1,0,0:0:0:0:
448,192,9122,1,0,0:0:0:0:
64,192,9252,128,0,9338:0:0:0:0:
448,192,9252,1,0,0:0:0:0:
64,192,9512,128,0,9599:0:0:0:0:
448,192,9512,1,0,0:0:0:0:
64,192,9773,128,0,9860:0:0:0:0:
448,192,9773,1,0,0:0:0:0:
64,192,10034,128,0,10121:0:0:0:0:
448,192,10034,1,0,0:0:0:0:
64,192,10295,128,0,10469:0:0:0:0:
448,192,10295,1,0,0:0:0:0:
192,192,10557,128,0,10600:0:0:0:0:
448,192,10557,1,0,0:0:0:0:
320,192,10687,1,0,0:0:0:0:
448,192,10687,1,0,0:0:0:0:
64,192,10752,1,0,0:0:0:0:
320,192,10817,1,0,0:0:0:0:
192,192,10882,1,0,0:0:0:0:
64,192,10947,1,0,0:0:0:0:
448,192,10947,1,0,0:0:0:0:
320,192,11013,1,0,0:0:0:0:
64,192,11078,1,0,0:0:0:0:
448,192,11143,1,0,0:0:0:0:
192,192,11208,1,0,0:0:0:0:
320,192,11208,1,0,0:0:0:0:
64,192,11273,1,0,0:0:0:0:
320,192,11339,1,0,0:0:0:0:
448,192,11404,1,0,0:0:0:0:
64,192,11470,1,0,0:0:0:0:
192,192,11470,1,0,0:0:0:0:
320,192,11535,1,0,0:0:0:0:
64,192,11600,1,0,0:0:0:0:
448,192,11600,1,0,0:0:0:0:
320,192,11665,1,0,0:0:0:0:
192,192,11730,1,0,0:0:0:0:
448,192,11795,1,0,0:0:0:0:
64,192,11860,1,0,0:0:0:0:
320,192,11860,1,0,0:0:0:0:
192,192,11926,1,0,0:0:0:0:
448,192,11991,1,0,0:0:0:0:
64,192,12056,1,0,0:0:0:0:
192,192,12121,1,0,0:0:0:0:
448,192,12121,1,0,0:0:0:0:
320,192,12186,1,0,0:0:0:0:
64,192,12252,1,0,0:0:0:0:
448,192,12317,1,0,0:0:0:0:
192,192,12382,1,0,0:0:0:0:
320,192,12382,1,0,0:0:0:0:
64,192,12447,1,0,0:0:0:0:
448,192,12513,1,0,0:0:0:0:
192,192,12578,1,0,0:0:0:0:
320,192,12643,1,0,0:0:0:0:
448,192,12643,1,0,0:0:0:0:
64,192,12708,1,0,0:0:0:0:
192,192,12773,1,0,0:0:0:0:
448,192,12839,1,0,0:0:0:0:
64,192,12904,1,0,0:0:0:0:
320,192,12904,1,0,0:0:0:0:
192,192,12969,1,0,0:0:0:0:
64,192,13035,1,0,0:0:0:0:
320,192,13035,1,0,0:0:0:0:
448,192,13035,1,0,0:0:0:0:
192,192,13100,1,0,0:0:0:0:
448,192,13165,1,0,0:0:0:0:
64,192,13230,1,0,0:0:0:0:
192,192,13295,1,0,0:0:0:0:
320,192,13295,1,0,0:0:0:0:
448,192,13361,1,0,0:0:0:0:
64,192,13426,1,0,0:0:0:0:
320,192,13491,1,0,0:0:0:0:
64,192,13556,1,0,0:0:0:0:
192,192,13556,1,0,0:0:0:0:
448,192,13621,1,0,0:0:0:0:
320,192,13687,1,0,0:0:0:0:
64,192,13752,1,0,0:0:0:0:
192,192,13818,1,0,0:0:0:0:
448,192,13818,1,0,0:0:0:0:
320,192,13883,1,0,0:0:0:0:
64,192,13948,1,0,0:0:0:0:
192,192,13948,1,0,0:0:0:0:
448,192,13948,1,0,0:0:0:0:
320,192,14013,1,0,0:0:0:0:
64,192,14078,1,0,0:0:0:0:
448,192,14143,1,0,0:0:0:0:
192,192,14208,1,0,0:0:0:0:
320,192,14208,1,0,0:0:0:0:
64,192,14274,1,0,0:0:0:0:
320,192,14339,1,0,0:0:0:0:
448,192,14404,1,0,0:0:0:0:
64,192,14469,1,0,0:0:0:0:
320,192,14469,1,0,0:0:0:0:
192,192,14534,1,0,0:0:0:0:
448,192,14600,1,0,0:0:0:0:
64,192,14665,1,0,0:0:0:0:
320,192,14731,1,0,0:0:0:0:
448,192,14731,1,0,0:0:0:0:
192,192,14796,1,0,0:0:0:0:
64,192,14861,1,0,0:0:0:0:
320,192,14861,1,0,0:0:0:0:
448,192,14861,1,0,0:0:0:0:
192,192,14926,1,0,0:0:0:0:
64,192,14991,1,0,0:0:0:0:
448,192,15056,1,0,0:0:0:0:
192,192,15121,1,0,0:0:0:0:
320,192,15121,1,0,0:0:0:0:
64,192,15187,1,0,0:0:0:0:
448,192,15252,1,0,0:0:0:0:
192,192,15317,1,0,0:0:0:0:
320,192,15382,1,0,0:0:0:0:
448,192,15382,1,0,0:0:0:0:
64,192,15447,1,0,0:0:0:0:
320,192,15513,1,0,0:0:0:0:
192,192,15578,1,0,0:0:0:0:
64,192,15644,1,0,0:0:0:0:
448,192,15644,1,0,0:0:0:0:
320,192,15709,1,0,0:0:0:0:
64,192,15774,1,0,0:0:0:0:
192,192,15774,1,0,0:0:0:0:
448,192,15839,1,0,0:0:0:0:
320,192,15904,1,0,0:0:0:0:
64,192,15969,1,0,0:0:0:0:
192,192,16034,1,0,0:0:0:0:
320,192,16034,1,0,0:0:0:0:
448,192,16100,1,0,0:0:0:0:
64,192,16165,1,0,0:0:0:0:
320,192,16230,1,0,0:0:0:0:
192,192,16295,1,0,0:0:0:0:
448,192,16295,1,0,0:0:0:0:
64,192,16360,1,0,0:0:0:0:
320,192,16426,1,0,0:0:0:0:
192,192,16491,1,0,0:0:0:0:
320,192,16556,1,0,0:0:0:0:
448,192,16556,1,0,0:0:0:0:
64,192,16621,1,0,0:0:0:0:
192,192,16687,1,0,0:0:0:0:
448,192,16752,1,0,0:0:0:0:
192,192,16817,1,0,0:0:0:0:
320,192,16817,1,0,0:0:0:0:
64,192,16882,1,0,0:0:0:0:
448,192,16947,1,0,0:0:0:0:
192,192,17013,1,0,0:0:0:0:
64,192,17078,1,0,0:0:0:0:
320,192,17078,1,0,0:0:0:0:
448,192,17143,1,0,0:0:0:0:
64,192,17209,1,0,0:0:0:0:
192,192,17209,1,0,0:0:0:0:
320,192,17209,1,0,0:0:0:0:
448,192,17274,1,0,0:0:0:0:
192,192,17339,1,0,0:0:0:0:
320,192,17404,1,0,0:0:0:0:
64,192,17469,1,0,0:0:0:0:
448,192,17469,1,0,0:0:0:0:
192,192,17535,1,0,0:0:0:0:
448,192,17600,1,0,0:0:0:0:
320,192,17665,1,0,0:0:0:0:
64,192,17730,1,0,0:0:0:0:
192,192,17730,1,0,0:0:0:0:
448,192,17795,1,0,0:0:0:0:
192,192,17861,1,0,0:0:0:0:
320,192,17926,1,0,0:0:0:0:
64,192,17991,1,0,0:0:0:0:
448,192,17991,1,0,0:0:0:0:
192,192,18056,1,0,0:0:0:0:
320,192,18122,1,0,0:0:0:0:
448,192,18122,1,0,0:0:0:0:
64,192,18187,1,0,0:0:0:0:
320,192,18252,1,0,0:0:0:0:
64,192,18317,1,0,0:0:0:0:
448,192,18382,1,0,0:0:0:0:
192,192,18448,1,0,0:0:0:0:
448,192,18513,1,0,0:0:0:0:
192,192,18578,1,0,0:0:0:0:
320,192,18643,1,0,0:0:0:0:
192,192,18708,1,0,0:0:0:0:
320,192,18774,1,0,0:0:0:0:
192,192,18839,1,0,0:0:0:0:
64,192,18904,1,0,0:0:0:0:
192,192,19035,1,0,0:0:0:0:
448,192,19035,128,0,19100:0:0:0:0:
320,192,19165,1,0,0:0:0:0:
192,192,19295,1,0,0:0:0:0:
448,192,19295,128,0,19361:0:0:0:0:
320,192,19426,1,0,0:0:0:0:
192,192,19556,1,0,0:0:0:0:
448,192,19556,128,0,19817:0:0:0:0:
320,192,19687,1,0,0:0:0:0:
320,192,19817,128,0,19882:0:0:0:0:
64,192,19948,1,0,0:0:0:0:
448,192,19948,128,0,20013:0:0:0:0:
192,192,20078,1,0,0:0:0:0:
64,192,20208,1,0,0:0:0:0:
448,192,20208,128,0,20274:0:0:0:0:
192,192,20339,1,0,0:0:0:0:
64,192,20469,1,0,0:0:0:0:
448,192,20469,128,0,20534:0:0:0:0:
192,192,20600,1,0,0:0:0:0:
64,192,20730,1,0,0:0:0:0:
448,192,20730,128,0,20795:0:0:0:0:
192,192,20861,1,0,0:0:0:0:
64,192,20991,1,0,0:0:0:0:
448,192,20991,128,0,21187:0:0:0:0:
192,192,21121,1,0,0:0:0:0:
64,192,21252,1,0,0:0:0:0:
320,192,21252,128,0,21317:0:0:0:0:
64,192,21382,1,0,0:0:0:0:
192,192,21382,128,0,21578:0:0:0:0:
320,192,21513,1,0,0:0:0:0:
192,192,21643,1,0,0:0:0:0:
448,192,21643,128,0,21708:0:0:0:0:
320,192,21774,1,0,0:0:0:0:
192,192,21904,1,0,0:0:0:0:
448,192,21904,128,0,21969:0:0:0:0:
320,192,22034,1,0,0:0:0:0:
192,192,22165,1,0,0:0:0:0:
448,192,22165,128,0,22230:0:0:0:0:
64,192,22295,1,0,0:0:0:0:
448,192,22295,128,0,22361:0:0:0:0:
192,192,22426,1,0,0:0:0:0:
64,192,22556,1,0,0:0:0:0:
448,192,22556,128,0,22621:0:0:0:0:
192,192,22687,1,0,0:0:0:0:
64,192,22817,1,0,0:0:0:0:
448,192,22817,128,0,22882:0:0:0:0:
192,192,22948,128,0,22991:0:0:0:0:
64,192,23078,1,0,0:0:0:0:
448,192,23078,128,0,23143:0:0:0:0:
192,192,23208,1,0,0:0:0:0:
320,192,23339,1,0,0:0:0:0:
448,192,23339,1,0,0:0:0:0:
64,192,23404,1,0,0:0:0:0:
320,192,23469,1,0,0:0:0:0:
192,192,23534,1,0,0:0:0:0:
64,192,23600,1,0,0:0:0:0:
448,192,23600,1,0,0:0:0:0:
320,192,23665,1,0,0:0:0:0:
64,192,23730,1,0,0:0:0:0:
192,192,23730,128,0,23795:0:0:0:0:
320,192,23861,1,0,0:0:0:0:
64,192,23991,1,0,0:0:0:0:
192,192,23991,128,0,24056:0:0:0:0:
320,192,24121,1,0,0:0:0:0:
64,192,24252,1,0,0:0:0:0:
192,192,24252,128,0,24448:0:0:0:0:
320,192,24382,1,0,0:0:0:0:
64,192,24513,1,0,0:0:0:0:
192,192,24513,128,0,24578:0:0:0:0:
192,192,24643,1,0,0:0:0:0:
448,192,24643,128,0,24708:0:0:0:0:
320,192,24774,1,0,0:0:0:0:
192,192,24904,1,0,0:0:0:0:
448,192,24904,128,0,24969:0:0:0:0:
320,192,25034,1,0,0:0:0:0:
192,192,25165,1,0,0:0:0:0:
448,192,25165,128,0,25361:0:0:0:0:
320,192,25295,1,0,0:0:0:0:
192,192,25426,1,0,0:0:0:0:
448,192,25426,128,0,25491:0:0:0:0:
64,192,25556,1,0,0:0:0:0:
448,192,25556,128,0,25621:0:0:0:0:
192,192,25687,1,0,0:0:0:0:
64,192,25817,1,0,0:0:0:0:
448,192,25817,128,0,25882:0:0:0:0:
192,192,25948,1,0,0:0:0:0:
64,192,26078,1,0,0:0:0:0:
448,192,26078,128,0,26143:0:0:0:0:
192,192,26208,1,0,0:0:0:0:
64,192,26339,1,0,0:0:0:0:
448,192,26339,128,0,26404:0:0:0:0:
192,192,26469,1,0,0:0:0:0:
64,192,26600,1,0,0:0:0:0:
448,192,26600,128,0,26795:0:0:0:0:
192,192,26730,1,0,0:0:0:0:
64,192,26861,1,0,0:0:0:0:
448,192,26861,128,0,26926:0:0:0:0:
64,192,26991,1,0,0:0:0:0:
320,192,26991,128,0,27056:0:0:0:0:
448,192,27121,1,0,0:0:0:0:
192,192,27252,1,0,0:0:0:0:
320,192,27252,128,0,27317:0:0:0:0:
448,192,27382,1,0,0:0:0:0:
192,192,27513,1,0,0:0:0:0:
320,192,27513,128,0,27708:0:0:0:0:
448,192,27643,1,0,0:0:0:0:
192,192,27774,1,0,0:0:0:0:
320,192,27774,128,0,27839:0:0:0:0:
64,192,27904,128,0,27969:0:0:0:0:
448,192,27904,128,0,27991:0:0:0:0:
64,192,28165,128,0,28230:0:0:0:0:
448,192,28165,128,0,28252:0:0:0:0:
64,192,28426,128,0,28621:0:0:0:0:
320,192,28426,128,0,28600:0:0:0:0:
64,192,28687,128,0,28752:0:0:0:0:
448,192,28687,128,0,28774:0:0:0:0:
64,192,28817,128,0,28882:0:0:0:0:
448,192,28817,128,0,28904:0:0:0:0:
64,192,29078,128,0,29143:0:0:0:0:
192,192,29078,128,0,29165:0:0:0:0:
64,192,29339,128,0,29404:0:0:0:0:
448,192,29339,128,0,29426:0:0:0:0:
64,192,29600,128,0,29665:0:0:0:0:
320,192,29600,128,0,29687:0:0:0:0:
64,192,29861,128,0,29926:0:0:0:0:
320,192,29861,128,0,29991:0:0:0:0:
192,192,30121,1,0,0:0:0:0:
64,192,30252,1,0,0:0:0:0:
320,192,30252,1,0,0:0:0:0:
448,192,30252,128,0,32600:0:0:0:0:
192,192,32600,1,0,0:0:0:0:
320,192,32600,1,0,0:0:0:0:
64,192,32649,1,0,0:0:0:0:
320,192,32698,1,0,0:0:0:0:
192,192,32746,1,0,0:0:0:0:
448,192,32795,1,0,0:0:0:0:
320,192,32839,1,0,0:0:0:0:
64,192,32861,1,0,0:0:0:0:
192,192,32909,1,0,0:0:0:0:
448,192,32958,1,0,0:0:0:0:
64,192,33007,1,0,0:0:0:0:
320,192,33056,1,0,0:0:0:0:
448,192,33100,1,0,0:0:0:0:
192,192,33121,1,0,0:0:0:0:
320,192,33170,1,0,0:0:0:0:
64,192,33219,1,0,0:0:0:0:
448,192,33268,1,0,0:0:0:0:
192,192,33317,1,0,0:0:0:0:
320,192,33361,1,0,0:0:0:0:
64,192,33382,1,0,0:0:0:0:
448,192,33431,1,0,0:0:0:0:
192,192,33480,1,0,0:0:0:0:
64,192,33513,1,0,0:0:0:0:
320,192,33562,1,0,0:0:0:0:
448,192,33611,1,0,0:0:0:0:
192,192,33659,1,0,0:0:0:0:
320,192,33708,1,0,0:0:0:0:
64,192,33752,1,0,0:0:0:0:
448,192,33774,1,0,0:0:0:0:
192,192,33823,1,0,0:0:0:0:
320,192,33871,1,0,0:0:0:0:
64,192,33920,1,0,0:0:0:0:
448,192,33969,1,0,0:0:0:0:
320,192,34013,1,0,0:0:0:0:
192,192,34034,1,0,0:0:0:0:
448,192,34083,1,0,0:0:0:0:
64,192,34132,1,0,0:0:0:0:
320,192,34181,1,0,0:0:0:0:
192,192,34230,1,0,0:0:0:0:
448,192,34274,1,0,0:0:0:0:
320,192,34295,1,0,0:0:0:0:
64,192,34344,1,0,0:0:0:0:
192,192,34393,1,0,0:0:0:0:
320,192,34442,1,0,0:0:0:0:
64,192,34491,1,0,0:0:0:0:
448,192,34534,1,0,0:0:0:0:
192,192,34556,1,0,0:0:0:0:
320,192,34605,1,0,0:0:0:0:
448,192,34654,1,0,0:0:0:0:
64,192,34703,1,0,0:0:0:0:
192,192,34752,1,0,0:0:0:0:
448,192,34795,1,0,0:0:0:0:
320,192,34817,1,0,0:0:0:0:
64,192,34866,1,0,0:0:0:0:
192,192,34915,1,0,0:0:0:0:
320,192,34948,1,0,0:0:0:0:
448,192,34996,1,0,0:0:0:0:
192,192,35045,1,0,0:0:0:0:
64,192,35094,1,0,0:0:0:0:
320,192,35143,1,0,0:0:0:0:
192,192,35187,1,0,0:0:0:0:
448,192,35208,1,0,0:0:0:0:
64,192,35257,1,0,0:0:0:0:
320,192,35306,1,0,0:0:0:0:
448,192,35355,1,0,0:0:0:0:
192,192,35404,1,0,0:0:0:0:
320,192,35448,1,0,0:0:0:0:
64,192,35469,1,0,0:0:0:0:
448,192,35518,1,0,0:0:0:0:
192,192,35567,1,0,0:0:0:0:
64,192,35616,1,0,0:0:0:0:
448,192,35665,1,0,0:0:0:0:
192,192,35708,1,0,0:0:0:0:
320,192,35730,1,0,0:0:0:0:
448,192,35779,1,0,0:0:0:0:
64,192,35828,1,0,0:0:0:0:
320,192,35861,1,0,0:0:0:0:
192,192,35909,1,0,0:0:0:0:
448,192,35958,1,0,0:0:0:0:
64,192,36007,1,0,0:0:0:0:
192,192,36056,1,0,0:0:0:0:
320,192,36100,1,0,0:0:0:0:
64,192,36121,1,0,0:0:0:0:
448,192,36170,1,0,0:0:0:0:
192,192,36219,1,0,0:0:0:0:
320,192,36268,1,0,0:0:0:0:
64,192,36317,1,0,0:0:0:0:
192,192,36361,1,0,0:0:0:0:
448,192,36382,1,0,0:0:0:0:
320,192,36431,1,0,0:0:0:0:
64,192,36480,1,0,0:0:0:0:
448,192,36529,1,0,0:0:0:0:
192,192,36578,1,0,0:0:0:0:
64,192,36621,1,0,0:0:0:0:
320,192,36643,1,0,0:0:0:0:
192,192,36692,1,0,0:0:0:0:
64,192,36774,1,0,0:0:0:0:
320,192,36774,1,0,0:0:0:0:
448,192,36774,128,0,36839:0:0:0:0:
320,192,36904,1,0,0:0:0:0:
64,192,37034,1,0,0:0:0:0:
192,192,37034,1,0,0:0:0:0:
448,192,37034,128,0,37100:0:0:0:0:
192,192,37165,1,0,0:0:0:0:
320,192,37295,1,0,0:0:0:0:
192,192,37328,1,0,0:0:0:0:
448,192,37382,1,0,0:0:0:0:
64,192,37426,1,0,0:0:0:0:
320,192,37469,1,0,0:0:0:0:
192,192,37513,1,0,0:0:0:0:
320,192,37556,1,0,0:0:0:0:
448,192,37556,1,0,0:0:0:0:
64,192,37687,128,0,37752:0:0:0:0:
192,192,37687,1,0,0:0:0:0:
448,192,37687,1,0,0:0:0:0:
64,192,37948,128,0,38013:0:0:0:0:
448,192,37991,1,0,0:0:0:0:
320,192,38034,1,0,0:0:0:0:
192,192,38078,1,0,0:0:0:0:
448,192,38121,1,0,0:0:0:0:
320,192,38165,1,0,0:0:0:0:
64,192,38208,1,0,0:0:0:0:
192,192,38208,1,0,0:0:0:0:
448,192,38257,1,0,0:0:0:0:
64,192,38317,1,0,0:0:0:0:
320,192,38371,1,0,0:0:0:0:
192,192,38420,1,0,0:0:0:0:
64,192,38469,1,0,0:0:0:0:
448,192,38469,1,0,0:0:0:0:
192,192,38534,1,0,0:0:0:0:
320,192,38600,1,0,0:0:0:0:
448,192,38600,1,0,0:0:0:0:
64,192,38665,1,0,0:0:0:0:
192,192,38730,1,0,0:0:0:0:
448,192,38763,128,0,38861:0:0:0:0:
64,192,38991,1,0,0:0:0:0:
320,192,39024,128,0,39121:0:0:0:0:
64,192,39121,1,0,0:0:0:0:
448,192,39121,1,0,0:0:0:0:
192,192,39165,1,0,0:0:0:0:
320,192,39230,1,0,0:0:0:0:
64,192,39382,1,0,0:0:0:0:
448,192,39382,1,0,0:0:0:0:
320,192,39448,1,0,0:0:0:0:
192,192,39491,1,0,0:0:0:0:
64,192,39643,1,0,0:0:0:0:
448,192,39643,1,0,0:0:0:0:
192,192,39687,1,0,0:0:0:0:
320,192,39752,1,0,0:0:0:0:
64,192,39904,1,0,0:0:0:0:
192,192,39904,1,0,0:0:0:0:
320,192,39948,1,0,0:0:0:0:
64,192,40034,128,0,40100:0:0:0:0:
448,192,40034,1,0,0:0:0:0:
192,192,40067,1,0,0:0:0:0:
64,192,40295,128,0,40361:0:0:0:0:
448,192,40295,1,0,0:0:0:0:
320,192,40339,1,0,0:0:0:0:
192,192,40426,1,0,0:0:0:0:
320,192,40491,1,0,0:0:0:0:
64,192,40556,1,0,0:0:0:0:
192,192,40556,1,0,0:0:0:0:
448,192,40556,128,0,40817:0:0:0:0:
64,192,40817,1,0,0:0:0:0:
320,192,40817,1,0,0:0:0:0:
192,192,40948,128,0,41013:0:0:0:0:
448,192,41208,128,0,41469:0:0:0:0:
320,192,41469,128,0,41534:0:0:0:0:
320,192,41600,1,0,0:0:0:0:
448,192,41730,128,0,41795:0:0:0:0:
320,192,41861,128,0,41926:0:0:0:0:
192,192,42024,128,0,42089:0:0:0:0:
64,192,42121,128,0,42187:0:0:0:0:
320,192,42268,1,0,0:0:0:0:
448,192,42382,128,0,42448:0:0:0:0:
192,192,42426,1,0,0:0:0:0:
320,192,42513,1,0,0:0:0:0:
192,192,42643,128,0,42708:0:0:0:0:
320,192,42774,1,0,0:0:0:0:
64,192,42904,128,0,43165:0:0:0:0:
448,192,42937,128,0,42969:0:0:0:0:
320,192,43165,128,0,43230:0:0:0:0:
192,192,43295,128,0,43361:0:0:0:0:
448,192,43295,1,0,0:0:0:0:
64,192,43426,1,0,0:0:0:0:
320,192,43556,128,0,43621:0:0:0:0:
448,192,43687,1,0,0:0:0:0:
192,192,43817,128,0,43882:0:0:0:0:
320,192,43948,1,0,0:0:0:0:
64,192,44078,128,0,44143:0:0:0:0:
320,192,44208,128,0,44274:0:0:0:0:
448,192,44252,1,0,0:0:0:0:
64,192,44339,1,0,0:0:0:0:
448,192,44469,128,0,44534:0:0:0:0:
192,192,44600,1,0,0:0:0:0:
448,192,44730,128,0,44795:0:0:0:0:
192,192,44861,1,0,0:0:0:0:
64,192,44991,128,0,45056:0:0:0:0:
320,192,44991,128,0,45056:0:0:0:0:
192,192,45121,128,0,45187:0:0:0:0:
192,192,45252,1,0,0:0:0:0:
64,192,45382,128,0,45448:0:0:0:0:
448,192,45382,128,0,45578:0:0:0:0:
320,192,45643,128,0,45708:0:0:0:0:
320,192,45774,1,0,0:0:0:0:
64,192,45904,128,0,45969:0:0:0:0:
192,192,46034,128,0,46100:0:0:0:0:
320,192,46165,1,0,0:0:0:0:
448,192,46295,128,0,46361:0:0:0:0:
192,192,46426,1,0,0:0:0:0:
448,192,46556,128,0,46621:0:0:0:0:
448,192,46687,1,0,0:0:0:0:
320,192,46817,128,0,46882:0:0:0:0:
192,192,46948,1,0,0:0:0:0:
64,192,47078,128,0,47274:0:0:0:0:
448,192,47078,128,0,47143:0:0:0:0:
448,192,47208,1,0,0:0:0:0:
320,192,47339,128,0,47404:0:0:0:0:
192,192,47469,128,0,47534:0:0:0:0:
64,192,47600,1,0,0:0:0:0:
320,192,47730,128,0,47795:0:0:0:0:
448,192,47861,1,0,0:0:0:0:
64,192,47991,128,0,48187:0:0:0:0:
192,192,47991,128,0,48317:0:0:0:0:
64,192,48252,128,0,48317:0:0:0:0:
448,192,48382,128,0,48448:0:0:0:0:
192,192,48426,1,0,0:0:0:0:
320,192,48513,1,0,0:0:0:0:
192,192,48545,1,0,0:0:0:0:
448,192,48643,128,0,48708:0:0:0:0:
64,192,48687,1,0,0:0:0:0:
192,192,48774,1,0,0:0:0:0:
64,192,48806,1,0,0:0:0:0:
448,192,48904,1,0,0:0:0:0:
448,192,49034,1,0,0:0:0:0:
192,192,49078,1,0,0:0:0:0:
320,192,49121,1,0,0:0:0:0:
64,192,49165,1,0,0:0:0:0:
192,192,49214,1,0,0:0:0:0:
320,192,49295,1,0,0:0:0:0:
448,192,49295,1,0,0:0:0:0:
64,192,49317,1,0,0:0:0:0:
320,192,49426,1,0,0:0:0:0:
448,192,49426,1,0,0:0:0:0:
192,192,49448,1,0,0:0:0:0:
64,192,49556,1,0,0:0:0:0:
448,192,49556,1,0,0:0:0:0:
64,192,49687,1,0,0:0:0:0:
448,192,49687,1,0,0:0:0:0:
64,192,49818,1,0,0:0:0:0:
448,192,49818,1,0,0:0:0:0:
192,192,50734,1,0,0:0:0:0:
448,192,50734,1,0,0:0:0:0:
320,192,50799,1,0,0:0:0:0:
64,192,50864,1,0,0:0:0:0:
192,192,50864,1,0,0:0:0:0:
448,192,50929,1,0,0:0:0:0:
192,192,50994,1,0,0:0:0:0:
320,192,50994,1,0,0:0:0:0:
64,192,51060,1,0,0:0:0:0:
320,192,51125,1,0,0:0:0:0:
448,192,51125,1,0,0:0:0:0:
192,192,51190,1,0,0:0:0:0:
448,192,51255,1,0,0:0:0:0:
64,192,51304,1,0,0:0:0:0:
320,192,51353,1,0,0:0:0:0:
448,192,51386,1,0,0:0:0:0:
192,192,51451,1,0,0:0:0:0:
64,192,51516,1,0,0:0:0:0:
320,192,51516,1,0,0:0:0:0:
192,192,51581,1,0,0:0:0:0:
448,192,51647,1,0,0:0:0:0:
320,192,51695,1,0,0:0:0:0:
64,192,51755,1,0,0:0:0:0:
192,192,51799,1,0,0:0:0:0:
320,192,51858,1,0,0:0:0:0:
448,192,51907,1,0,0:0:0:0:
192,192,51951,1,0,0:0:0:0:
320,192,51994,1,0,0:0:0:0:
64,192,52038,1,0,0:0:0:0:
448,192,52103,1,0,0:0:0:0:
64,192,52168,1,0,0:0:0:0:
320,192,52168,1,0,0:0:0:0:
192,192,52233,1,0,0:0:0:0:
320,192,52299,1,0,0:0:0:0:
448,192,52364,1,0,0:0:0:0:
64,192,52429,1,0,0:0:0:0:
192,192,52429,1,0,0:0:0:0:
320,192,52494,1,0,0:0:0:0:
192,192,52560,1,0,0:0:0:0:
448,192,52625,1,0,0:0:0:0:
320,192,52690,1,0,0:0:0:0:
64,192,52733,1,0,0:0:0:0:
448,192,52777,1,0,0:0:0:0:
192,192,52820,1,0,0:0:0:0:
320,192,52886,1,0,0:0:0:0:
64,192,52951,1,0,0:0:0:0:
448,192,53016,1,0,0:0:0:0:
64,192,53081,1,0,0:0:0:0:
320,192,53081,1,0,0:0:0:0:
192,192,53147,1,0,0:0:0:0:
448,192,53212,1,0,0:0:0:0:
320,192,53277,1,0,0:0:0:0:
64,192,53342,1,0,0:0:0:0:
192,192,53342,1,0,0:0:0:0:
448,192,53407,1,0,0:0:0:0:
64,192,53473,1,0,0:0:0:0:
320,192,53473,1,0,0:0:0:0:
192,192,53538,1,0,0:0:0:0:
320,192,53603,1,0,0:0:0:0:
448,192,53603,1,0,0:0:0:0:
64,192,53668,1,0,0:0:0:0:
192,192,53733,1,0,0:0:0:0:
448,192,53733,1,0,0:0:0:0:
64,192,53799,1,0,0:0:0:0:
320,192,53815,1,0,0:0:0:0:
448,192,53880,1,0,0:0:0:0:
320,192,53929,1,0,0:0:0:0:
64,192,53994,1,0,0:0:0:0:
192,192,53994,1,0,0:0:0:0:
448,192,53994,1,0,0:0:0:0:
320,192,54060,1,0,0:0:0:0:
64,192,54125,1,0,0:0:0:0:
192,192,54125,1,0,0:0:0:0:
448,192,54190,1,0,0:0:0:0:
64,192,54255,1,0,0:0:0:0:
320,192,54255,1,0,0:0:0:0:
192,192,54320,1,0,0:0:0:0:
320,192,54386,1,0,0:0:0:0:
448,192,54386,1,0,0:0:0:0:
64,192,54451,1,0,0:0:0:0:
192,192,54516,1,0,0:0:0:0:
320,192,54516,1,0,0:0:0:0:
448,192,54565,1,0,0:0:0:0:
64,192,54625,1,0,0:0:0:0:
320,192,54679,1,0,0:0:0:0:
192,192,54728,1,0,0:0:0:0:
64,192,54777,1,0,0:0:0:0:
448,192,54777,1,0,0:0:0:0:
320,192,54842,1,0,0:0:0:0:
64,192,54907,1,0,0:0:0:0:
192,192,54907,1,0,0:0:0:0:
448,192,54973,1,0,0:0:0:0:
64,192,55038,1,0,0:0:0:0:
320,192,55038,1,0,0:0:0:0:
192,192,55103,1,0,0:0:0:0:
320,192,55168,1,0,0:0:0:0:
448,192,55168,1,0,0:0:0:0:
64,192,55217,1,0,0:0:0:0:
448,192,55277,1,0,0:0:0:0:
320,192,55331,1,0,0:0:0:0:
64,192,55386,1,0,0:0:0:0:
192,192,55429,1,0,0:0:0:0:
448,192,55429,1,0,0:0:0:0:
320,192,55478,1,0,0:0:0:0:
192,192,55560,1,0,0:0:0:0:
448,192,55625,1,0,0:0:0:0:
64,192,55690,1,0,0:0:0:0:
320,192,55690,1,0,0:0:0:0:
192,192,55755,1,0,0:0:0:0:
448,192,55804,1,0,0:0:0:0:
64,192,55820,1,0,0:0:0:0:
320,192,55886,1,0,0:0:0:0:
192,192,55918,1,0,0:0:0:0:
448,192,55951,1,0,0:0:0:0:
320,192,56016,1,0,0:0:0:0:
64,192,56049,1,0,0:0:0:0:
192,192,56081,1,0,0:0:0:0:
448,192,56125,1,0,0:0:0:0:
64,192,56168,1,0,0:0:0:0:
320,192,56212,1,0,0:0:0:0:
192,192,56277,1,0,0:0:0:0:
64,192,56342,1,0,0:0:0:0:
320,192,56342,1,0,0:0:0:0:
448,192,56407,1,0,0:0:0:0:
192,192,56473,1,0,0:0:0:0:
64,192,56538,1,0,0:0:0:0:
192,192,56603,1,0,0:0:0:0:
320,192,56603,1,0,0:0:0:0:
448,192,56668,1,0,0:0:0:0:
64,192,56701,1,0,0:0:0:0:
192,192,56777,1,0,0:0:0:0:
448,192,56799,1,0,0:0:0:0:
320,192,56842,1,0,0:0:0:0:
64,192,56913,1,0,0:0:0:0:
192,192,56962,1,0,0:0:0:0:
320,192,56994,1,0,0:0:0:0:
64,192,57038,1,0,0:0:0:0:
448,192,57092,1,0,0:0:0:0:
192,192,57125,1,0,0:0:0:0:
64,192,57190,1,0,0:0:0:0:
192,192,57255,1,0,0:0:0:0:
320,192,57255,1,0,0:0:0:0:
448,192,57255,1,0,0:0:0:0:
64,192,57320,1,0,0:0:0:0:
320,192,57386,1,0,0:0:0:0:
448,192,57402,1,0,0:0:0:0:
192,192,57451,1,0,0:0:0:0:
64,192,57516,1,0,0:0:0:0:
320,192,57516,1,0,0:0:0:0:
192,192,57565,1,0,0:0:0:0:
448,192,57625,1,0,0:0:0:0:
64,192,57647,1,0,0:0:0:0:
320,192,57712,1,0,0:0:0:0:
192,192,57777,1,0,0:0:0:0:
448,192,57777,1,0,0:0:0:0:
320,192,57842,1,0,0:0:0:0:
64,192,57864,1,0,0:0:0:0:
448,192,57907,1,0,0:0:0:0:
192,192,57951,1,0,0:0:0:0:
64,192,58038,1,0,0:0:0:0:
448,192,58038,1,0,0:0:0:0:
192,192,58103,1,0,0:0:0:0:
320,192,58168,1,0,0:0:0:0:
64,192,58233,1,0,0:0:0:0:
320,192,58299,1,0,0:0:0:0:
64,192,58364,1,0,0:0:0:0:
320,192,58429,1,0,0:0:0:0:
64,192,58494,1,0,0:0:0:0:
320,192,58560,1,0,0:0:0:0:
64,192,58625,1,0,0:0:0:0:
320,192,58690,1,0,0:0:0:0:
64,192,58755,1,0,0:0:0:0:
320,192,58820,1,0,0:0:0:0:
64,192,58886,1,0,0:0:0:0:
320,192,58951,1,0,0:0:0:0:
64,192,59016,1,0,0:0:0:0:
192,192,59081,1,0,0:0:0:0:
320,192,59081,1,0,0:0:0:0:
448,192,59081,1,0,0:0:0:0:
192,192,59168,1,0,0:0:0:0:
448,192,59212,1,0,0:0:0:0:
64,192,59342,1,0,0:0:0:0:
320,192,59342,1,0,0:0:0:0:
448,192,59391,1,0,0:0:0:0:
192,192,59451,1,0,0:0:0:0:
320,192,59505,1,0,0:0:0:0:
448,192,59554,1,0,0:0:0:0:
64,192,59603,1,0,0:0:0:0:
320,192,59603,1,0,0:0:0:0:
64,192,59690,1,0,0:0:0:0:
448,192,59733,1,0,0:0:0:0:
64,192,59864,1,0,0:0:0:0:
192,192,59864,1,0,0:0:0:0:
320,192,59864,1,0,0:0:0:0:
320,192,59951,1,0,0:0:0:0:
64,192,59994,1,0,0:0:0:0:
448,192,59994,1,0,0:0:0:0:
448,192,60081,1,0,0:0:0:0:
192,192,60125,1,0,0:0:0:0:
64,192,60255,1,0,0:0:0:0:
320,192,60255,1,0,0:0:0:0:
448,192,60255,1,0,0:0:0:0:
64,192,60342,1,0,0:0:0:0:
192,192,60386,1,0,0:0:0:0:
64,192,60516,1,0,0:0:0:0:
320,192,60516,1,0,0:0:0:0:
448,192,60516,1,0,0:0:0:0:
320,192,60603,1,0,0:0:0:0:
192,192,60647,1,0,0:0:0:0:
64,192,60777,1,0,0:0:0:0:
192,192,60777,1,0,0:0:0:0:
448,192,60777,1,0,0:0:0:0:
448,192,60864,1,0,0:0:0:0:
320,192,60907,1,0,0:0:0:0:
64,192,61038,1,0,0:0:0:0:
320,192,61038,1,0,0:0:0:0:
320,192,61125,1,0,0:0:0:0:
192,192,61168,1,0,0:0:0:0:
64,192,61217,1,0,0:0:0:0:
320,192,61277,1,0,0:0:0:0:
192,192,61331,1,0,0:0:0:0:
64,192,61380,1,0,0:0:0:0:
192,192,61429,1,0,0:0:0:0:
448,192,61429,1,0,0:0:0:0:
448,192,61516,1,0,0:0:0:0:
64,192,61560,1,0,0:0:0:0:
192,192,61690,1,0,0:0:0:0:
320,192,61690,1,0,0:0:0:0:
448,192,61690,1,0,0:0:0:0:
320,192,61777,1,0,0:0:0:0:
64,192,61820,1,0,0:0:0:0:
192,192,61951,1,0,0:0:0:0:
320,192,61951,1,0,0:0:0:0:
448,192,61951,1,0,0:0:0:0:
320,192,62038,1,0,0:0:0:0:
64,192,62081,1,0,0:0:0:0:
192,192,62212,1,0,0:0:0:0:
448,192,62212,1,0,0:0:0:0:
320,192,62277,1,0,0:0:0:0:
192,192,62342,1,0,0:0:0:0:
448,192,62342,1,0,0:0:0:0:
64,192,62407,1,0,0:0:0:0:
448,192,62440,1,0,0:0:0:0:
192,192,62473,1,0,0:0:0:0:
64,192,62538,1,0,0:0:0:0:
320,192,62603,1,0,0:0:0:0:
448,192,62647,1,0,0:0:0:0:
64,192,62668,1,0,0:0:0:0:
320,192,62733,1,0,0:0:0:0:
64,192,62799,1,0,0:0:0:0:
192,192,62864,1,0,0:0:0:0:
448,192,62907,1,0,0:0:0:0:
320,192,62929,1,0,0:0:0:0:
192,192,62994,1,0,0:0:0:0:
320,192,63060,1,0,0:0:0:0:
448,192,63125,1,0,0:0:0:0:
64,192,63168,1,0,0:0:0:0:
320,192,63190,1,0,0:0:0:0:
448,192,63255,1,0,0:0:0:0:
320,192,63320,1,0,0:0:0:0:
64,192,63386,1,0,0:0:0:0:
448,192,63429,1,0,0:0:0:0:
192,192,63451,1,0,0:0:0:0:
320,192,63516,1,0,0:0:0:0:
64,192,63581,1,0,0:0:0:0:
192,192,63647,1,0,0:0:0:0:
448,192,63647,1,0,0:0:0:0:
320,192,63712,1,0,0:0:0:0:
64,192,63777,1,0,0:0:0:0:
192,192,63777,1,0,0:0:0:0:
320,192,63842,1,0,0:0:0:0:
192,192,63907,1,0,0:0:0:0:
64,192,63973,1,0,0:0:0:0:
192,192,64038,1,0,0:0:0:0:
448,192,64038,1,0,0:0:0:0:
320,192,64103,1,0,0:0:0:0:
192,192,64168,1,0,0:0:0:0:
64,192,64233,1,0,0:0:0:0:
192,192,64299,1,0,0:0:0:0:
448,192,64299,1,0,0:0:0:0:
320,192,64364,1,0,0:0:0:0:
192,192,64429,1,0,0:0:0:0:
64,192,64494,1,0,0:0:0:0:
320,192,64560,1,0,0:0:0:0:
448,192,64560,1,0,0:0:0:0:
64,192,64625,1,0,0:0:0:0:
192,192,64690,1,0,0:0:0:0:
448,192,64690,1,0,0:0:0:0:
320,192,64755,1,0,0:0:0:0:
448,192,64820,1,0,0:0:0:0:
64,192,64886,1,0,0:0:0:0:
192,192,64951,1,0,0:0:0:0:
448,192,64951,1,0,0:0:0:0:
320,192,65016,1,0,0:0:0:0:
448,192,65081,1,0,0:0:0:0:
64,192,65147,1,0,0:0:0:0:
192,192,65212,1,0,0:0:0:0:
448,192,65212,1,0,0:0:0:0:
320,192,65277,1,0,0:0:0:0:
448,192,65342,1,0,0:0:0:0:
64,192,65407,1,0,0:0:0:0:
192,192,65473,1,0,0:0:0:0:
320,192,65473,1,0,0:0:0:0:
448,192,65538,1,0,0:0:0:0:
64,192,65603,1,0,0:0:0:0:
192,192,65603,1,0,0:0:0:0:
320,192,65668,1,0,0:0:0:0:
64,192,65733,1,0,0:0:0:0:
448,192,65799,1,0,0:0:0:0:
64,192,65864,1,0,0:0:0:0:
192,192,65864,1,0,0:0:0:0:
320,192,65929,1,0,0:0:0:0:
64,192,65994,1,0,0:0:0:0:
448,192,66060,1,0,0:0:0:0:
64,192,66125,1,0,0:0:0:0:
192,192,66125,1,0,0:0:0:0:
320,192,66190,1,0,0:0:0:0:
64,192,66255,1,0,0:0:0:0:
448,192,66320,1,0,0:0:0:0:
64,192,66386,1,0,0:0:0:0:
192,192,66386,1,0,0:0:0:0:
320,192,66451,1,0,0:0:0:0:
64,192,66516,1,0,0:0:0:0:
448,192,66581,1,0,0:0:0:0:
64,192,66647,1,0,0:0:0:0:
192,192,66647,1,0,0:0:0:0:
320,192,66712,1,0,0:0:0:0:
192,192,66777,1,0,0:0:0:0:
448,192,66842,1,0,0:0:0:0:
64,192,66907,1,0,0:0:0:0:
320,192,66907,1,0,0:0:0:0:
192,192,66973,1,0,0:0:0:0:
320,192,67038,1,0,0:0:0:0:
448,192,67038,1,0,0:0:0:0:
64,192,67103,1,0,0:0:0:0:
448,192,67168,1,0,0:0:0:0:
192,192,67233,1,0,0:0:0:0:
320,192,67299,1,0,0:0:0:0:
448,192,67299,1,0,0:0:0:0:
64,192,67364,1,0,0:0:0:0:
448,192,67429,1,0,0:0:0:0:
192,192,67494,1,0,0:0:0:0:
320,192,67560,1,0,0:0:0:0:
448,192,67560,1,0,0:0:0:0:
64,192,67625,1,0,0:0:0:0:
448,192,67690,1,0,0:0:0:0:
192,192,67755,1,0,0:0:0:0:
64,192,67820,1,0,0:0:0:0:
320,192,67820,1,0,0:0:0:0:
448,192,67886,1,0,0:0:0:0:
64,192,67951,1,0,0:0:0:0:
192,192,67951,1,0,0:0:0:0:
320,192,68000,1,0,0:0:0:0:
448,192,68060,1,0,0:0:0:0:
192,192,68114,1,0,0:0:0:0:
320,192,68163,1,0,0:0:0:0:
64,192,68212,1,0,0:0:0:0:
192,192,68261,1,0,0:0:0:0:
320,192,68320,1,0,0:0:0:0:
448,192,68375,1,0,0:0:0:0:
64,192,68424,1,0,0:0:0:0:
192,192,68473,1,0,0:0:0:0:
320,192,68522,1,0,0:0:0:0:
64,192,68581,1,0,0:0:0:0:
448,192,68603,1,0,0:0:0:0:
192,192,68636,1,0,0:0:0:0:
320,192,68685,1,0,0:0:0:0:
448,192,68733,1,0,0:0:0:0:
192,192,68782,1,0,0:0:0:0:
320,192,68842,1,0,0:0:0:0:
64,192,68864,1,0,0:0:0:0:
448,192,68897,1,0,0:0:0:0:
192,192,68945,1,0,0:0:0:0:
64,192,68994,1,0,0:0:0:0:
320,192,69043,1,0,0:0:0:0:
192,192,69103,1,0,0:0:0:0:
448,192,69125,1,0,0:0:0:0:
64,192,69157,1,0,0:0:0:0:
320,192,69206,1,0,0:0:0:0:
192,192,69255,1,0,0:0:0:0:
64,192,69304,1,0,0:0:0:0:
320,192,69364,1,0,0:0:0:0:
448,192,69386,1,0,0:0:0:0:
192,192,69418,1,0,0:0:0:0:
64,192,69467,1,0,0:0:0:0:
320,192,69516,1,0,0:0:0:0:
192,192,69560,1,0,0:0:0:0:
448,192,69625,1,0,0:0:0:0:
320,192,69647,1,0,0:0:0:0:
64,192,69690,1,0,0:0:0:0:
192,192,69728,1,0,0:0:0:0:
448,192,69777,1,0,0:0:0:0:
320,192,69826,1,0,0:0:0:0:
192,192,69886,1,0,0:0:0:0:
64,192,69940,1,0,0:0:0:0:
448,192,69989,1,0,0:0:0:0:
320,192,70038,1,0,0:0:0:0:
64,192,70087,1,0,0:0:0:0:
192,192,70125,1,0,0:0:0:0:
320,192,70201,1,0,0:0:0:0:
448,192,70212,1,0,0:0:0:0:
192,192,70299,1,0,0:0:0:0:
64,192,70348,1,0,0:0:0:0:
448,192,70386,1,0,0:0:0:0:
320,192,70462,1,0,0:0:0:0:
192,192,70473,1,0,0:0:0:0:
64,192,70560,1,0,0:0:0:0:
448,192,70647,1,0,0:0:0:0:
64,192,70690,1,0,0:0:0:0:
192,192,70733,1,0,0:0:0:0:
320,192,70772,1,0,0:0:0:0:
448,192,70820,1,0,0:0:0:0:
192,192,70907,1,0,0:0:0:0:
448,192,70951,1,0,0:0:0:0:
64,192,70994,1,0,0:0:0:0:
320,192,71081,1,0,0:0:0:0:
320,192,71212,1,0,0:0:0:0:
192,192,71342,1,0,0:0:0:0:
192,192,71473,1,0,0:0:0:0:
64,192,71603,1,0,0:0:0:0:
320,192,71733,1,0,0:0:0:0:
448,192,71733,128,0,72125:0:0:0:0:
192,192,71864,1,0,0:0:0:0:
64,192,71994,1,0,0:0:0:0:
192,192,72125,128,0,72190:0:0:0:0:
320,192,72125,128,0,72190:0:0:0:0:
320,192,72386,1,0,0:0:0:0:
192,192,72516,1,0,0:0:0:0:
448,192,72647,1,0,0:0:0:0:
448,192,72777,1,0,0:0:0:0:
192,192,72907,1,0,0:0:0:0:
448,192,73038,1,0,0:0:0:0:
320,192,73168,1,0,0:0:0:0:
192,192,73299,1,0,0:0:0:0:
64,192,73429,1,0,0:0:0:0:
320,192,73560,1,0,0:0:0:0:
448,192,73581,1,0,0:0:0:0:
320,192,73690,1,0,0:0:0:0:
192,192,73820,1,0,0:0:0:0:
64,192,73886,1,0,0:0:0:0:
448,192,73951,1,0,0:0:0:0:
320,192,73994,1,0,0:0:0:0:
192,192,74038,1,0,0:0:0:0:
64,192,74081,1,0,0:0:0:0:
64,192,74212,1,0,0:0:0:0:
192,192,74342,1,0,0:0:0:0:
448,192,74342,1,0,0:0:0:0:
64,192,74473,1,0,0:0:0:0:
320,192,74473,1,0,0:0:0:0:
448,192,74473,1,0,0:0:0:0:
320,192,74603,1,0,0:0:0:0:
448,192,74603,1,0,0:0:0:0:
64,192,74733,1,0,0:0:0:0:
192,192,74733,1,0,0:0:0:0:
192,192,74864,1,0,0:0:0:0:
320,192,74929,1,0,0:0:0:0:
64,192,74994,1,0,0:0:0:0:
192,192,74994,1,0,0:0:0:0:
192,192,75125,1,0,0:0:0:0:
320,192,75190,1,0,0:0:0:0:
64,192,75255,1,0,0:0:0:0:
192,192,75255,1,0,0:0:0:0:
320,192,75386,1,0,0:0:0:0:
448,192,75407,1,0,0:0:0:0:
320,192,75516,1,0,0:0:0:0:
64,192,75647,1,0,0:0:0:0:
192,192,75647,1,0,0:0:0:0:
448,192,75647,1,0,0:0:0:0:
192,192,75777,1,0,0:0:0:0:
448,192,75777,1,0,0:0:0:0:
64,192,75907,1,0,0:0:0:0:
320,192,75907,1,0,0:0:0:0:
448,192,75907,1,0,0:0:0:0:
64,192,76038,1,0,0:0:0:0:
320,192,76038,1,0,0:0:0:0:
192,192,76168,1,0,0:0:0:0:
320,192,76168,1,0,0:0:0:0:
192,192,76299,1,0,0:0:0:0:
320,192,76299,1,0,0:0:0:0:
64,192,76429,1,0,0:0:0:0:
448,192,76560,1,0,0:0:0:0:
192,192,76603,128,0,76690:0:0:0:0:
448,192,76690,1,0,0:0:0:0:
64,192,76820,1,0,0:0:0:0:
320,192,76864,128,0,76951:0:0:0:0:
64,192,76951,1,0,0:0:0:0:
448,192,77081,1,0,0:0:0:0:
192,192,77212,1,0,0:0:0:0:
448,192,77255,128,0,77342:0:0:0:0:
64,192,77342,1,0,0:0:0:0:
192,192,77473,1,0,0:0:0:0:
448,192,77473,128,0,77560:0:0:0:0:
192,192,77603,1,0,0:0:0:0:
320,192,77733,128,0,77820:0:0:0:0:
448,192,77733,1,0,0:0:0:0:
448,192,77864,1,0,0:0:0:0:
192,192,77994,128,0,78081:0:0:0:0:
320,192,77994,1,0,0:0:0:0:
320,192,78125,1,0,0:0:0:0:
64,192,78255,128,0,78342:0:0:0:0:
448,192,78255,1,0,0:0:0:0:
448,192,78386,1,0,0:0:0:0:
64,192,78516,1,0,0:0:0:0:
192,192,78516,1,0,0:0:0:0:
64,192,78647,1,0,0:0:0:0:
192,192,78647,1,0,0:0:0:0:
320,192,78777,1,0,0:0:0:0:
448,192,78864,1,0,0:0:0:0:
64,192,78907,1,0,0:0:0:0:
192,192,78907,1,0,0:0:0:0:
320,192,79038,1,0,0:0:0:0:
192,192,79168,1,0,0:0:0:0:
320,192,79233,1,0,0:0:0:0:
192,192,79299,1,0,0:0:0:0:
320,192,79364,1,0,0:0:0:0:
192,192,79429,1,0,0:0:0:0:
448,192,79429,1,0,0:0:0:0:
320,192,79560,1,0,0:0:0:0:
64,192,79690,1,0,0:0:0:0:
192,192,79690,1,0,0:0:0:0:
448,192,79820,1,0,0:0:0:0:
320,192,79907,1,0,0:0:0:0:
64,192,79951,1,0,0:0:0:0:
192,192,80016,1,0,0:0:0:0:
448,192,80081,1,0,0:0:0:0:
64,192,80147,1,0,0:0:0:0:
320,192,80212,1,0,0:0:0:0:
448,192,80212,1,0,0:0:0:0:
192,192,80277,1,0,0:0:0:0:
320,192,80342,1,0,0:0:0:0:
448,192,80342,1,0,0:0:0:0:
64,192,80407,1,0,0:0:0:0:
192,192,80473,1,0,0:0:0:0:
448,192,80473,1,0,0:0:0:0:
320,192,80516,1,0,0:0:0:0:
64,192,80603,1,0,0:0:0:0:
448,192,80647,1,0,0:0:0:0:
64,192,80733,1,0,0:0:0:0:
192,192,80733,1,0,0:0:0:0:
320,192,80799,1,0,0:0:0:0:
64,192,80864,1,0,0:0:0:0:
448,192,80864,1,0,0:0:0:0:
192,192,80929,1,0,0:0:0:0:
320,192,80994,1,0,0:0:0:0:
448,192,80994,1,0,0:0:0:0:
64,192,81060,1,0,0:0:0:0:
192,192,81125,1,0,0:0:0:0:
64,192,81190,1,0,0:0:0:0:
320,192,81256,1,0,0:0:0:0:
192,192,81320,1,0,0:0:0:0:
320,192,81385,1,0,0:0:0:0:
192,192,81449,1,0,0:0:0:0:
320,192,81514,1,0,0:0:0:0:
192,192,81578,1,0,0:0:0:0:
64,192,81643,1,0,0:0:0:0:
320,192,81643,1,0,0:0:0:0:
448,192,81643,1,0,0:0:0:0:
64,192,81903,128,0,81969:0:0:0:0:
192,192,82034,128,0,82099:0:0:0:0:
320,192,82164,128,0,82229:0:0:0:0:
448,192,82295,128,0,82360:0:0:0:0:
64,192,82425,1,0,0:0:0:0:
192,192,82425,1,0,0:0:0:0:
320,192,82474,1,0,0:0:0:0:
64,192,82556,1,0,0:0:0:0:
192,192,82556,1,0,0:0:0:0:
320,192,82604,1,0,0:0:0:0:
64,192,82686,1,0,0:0:0:0:
448,192,82686,1,0,0:0:0:0:
192,192,82751,1,0,0:0:0:0:
448,192,82816,1,0,0:0:0:0:
192,192,82860,1,0,0:0:0:0:
320,192,82903,1,0,0:0:0:0:
64,192,82947,1,0,0:0:0:0:
448,192,82990,1,0,0:0:0:0:
320,192,83045,1,0,0:0:0:0:
192,192,83077,1,0,0:0:0:0:
448,192,83126,1,0,0:0:0:0:
64,192,83186,1,0,0:0:0:0:
192,192,83208,1,0,0:0:0:0:
320,192,83257,1,0,0:0:0:0:
448,192,83295,1,0,0:0:0:0:
64,192,83338,1,0,0:0:0:0:
192,192,83371,1,0,0:0:0:0:
320,192,83403,1,0,0:0:0:0:
448,192,83469,1,0,0:0:0:0:
192,192,83534,1,0,0:0:0:0:
448,192,83599,1,0,0:0:0:0:
320,192,83615,1,0,0:0:0:0:
64,192,83664,1,0,0:0:0:0:
192,192,83729,1,0,0:0:0:0:
448,192,83746,1,0,0:0:0:0:
64,192,83795,1,0,0:0:0:0:
320,192,83860,1,0,0:0:0:0:
192,192,83876,1,0,0:0:0:0:
448,192,83925,1,0,0:0:0:0:
64,192,83990,1,0,0:0:0:0:
320,192,83990,1,0,0:0:0:0:
192,192,84056,1,0,0:0:0:0:
320,192,84121,1,0,0:0:0:0:
448,192,84121,1,0,0:0:0:0:
64,192,84186,1,0,0:0:0:0:
192,192,84251,1,0,0:0:0:0:
448,192,84251,1,0,0:0:0:0:
64,192,84316,1,0,0:0:0:0:
192,192,84382,1,0,0:0:0:0:
320,192,84382,1,0,0:0:0:0:
448,192,84447,1,0,0:0:0:0:
320,192,84512,1,0,0:0:0:0:
192,192,84556,1,0,0:0:0:0:
448,192,84599,1,0,0:0:0:0:
320,192,84675,1,0,0:0:0:0:
64,192,84708,1,0,0:0:0:0:
448,192,84740,1,0,0:0:0:0:
320,192,84795,1,0,0:0:0:0:
192,192,84838,1,0,0:0:0:0:
448,192,84860,1,0,0:0:0:0:
64,192,84903,1,0,0:0:0:0:
320,192,84903,1,0,0:0:0:0:
192,192,84969,1,0,0:0:0:0:
64,192,85034,1,0,0:0:0:0:
448,192,85034,1,0,0:0:0:0:
320,192,85099,1,0,0:0:0:0:
192,192,85164,1,0,0:0:0:0:
448,192,85246,1,0,0:0:0:0:
64,192,85295,1,0,0:0:0:0:
320,192,85316,1,0,0:0:0:0:
192,192,85360,1,0,0:0:0:0:
64,192,85425,1,0,0:0:0:0:
448,192,85425,1,0,0:0:0:0:
192,192,85512,1,0,0:0:0:0:
320,192,85556,1,0,0:0:0:0:
448,192,85556,1,0,0:0:0:0:
64,192,85642,1,0,0:0:0:0:
192,192,85686,1,0,0:0:0:0:
320,192,85686,1,0,0:0:0:0:
448,192,85773,1,0,0:0:0:0:
64,192,85816,1,0,0:0:0:0:
192,192,85816,1,0,0:0:0:0:
320,192,85882,1,0,0:0:0:0:
64,192,85947,1,0,0:0:0:0:
448,192,85947,1,0,0:0:0:0:
320,192,86012,1,0,0:0:0:0:
192,192,86077,1,0,0:0:0:0:
448,192,86121,1,0,0:0:0:0:
64,192,86186,1,0,0:0:0:0:
192,192,86208,1,0,0:0:0:0:
320,192,86286,1,0,0:0:0:0:
192,192,86366,1,0,0:0:0:0:
448,192,86366,1,0,0:0:0:0:
64,192,86427,1,0,0:0:0:0:
448,192,86489,1,0,0:0:0:0:
64,192,86552,1,0,0:0:0:0:
448,192,86643,1,0,0:0:0:0:
192,192,86655,1,0,0:0:0:0:
320,192,86731,1,0,0:0:0:0:
192,192,86744,1,0,0:0:0:0:
64,192,86820,1,0,0:0:0:0:
320,192,86829,1,0,0:0:0:0:
448,192,86909,1,0,0:0:0:0:
64,192,86914,1,0,0:0:0:0:
192,192,86986,1,0,0:0:0:0:
320,192,86998,1,0,0:0:0:0:
64,192,87083,1,0,0:0:0:0:
448,192,87087,1,0,0:0:0:0:
192,192,87168,1,0,0:0:0:0:
320,192,87176,1,0,0:0:0:0:
64,192,87253,1,0,0:0:0:0:
448,192,87253,1,0,0:0:0:0:
320,192,87318,1,0,0:0:0:0:
192,192,87383,1,0,0:0:0:0:
448,192,87448,1,0,0:0:0:0:
64,192,87513,1,0,0:0:0:0:
320,192,87513,1,0,0:0:0:0:
192,192,87579,1,0,0:0:0:0:
320,192,87644,1,0,0:0:0:0:
448,192,87644,1,0,0:0:0:0:
64,192,87709,1,0,0:0:0:0:
192,192,87774,1,0,0:0:0:0:
448,192,87774,1,0,0:0:0:0:
320,192,87818,1,0,0:0:0:0:
64,192,87872,1,0,0:0:0:0:
320,192,87926,1,0,0:0:0:0:
192,192,87986,1,0,0:0:0:0:
64,192,88035,1,0,0:0:0:0:
448,192,88100,1,0,0:0:0:0:
64,192,88166,1,0,0:0:0:0:
192,192,88166,1,0,0:0:0:0:
320,192,88166,1,0,0:0:0:0:
448,192,88231,1,0,0:0:0:0:
320,192,88296,1,0,0:0:0:0:
192,192,88312,1,0,0:0:0:0:
64,192,88361,1,0,0:0:0:0:
320,192,88426,1,0,0:0:0:0:
448,192,88426,1,0,0:0:0:0:
192,192,88492,1,0,0:0:0:0:
64,192,88557,1,0,0:0:0:0:
448,192,88557,1,0,0:0:0:0:
320,192,88622,1,0,0:0:0:0:
192,192,88687,1,0,0:0:0:0:
448,192,88720,1,0,0:0:0:0:
64,192,88752,1,0,0:0:0:0:
320,192,88785,1,0,0:0:0:0:
192,192,88818,1,0,0:0:0:0:
448,192,88867,1,0,0:0:0:0:
320,192,88905,1,0,0:0:0:0:
64,192,88948,1,0,0:0:0:0:
192,192,89013,1,0,0:0:0:0:
320,192,89079,1,0,0:0:0:0:
448,192,89079,1,0,0:0:0:0:
192,192,89144,1,0,0:0:0:0:
64,192,89209,1,0,0:0:0:0:
192,192,89274,1,0,0:0:0:0:
320,192,89339,1,0,0:0:0:0:
448,192,89339,1,0,0:0:0:0:
192,192,89405,1,0,0:0:0:0:
64,192,89470,1,0,0:0:0:0:
192,192,89535,1,0,0:0:0:0:
320,192,89601,1,0,0:0:0:0:
448,192,89601,1,0,0:0:0:0:
192,192,89637,1,0,0:0:0:0:
64,192,89687,1,0,0:0:0:0:
320,192,89723,1,0,0:0:0:0:
192,192,89760,1,0,0:0:0:0:
448,192,89797,1,0,0:0:0:0:
64,192,89846,1,0,0:0:0:0:
320,192,89883,1,0,0:0:0:0:
448,192,89961,1,0,0:0:0:0:
64,192,89995,128,0,90647:0:0:0:0:
320,192,89995,1,0,0:0:0:0:
192,192,90011,128,0,90109:0:0:0:0:
448,192,90272,128,0,90369:0:0:0:0:
448,192,90533,128,0,90630:0:0:0:0:
192,192,90793,128,0,91022:0:0:0:0:
448,192,91054,128,0,91152:0:0:0:0:
448,192,91331,128,0,91429:0:0:0:0:
192,192,91592,128,0,91821:0:0:0:0:
448,192,91853,128,0,91951:0:0:0:0:
448,192,92114,128,0,92212:0:0:0:0:
192,192,92391,128,0,92603:0:0:0:0:
448,192,92603,1,0,0:0:0:0:
320,192,92652,1,0,0:0:0:0:
64,192,92712,1,0,0:0:0:0:
448,192,92755,1,0,0:0:0:0:
192,192,92799,1,0,0:0:0:0:
64,192,92848,1,0,0:0:0:0:
320,192,92908,1,0,0:0:0:0:
192,192,92951,1,0,0:0:0:0:
448,192,92994,1,0,0:0:0:0:
64,192,93038,1,0,0:0:0:0:
320,192,93081,1,0,0:0:0:0:
64,192,93125,1,0,0:0:0:0:
192,192,93125,1,0,0:0:0:0:
448,192,93125,1,0,0:0:0:0:
192,192,93386,128,0,93516:0:0:0:0:
320,192,93386,1,0,0:0:0:0:
448,192,93386,128,0,93516:0:0:0:0:
192,192,93647,128,0,93777:0:0:0:0:
320,192,93647,1,0,0:0:0:0:
448,192,93647,128,0,93777:0:0:0:0:
64,192,93908,1,0,0:0:0:0:
320,192,93908,1,0,0:0:0:0:
448,192,93908,1,0,0:0:0:0:
64,192,94168,128,0,94299:0:0:0:0:
192,192,94168,1,0,0:0:0:0:
320,192,94168,128,0,94299:0:0:0:0:
64,192,94429,128,0,94560:0:0:0:0:
192,192,94429,1,0,0:0:0:0:
320,192,94429,128,0,94560:0:0:0:0:
192,192,94603,1,0,0:0:0:0:
448,192,94603,1,0,0:0:0:0:
64,192,94690,1,0,0:0:0:0:
320,192,94690,1,0,0:0:0:0:
192,192,94755,1,0,0:0:0:0:
320,192,94821,1,0,0:0:0:0:
448,192,94886,1,0,0:0:0:0:
64,192,94951,1,0,0:0:0:0:
192,192,94951,1,0,0:0:0:0:
320,192,95016,1,0,0:0:0:0:
448,192,95081,1,0,0:0:0:0:
64,192,95147,1,0,0:0:0:0:
192,192,95212,1,0,0:0:0:0:
320,192,95212,1,0,0:0:0:0:
448,192,95277,1,0,0:0:0:0:
64,192,95342,1,0,0:0:0:0:
192,192,95408,1,0,0:0:0:0:
320,192,95473,1,0,0:0:0:0:
64,192,95538,1,0,0:0:0:0:
320,192,95603,1,0,0:0:0:0:
64,192,95668,1,0,0:0:0:0:
192,192,95734,1,0,0:0:0:0:
320,192,95799,1,0,0:0:0:0:
64,192,95864,1,0,0:0:0:0:
192,192,95929,1,0,0:0:0:0:
448,192,95994,1,0,0:0:0:0:
320,192,96060,1,0,0:0:0:0:
192,192,96125,1,0,0:0:0:0:
448,192,96190,1,0,0:0:0:0:
64,192,96255,1,0,0:0:0:0:
192,192,96255,1,0,0:0:0:0:
320,192,96255,1,0,0:0:0:0:
448,192,96304,1,0,0:0:0:0:
64,192,96364,1,0,0:0:0:0:
192,192,96418,1,0,0:0:0:0:
320,192,96467,1,0,0:0:0:0:
448,192,96516,1,0,0:0:0:0:
64,192,96560,1,0,0:0:0:0:
320,192,96625,1,0,0:0:0:0:
192,192,96647,1,0,0:0:0:0:
448,192,96690,1,0,0:0:0:0:
64,192,96755,1,0,0:0:0:0:
320,192,96777,1,0,0:0:0:0:
192,192,96821,1,0,0:0:0:0:
448,192,96886,1,0,0:0:0:0:
64,192,96908,1,0,0:0:0:0:
320,192,96951,1,0,0:0:0:0:
192,192,97016,1,0,0:0:0:0:
448,192,97038,1,0,0:0:0:0:
320,192,97081,1,0,0:0:0:0:
64,192,97147,1,0,0:0:0:0:
448,192,97168,1,0,0:0:0:0:
192,192,97212,1,0,0:0:0:0:
320,192,97277,1,0,0:0:0:0:
64,192,97299,1,0,0:0:0:0:
192,192,97348,1,0,0:0:0:0:
448,192,97397,1,0,0:0:0:0:
320,192,97429,1,0,0:0:0:0:
192,192,97494,1,0,0:0:0:0:
64,192,97527,1,0,0:0:0:0:
448,192,97560,1,0,0:0:0:0:
320,192,97625,1,0,0:0:0:0:
192,192,97690,1,0,0:0:0:0:
64,192,97755,1,0,0:0:0:0:
192,192,97821,1,0,0:0:0:0:
448,192,97821,1,0,0:0:0:0:
320,192,97869,1,0,0:0:0:0:
64,192,97929,1,0,0:0:0:0:
192,192,97994,1,0,0:0:0:0:
448,192,98038,1,0,0:0:0:0:
64,192,98103,1,0,0:0:0:0:
320,192,98125,1,0,0:0:0:0:
448,192,98168,1,0,0:0:0:0:
192,192,98234,1,0,0:0:0:0:
320,192,98255,1,0,0:0:0:0:
64,192,98299,1,0,0:0:0:0:
448,192,98364,1,0,0:0:0:0:
192,192,98386,1,0,0:0:0:0:
64,192,98429,1,0,0:0:0:0:
320,192,98494,1,0,0:0:0:0:
448,192,98516,1,0,0:0:0:0:
192,192,98560,1,0,0:0:0:0:
320,192,98625,1,0,0:0:0:0:
64,192,98647,1,0,0:0:0:0:
448,192,98690,1,0,0:0:0:0:
192,192,98755,1,0,0:0:0:0:
320,192,98777,1,0,0:0:0:0:
64,192,98821,1,0,0:0:0:0:
448,192,98886,1,0,0:0:0:0:
320,192,98929,1,0,0:0:0:0:
192,192,98978,1,0,0:0:0:0:
448,192,99038,1,0,0:0:0:0:
64,192,99092,1,0,0:0:0:0:
192,192,99125,1,0,0:0:0:0:
320,192,99125,1,0,0:0:0:0:
448,192,99174,1,0,0:0:0:0:
192,192,99239,1,0,0:0:0:0:
320,192,99304,1,0,0:0:0:0:
64,192,99386,1,0,0:0:0:0:
448,192,99386,1,0,0:0:0:0:
192,192,99451,1,0,0:0:0:0:
320,192,99516,1,0,0:0:0:0:
448,192,99516,1,0,0:0:0:0:
64,192,99581,1,0,0:0:0:0:
192,192,99647,1,0,0:0:0:0:
448,192,99647,1,0,0:0:0:0:
320,192,99712,1,0,0:0:0:0:
192,192,99761,1,0,0:0:0:0:
64,192,99799,1,0,0:0:0:0:
448,192,99859,1,0,0:0:0:0:
320,192,99908,1,0,0:0:0:0:
64,192,99951,1,0,0:0:0:0:
192,192,100016,1,0,0:0:0:0:
448,192,100038,1,0,0:0:0:0:
64,192,100081,1,0,0:0:0:0:
320,192,100147,1,0,0:0:0:0:
192,192,100168,1,0,0:0:0:0:
448,192,100212,1,0,0:0:0:0:
320,192,100277,1,0,0:0:0:0:
64,192,100299,1,0,0:0:0:0:
192,192,100342,1,0,0:0:0:0:
448,192,100408,1,0,0:0:0:0:
64,192,100429,1,0,0:0:0:0:
320,192,100473,1,0,0:0:0:0:
192,192,100538,1,0,0:0:0:0:
448,192,100560,1,0,0:0:0:0:
320,192,100603,1,0,0:0:0:0:
64,192,100668,1,0,0:0:0:0:
192,192,100690,1,0,0:0:0:0:
320,192,100734,1,0,0:0:0:0:
448,192,100788,1,0,0:0:0:0:
64,192,100837,1,0,0:0:0:0:
192,192,100886,1,0,0:0:0:0:
448,192,100951,1,0,0:0:0:0:
320,192,100994,1,0,0:0:0:0:
64,192,101060,1,0,0:0:0:0:
448,192,101081,1,0,0:0:0:0:
192,192,101125,1,0,0:0:0:0:
320,192,101190,1,0,0:0:0:0:
64,192,101212,1,0,0:0:0:0:
192,192,101255,1,0,0:0:0:0:
448,192,101321,1,0,0:0:0:0:
64,192,101342,1,0,0:0:0:0:
320,192,101386,1,0,0:0:0:0:
192,192,101429,1,0,0:0:0:0:
448,192,101473,1,0,0:0:0:0:
320,192,101516,1,0,0:0:0:0:
64,192,101554,1,0,0:0:0:0:
448,192,101587,1,0,0:0:0:0:
192,192,101636,1,0,0:0:0:0:
64,192,101668,1,0,0:0:0:0:
320,192,101734,1,0,0:0:0:0:
448,192,101734,1,0,0:0:0:0:
192,192,101815,1,0,0:0:0:0:
64,192,101864,1,0,0:0:0:0:
448,192,101864,1,0,0:0:0:0:
320,192,101946,1,0,0:0:0:0:
192,192,101994,1,0,0:0:0:0:
448,192,101994,1,0,0:0:0:0:
64,192,102076,1,0,0:0:0:0:
192,192,102125,1,0,0:0:0:0:
320,192,102125,1,0,0:0:0:0:
448,192,102206,1,0,0:0:0:0:
64,192,102255,1,0,0:0:0:0:
192,192,102255,1,0,0:0:0:0:
320,192,102337,1,0,0:0:0:0:
64,192,102386,1,0,0:0:0:0:
448,192,102386,1,0,0:0:0:0:
192,192,102467,1,0,0:0:0:0:
64,192,102516,1,0,0:0:0:0:
320,192,102516,128,0,103299:0:0:0:0:
448,192,102777,1,0,0:0:0:0:
448,192,103038,1,0,0:0:0:0:
192,192,103299,128,0,103853:0:0:0:0:
64,192,103560,1,0,0:0:0:0:
64,192,103821,1,0,0:0:0:0:
320,192,103886,1,0,0:0:0:0:
448,192,103951,1,0,0:0:0:0:
192,192,103994,1,0,0:0:0:0:
320,192,104038,1,0,0:0:0:0:
64,192,104081,128,0,104342:0:0:0:0:
448,192,104359,1,0,0:0:0:0:
192,192,104364,128,0,104625:0:0:0:0:
448,192,104619,1,0,0:0:0:0:
320,192,104647,128,0,104886:0:0:0:0:
64,192,104913,128,0,105125:0:0:0:0:
448,192,104913,128,0,105141:0:0:0:0:
192,192,105174,128,0,105402:0:0:0:0:
320,192,105174,1,0,0:0:0:0:
64,192,105418,1,0,0:0:0:0:
320,192,105418,128,0,105549:0:0:0:0:
448,192,105560,1,0,0:0:0:0:
192,192,105603,1,0,0:0:0:0:
64,192,105647,128,0,106212:0:0:0:0:
320,192,105647,128,0,105908:0:0:0:0:
448,192,105940,1,0,0:0:0:0:
448,192,106201,1,0,0:0:0:0:
192,192,106234,1,0,0:0:0:0:
320,192,106283,1,0,0:0:0:0:
64,192,106342,1,0,0:0:0:0:
192,192,106364,1,0,0:0:0:0:
448,192,106408,1,0,0:0:0:0:
320,192,106462,128,0,106886:0:0:0:0:
64,192,106712,1,0,0:0:0:0:
448,192,106929,1,0,0:0:0:0:
192,192,106973,1,0,0:0:0:0:
64,192,107016,1,0,0:0:0:0:
448,192,107065,1,0,0:0:0:0:
192,192,107147,1,0,0:0:0:0:
320,192,107190,1,0,0:0:0:0:
64,192,107234,128,0,107451:0:0:0:0:
448,192,107234,128,0,107473:0:0:0:0:
64,192,107505,128,0,107766:0:0:0:0:
320,192,107505,1,0,0:0:0:0:
192,192,107766,128,0,108011:0:0:0:0:
448,192,107766,1,0,0:0:0:0:
64,192,108027,128,0,108272:0:0:0:0:
320,192,108027,128,0,108272:0:0:0:0:
192,192,108272,1,0,0:0:0:0:
448,192,108272,128,0,108533:0:0:0:0:
192,192,108538,128,0,108842:0:0:0:0:
320,192,108538,1,0,0:0:0:0:
64,192,108842,128,0,109674:0:0:0:0:
448,192,108842,128,0,109038:0:0:0:0:
320,192,109103,1,0,0:0:0:0:
320,192,109380,1,0,0:0:0:0:
448,192,109560,128,0,109821:0:0:0:0:
320,192,109864,128,0,109994:0:0:0:0:
64,192,109902,1,0,0:0:0:0:
192,192,109994,128,0,110125:0:0:0:0:
320,192,110125,128,0,110255:0:0:0:0:
64,192,110147,1,0,0:0:0:0:
192,192,110255,128,0,110386:0:0:0:0:
320,192,110386,128,0,110653:0:0:0:0:
448,192,110386,128,0,110603:0:0:0:0:
64,192,110653,1,0,0:0:0:0:
192,192,110703,1,0,0:0:0:0:
320,192,110734,1,0,0:0:0:0:
448,192,110804,1,0,0:0:0:0:
64,192,110885,1,0,0:0:0:0:
192,192,110970,1,0,0:0:0:0:
320,192,111019,1,0,0:0:0:0:
448,192,111084,1,0,0:0:0:0:
64,192,111165,128,0,111426:0:0:0:0:
320,192,111165,128,0,111948:0:0:0:0:
64,192,111557,128,0,111818:0:0:0:0:
64,192,111948,1,0,0:0:0:0:
192,192,112013,1,0,0:0:0:0:
320,192,112078,1,0,0:0:0:0:
448,192,112144,1,0,0:0:0:0:
192,192,112209,1,0,0:0:0:0:
320,192,112274,1,0,0:0:0:0:
448,192,112339,1,0,0:0:0:0:
64,192,112404,1,0,0:0:0:0:
192,192,112470,1,0,0:0:0:0:
320,192,112535,1,0,0:0:0:0:
64,192,112600,1,0,0:0:0:0:
192,192,112665,1,0,0:0:0:0:
448,192,112731,1,0,0:0:0:0:
64,192,112796,1,0,0:0:0:0:
320,192,112861,1,0,0:0:0:0:
448,192,112926,1,0,0:0:0:0:
64,192,112991,1,0,0:0:0:0:
192,192,113057,1,0,0:0:0:0:
448,192,113122,1,0,0:0:0:0:
64,192,113187,1,0,0:0:0:0:
320,192,113252,1,0,0:0:0:0:
192,192,113318,1,0,0:0:0:0:
448,192,113383,1,0,0:0:0:0:
192,192,113448,1,0,0:0:0:0:
448,192,113513,1,0,0:0:0:0:
320,192,113578,1,0,0:0:0:0:
64,192,113644,1,0,0:0:0:0:
192,192,113709,1,0,0:0:0:0:
320,192,113774,1,0,0:0:0:0:
448,192,113839,1,0,0:0:0:0:
192,192,113904,1,0,0:0:0:0:
64,192,113970,1,0,0:0:0:0:
320,192,114035,1,0,0:0:0:0:
448,192,114100,1,0,0:0:0:0:
192,192,114165,1,0,0:0:0:0:
64,192,114231,1,0,0:0:0:0:
448,192,114296,1,0,0:0:0:0:
192,192,114361,1,0,0:0:0:0:
320,192,114426,1,0,0:0:0:0:
448,192,114491,1,0,0:0:0:0:
192,192,114557,1,0,0:0:0:0:
320,192,114606,1,0,0:0:0:0:
64,192,114665,1,0,0:0:0:0:
192,192,114709,1,0,0:0:0:0:
320,192,114752,1,0,0:0:0:0:
448,192,114801,1,0,0:0:0:0:
192,192,114850,1,0,0:0:0:0:
320,192,114899,1,0,0:0:0:0:
64,192,114932,1,0,0:0:0:0:
192,192,114981,1,0,0:0:0:0:
448,192,115013,1,0,0:0:0:0:
64,192,115078,1,0,0:0:0:0:
320,192,115078,1,0,0:0:0:0:
192,192,115187,1,0,0:0:0:0:
192,192,115290,1,0,0:0:0:0:
448,192,115356,1,0,0:0:0:0:
320,192,115437,1,0,0:0:0:0:
320,192,115519,1,0,0:0:0:0:
64,192,115600,1,0,0:0:0:0:
192,192,115698,1,0,0:0:0:0:
192,192,115779,1,0,0:0:0:0:
448,192,115861,128,0,115926:0:0:0:0:
64,192,115948,1,0,0:0:0:0:
448,192,116024,1,0,0:0:0:0:
192,192,116040,1,0,0:0:0:0:
64,192,116122,1,0,0:0:0:0:
448,192,116220,1,0,0:0:0:0:
320,192,116296,1,0,0:0:0:0:
64,192,116383,1,0,0:0:0:0:
320,192,116491,1,0,0:0:0:0:
192,192,116557,1,0,0:0:0:0:
448,192,116627,128,0,116693:0:0:0:0:
448,192,116774,1,0,0:0:0:0:
320,192,116807,1,0,0:0:0:0:
192,192,116904,128,0,116970:0:0:0:0:
320,192,116991,1,0,0:0:0:0:
64,192,117057,1,0,0:0:0:0:
320,192,117144,1,0,0:0:0:0:
64,192,117165,128,0,117231:0:0:0:0:
192,192,117247,1,0,0:0:0:0:
320,192,117318,1,0,0:0:0:0:
448,192,117426,128,0,117491:0:0:0:0:
64,192,117540,1,0,0:0:0:0:
320,192,117622,1,0,0:0:0:0:
192,192,117687,128,0,117752:0:0:0:0:
448,192,117709,1,0,0:0:0:0:
64,192,117796,1,0,0:0:0:0:
320,192,117866,1,0,0:0:0:0:
64,192,117948,128,0,118013:0:0:0:0:
448,192,117981,1,0,0:0:0:0:
192,192,118127,1,0,0:0:0:0:
448,192,118209,1,0,0:0:0:0:
192,192,118388,1,0,0:0:0:0:
448,192,118470,128,0,118568:0:0:0:0:
192,192,118649,128,0,118731:0:0:0:0:
320,192,118763,128,0,118828:0:0:0:0:
64,192,118894,128,0,118975:0:0:0:0:
320,192,119024,128,0,119106:0:0:0:0:
192,192,119171,1,0,0:0:0:0:
320,192,119274,128,0,119361:0:0:0:0:
192,192,119404,128,0,119491:0:0:0:0:
320,192,119529,128,0,119595:0:0:0:0:
192,192,119644,128,0,119709:0:0:0:0:
448,192,119758,128,0,119839:0:0:0:0:
192,192,119883,128,0,119948:0:0:0:0:
448,192,120019,128,0,120133:0:0:0:0:
320,192,120182,128,0,120252:0:0:0:0:
448,192,120296,128,0,120394:0:0:0:0:
320,192,120443,128,0,120508:0:0:0:0:
64,192,120557,128,0,120644:0:0:0:0:
192,192,120687,128,0,120736:0:0:0:0:
64,192,120774,128,0,120904:0:0:0:0:
448,192,120964,1,0,0:0:0:0:
320,192,120981,128,0,121078:0:0:0:0:
192,192,121122,128,0,121187:0:0:0:0:
448,192,121225,1,0,0:0:0:0:
320,192,121274,1,0,0:0:0:0:
64,192,121323,1,0,0:0:0:0:
192,192,121383,128,0,121601:0:0:0:0:
320,192,121635,128,0,121705:0:0:0:0:
448,192,121763,128,0,121833:0:0:0:0:
64,192,121862,128,0,122075:0:0:0:0:
448,192,122075,1,0,0:0:0:0:
192,192,122108,128,0,122358:0:0:0:0:
320,192,122418,128,0,122499:0:0:0:0:
448,192,122532,128,0,122613:0:0:0:0:
64,192,122646,128,0,122860:0:0:0:0:
192,192,122930,128,0,123001:0:0:0:0:
320,192,123025,128,0,123072:0:0:0:0:
448,192,123095,128,0,123160:0:0:0:0:
192,192,123178,128,0,123260:0:0:0:0:
448,192,123266,128,0,123355:0:0:0:0:
320,192,123372,128,0,123426:0:0:0:0:
64,192,123426,1,0,0:0:0:0:
192,192,123491,128,0,123578:0:0:0:0:
320,192,123621,128,0,123670:0:0:0:0:
448,192,123708,128,0,123784:0:0:0:0:
320,192,123800,128,0,123866:0:0:0:0:
192,192,123882,128,0,123947:0:0:0:0:
320,192,123947,128,0,124029:0:0:0:0:
448,192,124029,128,0,124094:0:0:0:0:
320,192,124121,128,0,124175:0:0:0:0:
192,192,124208,128,0,124257:0:0:0:0:
320,192,124273,128,0,124322:0:0:0:0:
448,192,124339,128,0,124387:0:0:0:0:
64,192,124420,128,0,124453:0:0:0:0:
192,192,124469,1,0,0:0:0:0:
320,192,124469,1,0,0:0:0:0:
448,192,124469,1,0,0:0:0:0:
192,192,124616,1,0,0:0:0:0:
192,192,124730,1,0,0:0:0:0:
320,192,124860,1,0,0:0:0:0:
320,192,124969,1,0,0:0:0:0:
192,192,125056,1,0,0:0:0:0:
64,192,125121,1,0,0:0:0:0:
448,192,125203,1,0,0:0:0:0:
320,192,125273,1,0,0:0:0:0:
64,192,125339,1,0,0:0:0:0:
448,192,125404,1,0,0:0:0:0:
192,192,125491,1,0,0:0:0:0:
320,192,125594,1,0,0:0:0:0:
64,192,125686,1,0,0:0:0:0:
320,192,125741,1,0,0:0:0:0:
192,192,125806,1,0,0:0:0:0:
64,192,125860,1,0,0:0:0:0:
192,192,125947,1,0,0:0:0:0:
320,192,126002,1,0,0:0:0:0:
448,192,126034,1,0,0:0:0:0:
192,192,126116,1,0,0:0:0:0:
64,192,126121,1,0,0:0:0:0:
448,192,126197,1,0,0:0:0:0:
320,192,126208,1,0,0:0:0:0:
64,192,126246,1,0,0:0:0:0:
192,192,126295,1,0,0:0:0:0:
320,192,126382,1,0,0:0:0:0:
448,192,126469,1,0,0:0:0:0:
192,192,126507,1,0,0:0:0:0:
320,192,126556,1,0,0:0:0:0:
64,192,126605,1,0,0:0:0:0:
192,192,126643,1,0,0:0:0:0:
320,192,126730,1,0,0:0:0:0:
448,192,126817,1,0,0:0:0:0:
64,192,126904,1,0,0:0:0:0:
320,192,126991,1,0,0:0:0:0:
448,192,127078,1,0,0:0:0:0:
64,192,127165,1,0,0:0:0:0:
192,192,127252,1,0,0:0:0:0:
448,192,127339,1,0,0:0:0:0:
64,192,127425,1,0,0:0:0:0:
192,192,127512,1,0,0:0:0:0:
320,192,127599,1,0,0:0:0:0:
448,192,127599,1,0,0:0:0:0:
64,192,127730,1,0,0:0:0:0:
192,192,127860,1,0,0:0:0:0:
448,192,127860,1,0,0:0:0:0:
64,192,127991,1,0,0:0:0:0:
192,192,128034,1,0,0:0:0:0:
320,192,128121,1,0,0:0:0:0:
448,192,128121,1,0,0:0:0:0:
320,192,128252,1,0,0:0:0:0:
448,192,128295,1,0,0:0:0:0:
64,192,128382,1,0,0:0:0:0:
320,192,128382,1,0,0:0:0:0:
192,192,128469,1,0,0:0:0:0:
192,192,128556,1,0,0:0:0:0:
448,192,128556,1,0,0:0:0:0:
64,192,128643,1,0,0:0:0:0:
320,192,128643,1,0,0:0:0:0:
192,192,128730,1,0,0:0:0:0:
448,192,128730,1,0,0:0:0:0:
448,192,128817,1,0,0:0:0:0:
64,192,128904,1,0,0:0:0:0:
320,192,128904,1,0,0:0:0:0:
192,192,128991,1,0,0:0:0:0:
448,192,128991,1,0,0:0:0:0:
192,192,129078,1,0,0:0:0:0:
320,192,129165,1,0,0:0:0:0:
448,192,129165,128,0,129339:0:0:0:0:
64,192,129339,1,0,0:0:0:0:
192,192,129425,1,0,0:0:0:0:
448,192,129425,1,0,0:0:0:0:
320,192,129491,1,0,0:0:0:0:
192,192,129556,1,0,0:0:0:0:
448,192,129621,1,0,0:0:0:0:
64,192,129686,1,0,0:0:0:0:
320,192,129686,1,0,0:0:0:0:
192,192,129795,1,0,0:0:0:0:
448,192,129860,1,0,0:0:0:0:
64,192,129947,128,0,130208:0:0:0:0:
320,192,129947,1,0,0:0:0:0:
448,192,130208,1,0,0:0:0:0:
192,192,130339,1,0,0:0:0:0:
320,192,130382,1,0,0:0:0:0:
64,192,130469,1,0,0:0:0:0:
448,192,130469,1,0,0:0:0:0:
192,192,130556,1,0,0:0:0:0:
320,192,130643,1,0,0:0:0:0:
64,192,130730,128,0,130860:0:0:0:0:
192,192,130730,1,0,0:0:0:0:
320,192,130904,1,0,0:0:0:0:
192,192,130991,128,0,131078:0:0:0:0:
448,192,130991,1,0,0:0:0:0:
64,192,131165,1,0,0:0:0:0:
320,192,131165,1,0,0:0:0:0:
192,192,131252,1,0,0:0:0:0:
448,192,131252,1,0,0:0:0:0:
320,192,131382,1,0,0:0:0:0:
64,192,131512,128,0,131860:0:0:0:0:
192,192,131512,1,0,0:0:0:0:
192,192,131773,128,0,131860:0:0:0:0:
448,192,131860,1,0,0:0:0:0:
320,192,131947,1,0,0:0:0:0:
64,192,132034,1,0,0:0:0:0:
192,192,132034,1,0,0:0:0:0:
320,192,132121,1,0,0:0:0:0:
448,192,132208,1,0,0:0:0:0:
64,192,132295,1,0,0:0:0:0:
320,192,132295,1,0,0:0:0:0:
192,192,132382,1,0,0:0:0:0:
192,192,132469,1,0,0:0:0:0:
448,192,132512,1,0,0:0:0:0:
320,192,132556,1,0,0:0:0:0:
64,192,132643,1,0,0:0:0:0:
192,192,132730,1,0,0:0:0:0:
320,192,132817,128,0,132915:0:0:0:0:
448,192,132817,1,0,0:0:0:0:
64,192,132915,128,0,132996:0:0:0:0:
448,192,132996,128,0,133078:0:0:0:0:
192,192,133078,1,0,0:0:0:0:
192,192,133165,1,0,0:0:0:0:
320,192,133252,1,0,0:0:0:0:
448,192,133295,1,0,0:0:0:0:
64,192,133339,1,0,0:0:0:0:
320,192,133425,1,0,0:0:0:0:
192,192,133512,1,0,0:0:0:0:
320,192,133556,1,0,0:0:0:0:
64,192,133599,1,0,0:0:0:0:
448,192,133599,1,0,0:0:0:0:
192,192,133686,1,0,0:0:0:0:
320,192,133773,1,0,0:0:0:0:
192,192,133817,1,0,0:0:0:0:
64,192,133860,128,0,134991:0:0:0:0:
448,192,133860,128,0,133991:0:0:0:0:
448,192,134078,128,0,134252:0:0:0:0:
448,192,134339,128,0,134512:0:0:0:0:
448,192,134599,128,0,134773:0:0:0:0:
448,192,134860,128,0,134991:0:0:0:0:
320,192,134991,1,0,0:0:0:0:
192,192,135078,1,0,0:0:0:0:
320,192,135165,1,0,0:0:0:0:
64,192,135252,1,0,0:0:0:0:
192,192,135339,1,0,0:0:0:0:
320,192,135339,1,0,0:0:0:0:
64,192,135425,1,0,0:0:0:0:
448,192,135425,128,0,135686:0:0:0:0:
192,192,135686,1,0,0:0:0:0:
320,192,135773,1,0,0:0:0:0:
64,192,135860,1,0,0:0:0:0:
192,192,135947,1,0,0:0:0:0:
320,192,135947,1,0,0:0:0:0:
64,192,136034,1,0,0:0:0:0:
320,192,136121,1,0,0:0:0:0:
192,192,136208,1,0,0:0:0:0:
448,192,136208,128,0,136469:0:0:0:0:
64,192,136469,1,0,0:0:0:0:
192,192,136556,1,0,0:0:0:0:
320,192,136643,1,0,0:0:0:0:
64,192,136730,1,0,0:0:0:0:
192,192,136730,1,0,0:0:0:0:
448,192,136817,1,0,0:0:0:0:
320,192,136904,1,0,0:0:0:0:
64,192,136969,1,0,0:0:0:0:
192,192,136991,1,0,0:0:0:0:
448,192,137056,1,0,0:0:0:0:
192,192,137121,1,0,0:0:0:0:
320,192,137186,1,0,0:0:0:0:
448,192,137186,1,0,0:0:0:0:
64,192,137252,1,0,0:0:0:0:
192,192,137252,1,0,0:0:0:0:
192,192,137425,1,0,0:0:0:0:
448,192,137425,1,0,0:0:0:0:
320,192,137512,1,0,0:0:0:0:
448,192,137512,1,0,0:0:0:0:
320,192,137686,1,0,0:0:0:0:
448,192,137686,1,0,0:0:0:0:
64,192,137773,128,0,138556:0:0:0:0:
320,192,137795,1,0,0:0:0:0:
192,192,137947,1,0,0:0:0:0:
448,192,138034,1,0,0:0:0:0:
320,192,138121,1,0,0:0:0:0:
448,192,138208,1,0,0:0:0:0:
192,192,138295,1,0,0:0:0:0:
320,192,138382,1,0,0:0:0:0:
448,192,138469,1,0,0:0:0:0:
192,192,138556,1,0,0:0:0:0:
320,192,138556,1,0,0:0:0:0:
192,192,138730,1,0,0:0:0:0:
320,192,138730,1,0,0:0:0:0:
64,192,138817,1,0,0:0:0:0:
320,192,138817,1,0,0:0:0:0:
64,192,138991,1,0,0:0:0:0:
320,192,138991,1,0,0:0:0:0:
64,192,139078,1,0,0:0:0:0:
192,192,139078,1,0,0:0:0:0:
64,192,139252,1,0,0:0:0:0:
192,192,139252,1,0,0:0:0:0:
64,192,139339,1,0,0:0:0:0:
448,192,139339,1,0,0:0:0:0:
192,192,139512,1,0,0:0:0:0:
64,192,139600,1,0,0:0:0:0:
448,192,139600,1,0,0:0:0:0:
192,192,139727,1,0,0:0:0:0:
320,192,139770,1,0,0:0:0:0:
64,192,139855,1,0,0:0:0:0:
448,192,139855,128,0,139986:0:0:0:0:
192,192,140008,1,0,0:0:0:0:
320,192,140052,1,0,0:0:0:0:
64,192,140119,1,0,0:0:0:0:
448,192,140299,1,0,0:0:0:0:
64,192,140407,1,0,0:0:0:0:
448,192,140491,1,0,0:0:0:0:
320,192,140575,1,0,0:0:0:0:
64,192,140676,1,0,0:0:0:0:
448,192,140755,1,0,0:0:0:0:
320,192,140834,1,0,0:0:0:0:
64,192,140930,1,0,0:0:0:0:
448,192,141028,1,0,0:0:0:0:
320,192,141110,1,0,0:0:0:0:
64,192,141192,1,0,0:0:0:0:
320,192,141254,1,0,0:0:0:0:
192,192,141317,1,0,0:0:0:0:
448,192,141421,1,0,0:0:0:0:
64,192,141442,1,0,0:0:0:0:
320,192,141508,1,0,0:0:0:0:
192,192,141574,1,0,0:0:0:0:
448,192,141656,1,0,0:0:0:0:
64,192,141707,1,0,0:0:0:0:
320,192,141805,1,0,0:0:0:0:
192,192,141920,1,0,0:0:0:0:
64,192,141970,1,0,0:0:0:0:
448,192,142033,1,0,0:0:0:0:
320,192,142081,1,0,0:0:0:0:
192,192,142160,1,0,0:0:0:0:
64,192,142224,1,0,0:0:0:0:
448,192,142288,1,0,0:0:0:0:
320,192,142384,1,0,0:0:0:0:
192,192,142437,1,0,0:0:0:0:
64,192,142481,1,0,0:0:0:0:
320,192,142544,1,0,0:0:0:0:
192,192,142628,1,0,0:0:0:0:
448,192,142702,1,0,0:0:0:0:
64,192,142734,1,0,0:0:0:0:
320,192,142780,1,0,0:0:0:0:
192,192,142874,1,0,0:0:0:0:
448,192,142982,1,0,0:0:0:0:
64,192,143014,1,0,0:0:0:0:
320,192,143062,1,0,0:0:0:0:
192,192,143152,1,0,0:0:0:0:
64,192,143237,1,0,0:0:0:0:
192,192,143323,1,0,0:0:0:0:
448,192,143345,1,0,0:0:0:0:
64,192,143415,1,0,0:0:0:0:
320,192,143464,1,0,0:0:0:0:
192,192,143497,1,0,0:0:0:0:
64,192,143593,1,0,0:0:0:0:
448,192,143593,1,0,0:0:0:0:
320,192,143641,1,0,0:0:0:0:
192,192,143674,1,0,0:0:0:0:
64,192,143754,1,0,0:0:0:0:
448,192,143754,1,0,0:0:0:0:
320,192,143867,1,0,0:0:0:0:
192,192,143958,1,0,0:0:0:0:
64,192,144026,1,0,0:0:0:0:
320,192,144146,1,0,0:0:0:0:
192,192,144214,1,0,0:0:0:0:
64,192,144300,1,0,0:0:0:0:
320,192,144377,1,0,0:0:0:0:
192,192,144469,1,0,0:0:0:0:
64,192,144547,1,0,0:0:0:0:
320,192,144645,1,0,0:0:0:0:
192,192,144727,1,0,0:0:0:0:
64,192,144809,1,0,0:0:0:0:
192,192,144909,1,0,0:0:0:0:
448,192,144909,1,0,0:0:0:0:
64,192,144986,1,0,0:0:0:0:
320,192,144986,1,0,0:0:0:0:
192,192,145075,1,0,0:0:0:0:
448,192,145075,1,0,0:0:0:0:
320,192,145159,1,0,0:0:0:0:
192,192,145231,1,0,0:0:0:0:
448,192,145309,1,0,0:0:0:0:
64,192,145342,1,0,0:0:0:0:
320,192,145406,1,0,0:0:0:0:
192,192,145486,1,0,0:0:0:0:
448,192,145555,1,0,0:0:0:0:
64,192,145598,1,0,0:0:0:0:
320,192,145660,1,0,0:0:0:0:
192,192,145753,1,0,0:0:0:0:
64,192,145847,1,0,0:0:0:0:
448,192,145847,1,0,0:0:0:0:
320,192,145947,1,0,0:0:0:0:
192,192,146003,1,0,0:0:0:0:
448,192,146082,1,0,0:0:0:0:
64,192,146116,1,0,0:0:0:0:
320,192,146180,1,0,0:0:0:0:
192,192,146278,1,0,0:0:0:0:
64,192,146376,1,0,0:0:0:0:
320,192,146466,1,0,0:0:0:0:
192,192,146556,1,0,0:0:0:0:
64,192,146646,1,0,0:0:0:0:
448,192,146734,1,0,0:0:0:0:
64,192,146822,1,0,0:0:0:0:
448,192,146911,1,0,0:0:0:0:
320,192,146995,1,0,0:0:0:0:
192,192,147079,1,0,0:0:0:0:
64,192,147164,1,0,0:0:0:0:
448,192,147207,1,0,0:0:0:0:
320,192,147251,1,0,0:0:0:0:
192,192,147338,1,0,0:0:0:0:
64,192,147426,1,0,0:0:0:0:
320,192,147512,1,0,0:0:0:0:
448,192,147556,1,0,0:0:0:0:
192,192,147599,1,0,0:0:0:0:
64,192,147687,1,0,0:0:0:0:
320,192,147775,1,0,0:0:0:0:
192,192,147863,1,0,0:0:0:0:
448,192,147908,1,0,0:0:0:0:
64,192,147953,1,0,0:0:0:0:
320,192,148044,1,0,0:0:0:0:
64,192,148135,1,0,0:0:0:0:
320,192,148226,1,0,0:0:0:0:
192,192,148268,1,0,0:0:0:0:
448,192,148311,1,0,0:0:0:0:
320,192,148353,1,0,0:0:0:0:
64,192,148396,1,0,0:0:0:0:
192,192,148482,1,0,0:0:0:0:
448,192,148570,1,0,0:0:0:0:
320,192,148658,1,0,0:0:0:0:
64,192,148747,1,0,0:0:0:0:
192,192,148831,1,0,0:0:0:0:
320,192,148915,1,0,0:0:0:0:
448,192,148999,1,0,0:0:0:0:
64,192,149037,1,0,0:0:0:0:
192,192,149076,1,0,0:0:0:0:
320,192,149168,1,0,0:0:0:0:
448,192,149220,1,0,0:0:0:0:
64,192,149274,1,0,0:0:0:0:
192,192,149343,1,0,0:0:0:0:
320,192,149426,1,0,0:0:0:0:
64,192,149540,1,0,0:0:0:0:
448,192,149621,1,0,0:0:0:0:
320,192,149703,1,0,0:0:0:0:
64,192,149785,1,0,0:0:0:0:
192,192,149866,1,0,0:0:0:0:
64,192,149956,1,0,0:0:0:0:
192,192,150048,1,0,0:0:0:0:
448,192,150123,1,0,0:0:0:0:
320,192,150209,1,0,0:0:0:0:
64,192,150312,1,0,0:0:0:0:
448,192,150385,1,0,0:0:0:0:
320,192,150471,1,0,0:0:0:0:
64,192,150558,1,0,0:0:0:0:
448,192,150645,1,0,0:0:0:0:
320,192,150732,1,0,0:0:0:0:
64,192,150819,1,0,0:0:0:0:
192,192,150906,1,0,0:0:0:0:
64,192,150993,1,0,0:0:0:0:
192,192,151080,1,0,0:0:0:0:
320,192,151167,1,0,0:0:0:0:
448,192,151254,1,0,0:0:0:0:
192,192,151341,1,0,0:0:0:0:
320,192,151425,1,0,0:0:0:0:
448,192,151509,1,0,0:0:0:0:
192,192,151593,1,0,0:0:0:0:
320,192,151681,1,0,0:0:0:0:
448,192,151770,1,0,0:0:0:0:
192,192,151860,1,0,0:0:0:0:
320,192,151946,1,0,0:0:0:0:
448,192,152033,1,0,0:0:0:0:
64,192,152120,1,0,0:0:0:0:
320,192,152164,1,0,0:0:0:0:
192,192,152207,1,0,0:0:0:0:
448,192,152267,1,0,0:0:0:0:
320,192,152294,1,0,0:0:0:0:
64,192,152381,1,0,0:0:0:0:
448,192,152425,1,0,0:0:0:0:
320,192,152468,1,0,0:0:0:0:
192,192,152555,1,0,0:0:0:0:
64,192,152642,1,0,0:0:0:0:
320,192,152642,1,0,0:0:0:0:
448,192,152707,1,0,0:0:0:0:
64,192,152773,1,0,0:0:0:0:
448,192,152838,1,0,0:0:0:0:
320,192,152903,1,0,0:0:0:0:
64,192,152903,1,0,0:0:0:0:
448,192,152968,1,0,0:0:0:0:
64,192,153033,1,0,0:0:0:0:
448,192,153099,1,0,0:0:0:0:
64,192,153164,1,0,0:0:0:0:
320,192,153164,1,0,0:0:0:0:
448,192,153229,1,0,0:0:0:0:
64,192,153294,1,0,0:0:0:0:
448,192,153359,1,0,0:0:0:0:
320,192,153425,1,0,0:0:0:0:
192,192,153490,1,0,0:0:0:0:
64,192,153555,1,0,0:0:0:0:
192,192,153620,1,0,0:0:0:0:
320,192,153686,1,0,0:0:0:0:
192,192,153751,1,0,0:0:0:0:
64,192,153816,1,0,0:0:0:0:
192,192,153881,1,0,0:0:0:0:
320,192,153946,1,0,0:0:0:0:
192,192,154012,1,0,0:0:0:0:
64,192,154077,1,0,0:0:0:0:
320,192,154142,1,0,0:0:0:0:
448,192,154207,1,0,0:0:0:0:
192,192,154273,1,0,0:0:0:0:
320,192,154338,1,0,0:0:0:0:
192,192,154403,1,0,0:0:0:0:
448,192,154468,1,0,0:0:0:0:
192,192,154533,1,0,0:0:0:0:
320,192,154599,1,0,0:0:0:0:
192,192,154664,1,0,0:0:0:0:
448,192,154729,1,0,0:0:0:0:
192,192,154794,1,0,0:0:0:0:
320,192,154859,1,0,0:0:0:0:
64,192,154925,1,0,0:0:0:0:
448,192,154990,1,0,0:0:0:0:
192,192,155055,1,0,0:0:0:0:
320,192,155120,1,0,0:0:0:0:
448,192,155186,1,0,0:0:0:0:
320,192,155251,1,0,0:0:0:0:
64,192,155316,1,0,0:0:0:0:
192,192,155381,1,0,0:0:0:0:
320,192,155446,1,0,0:0:0:0:
192,192,155512,1,0,0:0:0:0:
448,192,155577,1,0,0:0:0:0:
320,192,155642,1,0,0:0:0:0:
64,192,155707,1,0,0:0:0:0:
320,192,155773,1,0,0:0:0:0:
448,192,155773,1,0,0:0:0:0:
192,192,155838,1,0,0:0:0:0:
64,192,155903,1,0,0:0:0:0:
448,192,155903,1,0,0:0:0:0:
320,192,155968,1,0,0:0:0:0:
64,192,156033,1,0,0:0:0:0:
192,192,156033,1,0,0:0:0:0:
448,192,156099,1,0,0:0:0:0:
192,192,156164,1,0,0:0:0:0:
320,192,156164,1,0,0:0:0:0:
64,192,156229,1,0,0:0:0:0:
320,192,156294,1,0,0:0:0:0:
448,192,156294,1,0,0:0:0:0:
192,192,156359,1,0,0:0:0:0:
64,192,156425,1,0,0:0:0:0:
448,192,156425,1,0,0:0:0:0:
320,192,156490,1,0,0:0:0:0:
64,192,156555,1,0,0:0:0:0:
192,192,156555,1,0,0:0:0:0:
448,192,156620,1,0,0:0:0:0:
192,192,156686,1,0,0:0:0:0:
320,192,156686,1,0,0:0:0:0:
64,192,156751,1,0,0:0:0:0:
320,192,156816,1,0,0:0:0:0:
448,192,156816,1,0,0:0:0:0:
192,192,156881,1,0,0:0:0:0:
64,192,156946,1,0,0:0:0:0:
448,192,156946,1,0,0:0:0:0:
320,192,157012,1,0,0:0:0:0:
64,192,157077,1,0,0:0:0:0:
192,192,157077,1,0,0:0:0:0:
448,192,157142,1,0,0:0:0:0:
192,192,157207,1,0,0:0:0:0:
320,192,157207,1,0,0:0:0:0:
64,192,157273,1,0,0:0:0:0:
320,192,157338,1,0,0:0:0:0:
448,192,157338,1,0,0:0:0:0:
192,192,157403,1,0,0:0:0:0:
64,192,157468,1,0,0:0:0:0:
448,192,157468,1,0,0:0:0:0:
320,192,157533,1,0,0:0:0:0:
64,192,157599,1,0,0:0:0:0:
192,192,157599,1,0,0:0:0:0:
448,192,157664,1,0,0:0:0:0:
192,192,157729,1,0,0:0:0:0:
320,192,157729,1,0,0:0:0:0:
64,192,157794,1,0,0:0:0:0:
320,192,157859,1,0,0:0:0:0:
448,192,157859,1,0,0:0:0:0:
192,192,157925,1,0,0:0:0:0:
64,192,157990,1,0,0:0:0:0:
448,192,157990,1,0,0:0:0:0:
320,192,158055,1,0,0:0:0:0:
64,192,158120,1,0,0:0:0:0:
192,192,158120,1,0,0:0:0:0:
448,192,158186,1,0,0:0:0:0:
192,192,158251,1,0,0:0:0:0:
320,192,158251,1,0,0:0:0:0:
64,192,158316,1,0,0:0:0:0:
320,192,158381,1,0,0:0:0:0:
448,192,158381,1,0,0:0:0:0:
192,192,158446,1,0,0:0:0:0:
64,192,158512,1,0,0:0:0:0:
448,192,158512,1,0,0:0:0:0:
320,192,158577,1,0,0:0:0:0:
64,192,158642,1,0,0:0:0:0:
192,192,158642,1,0,0:0:0:0:
448,192,158707,1,0,0:0:0:0:
192,192,158773,1,0,0:0:0:0:
320,192,158838,1,0,0:0:0:0:
64,192,158903,1,0,0:0:0:0:
448,192,158903,1,0,0:0:0:0:
192,192,158968,1,0,0:0:0:0:
320,192,159033,1,0,0:0:0:0:
448,192,159033,1,0,0:0:0:0:
64,192,159099,1,0,0:0:0:0:
192,192,159164,1,0,0:0:0:0:
320,192,159164,1,0,0:0:0:0:
448,192,159229,1,0,0:0:0:0:
64,192,159294,1,0,0:0:0:0:
192,192,159294,1,0,0:0:0:0:
320,192,159359,1,0,0:0:0:0:
64,192,159425,1,0,0:0:0:0:
448,192,159425,1,0,0:0:0:0:
192,192,159490,1,0,0:0:0:0:
320,192,159555,1,0,0:0:0:0:
448,192,159555,1,0,0:0:0:0:
64,192,159620,1,0,0:0:0:0:
192,192,159686,1,0,0:0:0:0:
320,192,159686,1,0,0:0:0:0:
448,192,159751,1,0,0:0:0:0:
64,192,159816,1,0,0:0:0:0:
192,192,159816,1,0,0:0:0:0:
320,192,159881,1,0,0:0:0:0:
64,192,159946,1,0,0:0:0:0:
448,192,159946,1,0,0:0:0:0:
192,192,160012,1,0,0:0:0:0:
320,192,160077,1,0,0:0:0:0:
448,192,160077,1,0,0:0:0:0:
64,192,160142,1,0,0:0:0:0:
192,192,160207,1,0,0:0:0:0:
320,192,160207,1,0,0:0:0:0:
448,192,160273,1,0,0:0:0:0:
64,192,160338,1,0,0:0:0:0:
192,192,160338,1,0,0:0:0:0:
320,192,160403,1,0,0:0:0:0:
64,192,160468,1,0,0:0:0:0:
448,192,160468,1,0,0:0:0:0:
192,192,160533,1,0,0:0:0:0:
320,192,160599,1,0,0:0:0:0:
448,192,160599,1,0,0:0:0:0:
64,192,160664,1,0,0:0:0:0:
192,192,160729,1,0,0:0:0:0:
320,192,160729,1,0,0:0:0:0:
448,192,160794,1,0,0:0:0:0:
64,192,160859,1,0,0:0:0:0:
192,192,160859,1,0,0:0:0:0:
320,192,160925,1,0,0:0:0:0:
64,192,160990,1,0,0:0:0:0:
448,192,160990,1,0,0:0:0:0:
192,192,161055,1,0,0:0:0:0:
320,192,161120,1,0,0:0:0:0:
448,192,161120,1,0,0:0:0:0:
64,192,161186,1,0,0:0:0:0:
192,192,161251,1,0,0:0:0:0:
320,192,161251,1,0,0:0:0:0:
448,192,161316,1,0,0:0:0:0:
64,192,161381,1,0,0:0:0:0:
192,192,161381,1,0,0:0:0:0:
320,192,161446,1,0,0:0:0:0:
64,192,161512,1,0,0:0:0:0:
448,192,161577,1,0,0:0:0:0:
192,192,161642,1,0,0:0:0:0:
320,192,161707,1,0,0:0:0:0:
64,192,161773,1,0,0:0:0:0:
448,192,161773,1,0,0:0:0:0:
320,192,161838,1,0,0:0:0:0:
64,192,161903,1,0,0:0:0:0:
448,192,161968,1,0,0:0:0:0:
192,192,162033,1,0,0:0:0:0:
320,192,162033,1,0,0:0:0:0:
64,192,162099,1,0,0:0:0:0:
192,192,162164,1,0,0:0:0:0:
448,192,162164,1,0,0:0:0:0:
320,192,162229,1,0,0:0:0:0:
64,192,162294,1,0,0:0:0:0:
448,192,162294,1,0,0:0:0:0:
192,192,162359,1,0,0:0:0:0:
64,192,162425,1,0,0:0:0:0:
320,192,162425,1,0,0:0:0:0:
448,192,162490,1,0,0:0:0:0:
192,192,162555,1,0,0:0:0:0:
320,192,162555,1,0,0:0:0:0:
64,192,162620,1,0,0:0:0:0:
192,192,162686,1,0,0:0:0:0:
448,192,162686,1,0,0:0:0:0:
320,192,162751,1,0,0:0:0:0:
64,192,162816,1,0,0:0:0:0:
448,192,162816,1,0,0:0:0:0:
192,192,162881,1,0,0:0:0:0:
64,192,162946,1,0,0:0:0:0:
320,192,162946,1,0,0:0:0:0:
448,192,163012,1,0,0:0:0:0:
192,192,163077,1,0,0:0:0:0:
320,192,163077,1,0,0:0:0:0:
64,192,163142,1,0,0:0:0:0:
192,192,163207,1,0,0:0:0:0:
448,192,163207,1,0,0:0:0:0:
320,192,163273,1,0,0:0:0:0:
64,192,163338,1,0,0:0:0:0:
448,192,163338,1,0,0:0:0:0:
192,192,163403,1,0,0:0:0:0:
64,192,163468,1,0,0:0:0:0:
320,192,163468,1,0,0:0:0:0:
448,192,163533,1,0,0:0:0:0:
192,192,163599,1,0,0:0:0:0:
320,192,163664,1,0,0:0:0:0:
192,192,163729,1,0,0:0:0:0:
320,192,163794,1,0,0:0:0:0:
192,192,163859,1,0,0:0:0:0:
320,192,163925,1,0,0:0:0:0:
192,192,163990,1,0,0:0:0:0:
320,192,164055,1,0,0:0:0:0:
192,192,164120,1,0,0:0:0:0:
320,192,164186,1,0,0:0:0:0:
192,192,164251,1,0,0:0:0:0:
320,192,164316,1,0,0:0:0:0:
192,192,164381,1,0,0:0:0:0:
320,192,164446,1,0,0:0:0:0:
192,192,164512,1,0,0:0:0:0:
320,192,164577,1,0,0:0:0:0:
192,192,164642,1,0,0:0:0:0:
320,192,164707,1,0,0:0:0:0:
192,192,164773,1,0,0:0:0:0:
320,192,164838,1,0,0:0:0:0:
192,192,164903,1,0,0:0:0:0:
320,192,164968,1,0,0:0:0:0:
192,192,165033,1,0,0:0:0:0:
320,192,165099,1,0,0:0:0:0:
64,192,165164,1,0,0:0:0:0:
448,192,165164,1,0,0:0:0:0:
192,192,165229,1,0,0:0:0:0:
320,192,165294,1,0,0:0:0:0:
64,192,165359,1,0,0:0:0:0:
448,192,165425,1,0,0:0:0:0:
192,192,165490,1,0,0:0:0:0:
64,192,165555,1,0,0:0:0:0:
320,192,165620,1,0,0:0:0:0:
192,192,165686,1,0,0:0:0:0:
448,192,165751,1,0,0:0:0:0:
64,192,165816,1,0,0:0:0:0:
192,192,165881,1,0,0:0:0:0:
320,192,165946,1,0,0:0:0:0:
448,192,165946,1,0,0:0:0:0:
64,192,166012,1,0,0:0:0:0:
320,192,166077,1,0,0:0:0:0:
448,192,166077,1,0,0:0:0:0:
64,192,166142,1,0,0:0:0:0:
192,192,166207,1,0,0:0:0:0:
448,192,166207,1,0,0:0:0:0:
64,192,166273,1,0,0:0:0:0:
192,192,166338,1,0,0:0:0:0:
448,192,166338,1,0,0:0:0:0:
320,192,166403,1,0,0:0:0:0:
64,192,166468,1,0,0:0:0:0:
448,192,166468,1,0,0:0:0:0:
320,192,166533,1,0,0:0:0:0:
64,192,166599,1,0,0:0:0:0:
448,192,166599,1,0,0:0:0:0:
192,192,166664,1,0,0:0:0:0:
64,192,166729,1,0,0:0:0:0:
320,192,166729,1,0,0:0:0:0:
192,192,166794,1,0,0:0:0:0:
64,192,166859,1,0,0:0:0:0:
320,192,166859,1,0,0:0:0:0:
192,192,166925,1,0,0:0:0:0:
320,192,166990,1,0,0:0:0:0:
448,192,166990,1,0,0:0:0:0:
192,192,167055,1,0,0:0:0:0:
320,192,167120,1,0,0:0:0:0:
448,192,167120,1,0,0:0:0:0:
64,192,167186,1,0,0:0:0:0:
192,192,167251,1,0,0:0:0:0:
320,192,167251,1,0,0:0:0:0:
64,192,167316,1,0,0:0:0:0:
192,192,167381,1,0,0:0:0:0:
320,192,167381,1,0,0:0:0:0:
448,192,167446,1,0,0:0:0:0:
64,192,167512,1,0,0:0:0:0:
192,192,167512,1,0,0:0:0:0:
448,192,167577,1,0,0:0:0:0:
64,192,167642,1,0,0:0:0:0:
192,192,167642,1,0,0:0:0:0:
320,192,167707,1,0,0:0:0:0:
192,192,167773,1,0,0:0:0:0:
448,192,167773,1,0,0:0:0:0:
320,192,167838,1,0,0:0:0:0:
192,192,167903,1,0,0:0:0:0:
448,192,167903,1,0,0:0:0:0:
64,192,167968,1,0,0:0:0:0:
192,192,168033,1,0,0:0:0:0:
320,192,168033,1,0,0:0:0:0:
448,192,168099,1,0,0:0:0:0:
192,192,168164,1,0,0:0:0:0:
320,192,168164,1,0,0:0:0:0:
448,192,168229,1,0,0:0:0:0:
64,192,168294,1,0,0:0:0:0:
192,192,168294,1,0,0:0:0:0:
320,192,168294,1,0,0:0:0:0:
448,192,168359,1,0,0:0:0:0:
64,192,168425,1,0,0:0:0:0:
320,192,168425,1,0,0:0:0:0:
192,192,168490,1,0,0:0:0:0:
64,192,168555,1,0,0:0:0:0:
320,192,168555,1,0,0:0:0:0:
192,192,168620,1,0,0:0:0:0:
64,192,168686,1,0,0:0:0:0:
448,192,168686,1,0,0:0:0:0:
320,192,168751,1,0,0:0:0:0:
64,192,168816,1,0,0:0:0:0:
448,192,168816,1,0,0:0:0:0:
320,192,168881,1,0,0:0:0:0:
64,192,168946,1,0,0:0:0:0:
192,192,168946,1,0,0:0:0:0:
320,192,169012,1,0,0:0:0:0:
192,192,169077,1,0,0:0:0:0:
448,192,169077,1,0,0:0:0:0:
320,192,169142,1,0,0:0:0:0:
192,192,169207,1,0,0:0:0:0:
448,192,169207,1,0,0:0:0:0:
64,192,169273,1,0,0:0:0:0:
320,192,169338,1,0,0:0:0:0:
448,192,169338,1,0,0:0:0:0:
64,192,169403,1,0,0:0:0:0:
320,192,169468,1,0,0:0:0:0:
448,192,169468,1,0,0:0:0:0:
192,192,169533,1,0,0:0:0:0:
64,192,169599,1,0,0:0:0:0:
448,192,169599,1,0,0:0:0:0:
192,192,169664,1,0,0:0:0:0:
64,192,169729,1,0,0:0:0:0:
448,192,169729,1,0,0:0:0:0:
320,192,169794,1,0,0:0:0:0:
64,192,169859,1,0,0:0:0:0:
192,192,169859,1,0,0:0:0:0:
448,192,169925,1,0,0:0:0:0:
64,192,169990,1,0,0:0:0:0:
192,192,169990,1,0,0:0:0:0:
448,192,170055,1,0,0:0:0:0:
192,192,170120,1,0,0:0:0:0:
320,192,170120,1,0,0:0:0:0:
64,192,170186,1,0,0:0:0:0:
192,192,170251,1,0,0:0:0:0:
320,192,170251,1,0,0:0:0:0:
64,192,170316,1,0,0:0:0:0:
192,192,170381,1,0,0:0:0:0:
448,192,170381,1,0,0:0:0:0:
320,192,170446,1,0,0:0:0:0:
192,192,170512,1,0,0:0:0:0:
448,192,170512,1,0,0:0:0:0:
320,192,170577,1,0,0:0:0:0:
64,192,170642,1,0,0:0:0:0:
448,192,170642,1,0,0:0:0:0:
192,192,170707,1,0,0:0:0:0:
64,192,170773,1,0,0:0:0:0:
448,192,170773,1,0,0:0:0:0:
192,192,170838,1,0,0:0:0:0:
320,192,170903,1,0,0:0:0:0:
448,192,170903,1,0,0:0:0:0:
64,192,170968,1,0,0:0:0:0:
320,192,171033,1,0,0:0:0:0:
448,192,171033,1,0,0:0:0:0:
64,192,171099,1,0,0:0:0:0:
192,192,171164,1,0,0:0:0:0:
448,192,171164,1,0,0:0:0:0:
320,192,171229,1,0,0:0:0:0:
192,192,171294,1,0,0:0:0:0:
448,192,171294,1,0,0:0:0:0:
320,192,171359,1,0,0:0:0:0:
64,192,171425,1,0,0:0:0:0:
192,192,171490,1,0,0:0:0:0:
320,192,171555,1,0,0:0:0:0:
64,192,171588,1,0,0:0:0:0:
192,192,171620,1,0,0:0:0:0:
320,192,171686,1,0,0:0:0:0:
448,192,171751,1,0,0:0:0:0:
64,192,171794,1,0,0:0:0:0:
192,192,171816,1,0,0:0:0:0:
320,192,171881,1,0,0:0:0:0:
448,192,171946,1,0,0:0:0:0:
192,192,172012,1,0,0:0:0:0:
64,192,172055,1,0,0:0:0:0:
320,192,172077,1,0,0:0:0:0:
448,192,172142,1,0,0:0:0:0:
192,192,172207,1,0,0:0:0:0:
320,192,172273,1,0,0:0:0:0:
64,192,172316,1,0,0:0:0:0:
448,192,172338,1,0,0:0:0:0:
192,192,172403,1,0,0:0:0:0:
320,192,172468,1,0,0:0:0:0:
448,192,172533,1,0,0:0:0:0:
64,192,172577,1,0,0:0:0:0:
192,192,172599,1,0,0:0:0:0:
320,192,172664,1,0,0:0:0:0:
448,192,172729,1,0,0:0:0:0:
192,192,172794,1,0,0:0:0:0:
64,192,172838,1,0,0:0:0:0:
320,192,172859,1,0,0:0:0:0:
448,192,172925,1,0,0:0:0:0:
192,192,172990,1,0,0:0:0:0:
320,192,173055,1,0,0:0:0:0:
64,192,173099,1,0,0:0:0:0:
448,192,173120,1,0,0:0:0:0:
192,192,173186,1,0,0:0:0:0:
320,192,173251,1,0,0:0:0:0:
448,192,173316,1,0,0:0:0:0:
64,192,173349,1,0,0:0:0:0:
192,192,173381,1,0,0:0:0:0:
320,192,173446,1,0,0:0:0:0:
448,192,173512,1,0,0:0:0:0:
192,192,173577,1,0,0:0:0:0:
64,192,173620,1,0,0:0:0:0:
320,192,173642,1,0,0:0:0:0:
448,192,173707,1,0,0:0:0:0:
192,192,173773,1,0,0:0:0:0:
320,192,173838,1,0,0:0:0:0:
64,192,173881,1,0,0:0:0:0:
448,192,173903,1,0,0:0:0:0:
192,192,173968,1,0,0:0:0:0:
320,192,174033,1,0,0:0:0:0:
448,192,174099,1,0,0:0:0:0:
64,192,174142,1,0,0:0:0:0:
192,192,174164,1,0,0:0:0:0:
320,192,174229,1,0,0:0:0:0:
448,192,174294,1,0,0:0:0:0:
64,192,174359,1,0,0:0:0:0:
192,192,174403,1,0,0:0:0:0:
320,192,174425,1,0,0:0:0:0:
448,192,174490,1,0,0:0:0:0:
64,192,174555,1,0,0:0:0:0:
192,192,174555,1,0,0:0:0:0:
320,192,174555,1,0,0:0:0:0:
64,192,176642,1,0,0:0:0:0:
320,192,176670,1,0,0:0:0:0:
192,192,176873,1,0,0:0:0:0:
448,192,176904,1,0,0:0:0:0:
64,192,177641,128,0,177706:0:0:0:0:
192,192,177787,1,0,0:0:0:0:
64,192,177901,128,0,177967:0:0:0:0:
448,192,177901,1,0,0:0:0:0:
192,192,178048,1,0,0:0:0:0:
64,192,178162,128,0,178227:0:0:0:0:
192,192,178309,1,0,0:0:0:0:
64,192,178424,128,0,178489:0:0:0:0:
448,192,178424,1,0,0:0:0:0:
64,192,178554,128,0,178619:0:0:0:0:
192,192,178700,1,0,0:0:0:0:
64,192,178814,128,0,178880:0:0:0:0:
320,192,178961,128,0,179043:0:0:0:0:
448,192,178961,1,0,0:0:0:0:
64,192,179075,128,0,179140:0:0:0:0:
192,192,179222,1,0,0:0:0:0:
64,192,179336,128,0,179401:0:0:0:0:
320,192,179483,128,0,179564:0:0:0:0:
448,192,179483,1,0,0:0:0:0:
64,192,179597,128,0,179793:0:0:0:0:
64,192,179858,128,0,179923:0:0:0:0:
192,192,179989,128,0,180054:0:0:0:0:
448,192,179989,1,0,0:0:0:0:
320,192,180135,1,0,0:0:0:0:
192,192,180249,128,0,180315:0:0:0:0:
320,192,180396,1,0,0:0:0:0:
192,192,180510,128,0,180575:0:0:0:0:
448,192,180510,1,0,0:0:0:0:
320,192,180657,1,0,0:0:0:0:
192,192,180771,128,0,180803:0:0:0:0:
64,192,180902,128,0,180967:0:0:0:0:
320,192,180902,1,0,0:0:0:0:
320,192,181048,128,0,181130:0:0:0:0:
448,192,181048,1,0,0:0:0:0:
64,192,181162,128,0,181228:0:0:0:0:
192,192,181309,1,0,0:0:0:0:
64,192,181423,128,0,181488:0:0:0:0:
320,192,181570,128,0,181651:0:0:0:0:
448,192,181570,1,0,0:0:0:0:
64,192,181684,128,0,181749:0:0:0:0:
64,192,181815,128,0,181880:0:0:0:0:
192,192,181961,1,0,0:0:0:0:
64,192,182075,128,0,182157:0:0:0:0:
448,192,182075,1,0,0:0:0:0:
192,192,182222,1,0,0:0:0:0:
64,192,182336,128,0,182401:0:0:0:0:
192,192,182483,1,0,0:0:0:0:
64,192,182598,128,0,182663:0:0:0:0:
448,192,182598,1,0,0:0:0:0:
64,192,182728,128,0,182793:0:0:0:0:
192,192,182874,1,0,0:0:0:0:
64,192,182988,128,0,183054:0:0:0:0:
320,192,183135,128,0,183217:0:0:0:0:
448,192,183135,1,0,0:0:0:0:
64,192,183249,128,0,183331:0:0:0:0:
192,192,183396,1,0,0:0:0:0:
64,192,183510,128,0,183592:0:0:0:0:
320,192,183657,128,0,183738:0:0:0:0:
448,192,183657,1,0,0:0:0:0:
64,192,183771,128,0,183967:0:0:0:0:
64,192,184032,128,0,184097:0:0:0:0:
448,192,184163,128,0,184228:0:0:0:0:
192,192,184249,1,0,0:0:0:0:
320,192,184336,1,0,0:0:0:0:
448,192,184423,128,0,184489:0:0:0:0:
192,192,184510,1,0,0:0:0:0:
320,192,184597,1,0,0:0:0:0:
448,192,184684,128,0,184749:0:0:0:0:
192,192,184771,1,0,0:0:0:0:
320,192,184858,1,0,0:0:0:0:
64,192,184945,128,0,185010:0:0:0:0:
448,192,185076,1,0,0:0:0:0:
192,192,185141,1,0,0:0:0:0:
320,192,185206,1,0,0:0:0:0:
64,192,185271,1,0,0:0:0:0:
448,192,185336,1,0,0:0:0:0:
192,192,185402,1,0,0:0:0:0:
320,192,185467,1,0,0:0:0:0:
64,192,185532,1,0,0:0:0:0:
448,192,185597,1,0,0:0:0:0:
192,192,185662,1,0,0:0:0:0:
320,192,185728,1,0,0:0:0:0:
64,192,185793,1,0,0:0:0:0:
448,192,185858,1,0,0:0:0:0:
192,192,185923,1,0,0:0:0:0:
448,192,185989,1,0,0:0:0:0:
64,192,186054,1,0,0:0:0:0:
320,192,186119,1,0,0:0:0:0:
192,192,186184,1,0,0:0:0:0:
448,192,186249,1,0,0:0:0:0:
64,192,186315,1,0,0:0:0:0:
320,192,186380,1,0,0:0:0:0:
192,192,186445,1,0,0:0:0:0:
448,192,186510,1,0,0:0:0:0:
64,192,186575,1,0,0:0:0:0:
320,192,186641,1,0,0:0:0:0:
192,192,186706,1,0,0:0:0:0:
448,192,186771,1,0,0:0:0:0:
64,192,186836,1,0,0:0:0:0:
320,192,186902,1,0,0:0:0:0:
192,192,186967,1,0,0:0:0:0:
448,192,187032,128,0,187358:0:0:0:0:
64,192,187424,1,0,0:0:0:0:
192,192,187424,1,0,0:0:0:0:
320,192,187489,1,0,0:0:0:0:
448,192,187554,1,0,0:0:0:0:
64,192,187619,1,0,0:0:0:0:
192,192,187684,1,0,0:0:0:0:
320,192,187684,1,0,0:0:0:0:
448,192,187750,1,0,0:0:0:0:
64,192,187815,1,0,0:0:0:0:
192,192,187880,1,0,0:0:0:0:
320,192,187945,1,0,0:0:0:0:
448,192,187945,1,0,0:0:0:0:
64,192,188010,1,0,0:0:0:0:
192,192,188076,1,0,0:0:0:0:
320,192,188141,1,0,0:0:0:0:
64,192,188207,1,0,0:0:0:0:
448,192,188207,1,0,0:0:0:0:
192,192,188272,1,0,0:0:0:0:
64,192,188338,1,0,0:0:0:0:
448,192,188338,1,0,0:0:0:0:
192,192,188403,1,0,0:0:0:0:
320,192,188468,1,0,0:0:0:0:
448,192,188533,1,0,0:0:0:0:
64,192,188598,1,0,0:0:0:0:
192,192,188598,128,0,188664:0:0:0:0:
320,192,188664,1,0,0:0:0:0:
448,192,188729,1,0,0:0:0:0:
64,192,188794,1,0,0:0:0:0:
192,192,188859,1,0,0:0:0:0:
320,192,188859,1,0,0:0:0:0:
448,192,188924,1,0,0:0:0:0:
64,192,188990,128,0,189055:0:0:0:0:
320,192,189055,1,0,0:0:0:0:
192,192,189120,1,0,0:0:0:0:
448,192,189120,1,0,0:0:0:0:
320,192,189185,1,0,0:0:0:0:
64,192,189251,1,0,0:0:0:0:
192,192,189316,1,0,0:0:0:0:
320,192,189381,1,0,0:0:0:0:
448,192,189381,1,0,0:0:0:0:
64,192,189446,1,0,0:0:0:0:
192,192,189511,1,0,0:0:0:0:
320,192,189577,1,0,0:0:0:0:
64,192,189642,1,0,0:0:0:0:
448,192,189642,1,0,0:0:0:0:
192,192,189707,1,0,0:0:0:0:
64,192,189772,1,0,0:0:0:0:
448,192,189772,1,0,0:0:0:0:
320,192,189837,1,0,0:0:0:0:
192,192,189902,1,0,0:0:0:0:
64,192,189967,1,0,0:0:0:0:
320,192,190032,128,0,190098:0:0:0:0:
448,192,190032,1,0,0:0:0:0:
192,192,190098,1,0,0:0:0:0:
320,192,190163,128,0,190228:0:0:0:0:
64,192,190228,1,0,0:0:0:0:
192,192,190293,128,0,190358:0:0:0:0:
448,192,190293,1,0,0:0:0:0:
320,192,190358,1,0,0:0:0:0:
192,192,190424,128,0,190489:0:0:0:0:
448,192,190489,1,0,0:0:0:0:
64,192,190555,1,0,0:0:0:0:
320,192,190555,1,0,0:0:0:0:
192,192,190620,1,0,0:0:0:0:
64,192,190685,1,0,0:0:0:0:
320,192,190685,1,0,0:0:0:0:
448,192,190750,1,0,0:0:0:0:
64,192,190815,1,0,0:0:0:0:
192,192,190880,1,0,0:0:0:0:
320,192,190945,1,0,0:0:0:0:
448,192,190945,1,0,0:0:0:0:
64,192,191011,1,0,0:0:0:0:
320,192,191076,1,0,0:0:0:0:
448,192,191141,1,0,0:0:0:0:
64,192,191206,1,0,0:0:0:0:
192,192,191206,1,0,0:0:0:0:
320,192,191271,1,0,0:0:0:0:
448,192,191358,128,0,191402:0:0:0:0:
64,192,191402,1,0,0:0:0:0:
192,192,191468,1,0,0:0:0:0:
320,192,191468,1,0,0:0:0:0:
448,192,191533,1,0,0:0:0:0:
192,192,191598,1,0,0:0:0:0:
320,192,191598,1,0,0:0:0:0:
64,192,191663,1,0,0:0:0:0:
448,192,191728,1,0,0:0:0:0:
320,192,191793,1,0,0:0:0:0:
64,192,191858,1,0,0:0:0:0:
192,192,191858,128,0,191924:0:0:0:0:
448,192,191924,1,0,0:0:0:0:
320,192,191989,1,0,0:0:0:0:
192,192,192054,1,0,0:0:0:0:
64,192,192119,1,0,0:0:0:0:
448,192,192119,1,0,0:0:0:0:
192,192,192184,1,0,0:0:0:0:
448,192,192217,1,0,0:0:0:0:
320,192,192250,1,0,0:0:0:0:
64,192,192315,1,0,0:0:0:0:
192,192,192381,1,0,0:0:0:0:
448,192,192381,1,0,0:0:0:0:
320,192,192446,1,0,0:0:0:0:
64,192,192511,1,0,0:0:0:0:
192,192,192511,1,0,0:0:0:0:
448,192,192576,1,0,0:0:0:0:
320,192,192641,1,0,0:0:0:0:
192,192,192706,1,0,0:0:0:0:
64,192,192771,128,0,192837:0:0:0:0:
448,192,192771,1,0,0:0:0:0:
320,192,192837,1,0,0:0:0:0:
192,192,192902,1,0,0:0:0:0:
64,192,192967,1,0,0:0:0:0:
320,192,193032,1,0,0:0:0:0:
448,192,193032,1,0,0:0:0:0:
192,192,193097,1,0,0:0:0:0:
64,192,193163,1,0,0:0:0:0:
448,192,193228,1,0,0:0:0:0:
192,192,193293,1,0,0:0:0:0:
320,192,193293,1,0,0:0:0:0:
64,192,193358,1,0,0:0:0:0:
448,192,193424,1,0,0:0:0:0:
320,192,193489,1,0,0:0:0:0:
64,192,193554,1,0,0:0:0:0:
192,192,193554,1,0,0:0:0:0:
448,192,193619,1,0,0:0:0:0:
320,192,193684,1,0,0:0:0:0:
192,192,193750,1,0,0:0:0:0:
64,192,193816,1,0,0:0:0:0:
448,192,193816,1,0,0:0:0:0:
320,192,193881,1,0,0:0:0:0:
64,192,193946,1,0,0:0:0:0:
192,192,193967,1,0,0:0:0:0:
320,192,194011,1,0,0:0:0:0:
448,192,194076,1,0,0:0:0:0:
64,192,194141,1,0,0:0:0:0:
192,192,194206,128,0,194272:0:0:0:0:
320,192,194228,1,0,0:0:0:0:
448,192,194272,1,0,0:0:0:0:
192,192,194337,1,0,0:0:0:0:
64,192,194402,1,0,0:0:0:0:
320,192,194467,1,0,0:0:0:0:
192,192,194489,1,0,0:0:0:0:
448,192,194532,1,0,0:0:0:0:
64,192,194598,1,0,0:0:0:0:
192,192,194663,1,0,0:0:0:0:
448,192,194729,1,0,0:0:0:0:
64,192,194739,1,0,0:0:0:0:
320,192,194794,1,0,0:0:0:0:
448,192,194859,1,0,0:0:0:0:
192,192,194880,1,0,0:0:0:0:
320,192,194924,1,0,0:0:0:0:
64,192,194989,1,0,0:0:0:0:
192,192,195054,1,0,0:0:0:0:
448,192,195119,1,0,0:0:0:0:
320,192,195141,1,0,0:0:0:0:
64,192,195185,1,0,0:0:0:0:
192,192,195250,1,0,0:0:0:0:
448,192,195250,1,0,0:0:0:0:
320,192,195315,1,0,0:0:0:0:
64,192,195380,1,0,0:0:0:0:
448,192,195402,1,0,0:0:0:0:
192,192,195445,1,0,0:0:0:0:
64,192,195511,1,0,0:0:0:0:
320,192,195511,1,0,0:0:0:0:
192,192,195576,1,0,0:0:0:0:
448,192,195642,1,0,0:0:0:0:
320,192,195652,1,0,0:0:0:0:
64,192,195707,1,0,0:0:0:0:
192,192,195772,1,0,0:0:0:0:
448,192,195772,128,0,195837:0:0:0:0:
448,192,196032,128,0,196098:0:0:0:0:
448,192,196293,128,0,196358:0:0:0:0:
448,192,196555,128,0,196587:0:0:0:0:
448,192,196685,128,0,196750:0:0:0:0:
448,192,196945,128,0,197011:0:0:0:0:
448,192,197206,128,0,197271:0:0:0:0:
448,192,197467,128,0,197532:0:0:0:0:
64,192,197728,128,0,197924:0:0:0:0:
192,192,197728,128,0,197924:0:0:0:0:
64,192,197989,1,0,0:0:0:0:
448,192,197989,128,0,198054:0:0:0:0:
64,192,198119,1,0,0:0:0:0:
320,192,198119,128,0,198184:0:0:0:0:
192,192,198250,1,0,0:0:0:0:
64,192,198315,1,0,0:0:0:0:
320,192,198380,1,0,0:0:0:0:
448,192,198380,128,0,198445:0:0:0:0:
192,192,198445,1,0,0:0:0:0:
64,192,198511,1,0,0:0:0:0:
320,192,198576,1,0,0:0:0:0:
192,192,198641,1,0,0:0:0:0:
448,192,198641,128,0,198706:0:0:0:0:
320,192,198706,1,0,0:0:0:0:
64,192,198771,1,0,0:0:0:0:
192,192,198837,1,0,0:0:0:0:
320,192,198902,1,0,0:0:0:0:
448,192,198902,128,0,198967:0:0:0:0:
192,192,198967,1,0,0:0:0:0:
320,192,199032,1,0,0:0:0:0:
448,192,199032,128,0,199098:0:0:0:0:
64,192,199098,1,0,0:0:0:0:
192,192,199228,1,0,0:0:0:0:
64,192,199293,1,0,0:0:0:0:
448,192,199293,128,0,199358:0:0:0:0:
320,192,199391,1,0,0:0:0:0:
192,192,199440,1,0,0:0:0:0:
320,192,199489,1,0,0:0:0:0:
64,192,199554,1,0,0:0:0:0:
448,192,199554,128,0,199619:0:0:0:0:
320,192,199652,1,0,0:0:0:0:
192,192,199701,1,0,0:0:0:0:
320,192,199750,1,0,0:0:0:0:
64,192,199815,1,0,0:0:0:0:
448,192,199815,128,0,199880:0:0:0:0:
320,192,199913,1,0,0:0:0:0:
192,192,199945,1,0,0:0:0:0:
320,192,200011,1,0,0:0:0:0:
64,192,200077,128,0,200470:0:0:0:0:
320,192,200470,1,0,0:0:0:0:
448,192,200470,1,0,0:0:0:0:
64,192,200535,1,0,0:0:0:0:
320,192,200600,1,0,0:0:0:0:
192,192,200665,1,0,0:0:0:0:
64,192,200730,1,0,0:0:0:0:
448,192,200730,1,0,0:0:0:0:
320,192,200796,1,0,0:0:0:0:
64,192,200861,1,0,0:0:0:0:
448,192,200926,1,0,0:0:0:0:
192,192,200991,1,0,0:0:0:0:
320,192,200991,1,0,0:0:0:0:
64,192,201056,1,0,0:0:0:0:
320,192,201122,1,0,0:0:0:0:
448,192,201187,1,0,0:0:0:0:
64,192,201253,1,0,0:0:0:0:
192,192,201253,1,0,0:0:0:0:
320,192,201318,1,0,0:0:0:0:
64,192,201383,1,0,0:0:0:0:
192,192,201383,1,0,0:0:0:0:
448,192,201383,1,0,0:0:0:0:
320,192,201448,1,0,0:0:0:0:
448,192,201513,1,0,0:0:0:0:
192,192,201578,1,0,0:0:0:0:
64,192,201643,1,0,0:0:0:0:
320,192,201643,1,0,0:0:0:0:
192,192,201709,1,0,0:0:0:0:
448,192,201774,1,0,0:0:0:0:
64,192,201839,1,0,0:0:0:0:
192,192,201904,1,0,0:0:0:0:
320,192,201904,1,0,0:0:0:0:
448,192,201969,1,0,0:0:0:0:
64,192,202035,1,0,0:0:0:0:
320,192,202100,1,0,0:0:0:0:
192,192,202166,1,0,0:0:0:0:
448,192,202166,1,0,0:0:0:0:
64,192,202231,1,0,0:0:0:0:
192,192,202296,1,0,0:0:0:0:
320,192,202296,1,0,0:0:0:0:
448,192,202296,1,0,0:0:0:0:
64,192,202361,1,0,0:0:0:0:
320,192,202426,1,0,0:0:0:0:
448,192,202491,1,0,0:0:0:0:
64,192,202556,1,0,0:0:0:0:
192,192,202556,1,0,0:0:0:0:
320,192,202556,1,0,0:0:0:0:
448,192,202622,1,0,0:0:0:0:
64,192,202687,1,0,0:0:0:0:
192,192,202752,1,0,0:0:0:0:
64,192,202817,1,0,0:0:0:0:
320,192,202817,1,0,0:0:0:0:
448,192,202817,1,0,0:0:0:0:
192,192,202882,1,0,0:0:0:0:
448,192,202948,1,0,0:0:0:0:
320,192,203013,1,0,0:0:0:0:
64,192,203078,1,0,0:0:0:0:
192,192,203078,1,0,0:0:0:0:
448,192,203078,1,0,0:0:0:0:
320,192,203143,1,0,0:0:0:0:
64,192,203209,1,0,0:0:0:0:
192,192,203274,1,0,0:0:0:0:
64,192,203339,1,0,0:0:0:0:
320,192,203339,1,0,0:0:0:0:
448,192,203339,1,0,0:0:0:0:
192,192,203404,1,0,0:0:0:0:
448,192,203469,1,0,0:0:0:0:
320,192,203535,1,0,0:0:0:0:
64,192,203601,1,0,0:0:0:0:
192,192,203601,1,0,0:0:0:0:
448,192,203601,1,0,0:0:0:0:
320,192,203666,1,0,0:0:0:0:
64,192,203731,1,0,0:0:0:0:
192,192,203752,1,0,0:0:0:0:
320,192,203796,1,0,0:0:0:0:
64,192,203861,1,0,0:0:0:0:
448,192,203926,1,0,0:0:0:0:
320,192,203991,1,0,0:0:0:0:
192,192,204013,1,0,0:0:0:0:
64,192,204057,1,0,0:0:0:0:
448,192,204122,1,0,0:0:0:0:
192,192,204187,1,0,0:0:0:0:
64,192,204252,1,0,0:0:0:0:
320,192,204274,1,0,0:0:0:0:
448,192,204317,1,0,0:0:0:0:
192,192,204383,1,0,0:0:0:0:
320,192,204448,1,0,0:0:0:0:
64,192,204514,1,0,0:0:0:0:
448,192,204524,1,0,0:0:0:0:
192,192,204579,1,0,0:0:0:0:
320,192,204644,1,0,0:0:0:0:
448,192,204644,1,0,0:0:0:0:
64,192,204665,1,0,0:0:0:0:
192,192,204709,1,0,0:0:0:0:
320,192,204774,1,0,0:0:0:0:
64,192,204839,1,0,0:0:0:0:
192,192,204904,1,0,0:0:0:0:
448,192,204926,1,0,0:0:0:0:
64,192,204970,1,0,0:0:0:0:
320,192,205035,1,0,0:0:0:0:
192,192,205100,1,0,0:0:0:0:
448,192,205165,1,0,0:0:0:0:
64,192,205187,1,0,0:0:0:0:
320,192,205230,1,0,0:0:0:0:
448,192,205296,1,0,0:0:0:0:
192,192,205361,1,0,0:0:0:0:
64,192,205427,1,0,0:0:0:0:
320,192,205437,1,0,0:0:0:0:
192,192,205492,1,0,0:0:0:0:
448,192,205557,1,0,0:0:0:0:
320,192,205578,1,0,0:0:0:0:
64,192,205622,1,0,0:0:0:0:
448,192,205687,1,0,0:0:0:0:
192,192,205752,1,0,0:0:0:0:
64,192,205817,1,0,0:0:0:0:
320,192,205817,1,0,0:0:0:0:
448,192,205839,1,0,0:0:0:0:
192,192,205883,1,0,0:0:0:0:
64,192,205948,1,0,0:0:0:0:
320,192,206013,1,0,0:0:0:0:
192,192,206078,1,0,0:0:0:0:
448,192,206078,1,0,0:0:0:0:
64,192,206100,1,0,0:0:0:0:
320,192,206143,1,0,0:0:0:0:
448,192,206209,1,0,0:0:0:0:
192,192,206274,1,0,0:0:0:0:
64,192,206339,1,0,0:0:0:0:
320,192,206339,1,0,0:0:0:0:
448,192,206361,1,0,0:0:0:0:
192,192,206404,1,0,0:0:0:0:
64,192,206470,1,0,0:0:0:0:
448,192,206535,1,0,0:0:0:0:
192,192,206600,1,0,0:0:0:0:
320,192,206622,1,0,0:0:0:0:
64,192,206687,1,0,0:0:0:0:
320,192,206730,1,0,0:0:0:0:
192,192,206752,1,0,0:0:0:0:
448,192,206817,1,0,0:0:0:0:
64,192,206861,1,0,0:0:0:0:
320,192,206883,1,0,0:0:0:0:
192,192,206926,1,0,0:0:0:0:
64,192,206991,1,0,0:0:0:0:
320,192,207056,1,0,0:0:0:0:
448,192,207122,1,0,0:0:0:0:
192,192,207165,1,0,0:0:0:0:
320,192,207209,1,0,0:0:0:0:
192,192,207296,1,0,0:0:0:0:
320,192,207339,1,0,0:0:0:0:
448,192,207383,1,0,0:0:0:0:
64,192,207426,1,0,0:0:0:0:
192,192,207470,1,0,0:0:0:0:
64,192,207556,1,0,0:0:0:0:
192,192,207600,1,0,0:0:0:0:
320,192,207643,1,0,0:0:0:0:
448,192,207687,1,0,0:0:0:0:
192,192,207730,1,0,0:0:0:0:
320,192,207817,1,0,0:0:0:0:
64,192,207861,1,0,0:0:0:0:
320,192,207948,1,0,0:0:0:0:
64,192,207991,1,0,0:0:0:0:
448,192,208035,1,0,0:0:0:0:
192,192,208078,1,0,0:0:0:0:
320,192,208122,1,0,0:0:0:0:
192,192,208209,1,0,0:0:0:0:
320,192,208252,1,0,0:0:0:0:
64,192,208296,1,0,0:0:0:0:
192,192,208339,1,0,0:0:0:0:
448,192,208383,1,0,0:0:0:0:
192,192,208470,1,0,0:0:0:0:
448,192,208513,1,0,0:0:0:0:
64,192,208556,1,0,0:0:0:0:
320,192,208600,1,0,0:0:0:0:
192,192,208643,1,0,0:0:0:0:
320,192,208730,1,0,0:0:0:0:
192,192,208774,1,0,0:0:0:0:
448,192,208817,1,0,0:0:0:0:
64,192,208861,1,0,0:0:0:0:
320,192,208904,1,0,0:0:0:0:
192,192,208948,128,0,209991:0:0:0:0:
