osu file format v14

[General]
AudioFilename: audio.mp3
AudioLeadIn: 0
PreviewTime: 27798
Countdown: 1
SampleSet: None
StackLeniency: 0.7
Mode: 0
LetterboxInBreaks: 0
WidescreenStoryboard: 1

[Editor]
Bookmarks: 14464,37320,95097
DistanceSpacing: 1.3
BeatDivisor: 6
GridSize: 4
TimelineZoom: 2.000007

[Metadata]
Title:Fryzura Konika
TitleUnicode:Fryzura Konika
Artist:Igorrr
ArtistUnicode:Igorrr
Creator:orinel
Version:konb
Source:
Tags:Nostril electronic breakcore experimental trip-hop
BeatmapID:1387732
BeatmapSetID:567310

[Difficulty]
HPDrainRate:6
CircleSize:4.2
OverallDifficulty:8.8
ApproachRate:9.3
SliderMultiplier:1.26
SliderTickRate:1

[Events]
//Background and Video events
0,0,"Igorrr - Fryzura Konika.png",0,0
//Break Periods
//Storyboard Layer 0 (Background)
//Storyboard Layer 1 (Fail)
//Storyboard Layer 2 (Pass)
//Storyboard Layer 3 (Foreground)
//Storyboard Sound Samples

[TimingPoints]
180,476.190476190476,4,2,1,40,1,0
656,-66.6666666666667,4,2,1,40,0,0
3989,-100,4,2,1,40,0,0
12560,476.190476190476,4,2,1,40,1,0
16369,-76.9230769230769,4,2,1,40,0,0
20179,-90.9090909090909,4,2,1,40,0,0
22559,-62.5,4,2,1,40,0,0
23988,-76.9230769230769,4,2,1,40,0,0
26369,-62.5,4,2,1,40,0,0
27798,-83.3333333333333,4,3,1,40,0,0
32559,476.190476190476,4,2,1,40,1,0
33511,-62.5,4,2,1,40,0,0
36368,-90.9090909090909,4,3,1,40,0,0
38749,-71.4285714285714,4,3,1,40,0,0
39225,-90.9090909090909,4,3,1,40,0,0
40178,-90.9090909090909,4,2,1,40,0,0
43035,-50,4,2,1,40,0,0
43987,-100,4,2,1,40,0,0
47797,-66.6666666666667,4,2,1,40,0,0
48749,-100,4,2,1,40,0,0
49701,-50,4,2,1,40,0,0
51606,-71.4285714285714,4,2,1,40,0,0
52559,476.190476190476,4,2,1,40,1,0
52559,-71.4285714285714,4,2,1,40,0,0
56368,-76.9230769230769,4,2,1,40,0,0
57320,-133.333333333333,4,2,1,40,0,0
58035,-71.4285714285714,4,2,1,40,0,0
60178,-100,4,3,1,40,0,0
66685,-100,4,3,1,40,0,0
67797,-52.6315789473684,4,3,1,40,0,0
68273,-55.5555555555556,4,3,1,40,0,0
68749,-58.8235294117647,4,3,1,40,0,0
69225,-62.5,4,3,1,40,0,0
69701,-62.5,4,3,1,40,0,0
71606,-100,4,3,1,40,0,0
72558,476.190476190476,4,2,1,40,1,0
73510,-100,4,2,1,40,0,0
76367,-66.6666666666667,4,3,1,40,0,0
80177,-100,4,2,1,40,0,0
83034,-133.333333333333,4,2,1,40,0,0
83986,-90.9090909090909,4,2,1,40,0,0
87796,-83.3333333333333,4,2,1,40,0,0
91605,-76.9230769230769,4,2,1,40,0,0
93351,-62.5,4,2,1,40,0,0
95415,357.142857142857,3,2,1,40,1,0
95415,-62.5,4,2,1,40,0,0
97200,-50,4,2,1,40,0,0
99700,476.190476190476,4,2,1,40,1,0
99700,-100,4,2,1,40,0,0
101604,-62.5,4,2,1,40,0,0
105414,-50,4,2,1,40,0,0
105890,-62.5,4,2,1,40,0,0
106207,-76.9230769230769,4,2,1,40,0,0
106366,-50,4,2,1,40,0,0
107319,-25,4,3,1,40,0,0
108271,-200,4,2,1,40,0,0
109223,-25,4,3,1,40,0,0
109700,-200,4,2,1,40,0,0
110176,-25,4,3,1,40,0,0
112080,-200,4,2,1,40,0,0
113033,-25,4,3,1,40,0,0
113509,-200,4,2,1,40,0,0
113985,-50,4,3,1,40,0,0
114938,-62.5,4,3,1,40,0,0
118747,-83.3333333333333,4,3,1,40,0,0
122557,357.142857142857,4,2,1,40,1,0
122557,-76.9230769230769,4,2,1,40,0,0
125057,-76.9230769230769,4,3,1,40,0,0
128271,476.190476190476,4,2,1,40,1,0
128271,-133.333333333333,4,2,1,40,0,0
128747,-66.6666666666667,4,2,1,40,0,0
130175,-133.333333333333,4,2,1,40,0,0
130771,-90.9090909090909,4,2,1,40,0,0
132080,-100,4,2,1,40,0,0
134937,-200,4,2,1,40,0,0
135890,-25,4,3,1,40,0,0
140651,-100,4,2,1,40,0,0
141604,-25,4,3,1,40,0,0
142080,-50,4,3,1,40,0,0
143509,-50,4,3,1,40,0,0
145175,-50,4,3,1,40,0,0
145413,-50,4,3,1,40,0,0
146366,-90.9090909090909,4,3,1,40,0,0
147318,-83.3333333333333,4,2,1,40,0,0
149223,-50,4,3,1,40,0,0
150175,-83.3333333333333,4,2,1,40,0,0
151128,357.142857142857,4,2,1,40,1,0
151128,-50,4,3,1,40,0,0
152556,476.190476190476,4,2,1,40,1,0
152675,-50,4,3,1,40,0,0
153627,-100,4,3,1,40,0,0
153984,-76.9230769230769,4,2,1,40,0,0
156008,-76.9230769230769,4,3,1,40,0,0
156841,-133.333333333333,4,2,1,40,0,0
157436,-50,4,2,1,40,0,0
158746,-83.3333333333333,4,2,1,40,0,0
159341,-50,4,2,1,40,0,0
160651,-100,4,2,1,40,0,0

[HitObjects]
154,97,179,6,0,P|154:86|153:76,4,21
132,221,656,6,0,P|109:180|69:155,1,94.500003604889
208,186,1132,2,0,P|268:172|312:128,1,126.000004806519,4|0,0:0|0:0,0:0:0:0:
310,153,1529,1,0,0:0:0:0:
307,177,1608,1,0,0:0:0:0:
304,201,1687,1,0,0:0:0:0:
301,226,1767,1,0,0:0:0:0:
298,250,1846,2,0,P|357:268|417:252,1,126.000004806519,4|0,0:0|0:0,0:0:0:0:
438,237,2243,5,8,0:0:0:0:
453,217,2322,1,8,0:0:0:0:
464,194,2401,1,8,0:0:0:0:
470,169,2481,1,8,0:0:0:0:
470,143,2560,6,0,P|456:114|452:83,2,63.0000024032594
374,122,3037,2,0,P|342:119|312:127,1,63.0000024032594
290,139,3275,1,4,0:0:0:0:
273,158,3354,1,0,0:0:0:0:
349,211,3513,1,0,0:0:0:0:
305,329,3672,1,0,0:0:0:0:
225,231,3830,1,0,0:0:0:0:
374,122,3989,6,0,L|512:132,2,126
163,105,5418,1,0,0:0:0:0:
92,308,5775,5,0,0:0:0:0:
173,338,5894,2,0,P|224:333|268:305,1,105
278,319,6370,2,0,P|269:346|268:375,2,42
351,237,6846,2,0,P|347:184|308:121,1,126
69,51,7799,6,0,P|56:83|34:108,1,63
99,175,8275,2,0,P|94:207|99:238,1,63
184,117,8672,1,0,0:0:0:0:
189,110,8751,2,0,P|213:90|242:78,1,63
332,107,9227,2,0,P|361:117|386:137,1,63
376,291,9703,6,0,P|379:259|392:231,1,63
512,132,10179,2,0,P|494:158|469:177,1,63
316,202,10576,1,0,0:0:0:0:
308,202,10656,2,0,P|276:199|247:186,1,63
179,121,11132,1,0,0:0:0:0:
179,121,11489,1,0,0:0:0:0:
130,205,11608,6,0,P|122:235|122:266,1,63
242,337,12084,2,0,P|231:291|206:250,1,94.5
316,291,12560,6,0,P|346:293|377:288,1,63
378,193,13036,2,0,P|402:173|430:159,1,63
287,207,13433,1,0,0:0:0:0:
281,202,13512,6,0,P|261:177|247:149,1,63
322,35,13988,2,0,P|327:66|326:98,1,63
205,66,14464,2,0,P|219:37|238:13,1,63
247,149,14940,2,0,P|220:166|191:177,1,63
37,130,15337,1,0,0:0:0:0:
46,127,15417,6,0,P|77:124|108:130,1,63
219,232,15893,2,0,P|201:207|190:176,1,63
315,36,16369,5,4,0:0:0:0:
414,129,16528,1,4,0:0:0:0:
296,197,16686,1,4,0:0:0:0:
207,92,16845,2,0,P|177:80|145:79,2,54.5999975006105
337,84,17321,2,0,P|326:54|308:28,2,54.5999975006105
296,197,17798,2,0,P|290:227|293:259,2,54.5999975006105
414,129,18274,5,0,0:0:0:0:
361,308,18433,1,0,0:0:0:0:
336,329,18512,1,0,0:0:0:0:
305,339,18591,1,0,0:0:0:0:
137,284,18750,5,0,0:0:0:0:
137,284,18909,1,0,0:0:0:0:
211,198,19067,2,0,P|207:216|208:234,1,27.2999987503052
222,336,19226,1,0,0:0:0:0:
296,197,19385,2,0,P|316:179|342:169,1,54.5999975006105
487,169,19702,1,0,0:0:0:0:
355,359,19861,5,0,0:0:0:0:
348,332,19940,1,0,0:0:0:0:
346,305,20019,1,0,0:0:0:0:
350,278,20099,1,0,0:0:0:0:
359,252,20178,1,0,0:0:0:0:
487,169,20337,5,0,0:0:0:0:
478,142,20416,1,0,0:0:0:0:
466,118,20495,1,0,0:0:0:0:
449,96,20575,1,0,0:0:0:0:
429,78,20654,1,0,0:0:0:0:
252,71,20813,1,0,0:0:0:0:
282,87,20893,1,0,0:0:0:0:
316,90,20972,1,0,0:0:0:0:
109,205,21131,5,4,0:0:0:0:
232,150,21290,1,0,0:0:0:0:
257,172,21369,1,0,0:0:0:0:
267,204,21448,1,0,0:0:0:0:
230,313,21607,5,0,0:0:0:0:
339,164,21766,1,0,0:0:0:0:
371,175,21845,1,0,0:0:0:0:
405,173,21925,1,0,0:0:0:0:
489,95,22083,5,0,0:0:0:0:
365,23,22242,1,0,0:0:0:0:
365,23,22321,1,0,0:0:0:0:
365,23,22401,1,0,0:0:0:0:
405,173,22559,6,0,P|422:201|448:221,2,67.2,8|0|0,0:0|0:0|0:0,0:0:0:0:
363,301,23036,2,0,P|375:331|376:365,2,67.2,8|0|0,2:0|2:0|2:0,2:0:0:0:
267,204,23512,2,0,P|271:170|287:141,2,67.2,8|0|0,0:0|0:0|0:0,0:0:0:0:
294,352,23988,5,8,0:0:0:0:
191,295,24147,1,0,0:0:0:0:
158,289,24226,1,0,0:0:0:0:
126,297,24306,1,0,0:0:0:0:
358,294,24464,1,8,0:0:0:0:
190,220,24623,1,0,0:0:0:0:
167,196,24703,1,0,0:0:0:0:
155,164,24782,1,0,0:0:0:0:
354,56,24940,5,4,0:0:0:0:
406,167,25099,1,0,0:0:0:0:
379,145,25178,1,0,0:0:0:0:
347,136,25258,1,0,0:0:0:0:
239,149,25416,1,0,0:0:0:0:
348,288,25575,1,0,0:0:0:0:
353,253,25654,1,0,0:0:0:0:
345,221,25734,1,0,0:0:0:0:
278,78,25893,5,0,0:0:0:0:
244,230,26052,1,0,0:0:0:0:
220,252,26132,1,0,0:0:0:0:
187,266,26211,1,0,0:0:0:0:
102,84,26369,6,0,P|130:86|173:110,2,67.2,4|0|4,0:0|0:0|0:0,0:0:0:0:
44,193,26845,2,0,P|21:175|-3:133,2,67.2,4|0|4,0:0|0:0|0:0,0:0:0:0:
107,263,27321,2,0,B|135:306|126:359,1,100.8,4|0,0:0|0:0,0:0:0:0:
335,78,27798,6,0,B|363:58|406:56,1,75.5999976928712
170,170,28274,2,0,B|135:172|97:153,1,75.5999976928712
455,180,28750,2,0,B|474:208|476:251,1,75.5999976928712
297,362,29226,2,0,B|294:328|314:290,1,75.5999976928712
455,180,29702,5,0,0:0:0:0:
121,108,29940,1,0,0:0:0:0:
206,162,30139,6,0,P|236:169|293:151,1,88.1999973083497
194,337,30655,1,0,0:0:0:0:
290,154,30893,1,4,0:0:0:0:
121,108,31131,2,0,P|90:130|70:162,1,75.5999976928712
282,299,31607,6,0,P|302:239|289:152,1,151.199995385742
289,153,32559,6,0,P|332:197|391:220,1,126
136,67,33511,6,0,P|115:61|54:65,2,67.2
289,153,33987,1,0,0:0:0:0:
167,216,34146,1,0,0:0:0:0:
154,247,34225,1,0,0:0:0:0:
156,280,34305,1,0,0:0:0:0:
354,350,34463,5,0,0:0:0:0:
304,224,34622,1,0,0:0:0:0:
469,309,34781,1,0,0:0:0:0:
156,280,34939,1,8,0:0:0:0:
354,350,35098,1,0,0:0:0:0:
336,323,35178,1,0,0:0:0:0:
331,289,35257,1,0,0:0:0:0:
397,117,35416,5,0,0:0:0:0:
469,309,35574,1,0,0:0:0:0:
336,261,35733,1,0,0:0:0:0:
503,144,35892,5,0,0:0:0:0:
414,252,36050,1,0,0:0:0:0:
371,47,36209,1,0,0:0:0:0:
160,245,36368,6,0,P|124:254|85:252,1,69.3000021148682
329,183,36844,2,0,P|318:218|297:251,1,69.3000021148682
181,33,37320,2,0,P|180:67|189:100,1,69.3000021148682
329,183,37797,1,0,0:0:0:0:
419,108,38035,1,0,0:0:0:0:
189,100,38273,5,0,0:0:0:0:
256,4,38511,1,0,0:0:0:0:
329,183,38749,2,0,B|307:157|264:141,1,58.7999982055665
188,99,38987,6,0,L|192:70,2,29.3999991027832
208,184,39225,5,0,0:0:0:0:
76,219,39384,1,0,0:0:0:0:
208,184,39543,1,0,0:0:0:0:
115,377,39701,5,0,0:0:0:0:
149,122,39860,1,0,0:0:0:0:
6,270,40019,1,0,0:0:0:0:
225,281,40178,6,0,P|266:263|296:226,2,92.4000028198243
212,72,41051,6,0,L|216:32,1,23.1000007049561
149,122,41209,2,0,P|92:127|38:106,2,115.50000352478
268,134,42082,6,0,P|232:159|209:197,2,86.6250026435853
452,273,43035,5,0,0:0:0:0:
428,313,43114,1,0,0:0:0:0:
384,326,43193,1,0,0:0:0:0:
339,313,43273,1,0,0:0:0:0:
308,278,43352,1,0,0:0:0:0:
302,232,43431,1,0,0:0:0:0:
321,189,43511,5,0,0:0:0:0:
339,146,43590,1,0,0:0:0:0:
333,100,43669,1,0,0:0:0:0:
298,68,43749,1,0,0:0:0:0:
252,63,43828,1,0,0:0:0:0:
212,87,43908,1,0,0:0:0:0:
200,133,43987,6,0,P|206:158|204:184,2,42,0|0|0,2:0|2:0|2:0,2:0:0:0:
69,91,44463,2,0,P|61:56|68:24,1,63,8|0,0:0|0:0,0:0:0:0:
82,0,44781,1,0,0:0:0:0:
121,168,44939,5,0,0:0:0:0:
93,183,45018,1,0,0:0:0:0:
61,186,45097,1,0,0:0:0:0:
29,179,45177,1,0,0:0:0:0:
2,161,45256,1,8,0:0:0:0:
154,58,45416,5,0,0:0:0:0:
182,71,45495,1,0,0:0:0:0:
206,90,45574,1,0,0:0:0:0:
224,115,45654,1,0,0:0:0:0:
234,144,45733,1,8,0:0:0:0:
82,248,45892,5,4,0:0:0:0:
323,193,46051,1,0,0:0:0:0:
256,302,46209,1,0,0:0:0:0:
80,74,46368,1,8,0:0:0:0:
237,138,46527,5,0,0:0:0:0:
202,153,46606,1,0,0:0:0:0:
176,187,46685,1,8,0:0:0:0:
142,352,46844,1,0,0:0:0:0:
347,232,47003,1,0,0:0:0:0:
251,217,47162,1,0,0:0:0:0:
299,380,47320,5,8,0:0:0:0:
347,232,47479,1,8,0:0:0:0:
380,210,47558,1,0,0:0:0:0:
424,205,47637,1,0,0:0:0:0:
118,252,47797,2,0,P|91:245|52:220,2,63.0000024032594
333,33,48273,5,4,0:0:0:0:
245,353,48511,5,0,0:0:0:0:
424,205,48749,6,0,P|464:188|503:191,2,84,8|0|0,0:0|0:0|0:0,0:0:0:0:
296,343,49582,1,8,0:0:0:0:
342,220,49701,6,0,P|338:199|329:181,2,42,8|0|8,0:0|0:0|0:0,0:0:0:0:
165,109,50019,1,0,0:0:0:0:
160,64,50098,1,0,0:0:0:0:
179,23,50178,1,8,0:0:0:0:
213,251,50336,1,0,0:0:0:0:
187,284,50415,1,0,0:0:0:0:
147,299,50495,1,8,0:0:0:0:
293,113,50654,6,0,P|319:103|341:104,2,42,8|0|8,0:0|0:0|0:0,0:0:0:0:
58,197,50971,2,0,P|44:177|35:145,1,42
165,109,51130,2,0,P|166:131|158:163,1,42
38,306,51289,1,8,0:0:0:0:
136,217,51447,5,0,0:0:0:0:
177,224,51526,1,0,0:0:0:0:
213,246,51606,2,0,P|234:279|239:308,1,58.7999982055665
230,384,51924,1,0,0:0:0:0:
341,144,52082,2,0,P|313:121|281:109,1,58.7999982055665
118,94,52400,1,8,0:0:0:0:
295,268,52559,6,0,P|324:273|353:267,1,58.7999982055665
457,196,52876,1,0,0:0:0:0:
217,95,53035,2,0,P|227:65|243:42,1,58.7999982055665
295,268,53432,5,0,0:0:0:0:
264,275,53511,2,0,L|145:237,2,117.599996411133,8|0|8,0:0|0:0|0:0,0:0:0:0:
298,376,54285,1,8,0:0:0:0:
424,314,54463,2,0,P|431:271|427:221,1,88.1999973083497
395,130,54939,1,0,0:0:0:0:
114,322,55178,5,8,0:0:0:0:
37,291,55297,5,0,0:0:0:0:
26,212,55416,5,8,0:0:0:0:
86,157,55535,5,0,0:0:0:0:
168,173,55654,2,0,P|159:207|166:262,1,88.1999973083497,8|0,0:0|0:0,0:0:0:0:
243,251,56011,5,8,0:0:0:0:
294,185,56130,5,0,0:0:0:0:
264,111,56249,5,8,0:0:0:0:
184,94,56368,5,0,0:0:0:0:
37,291,56527,1,0,0:0:0:0:
291,319,56685,1,0,0:0:0:0:
164,225,56844,2,0,P|137:217|110:218,1,54.5999975006105,8|0,0:0|0:0,0:0:0:0:
212,340,57082,2,0,P|192:319|168:307,1,54.5999975006105,8|0,0:0|0:0,0:0:0:0:
243,251,57320,6,0,P|251:221|270:192,2,59.0625022530557
371,58,58035,5,0,0:0:0:0:
363,139,58154,5,0,0:0:0:0:
439,104,58273,2,0,P|467:99|496:104,1,58.7999982055665
344,297,58590,1,0,0:0:0:0:
247,103,58749,2,0,P|211:75|166:63,1,88.1999973083497,8|0,0:0|0:0,0:0:0:0:
145,65,59066,1,8,0:0:0:0:
105,312,59225,5,0,0:0:0:0:
145,292,59305,1,0,0:0:0:0:
169,255,59384,1,0,0:0:0:0:
177,212,59463,1,0,0:0:0:0:
162,169,59543,1,0,0:0:0:0:
301,170,59701,5,0,0:0:0:0:
264,144,59781,1,0,0:0:0:0:
247,103,59860,1,0,0:0:0:0:
247,59,59939,1,0,0:0:0:0:
269,20,60019,1,0,0:0:0:0:
480,167,60178,5,0,0:0:0:0:
393,319,60336,1,0,0:0:0:0:
301,170,60495,1,0,0:0:0:0:
239,354,60654,2,0,P|269:335|290:312,1,63,8|0,0:0|0:0,0:0:0:0:
328,254,60971,1,8,0:0:0:0:
58,140,61130,2,0,P|81:180|116:204,1,84,8|0,0:0|0:0,0:0:0:0:
305,146,61606,6,0,P|339:140|369:146,1,63,8|0,0:0|0:0,0:0:0:0:
431,179,61923,1,8,0:0:0:0:
213,279,62082,2,0,P|197:233|201:191,1,84,8|0,0:0|0:0,0:0:0:0:
345,64,62558,6,0,P|326:35|299:17,1,63,8|0,0:0|0:0,0:0:0:0:
232,0,62875,1,8,0:0:0:0:
278,223,63034,2,0,P|299:187|303:142,1,84,8|0,0:0|0:0,0:0:0:0:
103,140,63511,6,0,P|73:151|50:172,1,63,8|0,0:0|0:0,0:0:0:0:
15,235,63828,1,8,0:0:0:0:
240,356,63987,5,0,0:0:0:0:
184,35,64305,1,0,0:0:0:0:
240,356,64622,5,4,0:0:0:0:
341,318,64781,2,0,L|369:319,2,21
45,141,65257,5,0,0:0:0:0:
240,356,65574,5,8,0:0:0:0:
254,316,65654,1,0,0:0:0:0:
248,274,65733,1,8,0:0:0:0:
227,237,65812,1,0,0:0:0:0:
188,219,65892,1,8,0:0:0:0:
54,303,66051,1,0,0:0:0:0:
160,55,66209,5,8,0:0:0:0:
167,96,66289,1,0,0:0:0:0:
194,129,66368,1,8,0:0:0:0:
230,151,66447,1,0,0:0:0:0:
273,147,66527,1,8,0:0:0:0:
399,208,66685,5,8,0:0:0:0:
382,165,66764,1,0,0:0:0:0:
389,118,66844,1,0,0:0:0:0:
450,13,67003,1,8,0:0:0:0:
254,60,67162,1,0,0:0:0:0:
475,199,67320,1,0,0:0:0:0:
162,289,67479,1,4,0:0:0:0:
162,289,67638,1,4,0:0:0:0:
97,217,67797,6,0,P|64:205|-8:210,2,79.7999978691102
236,151,68273,2,0,P|258:125|306:103,2,75.5999976928712
120,114,68749,2,0,P|108:81|113:32,2,71.4000013618469
188,229,69225,2,0,P|181:262|160:297,2,67.2
51,245,69701,2,0,P|20:259|0:284,2,67.2
285,298,70148,2,0,P|325:257|340:197,1,113.4
136,72,70654,6,0,P|108:81|75:104,1,50.4
227,85,70892,2,0,P|246:63|263:26,1,50.4
165,152,71130,2,0,P|167:206|178:227,2,67.2
449,151,71606,6,0,P|402:189|336:204,1,126
339,204,72558,6,0,P|400:189|449:151,1,126
410,63,73510,5,0,0:0:0:0:
185,146,73669,1,0,0:0:0:0:
202,40,73827,1,0,0:0:0:0:
320,248,73986,1,0,0:0:0:0:
209,226,74145,1,0,0:0:0:0:
165,226,74225,1,0,0:0:0:0:
124,253,74304,1,0,0:0:0:0:
257,349,74462,5,0,0:0:0:0:
165,152,74621,1,0,0:0:0:0:
280,67,74780,1,0,0:0:0:0:
186,305,74938,1,0,0:0:0:0:
264,158,75097,1,0,0:0:0:0:
294,194,75177,1,0,0:0:0:0:
344,208,75256,1,8,0:0:0:0:
495,116,75415,5,0,0:0:0:0:
280,67,75573,1,0,0:0:0:0:
382,0,75732,1,0,0:0:0:0:
344,208,75890,1,0,0:0:0:0:
65,116,76050,5,0,0:0:0:0:
280,67,76208,1,0,0:0:0:0:
106,246,76367,6,0,P|79:228|59:199,1,63.0000024032594
266,227,76605,2,0,P|262:195|248:167,1,63.0000024032594
169,342,76843,2,0,P|170:310|183:281,1,63.0000024032594
371,285,77081,2,0,P|353:311|328:329,1,63.0000024032594
125,57,77319,6,0,P|158:62|187:81,1,63.0000024032594
357,146,77557,2,0,P|367:175|367:206,1,63.0000024032594
270,6,77796,2,0,P|269:38|280:67,1,63.0000024032594
451,161,78034,2,0,P|477:176|509:181,1,63.0000024032594
411,24,78272,6,0,P|383:39|364:64,1,63.0000024032594
366,207,78510,2,0,P|336:218|305:218,1,63.0000024032594
182,77,78748,2,0,P|213:81|240:97,1,63.0000024032594
253,300,78986,1,0,0:0:0:0:
220,266,79065,1,0,0:0:0:0:
207,220,79145,1,0,0:0:0:0:
218,174,79224,1,0,0:0:0:0:
318,119,79383,6,0,P|331:125|344:135,1,31.5000012016297
371,264,79542,6,0,P|380:253|386:238,1,31.5000012016297
369,38,79700,6,0,P|378:50|384:65,1,31.5000012016297
455,318,79859,6,0,P|456:304|455:288,1,31.5000012016297
474,61,80018,6,0,P|469:78|461:92,1,31.5000012016297
307,211,80177,6,0,P|264:215|220:203,1,84
183,31,80653,2,0,P|192:45|200:72,1,42
66,193,81050,2,0,L|67:213,1,21
57,177,81208,2,0,P|98:146|150:141,1,105,8|0,0:0|0:0,0:0:0:0:
169,167,81684,1,0,0:0:0:0:
196,182,81764,1,0,0:0:0:0:
226,187,81843,1,0,0:0:0:0:
257,183,81923,1,0,0:0:0:0:
284,168,82002,1,0,0:0:0:0:
303,143,82081,5,0,0:0:0:0:
185,20,82319,1,0,0:0:0:0:
96,263,82558,2,0,P|79:273|52:279,1,42
218,95,82974,1,0,0:0:0:0:
229,98,83034,2,0,P|300:59|367:84,1,157.500006008148
420,343,83986,5,0,0:0:0:0:
303,143,84145,1,0,0:0:0:0:
430,186,84304,1,0,0:0:0:0:
241,346,84462,2,0,P|208:365|176:371,1,69.3000021148682
102,370,84780,1,0,0:0:0:0:
231,273,84938,5,0,0:0:0:0:
224,240,85018,1,0,0:0:0:0:
204,212,85097,1,0,0:0:0:0:
175,194,85177,1,0,0:0:0:0:
142,191,85256,1,8,0:0:0:0:
67,33,85415,5,8,0:0:0:0:
80,63,85494,1,0,0:0:0:0:
80,97,85574,1,0,0:0:0:0:
65,128,85653,1,0,0:0:0:0:
41,150,85733,1,0,0:0:0:0:
381,84,85891,5,4,0:0:0:0:
301,277,86050,1,4,0:0:0:0:
174,113,86208,1,4,0:0:0:0:
470,48,86367,5,4,0:0:0:0:
375,233,86526,1,4,0:0:0:0:
351,207,86605,1,0,0:0:0:0:
318,194,86684,1,4,0:0:0:0:
85,132,86843,5,4,0:0:0:0:
212,295,87001,1,4,0:0:0:0:
292,109,87161,1,4,0:0:0:0:
428,114,87319,5,4,0:0:0:0:
301,277,87477,1,4,0:0:0:0:
214,88,87637,1,4,0:0:0:0:
456,313,87796,5,0,0:0:0:0:
361,201,87954,1,0,0:0:0:0:
361,201,88113,1,0,0:0:0:0:
104,327,88272,5,0,0:0:0:0:
233,160,88431,1,0,0:0:0:0:
234,122,88510,1,0,0:0:0:0:
214,88,88589,1,8,0:0:0:0:
52,38,88748,5,0,0:0:0:0:
147,150,88906,1,0,0:0:0:0:
147,150,89065,1,0,0:0:0:0:
404,24,89224,5,0,0:0:0:0:
293,228,89383,1,0,0:0:0:0:
329,223,89462,1,0,0:0:0:0:
361,201,89541,1,0,0:0:0:0:
465,52,89700,5,0,0:0:0:0:
222,166,89859,1,0,0:0:0:0:
201,199,89938,1,0,0:0:0:0:
196,235,90018,1,0,0:0:0:0:
206,270,90097,1,0,0:0:0:0:
229,299,90177,5,8,0:0:0:0:
301,145,90335,1,0,0:0:0:0:
303,107,90415,1,0,0:0:0:0:
289,72,90494,1,8,0:0:0:0:
293,228,90653,2,0,P|335:260|389:265,2,100.799996923828,12|4|0,0:0|0:0|0:0,0:0:0:0:
174,81,91446,5,0,0:0:0:0:
123,78,91526,1,0,0:0:0:0:
82,113,91605,1,0,0:0:0:0:
74,166,91684,1,0,0:0:0:0:
106,210,91764,1,0,0:0:0:0:
376,121,91923,5,0,0:0:0:0:
425,143,92003,1,0,0:0:0:0:
445,193,92082,1,0,0:0:0:0:
427,243,92161,1,0,0:0:0:0:
381,266,92241,1,0,0:0:0:0:
250,107,92399,5,0,0:0:0:0:
250,55,92479,1,0,0:0:0:0:
288,17,92558,1,0,0:0:0:0:
341,14,92637,1,0,0:0:0:0:
383,47,92717,1,0,0:0:0:0:
170,243,92875,5,0,0:0:0:0:
196,288,92955,1,0,0:0:0:0:
248,302,93034,1,0,0:0:0:0:
296,278,93113,1,0,0:0:0:0:
316,228,93193,1,0,0:0:0:0:
74,166,93351,6,0,P|56:177|30:184,2,33.6
156,48,93669,1,0,0:0:0:0:
156,48,93748,1,0,0:0:0:0:
156,48,93827,1,0,0:0:0:0:
90,253,93986,6,0,P|85:269|83:285,1,33.6,8|0,0:0|0:0,0:0:0:0:
216,143,94145,1,0,0:0:0:0:
252,136,94224,1,0,0:0:0:0:
288,144,94304,2,0,P|281:165|269:184,1,33.6,8|0,0:0|0:0,0:0:0:0:
174,313,94462,6,0,P|177:329|182:345,3,33.6
129,187,94780,1,0,0:0:0:0:
93,177,94859,1,0,0:0:0:0:
56,184,94939,2,0,P|38:198|23:216,1,33.6,8|0,0:0|0:0,0:0:0:0:
119,33,95097,1,0,0:0:0:0:
144,59,95176,1,0,0:0:0:0:
176,77,95256,2,0,P|190:81|209:80,1,33.6,8|0,0:0|0:0,0:0:0:0:
306,115,95415,6,0,P|326:101|355:55,2,67.2
291,216,95772,2,0,P|280:237|278:292,2,67.2
391,209,96129,2,0,P|414:207|463:181,2,67.2
306,115,96486,2,0,P|284:104|229:102,2,67.2
414,66,96843,2,0,P|427:46|474:16,2,67.2
278,209,97200,5,0,0:0:0:0:
113,175,97319,1,0,0:0:0:0:
185,217,97438,2,0,P|196:236|200:304,1,84
248,44,97676,5,0,0:0:0:0:
278,209,97795,1,0,0:0:0:0:
222,145,97915,2,0,P|185:124|144:120,1,84
363,195,98153,2,0,P|399:174|422:140,1,84
294,127,98391,5,0,0:0:0:0:
264,292,98510,1,0,0:0:0:0:
201,235,98630,2,0,P|235:212|277:208,1,84
454,346,98867,2,0,P|412:348|374:331,1,84
422,140,99105,5,0,0:0:0:0:
426,263,99224,1,0,0:0:0:0:
365,204,99343,2,0,P|342:169|338:128,1,84
470,71,99581,5,0,0:0:0:0:
470,81,99700,2,0,P|451:118|413:142,2,78.75
389,60,100414,5,0,0:0:0:0:
308,76,100533,5,8,0:0:0:0:
247,21,100652,5,0,0:0:0:0:
502,191,100811,1,0,0:0:0:0:
302,366,100969,1,0,0:0:0:0:
256,258,101128,2,0,P|283:265|318:262,1,63,8|0,0:0|0:0,0:0:0:0:
392,229,101446,1,8,0:0:0:0:
210,335,101604,6,0,P|187:313|170:237,1,100.8,8|0,0:0|0:0,0:0:0:0:
217,151,101922,2,0,P|214:134|205:115,7,33.6
132,126,102557,5,0,0:0:0:0:
121,126,102636,1,0,0:0:0:0:
111,127,102715,1,0,0:0:0:0:
101,130,102795,1,0,0:0:0:0:
92,135,102874,1,0,0:0:0:0:
84,141,102953,1,0,0:0:0:0:
128,165,103033,5,8,0:0:0:0:
149,210,103112,1,8,0:0:0:0:
146,260,103191,1,8,0:0:0:0:
118,302,103271,1,8,0:0:0:0:
72,322,103350,1,8,0:0:0:0:
22,316,103429,1,8,0:0:0:0:
63,287,103509,6,0,P|89:277|141:277,2,67.2,8|0|8,0:0|0:0|0:0,0:0:0:0:
283,258,103985,2,0,P|250:251|221:236,1,67.2,8|0,0:0|0:0,0:0:0:0:
168,175,104303,1,0,0:0:0:0:
246,44,104461,2,0,P|244:77|234:109,1,67.2,8|0,0:0|0:0,0:0:0:0:
84,328,104938,5,0,0:0:0:0:
22,162,105096,1,0,0:0:0:0:
139,242,105255,1,8,0:0:0:0:
98,66,105414,6,0,P|104:42|120:18,5,42,8|0|8|0|8|0,0:0|0:0|0:0|0:0|0:0|0:0,0:0:0:0:
155,131,105890,2,0,P|146:145|136:158,3,33.6,8|0|8|0,0:0|0:0|0:0|0:0,0:0:0:0:
245,111,106207,2,0,P|246:97|245:83,1,27.2999987503052,8|0,0:0|0:0,0:0:0:0:
211,311,106366,6,2,L|218:335,21,21,10|2|2|2|2|2|2|2|2|2|2|2|2|2|2|2|2|2|2|2|2|2,0:0|0:0|0:0|0:0|0:0|0:0|0:0|0:0|0:0|0:0|0:0|0:0|0:0|0:0|0:0|0:0|0:0|0:0|0:0|0:0|0:0|0:0,0:0:0:0:
304,58,107319,6,0,P|350:101|366:161,1,126
211,311,107557,2,0,P|224:250|269:206,1,126
476,243,107795,2,0,P|419:267|358:257,1,126
193,119,108033,2,0,P|124:123|66:193,1,126
269,206,108271,6,2,B|278:199|274:183|274:183|316:171|291:155|291:155|312:136|304:110,1,110.25,6|2,0:0|0:0,0:0:0:0:
87,60,109223,2,0,P|132:102|192:118,1,126
399,65,109461,2,0,P|443:108|461:168,1,126
292,244,109700,6,2,B|281:232|281:232|279:215|279:215|268:204,1,47.25,6|2,0:0|0:0,0:0:0:0:
220,302,110176,6,0,P|185:353|125:364,1,126
154,178,110414,2,0,P|158:116|205:77,1,126
135,278,110652,2,0,B|43:293|43:293|86:303,1,126
315,365,110890,5,0,0:0:0:0:
390,104,111009,1,0,0:0:0:0:
289,152,111128,2,0,P|288:185|321:276,1,126
465,234,111366,2,0,P|465:267|432:358,1,126
250,209,111604,2,0,B|210:207|210:207|161:232|161:232|118:225,1,126
58,59,111842,2,0,P|119:84|149:160,1,126
77,293,112080,6,2,B|70:268|48:250|48:250|61:225|53:192,1,110.25,4|2,0:0|0:0,0:0:0:0:
147,133,113033,2,0,B|166:208|166:208|186:161,1,126
278,56,113271,2,0,B|297:11|297:11|316:86,1,126
378,286,113509,2,2,B|370:308|370:308|356:326,1,42,4|0,0:0|0:0,0:0:0:0:
147,133,113985,5,0,0:0:0:0:
399,192,114104,1,0,0:0:0:0:
399,192,114223,1,0,0:0:0:0:
147,133,114461,5,8,0:0:0:0:
195,106,114541,1,8,0:0:0:0:
248,113,114620,1,8,0:0:0:0:
288,149,114700,1,8,0:0:0:0:
301,201,114779,1,8,0:0:0:0:
284,252,114858,1,8,0:0:0:0:
246,286,114938,6,0,L|132:266,1,100.8
21,285,115255,2,0,L|54:291,1,33.6
274,203,115414,6,0,L|388:183,1,100.8
499,202,115731,2,0,L|465:208,1,33.6
251,119,115890,6,0,L|137:99,1,100.8
26,118,116207,2,0,L|59:124,1,33.6
274,203,116366,6,0,P|317:178|338:133,1,100.8
313,18,116684,2,0,P|308:34|306:51,1,33.6
293,286,116842,6,0,P|335:311|385:307,1,100.8
471,227,117160,2,0,P|454:231|439:238,1,33.6
274,203,117319,6,0,P|230:227|209:272,1,100.8
236,384,117637,2,0,P|240:367|242:350,1,33.6
99,259,117795,6,0,B|84:229|60:207|60:207|68:171|63:129,1,134.4,8|0,0:0|0:0,0:0:0:0:
148,44,118271,2,0,P|140:81|140:114,1,67.2
178,317,118588,1,0,0:0:0:0:
300,68,118747,5,0,0:0:0:0:
462,187,118906,1,0,0:0:0:0:
361,175,119065,1,8,0:0:0:0:
63,138,119223,1,0,0:0:0:0:
159,107,119382,1,8,0:0:0:0:
46,275,119541,1,0,0:0:0:0:
214,25,119699,5,0,0:0:0:0:
450,112,119858,1,8,0:0:0:0:
333,159,120017,1,0,0:0:0:0:
46,275,120176,1,8,0:0:0:0:
280,364,120334,1,0,0:0:0:0:
229,248,120493,1,0,0:0:0:0:
120,25,120652,5,8,0:0:0:0:
150,63,120731,1,0,0:0:0:0:
198,78,120811,1,8,0:0:0:0:
336,50,120969,1,0,0:0:0:0:
445,223,121128,5,8,0:0:0:0:
415,261,121207,1,0,0:0:0:0:
385,270,121287,1,8,0:0:0:0:
229,248,121445,1,0,0:0:0:0:
336,50,121604,5,8,0:0:0:0:
357,92,121683,1,8,0:0:0:0:
352,140,121763,2,0,P|349:152|342:162,1,25.1999992309571
170,189,121922,5,8,0:0:0:0:
149,231,122001,1,8,0:0:0:0:
153,279,122081,2,0,P|156:291|163:301,1,25.1999992309571
309,322,122239,5,8,0:0:0:0:
290,282,122318,1,8,0:0:0:0:
253,254,122398,2,0,P|238:248|222:247,1,25.1999992309571
53,212,122557,6,0,L|46:241,4,27.2999987503052
128,66,122914,2,0,L|118:31,4,27.2999987503052
140,338,123271,2,0,L|149:372,4,27.2999987503052
217,193,123628,6,0,L|224:164,4,27.2999987503052
304,96,123985,2,0,L|321:75,4,27.2999987503052
477,209,124342,2,0,L|502:202,2,27.2999987503052
311,228,124580,5,8,0:0:0:0:
391,274,124699,2,0,L|416:280,4,27.2999987503052
386,179,125057,5,8,0:0:0:0:
327,138,125176,1,0,0:0:0:0:
257,153,125295,1,0,0:0:0:0:
222,215,125414,1,8,0:0:0:0:
169,262,125533,1,8,0:0:0:0:
98,257,125652,1,0,0:0:0:0:
33,139,125771,5,0,0:0:0:0:
33,139,125890,1,0,0:0:0:0:
33,139,126009,1,0,0:0:0:0:
33,139,126128,1,0,0:0:0:0:
98,257,126247,2,0,L|86:311,1,54.5999975006105,8|0,0:0|0:0,0:0:0:0:
165,156,126485,2,0,L|177:102,1,54.5999975006105,8|0,0:0|0:0,0:0:0:0:
173,89,126664,1,0,0:0:0:0:
167,76,126723,1,0,0:0:0:0:
33,139,126842,6,2,P|65:133|88:121,1,54.5999975006105,8|8,0:0|0:0,0:0:0:0:
236,32,127080,1,0,0:0:0:0:
249,28,127140,1,0,0:0:0:0:
262,28,127199,2,2,P|289:30|314:40,2,54.5999975006105,8|8|2,0:0|0:0|0:0,0:0:0:0:
176,309,127676,6,0,P|172:321|170:335,1,27.2999987503052,8|0,0:0|0:0,0:0:0:0:
276,268,127795,2,0,P|276:255|273:240,1,27.2999987503052,8|0,0:0|0:0,0:0:0:0:
105,229,127914,2,0,P|107:241|114:254,1,27.2999987503052,8|0,0:0|0:0,0:0:0:0:
171,143,128033,2,0,P|165:131|155:120,1,27.2999987503052,8|0,0:0|0:0,0:0:0:0:
2,221,128152,2,0,P|10:230|22:238,1,27.2999987503052,8|0,0:0|0:0,0:0:0:0:
252,164,128271,6,0,P|278:123|284:75,1,94.500003604889,8|0,0:0|0:0,0:0:0:0:
387,256,128866,6,0,P|401:270|424:285,1,47.2500018024445
420,189,129104,5,0,0:0:0:0:
391,120,129223,5,0,0:0:0:0:
136,54,129382,1,8,0:0:0:0:
288,350,129540,1,0,0:0:0:0:
342,188,129699,5,8,0:0:0:0:
288,350,129858,1,0,0:0:0:0:
19,285,130017,1,8,0:0:0:0:
249,185,130175,2,2,P|292:178|344:187,1,94.500003604889,8|0,0:0|0:0,0:0:0:0:
166,128,130771,2,0,L|206:108,2,34.6500010574341
70,177,131128,5,0,0:0:0:0:
187,346,131286,2,0,P|193:336|197:325,1,23.1000007049561,8|0,0:0|0:0,0:0:0:0:
239,31,131445,1,0,0:0:0:0:
196,112,131604,2,0,P|201:122|208:131,1,23.1000007049561,8|0,0:0|0:0,0:0:0:0:
370,250,131763,1,0,0:0:0:0:
301,188,131921,2,0,P|289:187|278:189,1,23.1000007049561,8|0,0:0|0:0,0:0:0:0:
134,263,132080,6,2,P|176:267|219:248,1,84,8|0,0:0|0:0,0:0:0:0:
251,54,132556,2,0,P|223:40|184:39,1,63,8|0,0:0|0:0,0:0:0:0:
169,43,132874,1,8,0:0:0:0:
134,263,133032,6,2,B|150:269|176:267|176:267|203:262|219:248,1,84,8|0,0:0|0:0,0:0:0:0:
169,43,133509,2,0,P|137:44|103:63,1,63,8|0,0:0|0:0,0:0:0:0:
92,74,133827,1,8,0:0:0:0:
134,263,133985,6,2,B|154:268|176:267|176:267|203:260|219:248,1,84,8|0,0:0|0:0,0:0:0:0:
92,74,134461,2,0,P|65:91|45:124,1,63,8|0,0:0|0:0,0:0:0:0:
41,139,134779,1,8,0:0:0:0:
214,251,134937,6,2,B|262:230|262:230|314:236,1,105,8|0,0:0|0:0,0:0:0:0:
460,348,135890,6,0,P|397:347|345:313,1,126
290,124,136128,2,0,P|297:52|310:-5,1,126
198,227,136366,2,0,P|192:294|178:351,1,126
116,132,136604,6,0,P|53:128|0:158,1,126
288,218,136842,6,0,B|346:223|346:223|311:199,1,84
143,105,137001,2,0,B|90:129|90:129|132:132,1,84
315,135,137159,2,0,B|348:87|348:87|310:105,1,84
144,204,137318,2,0,B|139:262|139:262|163:226,1,84
251,73,137477,2,0,B|226:20|226:20|223:62,1,84
223,273,137636,2,0,B|270:306|270:306|252:268,1,84
115,131,137794,6,0,P|52:132|0:167,1,126
138,365,138032,2,0,L|153:239,1,126
267,37,138271,6,0,B|239:72|239:72|233:120,1,84
392,83,138429,2,0,B|349:99|349:99|321:138,1,84
482,191,138588,2,0,B|437:184|437:184|393:203,1,84
153,239,138747,6,0,P|108:224|56:148,1,126
266,197,138985,2,0,P|297:232|304:324,1,126
158,139,139223,6,0,P|148:92|188:9,1,126
426,202,139461,1,0,0:0:0:0:
426,202,139580,1,0,0:0:0:0:
363,350,139699,6,0,B|370:340|370:340|348:333|348:333|359:299|359:299|340:269|357:229,1,126
252,86,139937,6,0,B|245:95|245:95|267:102|267:102|256:136|256:136|275:166|264:189,1,126
38,270,140175,6,0,B|45:260|45:260|23:253|23:253|34:219|34:219|15:189|27:167,1,126
186,218,140413,6,0,B|178:232|178:232|167:256|179:283|179:283|166:304|166:304|169:342,1,126
70,110,140651,6,0,P|41:95|11:95,3,63
294,85,141604,6,0,P|252:131|248:192,1,126
406,258,141842,6,0,P|386:199|335:164,1,126
163,176,142080,1,0,0:0:0:0:
160,181,142140,1,0,0:0:0:0:
158,187,142199,1,0,0:0:0:0:
157,193,142259,1,0,0:0:0:0:
156,199,142318,1,0,0:0:0:0:
156,205,142378,1,0,0:0:0:0:
157,211,142437,1,0,0:0:0:0:
159,217,142497,1,0,0:0:0:0:
161,222,142556,6,0,L|212:233,1,31.5
293,201,142675,2,0,L|263:195,1,31.5
141,227,142794,2,0,L|192:238,1,31.5
311,196,142913,2,0,L|280:189,1,31.5
130,301,143032,2,0,P|122:320|121:343,5,42
113,145,143509,6,0,P|65:113|-8:124,1,126
182,94,143826,2,0,P|204:80|221:57,1,42
373,30,143985,6,0,P|322:55|294:125,1,126
376,270,144302,2,0,P|374:296|363:322,1,42
299,219,144461,6,0,P|348:181|410:183,1,126
281,311,144778,2,0,P|257:323|229:326,1,42
78,288,144937,6,0,P|63:271|49:201,1,84
130,86,145175,2,0,L|122:59,4,21
274,249,145413,6,0,P|294:253|315:252,1,42
384,214,145572,6,0,P|398:198|407:179,1,42
409,101,145731,6,0,P|402:80|391:63,1,42
323,23,145890,6,0,P|302:18|281:19,1,42
213,57,146048,6,0,P|198:72|189:91,1,42
188,170,146207,6,0,P|194:190|205:207,1,42
315,252,146366,6,0,P|318:227|312:204,4,46.2000014099122,4|0|4|0|4,0:0|0:0|0:0|0:0|0:0,0:0:0:0:
255,328,147159,1,4,0:0:0:0:
213,57,147318,5,0,0:0:0:0:
166,216,147477,1,0,0:0:0:0:
131,244,147556,1,0,0:0:0:0:
85,246,147636,1,4,0:0:0:0:
326,122,147795,1,0,0:0:0:0:
148,113,147953,1,0,0:0:0:0:
171,74,148032,1,0,0:0:0:0:
213,57,148112,1,4,0:0:0:0:
441,235,148271,5,0,0:0:0:0:
303,351,148429,1,0,0:0:0:0:
319,308,148508,1,0,0:0:0:0:
311,262,148588,1,4,0:0:0:0:
148,113,148747,1,0,0:0:0:0:
371,144,148905,1,4,0:0:0:0:
407,161,148985,1,0,0:0:0:0:
429,192,149064,1,0,0:0:0:0:
192,343,149222,5,0,0:0:0:0:
174,313,149302,1,0,0:0:0:0:
175,279,149382,2,0,P|185:252|216:230,1,42
299,195,149540,1,0,0:0:0:0:
82,207,149699,5,0,0:0:0:0:
98,176,149779,1,0,0:0:0:0:
128,160,149859,2,0,P|156:155|190:171,1,42
299,195,150017,1,0,0:0:0:0:
142,47,150175,6,0,P|203:53|244:99,1,125.999996154785
279,104,150651,2,0,P|279:133|266:172,1,50.3999984619141
309,172,150890,2,0,P|294:197|264:224,1,50.3999984619141
61,273,151128,1,0,0:0:0:0:
135,325,151247,6,0,P|125:344|120:364,4,42
203,206,151604,5,0,0:0:0:0:
190,184,151664,1,0,0:0:0:0:
169,169,151723,1,0,0:0:0:0:
144,163,151783,1,0,0:0:0:0:
119,165,151842,1,0,0:0:0:0:
205,286,151961,5,0,0:0:0:0:
230,285,152021,1,0,0:0:0:0:
254,275,152080,1,0,0:0:0:0:
271,256,152140,1,0,0:0:0:0:
282,233,152199,2,0,P|322:212|377:221,1,84
424,158,152437,5,0,0:0:0:0:
448,167,152496,1,0,0:0:0:0:
468,184,152556,1,0,0:0:0:0:
482,205,152615,1,0,0:0:0:0:
489,229,152675,2,0,P|490:248|486:269,4,31.5
389,309,153032,2,0,P|389:326|399:351,4,31.5
325,236,153389,5,0,0:0:0:0:
301,226,153448,1,0,0:0:0:0:
275,223,153508,1,0,0:0:0:0:
250,228,153567,1,0,0:0:0:0:
227,240,153627,2,0,P|213:255|205:276,3,31.5
141,156,154103,5,8,0:0:0:0:
42,183,154222,1,8,0:0:0:0:
63,83,154341,1,8,0:0:0:0:
152,190,154460,5,8,0:0:0:0:
28,190,154579,1,8,0:0:0:0:
83,80,154698,1,8,0:0:0:0:
155,235,154817,5,8,0:0:0:0:
16,198,154936,1,8,0:0:0:0:
111,91,155055,1,8,0:0:0:0:
260,139,155174,5,8,0:0:0:0:
273,223,155293,1,8,0:0:0:0:
287,307,155412,1,8,0:0:0:0:
476,256,155532,5,8,0:0:0:0:
374,239,155651,1,8,0:0:0:0:
273,223,155770,1,8,0:0:0:0:
57,172,155889,5,8,0:0:0:0:
159,155,156008,1,8,0:0:0:0:
260,139,156127,1,8,0:0:0:0:
305,61,156246,1,0,0:0:0:0:
349,31,156365,1,0,0:0:0:0:
402,32,156484,1,0,0:0:0:0:
444,63,156603,1,0,0:0:0:0:
465,111,156722,1,0,0:0:0:0:
351,141,156841,2,0,P|305:151|260:139,1,94.500003604889
254,239,157436,6,0,P|226:264|212:302,1,63
135,308,157675,5,0,0:0:0:0:
61,272,157794,5,0,0:0:0:0:
71,37,157952,1,8,0:0:0:0:
248,67,158111,5,0,0:0:0:0:
57,250,158270,1,8,0:0:0:0:
210,197,158429,5,0,0:0:0:0:
0,132,158587,1,8,0:0:0:0:
215,286,158746,2,0,P|280:254|298:178,1,151.199995385742,8|0,0:0|0:0,0:0:0:0:
9,69,159341,2,0,L|-5:158,1,63
69,233,159579,2,0,L|80:159,1,63
255,36,159857,1,0,0:0:0:0:
512,262,160016,5,0,0:0:0:0:
310,220,160175,1,0,0:0:0:0:
416,174,160334,1,0,0:0:0:0:
336,378,160492,1,0,0:0:0:0:
224,246,160651,6,0,P|223:195|250:152,1,105,8|0,0:0|0:0,0:0:0:0:
370,95,161127,2,0,P|375:48|368:20,1,63,8|0,0:0|0:0,0:0:0:0:
93,84,161444,2,0,L|76:96,1,21,8|0,0:0|0:0,0:0:0:0:
93,84,161603,2,0,P|140:104|193:93,1,105,8|0,0:0|0:0,0:0:0:0:
251,150,162079,6,0,P|287:153|321:180,1,63,8|0,0:0|0:0,0:0:0:0:
376,319,162397,2,0,L|400:336,1,21,8|0,0:0|0:0,0:0:0:0:
376,319,162556,2,0,P|366:268|391:223,1,105,8|0,0:0|0:0,0:0:0:0:
288,304,163032,2,0,P|255:316|220:314,1,63,8|0,0:0|0:0,0:0:0:0:
211,311,163349,2,0,P|206:320|198:328,1,21,8|0,0:0|0:0,0:0:0:0:
256,192,163509,12,0,167794,0:0:0:0:
