osu file format v14

[General]
AudioFilename: audio.mp3
AudioLeadIn: 0
PreviewTime: 19373
Countdown: 0
SampleSet: Normal
StackLeniency: 0.7
Mode: 0
LetterboxInBreaks: 0
WidescreenStoryboard: 1

[Editor]
DistanceSpacing: 1
BeatDivisor: 8
GridSize: 4
TimelineZoom: 2.2

[Metadata]
Title:Dentist
TitleUnicode:Dentist
Artist:Igorrr
ArtistUnicode:Igorrr
Creator:Stamby
Version:Normal
Source:
Tags:breakcore baroquecore classical harpsichord nostril
BeatmapID:1125771
BeatmapSetID:530181

[Difficulty]
HPDrainRate:5
CircleSize:3.2
OverallDifficulty:5
ApproachRate:5
SliderMultiplier:1.99999990463257
SliderTickRate:1

[Events]
//Background and Video events
0,0,"ooh.jpg",0,0
//Break Periods
//Storyboard Layer 0 (Background)
//Storyboard Layer 1 (Fail)
//Storyboard Layer 2 (Pass)
//Storyboard Layer 3 (Foreground)
//Storyboard Layer 4 (Overlay)
//Storyboard Sound Samples

[TimingPoints]
40.6521739130435,666.666666666667,4,1,0,50,1,0
8707,-133.333333333333,4,1,0,50,0,0
9373,-100,4,1,0,50,0,0
15373,-133.333333333333,4,1,0,50,0,0
15873,-100,4,1,0,50,0,0
16040,-133.333333333333,4,1,0,50,0,0
16707,-100,4,1,0,50,0,0
27373,-133.333333333333,4,1,0,50,0,0
28040,-100,4,1,0,50,0,0
34040,-133.333333333333,4,1,0,50,0,0
34540,-100,4,1,0,50,0,0
34707,-133.333333333333,4,1,0,50,0,0
35373,-100,4,1,0,50,0,0
37040,-100,4,1,0,10,0,0

[Colours]
Combo1 : 220,205,118
Combo2 : 217,160,104

[HitObjects]
0,264,40,6,0,L|108:256,1,99.9999952316285,8|0,0:0|0:0,0:0:0:0:
132,160,707,1,2,0:0:0:0:
232,148,1040,2,0,P|272:140|296:140,1,49.9999976158142
328,160,1373,6,0,P|340:212|328:268,1,99.9999952316285,8|0,0:0|0:0,0:0:0:0:
280,344,2040,1,2,0:0:0:0:
328,356,2207,2,0,P|368:352|420:308,1,99.9999952316285
444,276,2707,6,0,L|456:172,1,99.9999952316285,8|0,0:0|0:0,0:0:0:0:
512,92,3373,1,2,0:0:0:0:
424,44,3707,2,0,P|396:48|372:48,1,49.9999976158142
328,32,4040,6,0,P|256:16|180:32,1,149.999992847443,8|0,0:0|0:0,0:0:0:0:
136,52,4707,1,2,0:0:0:0:
0,116,5207,1,0,0:0:0:0:
16,164,5373,6,0,L|44:272,2,99.9999952316285,8|0|2,0:0|0:0|0:0,0:0:0:0:
216,152,6707,2,0,P|236:148|244:144,4,24.9999988079071,8|0|0|0|0,0:0|0:0|0:0|0:0|0:0,0:0:0:0:
228,252,7373,2,0,P|280:240|324:208,1,99.9999952316285,2|0,0:0|0:0,0:0:0:0:
388,144,8040,5,8,0:0:0:0:
488,136,8373,2,0,P|488:160|476:192,1,49.9999976158143
464,220,8707,2,0,L|464:336,1,112.499998927116,2|0,0:0|0:0,0:0:0:0:
424,364,9373,5,8,0:0:0:0:
324,348,9707,2,0,P|296:340|268:340,1,49.9999976158143
224,344,10040,2,0,P|172:344|128:324,1,99.9999952316285,2|0,0:0|0:0,0:0:0:0:
84,304,10540,1,0,0:0:0:0:
40,280,10707,6,0,L|14:183,1,99.9999952316285,8|0,0:0|0:0,0:0:0:0:
16,84,11373,1,2,0:0:0:0:
64,92,11540,2,0,P|96:120|116:196,1,99.9999952316285
148,212,12040,6,0,P|200:228|256:220,1,99.9999952316285,8|0,0:0|0:0,0:0:0:0:
304,144,12707,1,2,0:0:0:0:
208,112,13040,1,0,0:0:0:0:
284,44,13373,6,0,L|404:36,1,99.9999952316285,8|0,0:0|0:0,0:0:0:0:
476,72,14040,2,0,P|472:140|512:208,1,149.999992847443,2|0,0:0|0:0,0:0:0:0:
512,260,14707,2,0,L|356:276,1,149.999992847443,8|0,0:0|0:0,0:0:0:0:
336,304,15373,2,0,L|216:316,1,112.499998927116,2|0,0:0|0:0,0:0:0:0:
196,292,16040,6,0,P|140:284|76:296,1,112.499998927116,8|0,0:0|0:0,0:0:0:0:
36,308,16707,1,2,0:0:0:0:
8,212,17040,2,0,P|16:176|16:152,1,49.9999976158143
20,112,17373,2,0,P|16:76|20:44,1,49.9999976158143,8|0,0:0|0:0,0:0:0:0:
64,44,17707,2,0,L|176:32,2,99.9999952316285
120,128,18707,6,0,L|188:120,1,49.9999976158143,8|0,0:0|0:0,0:0:0:0:
208,156,19040,2,0,L|220:268,1,99.9999952316285
156,336,19707,2,0,P|116:328|92:328,1,49.9999976158142
56,336,20040,6,0,P|24:296|16:236,1,99.9999952316285,8|0,0:0|0:0,0:0:0:0:
4,148,20707,1,2,0:0:0:0:
52,140,20874,2,0,P|100:128|144:92,1,99.9999952316285
176,64,21374,6,0,L|292:72,1,99.9999952316285,8|0,0:0|0:0,0:0:0:0:
364,120,22040,1,2,0:0:0:0:
396,216,22374,2,0,P|368:220|340:216,1,49.9999976158143
296,220,22707,6,0,P|224:244|164:292,1,149.999992847443,8|0,0:0|0:0,0:0:0:0:
156,336,23374,1,2,0:0:0:0:
52,228,23874,1,0,0:0:0:0:
28,184,24040,2,0,L|0:76,2,99.9999952316285,8|0|2,0:0|0:0|0:0,0:0:0:0:
224,132,25374,2,0,P|244:136|252:140,4,24.9999988079071,8|0|0|0|0,0:0|0:0|0:0|0:0|0:0,0:0:0:0:
224,32,26040,2,0,P|284:44|328:72,1,99.9999952316285,2|0,0:0|0:0,0:0:0:0:
348,160,26707,1,8,0:0:0:0:
304,248,27040,2,0,P|304:272|292:304,1,49.9999976158143
284,332,27373,2,0,L|400:332,1,112.499998927116,2|0,0:0|0:0,0:0:0:0:
444,352,28040,1,8,0:0:0:0:
476,260,28373,2,0,P|488:240|488:196,1,49.9999976158143
496,164,28707,2,0,P|444:172|384:164,1,99.9999952316285,2|0,0:0|0:0,0:0:0:0:
348,164,29207,1,0,0:0:0:0:
300,168,29373,6,0,L|196:172,1,99.9999952316285,8|0,0:0|0:0,0:0:0:0:
116,116,30040,2,0,P|100:192|152:256,1,149.999992847443,2|0,0:0|0:0,0:0:0:0:
184,268,30707,6,0,L|288:264,1,99.9999952316285,8|0,0:0|0:0,0:0:0:0:
300,168,31373,1,2,0:0:0:0:
332,72,31707,1,0,0:0:0:0:
428,92,32040,2,0,P|480:112|512:144,1,99.9999952316285,8|0,0:0|0:0,0:0:0:0:
424,192,32707,6,0,P|408:264|364:336,1,149.999992847443,2|0,0:0|0:0,0:0:0:0:
328,356,33373,2,0,P|252:364|176:344,1,149.999992847443,8|0,0:0|0:0,0:0:0:0:
148,328,34040,2,0,P|92:300|36:296,1,112.499998927116,2|0,0:0|0:0,0:0:0:0:
44,256,34707,2,0,L|44:128,1,112.499998927116,8|0,0:0|0:0,0:0:0:0:
16,100,35373,5,2,0:0:0:0:
108,64,35707,2,0,P|144:60|172:48,1,49.9999976158143
188,92,36040,1,8,0:0:0:0:
284,68,36373,2,0,P|288:92|280:136,1,49.9999976158143
256,156,36707,6,0,B|260:192|260:192|256:224|256:224|260:268,1,99.9999952316285,2|0,1:0|1:0,1:0:0:0:
