osu file format v14

[General]
AudioFilename: audio.mp3
AudioLeadIn: 0
PreviewTime: 19373
Countdown: 0
SampleSet: Normal
StackLeniency: 0.7
Mode: 0
LetterboxInBreaks: 0
WidescreenStoryboard: 1

[Editor]
DistanceSpacing: 1.3
BeatDivisor: 8
GridSize: 4
TimelineZoom: 1

[Metadata]
Title:Dentist
TitleUnicode:Dentist
Artist:Igorrr
ArtistUnicode:Igorrr
Creator:Stamby
Version:????
Source:
Tags:breakcore baroquecore classical harpsichord nostril
BeatmapID:1123975
BeatmapSetID:530181

[Difficulty]
HPDrainRate:7
CircleSize:4.2
OverallDifficulty:7
ApproachRate:9
SliderMultiplier:2.79999990463257
SliderTickRate:1

[Events]
//Background and Video events
0,0,"ooh.jpg",0,0
//Break Periods
//Storyboard Layer 0 (Background)
//Storyboard Layer 1 (Fail)
//Storyboard Layer 2 (Pass)
//Storyboard Layer 3 (Foreground)
//Storyboard Layer 4 (Overlay)
//Storyboard Sound Samples

[TimingPoints]
40.6521739130435,666.666666666667,4,1,0,50,1,0
8707,-133.333333333333,4,1,0,50,0,0
9373,-100,4,1,0,50,0,0
15373,-133.333333333333,4,1,0,50,0,0
15873,-100,4,1,0,50,0,0
16040,-133.333333333333,4,1,0,50,0,0
16707,-100,4,1,0,50,0,0
27373,-133.333333333333,4,1,0,50,0,0
28040,-100,4,1,0,50,0,0
34040,-133.333333333333,4,1,0,50,0,0
34540,-100,4,1,0,50,0,0
34707,-133.333333333333,4,1,0,50,0,0
35373,-100,4,1,0,50,0,0
37040,-100,4,1,0,10,0,0

[Colours]
Combo1 : 220,205,118
Combo2 : 217,160,104

[HitObjects]
512,128,40,6,8,L|496:276,1,139.999995231628,8|0,0:0|0:0,0:0:0:0:
464,352,540,2,0,P|440:364|404:368,1,34.9999988079071
340,364,707,2,0,P|328:308|340:260,1,104.999996423721,2|0,0:0|0:0,0:0:0:0:
288,184,1040,2,0,P|344:172|392:184,1,104.999996423721
296,80,1373,6,0,P|224:88|156:76,1,139.999995231629,8|0,0:0|0:0,0:0:0:0:
180,212,1873,1,0,0:0:0:0:
72,132,2040,2,0,L|64:44,1,69.9999976158143,2|0,0:0|0:0,0:0:0:0:
68,244,2373,1,0,0:0:0:0:
228,160,2540,1,0,0:0:0:0:
164,328,2707,6,0,L|152:180,1,139.999995231629,8|0,0:0|0:0,0:0:0:0:
168,100,3207,1,0,0:0:0:0:
272,188,3373,2,0,P|304:200|356:200,1,69.9999976158143,2|0,0:0|0:0,0:0:0:0:
448,120,3707,2,0,P|440:152|452:200,1,69.9999976158143
512,68,4040,6,0,P|460:36|384:64,1,139.999995231629,8|0,0:0|0:0,0:0:0:0:
328,124,4540,1,0,0:0:0:0:
268,56,4707,2,0,P|220:60|192:52,1,69.9999976158143,2|0,0:0|0:0,0:0:0:0:
252,228,5040,2,0,L|244:156,1,69.9999976158143
116,112,5373,6,0,P|72:112|40:124,1,69.9999976158143,8|0,0:0|0:0,0:0:0:0:
64,256,5707,2,0,P|108:256|140:244,1,69.9999976158143
136,340,6040,2,0,L|284:320,1,139.999995231629,2|0,0:0|0:0,0:0:0:0:
360,284,6540,1,0,0:0:0:0:
308,160,6707,2,0,L|264:144,3,34.9999988079071,8|0|0|0,0:0|0:0|0:0|0:0,0:0:0:0:
404,100,7040,2,0,L|396:28,1,69.9999976158143
476,144,7373,2,0,L|487:283,1,139.999995231629,2|0,0:0|0:0,0:0:0:0:
500,372,7873,1,0,0:0:0:0:
364,248,8040,6,0,P|332:228|280:212,1,69.9999976158143,8|0,0:0|0:0,0:0:0:0:
164,232,8373,1,0,0:0:0:0:
216,68,8540,1,0,0:0:0:0:
216,68,8623,1,0,0:0:0:0:
216,68,8707,2,0,L|232:204,1,131.250000536442,2|0,0:0|0:0,0:0:0:0:
256,332,9207,2,0,L|248:272,1,52.5000002145768,0|8,0:0|0:0,0:0:0:0:
136,140,9707,5,0,0:0:0:0:
120,276,9873,1,0,0:0:0:0:
231,198,10040,2,0,L|316:184,1,69.9999976158143,2|0,0:0|0:0,0:0:0:0:
400,92,10373,2,0,L|315:78,1,69.9999976158143
432,172,10707,6,0,P|472:140|484:76,1,104.999996423721,8|0,0:0|0:0,0:0:0:0:
492,228,11040,2,0,L|512:332,1,104.999996423721
380,360,11373,2,0,L|364:280,1,69.9999976158143,2|0,0:0|0:0,0:0:0:0:
276,188,11707,2,0,P|248:164|188:152,1,69.9999976158143
116,244,12040,6,0,L|104:168,1,69.9999976158143,8|0,0:0|0:0,0:0:0:0:
144,44,12373,2,0,P|100:32|32:36,1,104.999996423721
156,120,12707,2,0,P|200:100|220:68,1,69.9999976158143,2|0,0:0|0:0,0:0:0:0:
200,220,13040,1,0,0:0:0:0:
336,188,13207,1,0,0:0:0:0:
292,268,13373,6,0,L|284:356,1,69.9999976158143,8|0,0:0|0:0,0:0:0:0:
268,200,13707,1,0,0:0:0:0:
396,140,13873,1,0,0:0:0:0:
168,136,14040,2,0,P|168:204|228:256,1,139.999995231629,2|0,0:0|0:0,0:0:0:0:
316,48,14540,2,0,P|312:76|320:108,1,34.9999988079071
440,128,14707,6,0,P|456:72|448:16,1,104.999996423721,8|0,0:0|0:0,0:0:0:0:
368,136,15040,2,0,L|360:232,1,69.9999976158143
224,216,15373,2,0,B|136:208|136:208|156:176,1,105.000000429154,2|0,0:0|0:0,0:0:0:0:
216,76,15873,1,0,0:0:0:0:
216,76,15957,1,0,0:0:0:0:
216,76,16040,2,0,L|288:84,1,52.5000002145768,8|0,0:0|0:0,0:0:0:0:
104,40,16373,2,0,L|32:32,1,52.5000002145768
48,172,16707,6,0,P|40:208|48:248,1,69.9999976158143,2|0,0:0|0:0,0:0:0:0:
140,144,17040,1,0,0:0:0:0:
8,108,17207,1,8,0:0:0:0:
140,236,17373,2,0,L|220:236,1,69.9999976158143,8|0,0:0|0:0,0:0:0:0:
84,292,17707,1,0,0:0:0:0:
304,236,18040,1,0,0:0:0:0:
84,180,18373,1,0,0:0:0:0:
376,308,18707,6,0,P|412:312|456:308,1,69.9999976158143,8|0,0:0|0:0,0:0:0:0:
225,253,19040,1,0,0:0:0:0:
445,197,19373,1,0,0:0:0:0:
236,104,19707,2,0,P|216:68|216:28,1,69.9999976158143
396,24,20040,6,0,B|296:48|296:48|320:76|320:108,1,139.999995231629,8|0,0:0|0:0,0:0:0:0:
356,164,20540,1,0,0:0:0:0:
464,80,20707,2,0,P|484:40|480:4,1,69.9999976158143,2|0,0:0|0:0,0:0:0:0:
492,152,21040,1,0,0:0:0:0:
356,164,21207,2,0,P|348:192|348:208,1,34.9999988079071
432,228,21373,6,0,L|272:248,1,139.999995231629,8|0,0:0|0:0,0:0:0:0:
236,172,21873,1,0,0:0:0:0:
156,132,22040,2,0,L|76:128,1,69.9999976158143,2|0,0:0|0:0,0:0:0:0:
200,52,22373,1,0,0:0:0:0:
108,208,22540,1,0,0:0:0:0:
236,172,22707,6,0,L|374:154,1,139.999995231629,8|0,0:0|0:0,0:0:0:0:
432,228,23207,1,0,0:0:0:0:
420,316,23373,2,0,P|412:352|416:384,1,69.9999976158143,2|0,0:0|0:0,0:0:0:0:
500,276,23707,1,0,0:0:0:0:
364,264,23873,2,0,P|336:260|316:260,1,34.9999988079071
252,304,24040,6,0,P|200:308|136:300,1,104.999996423721,8|0,0:0|0:0,0:0:0:0:
172,216,24373,2,0,P|177:163|173:111,1,104.999996423721
96,64,24707,2,0,P|84:100|96:148,1,69.9999976158143,2|0,0:0|0:0,0:0:0:0:
272,132,25040,2,0,P|280:96|272:48,1,69.9999976158143
100,204,25373,6,0,L|60:208,3,34.9999988079071,8|0|0|0,0:0|0:0|0:0|0:0,0:0:0:0:
116,284,25707,2,0,L|40:292,1,69.9999976158143
172,232,26040,2,0,L|312:216,1,139.999995231629,2|0,0:0|0:0,0:0:0:0:
268,136,26540,1,0,0:0:0:0:
384,64,26707,6,8,P|424:60|468:68,1,69.9999976158143,8|0,0:0|0:0,0:0:0:0:
272,44,27040,1,0,0:0:0:0:
416,156,27207,1,0,0:0:0:0:
416,156,27290,1,0,0:0:0:0:
416,156,27373,2,0,L|412:296,1,131.250000536442,2|0,0:0|0:0,0:0:0:0:
504,224,27873,6,0,L|508:164,1,52.5000002145768,0|8,0:0|0:0,0:0:0:0:
280,140,28373,2,0,P|244:140|204:132,1,69.9999976158143
96,60,28707,2,2,P|44:61|-3:94,1,104.999996423721,2|0,0:0|0:0,0:0:0:0:
32,176,29040,2,0,P|83:174|131:141,1,104.999996423721
164,228,29373,6,0,P|220:228|272:248,1,104.999996423721,8|0,0:0|0:0,0:0:0:0:
348,280,29707,2,0,P|388:284|428:280,1,69.9999976158143
236,308,30040,2,0,L|148:304,1,69.9999976158143,2|0,0:0|0:0,0:0:0:0:
324,212,30373,1,0,0:0:0:0:
216,128,30540,2,0,L|164:124,1,34.9999988079071
232,48,30707,6,0,P|284:80|296:136,1,104.999996423721,8|0,0:0|0:0,0:0:0:0:
384,96,31040,2,0,L|488:88,1,104.999996423721
476,180,31373,2,0,P|480:216|476:252,1,69.9999976158143,2|0,0:0|0:0,0:0:0:0:
384,96,31707,2,0,L|376:24,1,69.9999976158143
240,28,32040,6,0,P|188:36|128:24,1,104.999996423721,8|0,0:0|0:0,0:0:0:0:
76,96,32373,2,0,L|56:204,1,104.999996423721
4,276,32707,2,0,P|0:312|4:348,1,69.9999976158143,2|0,0:0|0:0,0:0:0:0:
172,280,33040,1,0,0:0:0:0:
56,199,33207,2,0,P|76:204|96:204,1,34.9999988079071
180,196,33373,6,0,P|224:212|256:268,1,104.999996423721,8|0,0:0|0:0,0:0:0:0:
324,320,33707,2,0,L|340:248,1,69.9999976158143
304,120,34040,2,0,P|256:88|208:76,1,105.000000429154,2|0,0:0|0:0,0:0:0:0:
84,124,34540,1,0,0:0:0:0:
84,124,34623,1,0,0:0:0:0:
84,124,34707,6,0,L|32:113,1,52.5000002145768,8|0,0:0|0:0,0:0:0:0:
191,169,35040,2,0,L|242:179,1,52.5000002145768
52,308,35373,2,0,P|116:308|164:252,1,139.999995231629,2|0,0:0|0:0,0:0:0:0:
152,164,35873,1,0,0:0:0:0:
80,108,36040,2,0,P|52:172|80:232,1,139.999995231629,8|0,0:0|0:0,0:0:0:0:
212,260,36540,1,0,0:0:0:0:
256,68,36707,6,0,B|264:112|264:112|256:156|256:156|268:220,1,139.999995231629,2|0,0:0|0:0,0:0:0:0:
