osu file format v14

[General]
AudioFilename: audio.mp3
AudioLeadIn: 0
PreviewTime: 28033
Countdown: 0
SampleSet: Soft
StackLeniency: 0.7
Mode: 0
LetterboxInBreaks: 0
WidescreenStoryboard: 0

[Editor]
DistanceSpacing: 1.3
BeatDivisor: 6
GridSize: 4
TimelineZoom: 1

[Metadata]
Title:Dentist
TitleUnicode:Dentist
Artist:Igorrr
ArtistUnicode:Igorrr
Creator:-Space-
Version:Normal
Source:
Tags:edm electric electronic classic classical nostril
BeatmapID:1040827
BeatmapSetID:488164

[Difficulty]
HPDrainRate:4
CircleSize:3
OverallDifficulty:4
ApproachRate:4
SliderMultiplier:1.3
SliderTickRate:1

[Events]
//Background and Video events
0,0,"123123.jpg",0,0
//Break Periods
//Storyboard Layer 0 (Background)
//Storyboard Layer 1 (Fail)
//Storyboard Layer 2 (Pass)
//Storyboard Layer 3 (Foreground)
//Storyboard Sound Samples

[TimingPoints]
33.6521739130435,666.666666666667,4,2,1,40,1,0
37366,-100,4,2,1,20,0,0
38700,-100,4,2,1,10,0,0
40033,-100,4,2,1,5,0,0

[Colours]
Combo1 : 133,88,65
Combo2 : 87,40,40
Combo3 : 50,28,74
Combo4 : 52,55,122

[HitObjects]
104,112,33,6,0,B|168:100|168:100|204:104|232:132,1,130,4|0,0:0|0:0,0:0:0:0:
272,200,1033,1,0,0:0:0:0:
236,276,1366,2,0,P|304:280|352:228,1,130,2|0,0:0|0:0,0:0:0:0:
348,156,2366,1,0,0:0:0:0:
284,100,2700,6,0,B|248:84|216:96|216:96|184:108|152:92,1,130,4|0,0:0|0:0,0:0:0:0:
84,56,3700,1,0,0:0:0:0:
44,132,4033,2,0,P|24:204|40:284,1,130,2|0,0:0|0:0,0:0:0:0:
188,320,5366,6,0,B|224:316|248:288|248:288|280:304|324:288,1,130,4|0,0:0|0:0,0:0:0:0:
360,224,6366,1,0,0:0:0:0:
356,140,6700,2,0,P|324:144|284:184,1,65,4|0,0:0|0:0,0:0:0:0:
224,208,7366,2,0,L|140:204,1,65,2|0,0:0|0:0,0:0:0:0:
140,124,8033,2,0,P|70:131|89:184,1,130
108,348,9366,6,0,P|172:348|260:328,1,130,4|0,0:0|0:0,0:0:0:0:
300,276,10366,1,0,0:0:0:0:
372,232,10700,2,0,P|312:192|232:224,1,130,2|0,0:0|0:0,0:0:0:0:
188,244,11700,1,0,0:0:0:0:
108,216,12033,6,0,P|56:152|32:60,1,130,4|0,0:0|0:0,0:0:0:0:
36,24,13033,1,0,0:0:0:0:
120,36,13366,2,0,B|153:41|153:41|202:79|202:79|245:87,1,130,2|0,0:0|0:0,0:0:0:0:
324,228,14700,6,0,L|360:296,1,65,4|0,0:0|0:0,0:0:0:0:
280,324,15366,2,0,L|244:256,1,65
164,260,16033,2,0,B|188:200|188:200|260:176,1,130,4|2,0:0|0:0,0:0:0:0:
332,160,17033,1,0,0:0:0:0:
384,228,17366,6,0,P|412:192|416:156,1,65
400,92,18033,1,2,0:0:0:0:
316,72,18366,1,2,0:0:0:0:
240,112,18700,6,0,P|200:128|168:132,1,65
96,120,19366,1,2,0:0:0:0:
36,180,19700,1,2,0:0:0:0:
52,264,20033,6,0,B|84:296|84:296|180:264,1,130,2|0,0:0|0:0,0:0:0:0:
248,244,21033,1,0,0:0:0:0:
256,160,21366,6,0,B|288:140|324:152|324:152|360:164|392:140,1,130,4|0,0:0|0:0,0:0:0:0:
428,76,22366,1,0,0:0:0:0:
344,60,22700,2,0,P|272:56|200:84,1,130,2|0,0:0|0:0,0:0:0:0:
144,228,24033,6,0,P|148:268|144:308,1,65,4|0,0:0|0:0,0:0:0:0:
72,332,24700,2,0,L|212:356,1,130,0|4,0:0|0:0,0:0:0:0:
272,304,25700,1,0,0:0:0:0:
356,304,26033,2,0,P|396:312|428:300,1,65,2|0,0:0|0:0,0:0:0:0:
444,224,26700,2,0,L|408:148,1,65
344,120,27366,1,0,0:0:0:0:
196,40,28033,6,0,P|133:26|72:68,1,130,4|0,0:0|0:0,0:0:0:0:
44,136,29033,1,0,0:0:0:0:
64,216,29366,2,0,B|68:256|56:296|56:296|80:352,1,130,2|0,0:0|0:0,0:0:0:0:
160,344,30366,1,0,0:0:0:0:
212,276,30700,6,0,P|252:248|336:244,1,130,4|0,0:0|0:0,0:0:0:0:
408,280,31700,1,0,0:0:0:0:
456,208,32033,2,0,P|480:160|480:76,1,130,2|0,0:0|0:0,0:0:0:0:
324,24,33366,6,0,P|292:36|264:60,1,65,4|0,0:0|0:0,0:0:0:0:
240,136,34033,2,0,P|246:169|265:201,1,65
312,264,34700,2,0,B|284:284|248:280|248:280|240:288|240:288|212:276|148:300,1,130,4|0,0:0|0:0,0:0:0:0:
112,324,35700,1,0,0:0:0:0:
120,240,36033,6,0,P|148:216|196:204,1,65
261,196,36700,1,0,0:0:0:0:
312,264,37033,1,0,0:0:0:0:
256,192,37366,12,0,40033,2:2:0:0:
