osu file format v14

[General]
AudioFilename: audio.mp3
AudioLeadIn: 0
PreviewTime: 28033
Countdown: 0
SampleSet: Soft
StackLeniency: 0.7
Mode: 0
LetterboxInBreaks: 0
WidescreenStoryboard: 0

[Editor]
DistanceSpacing: 1.3
BeatDivisor: 6
GridSize: 4
TimelineZoom: 1

[Metadata]
Title:Dentist
TitleUnicode:Dentist
Artist:Igorrr
ArtistUnicode:Igorrr
Creator:-Space-
Version:Baroque
Source:
Tags:edm electric electronic classic classical nostril
BeatmapID:1047267
BeatmapSetID:488164

[Difficulty]
HPDrainRate:6
CircleSize:4
OverallDifficulty:6
ApproachRate:7
SliderMultiplier:1.9
SliderTickRate:1

[Events]
//Background and Video events
0,0,"123123.jpg",0,0
//Break Periods
//Storyboard Layer 0 (Background)
//Storyboard Layer 1 (Fail)
//Storyboard Layer 2 (Pass)
//Storyboard Layer 3 (Foreground)
//Storyboard Sound Samples

[TimingPoints]
33.6521739130435,666.666666666667,4,2,1,40,1,0
37366,-100,4,2,1,20,0,0
38700,-100,4,2,1,10,0,0
40033,-100,4,2,1,5,0,0

[Colours]
Combo1 : 133,88,65
Combo2 : 87,40,40
Combo3 : 50,28,74
Combo4 : 52,55,122

[HitObjects]
56,160,33,6,0,B|104:140|148:168|148:168|188:196|244:172,1,190,4|0,0:0|0:0,0:0:0:0:
308,44,1033,1,0,0:0:0:0:
308,196,1366,2,0,B|316:232|352:248|352:248|280:276|296:360,1,190,2|0,0:0|0:0,0:0:0:0:
412,380,2255,2,0,L|368:320,1,63.3333333333333
308,196,2700,6,0,B|248:124|248:124|136:132,1,190,4|0,0:0|2:2,0:0:0:0:
20,204,3700,1,0,0:0:0:0:
44,276,3866,1,0,0:0:0:0:
100,328,4033,2,0,P|184:344|228:252,1,190,2|0,0:0|0:0,0:0:0:0:
244,36,5200,1,0,0:0:0:0:
244,36,5366,6,0,P|198:24|152:34,1,95,4|0,0:0|0:0,0:0:0:0:
128,184,6033,2,0,P|144:240|112:304,1,95
48,236,6533,1,0,0:0:0:0:
48,144,6700,2,0,L|44:108,4,23.75,4|0|0|0|0,0:0|0:0|0:0|0:0|0:0,0:0:0:0:
128,184,7200,1,0,0:0:0:0:
200,152,7366,2,0,P|244:132|296:140,1,95,2|0,0:0|0:0,0:0:0:0:
428,196,8033,5,0,0:0:0:0:
400,364,8366,1,0,0:0:0:0:
252,280,8700,1,0,0:0:0:0:
288,72,9033,1,0,0:0:0:0:
104,348,9366,6,0,P|88:276|112:192,1,142.5,4|0,0:0|0:0,0:0:0:0:
156,156,10033,2,0,L|256:140,1,95
396,188,10700,2,0,P|430:146|349:51,1,190,2|0,0:0|0:0,0:0:0:0:
272,100,11589,2,0,P|232:108|188:84,1,63.3333333333333
116,56,12033,6,0,B|64:136|64:136|64:244,1,190,4|0,0:0|0:0,0:0:0:0:
200,300,13033,1,0,0:0:0:0:
284,96,13366,2,0,P|368:88|404:192,1,190,2|0,0:0|0:0,0:0:0:0:
200,300,14533,1,0,0:0:0:0:
204,304,14700,6,0,B|164:312|164:312|84:296,1,95,4|0,0:0|0:0,0:0:0:0:
112,148,15366,2,0,P|128:112|112:52,1,95
44,100,15866,1,0,0:0:0:0:
16,184,16033,2,0,L|24:224,4,23.75,4|0|0|0|0,0:0|0:0|0:0|0:0|0:0,0:0:0:0:
44,100,16533,1,0,0:0:0:0:
80,20,16700,2,0,P|128:12|172:40,1,95,2|0,0:0|0:0,0:0:0:0:
292,112,17366,5,0,0:0:0:0:
304,224,17533,1,0,0:0:0:0:
416,212,17700,2,0,P|472:204|508:220,2,95,0|2|0,0:0|0:0|0:0,0:0:0:0:
292,80,18700,5,0,0:0:0:0:
304,192,18867,1,0,0:0:0:0:
416,180,19033,2,0,P|472:172|508:188,2,95,0|2|2,0:0|0:0|0:0,0:0:0:0:
260,240,20033,6,0,P|196:272|100:188,1,190,2|0,0:0|0:0,0:0:0:0:
68,112,20922,2,0,L|40:32,1,63.3333333333333
128,0,21366,6,0,L|190:179,1,190,4|0,0:0|0:0,0:0:0:0:
316,264,22366,1,0,0:0:0:0:
356,200,22533,1,0,0:0:0:0:
396,136,22700,2,0,P|368:92|220:76,1,190,2|0,0:0|0:0,0:0:0:0:
92,252,23866,1,0,0:0:0:0:
92,252,24033,6,0,P|140:304|196:316,1,95,4|0,0:0|0:0,0:0:0:0:
308,308,24700,2,0,L|404:296,1,95
440,228,25200,1,0,0:0:0:0:
368,180,25366,2,0,L|328:184,4,23.75,4|0|0|0|0,0:0|0:0|0:0|0:0|0:0,0:0:0:0:
428,116,25866,1,0,0:0:0:0:
364,72,26033,2,0,L|264:80,1,95,2|0,0:0|0:0,0:0:0:0:
120,108,26700,5,0,0:0:0:0:
84,300,27033,1,0,0:0:0:0:
240,252,27366,1,0,0:0:0:0:
268,36,27700,1,0,0:0:0:0:
340,308,28033,6,0,B|384:296|416:324|416:324|452:272,1,142.5,4|0,0:0|0:0,0:0:0:0:
484,208,28700,2,0,P|500:160|480:108,1,95
356,32,29366,2,0,P|312:6|321:93,1,190,2|0,0:0|0:0,0:0:0:0:
408,140,30255,2,0,P|381:178|345:189,1,63.3333333333333
264,180,30700,6,0,P|236:216|284:356,1,190,4|0,0:0|0:0,0:0:0:0:
392,260,31700,1,0,0:0:0:0:
328,124,32033,2,0,B|284:84|228:104|228:104|140:76,1,190,2|0,0:0|0:0,0:0:0:0:
44,284,33200,1,0,0:0:0:0:
44,284,33366,6,0,P|84:312|136:320,1,95,4|0,0:0|0:0,0:0:0:0:
284,316,34033,2,0,P|344:316|392:344,1,95
440,368,34533,1,0,0:0:0:0:
452,272,34700,2,0,L|440:300,4,23.75,4|0|0|0|0,0:0|0:0|0:0|0:0|0:0,0:0:0:0:
444,196,35200,1,0,0:0:0:0:
504,148,35366,2,0,P|464:120|396:136,1,95,2|0,0:0|0:0,0:0:0:0:
436,328,36033,5,0,0:0:0:0:
216,264,36366,1,0,0:0:0:0:
284,60,36700,1,0,0:0:0:0:
500,120,37033,1,0,0:0:0:0:
256,192,37366,12,0,40033,2:2:0:0:
