osu file format v14

[General]
AudioFilename: audio.mp3
AudioLeadIn: 0
PreviewTime: -1
Countdown: 1
SampleSet: None
StackLeniency: 0.7
Mode: 3
LetterboxInBreaks: 0
SpecialStyle: 0
WidescreenStoryboard: 1

[Editor]
DistanceSpacing: 0.9
BeatDivisor: 4
GridSize: 16
TimelineZoom: 3.399998

[Metadata]
Title:Barbecue
TitleUnicode:Barbecue
Artist:Igorrr
ArtistUnicode:Igorrr
Creator:Adri
Version:Cooked Beef
Source:
Tags:
BeatmapID:1387565
BeatmapSetID:543258

[Difficulty]
HPDrainRate:8
CircleSize:4
OverallDifficulty:8
ApproachRate:5
SliderMultiplier:1.4
SliderTickRate:1

[Events]
//Background and Video events
//Break Periods
//Storyboard Layer 0 (Background)
//Storyboard Layer 1 (Fail)
//Storyboard Layer 2 (Pass)
//Storyboard Layer 3 (Foreground)
//Storyboard Sound Samples

[TimingPoints]
668,400,4,2,0,100,1,0
668,-75,4,2,0,100,0,0
51068,300,4,2,0,100,1,0
51068,-100,4,2,0,100,0,0
99668,400,4,2,0,100,1,0
99668,-75,4,2,0,100,0,0
123118,300,4,2,0,100,1,0
123118,-100,4,2,0,100,0,0
148280,300,4,2,0,100,1,0
148280,-100,4,2,0,100,0,0

[HitObjects]
64,192,668,5,0,0:0:0:0:
192,192,1069,5,0,0:0:0:0:
448,192,1469,1,0,0:0:0:0:
64,192,1869,1,0,0:0:0:0:
320,192,2269,1,0,0:0:0:0:
448,192,2669,1,0,0:0:0:0:
448,192,3069,1,0,0:0:0:0:
320,192,3468,1,0,0:0:0:0:
192,192,3868,1,0,0:0:0:0:
448,192,4269,1,0,0:0:0:0:
64,192,4669,1,0,0:0:0:0:
192,192,5068,1,0,0:0:0:0:
448,192,5468,1,0,0:0:0:0:
64,192,5868,1,0,0:0:0:0:
320,192,6069,1,0,0:0:0:0:
64,192,6268,1,0,0:0:0:0:
448,192,6469,1,0,0:0:0:0:
192,192,6669,1,0,0:0:0:0:
64,192,7068,1,0,0:0:0:0:
448,192,7268,1,0,0:0:0:0:
64,192,7468,1,0,0:0:0:0:
320,192,7669,1,0,0:0:0:0:
64,192,7869,1,0,0:0:0:0:
448,192,8268,1,0,0:0:0:0:
64,192,8469,1,0,0:0:0:0:
448,192,8669,1,0,0:0:0:0:
64,192,9069,1,0,0:0:0:0:
192,192,9468,1,0,0:0:0:0:
320,192,9869,1,0,0:0:0:0:
64,192,10269,1,0,0:0:0:0:
192,192,10669,1,0,0:0:0:0:
448,192,11069,1,0,0:0:0:0:
64,192,11469,1,0,0:0:0:0:
192,192,11869,1,0,0:0:0:0:
448,192,12269,1,0,0:0:0:0:
448,192,12669,1,0,0:0:0:0:
64,192,13069,1,0,0:0:0:0:
64,192,13469,1,0,0:0:0:0:
448,192,13869,1,0,0:0:0:0:
64,192,14269,1,0,0:0:0:0:
192,192,14668,1,0,0:0:0:0:
448,192,15069,1,0,0:0:0:0:
64,192,15468,1,0,0:0:0:0:
320,192,15669,1,0,0:0:0:0:
64,192,15868,1,0,0:0:0:0:
448,192,16069,1,0,0:0:0:0:
64,192,16269,1,0,0:0:0:0:
192,192,16669,1,0,0:0:0:0:
448,192,16869,1,0,0:0:0:0:
320,192,17069,1,0,0:0:0:0:
192,192,17269,1,0,0:0:0:0:
64,192,17469,1,0,0:0:0:0:
192,192,17869,1,0,0:0:0:0:
64,192,18069,1,0,0:0:0:0:
320,192,18269,1,0,0:0:0:0:
192,192,18469,1,0,0:0:0:0:
64,192,18669,1,0,0:0:0:0:
192,192,19069,1,0,0:0:0:0:
320,192,19469,1,0,0:0:0:0:
320,192,19869,128,0,20269:0:0:0:0:
64,192,20268,1,0,0:0:0:0:
448,192,20669,1,0,0:0:0:0:
320,192,21069,128,0,21469:0:0:0:0:
64,192,21468,1,0,0:0:0:0:
320,192,21869,1,0,0:0:0:0:
448,192,22269,128,0,22669:0:0:0:0:
64,192,22668,1,0,0:0:0:0:
448,192,23069,1,0,0:0:0:0:
448,192,23469,128,0,23869:0:0:0:0:
64,192,23868,1,0,0:0:0:0:
448,192,24269,1,0,0:0:0:0:
192,192,24669,128,0,25069:0:0:0:0:
64,192,25069,1,0,0:0:0:0:
448,192,25469,1,0,0:0:0:0:
320,192,25868,128,0,26268:0:0:0:0:
64,192,26269,1,0,0:0:0:0:
448,192,26669,1,0,0:0:0:0:
448,192,27069,128,0,27469:0:0:0:0:
192,192,27469,1,0,0:0:0:0:
320,192,27868,1,0,0:0:0:0:
320,192,28269,128,0,28669:0:0:0:0:
64,192,28668,1,0,0:0:0:0:
320,192,29068,1,0,0:0:0:0:
320,192,29469,128,0,29869:0:0:0:0:
192,192,29869,1,0,0:0:0:0:
448,192,30269,1,0,0:0:0:0:
64,192,30668,128,0,31468:0:0:0:0:
448,192,30669,128,0,31069:0:0:0:0:
192,192,31069,1,0,0:0:0:0:
448,192,31469,1,0,0:0:0:0:
192,192,31868,1,0,0:0:0:0:
320,192,31869,1,0,0:0:0:0:
64,192,32268,128,0,32668:0:0:0:0:
192,192,32669,1,0,0:0:0:0:
320,192,33068,1,0,0:0:0:0:
64,192,33069,1,0,0:0:0:0:
448,192,33069,128,0,34269:0:0:0:0:
192,192,34168,1,0,0:0:0:0:
320,192,34268,1,0,0:0:0:0:
64,192,34269,1,0,0:0:0:0:
64,192,34669,1,0,0:0:0:0:
448,192,34669,1,0,0:0:0:0:
448,192,35069,1,0,0:0:0:0:
64,192,35069,1,0,0:0:0:0:
192,192,35469,1,0,0:0:0:0:
320,192,35469,1,0,0:0:0:0:
64,192,36668,128,0,36968:0:0:0:0:
448,192,36668,128,0,36968:0:0:0:0:
192,192,37068,128,0,37368:0:0:0:0:
320,192,37068,128,0,37368:0:0:0:0:
64,192,37468,1,0,0:0:0:0:
448,192,37468,1,0,0:0:0:0:
320,192,37869,1,0,0:0:0:0:
448,192,37869,128,0,38269:0:0:0:0:
192,192,38269,1,0,0:0:0:0:
320,192,38269,128,0,38669:0:0:0:0:
64,192,38669,1,0,0:0:0:0:
192,192,38669,128,0,39069:0:0:0:0:
64,192,39069,1,0,0:0:0:0:
448,192,39268,1,0,0:0:0:0:
64,192,39468,1,0,0:0:0:0:
448,192,39669,1,0,0:0:0:0:
64,192,39801,128,0,40268:0:0:0:0:
320,192,40269,1,0,0:0:0:0:
448,192,40269,1,0,0:0:0:0:
64,192,41469,1,0,0:0:0:0:
320,192,41469,1,0,0:0:0:0:
448,192,41668,1,0,0:0:0:0:
64,192,41868,1,0,0:0:0:0:
320,192,42068,1,0,0:0:0:0:
64,192,42269,1,0,0:0:0:0:
448,192,42468,1,0,0:0:0:0:
64,192,42668,1,0,0:0:0:0:
192,192,42868,1,0,0:0:0:0:
64,192,43068,1,0,0:0:0:0:
320,192,43268,1,0,0:0:0:0:
192,192,43468,1,0,0:0:0:0:
448,192,43668,1,0,0:0:0:0:
192,192,43868,1,0,0:0:0:0:
64,192,43869,1,0,0:0:0:0:
320,192,44268,1,0,0:0:0:0:
448,192,44268,1,0,0:0:0:0:
64,192,44668,1,0,0:0:0:0:
192,192,44668,1,0,0:0:0:0:
448,192,45069,128,0,46269:0:0:0:0:
192,192,45069,128,0,46269:0:0:0:0:
64,192,46268,1,0,0:0:0:0:
64,192,46668,1,0,0:0:0:0:
448,192,46669,1,0,0:0:0:0:
64,192,47068,1,0,0:0:0:0:
448,192,47069,1,0,0:0:0:0:
448,192,47468,128,0,47868:0:0:0:0:
320,192,47868,128,0,48268:0:0:0:0:
192,192,48268,128,0,48668:0:0:0:0:
448,192,48668,1,0,0:0:0:0:
64,192,48868,1,0,0:0:0:0:
320,192,49068,1,0,0:0:0:0:
448,192,49269,128,0,49469:0:0:0:0:
320,192,49469,128,0,49869:0:0:0:0:
192,192,49869,128,0,51069:0:0:0:0:
64,192,51068,1,0,0:0:0:0:
448,192,51668,128,0,51968:0:0:0:0:
64,192,51968,1,0,0:0:0:0:
448,192,52268,1,0,0:0:0:0:
192,192,52418,1,0,0:0:0:0:
64,192,52568,1,0,0:0:0:0:
320,192,52718,1,0,0:0:0:0:
448,192,52868,1,0,0:0:0:0:
320,192,53168,1,0,0:0:0:0:
192,192,53468,1,0,0:0:0:0:
64,192,53768,1,0,0:0:0:0:
320,192,54068,1,0,0:0:0:0:
64,192,54368,1,0,0:0:0:0:
320,192,54518,1,0,0:0:0:0:
448,192,54668,1,0,0:0:0:0:
192,192,54968,1,0,0:0:0:0:
320,192,55118,1,0,0:0:0:0:
64,192,55268,1,0,0:0:0:0:
320,192,55568,1,0,0:0:0:0:
192,192,55718,1,0,0:0:0:0:
64,192,55868,1,0,0:0:0:0:
448,192,56018,1,0,0:0:0:0:
320,192,56168,1,0,0:0:0:0:
192,192,56318,1,0,0:0:0:0:
64,192,56468,1,0,0:0:0:0:
320,192,56618,1,0,0:0:0:0:
192,192,56768,1,0,0:0:0:0:
64,192,56918,1,0,0:0:0:0:
448,192,57068,1,0,0:0:0:0:
64,192,57368,1,0,0:0:0:0:
192,192,57968,1,0,0:0:0:0:
448,192,58268,128,0,58418:0:0:0:0:
192,192,58418,128,0,58868:0:0:0:0:
320,192,58868,128,0,59468:0:0:0:0:
64,192,59468,1,0,0:0:0:0:
448,192,59618,1,0,0:0:0:0:
64,192,59768,1,0,0:0:0:0:
448,192,59918,1,0,0:0:0:0:
64,192,60068,1,0,0:0:0:0:
448,192,60218,1,0,0:0:0:0:
320,192,60368,1,0,0:0:0:0:
192,192,60518,1,0,0:0:0:0:
64,192,60668,1,0,0:0:0:0:
320,192,60818,1,0,0:0:0:0:
64,192,60968,128,0,61568:0:0:0:0:
448,192,61568,128,0,61868:0:0:0:0:
192,192,61868,128,0,63068:0:0:0:0:
448,192,63068,128,0,63968:0:0:0:0:
320,192,63968,1,0,0:0:0:0:
320,192,64268,1,0,0:0:0:0:
192,192,64418,1,0,0:0:0:0:
448,192,64868,1,0,0:0:0:0:
64,192,65018,1,0,0:0:0:0:
192,192,65168,1,0,0:0:0:0:
448,192,65318,1,0,0:0:0:0:
64,192,65468,1,0,0:0:0:0:
320,192,65618,1,0,0:0:0:0:
448,192,65768,1,0,0:0:0:0:
192,192,65918,1,0,0:0:0:0:
64,192,66068,1,0,0:0:0:0:
448,192,66218,1,0,0:0:0:0:
320,192,66368,1,0,0:0:0:0:
192,192,66518,1,0,0:0:0:0:
64,192,66668,1,0,0:0:0:0:
64,192,66968,1,0,0:0:0:0:
448,192,67118,128,0,67418:0:0:0:0:
64,192,67568,1,0,0:0:0:0:
192,192,67568,1,0,0:0:0:0:
320,192,67868,1,0,0:0:0:0:
448,192,67868,1,0,0:0:0:0:
320,192,68168,1,0,0:0:0:0:
448,192,68768,1,0,0:0:0:0:
448,192,69068,1,0,0:0:0:0:
192,192,69218,1,0,0:0:0:0:
448,192,69668,1,0,0:0:0:0:
448,192,69968,128,0,70268:0:0:0:0:
64,192,70268,1,0,0:0:0:0:
192,192,70568,1,0,0:0:0:0:
448,192,70718,1,0,0:0:0:0:
192,192,70868,1,0,0:0:0:0:
448,192,71168,1,0,0:0:0:0:
320,192,71318,1,0,0:0:0:0:
64,192,71468,1,0,0:0:0:0:
64,192,71768,128,0,72668:0:0:0:0:
192,192,72668,128,0,75068:0:0:0:0:
448,192,74468,1,0,0:0:0:0:
320,192,74768,1,0,0:0:0:0:
64,192,75068,1,0,0:0:0:0:
448,192,75668,1,0,0:0:0:0:
448,192,75968,1,0,0:0:0:0:
64,192,76268,1,0,0:0:0:0:
320,192,76605,1,0,0:0:0:0:
64,192,76830,1,0,0:0:0:0:
320,192,77130,1,0,0:0:0:0:
448,192,77768,1,0,0:0:0:0:
192,192,78743,128,0,78893:0:0:0:0:
448,192,78893,128,0,79568:0:0:0:0:
64,192,79568,1,0,0:0:0:0:
320,192,79868,1,0,0:0:0:0:
448,192,80018,1,0,0:0:0:0:
192,192,80168,1,0,0:0:0:0:
448,192,80505,1,0,0:0:0:0:
320,192,80655,1,0,0:0:0:0:
64,192,80805,1,0,0:0:0:0:
64,192,81068,1,0,0:0:0:0:
192,192,81068,128,0,81668:0:0:0:0:
320,192,81668,128,0,82268:0:0:0:0:
448,192,82268,128,0,83168:0:0:0:0:
64,192,83168,1,0,0:0:0:0:
192,192,83318,1,0,0:0:0:0:
448,192,83468,1,0,0:0:0:0:
320,192,83618,1,0,0:0:0:0:
64,192,83768,1,0,0:0:0:0:
192,192,83918,1,0,0:0:0:0:
448,192,84068,1,0,0:0:0:0:
320,192,84218,1,0,0:0:0:0:
64,192,84368,1,0,0:0:0:0:
320,192,84518,1,0,0:0:0:0:
448,192,84668,1,0,0:0:0:0:
320,192,84818,1,0,0:0:0:0:
192,192,84968,1,0,0:0:0:0:
448,192,85118,1,0,0:0:0:0:
448,192,85268,1,0,0:0:0:0:
320,192,85418,1,0,0:0:0:0:
64,192,85568,1,0,0:0:0:0:
192,192,85718,1,0,0:0:0:0:
448,192,85868,1,0,0:0:0:0:
192,192,86018,1,0,0:0:0:0:
64,192,86168,1,0,0:0:0:0:
192,192,86318,1,0,0:0:0:0:
448,192,86468,1,0,0:0:0:0:
320,192,86618,1,0,0:0:0:0:
448,192,86768,1,0,0:0:0:0:
192,192,86918,1,0,0:0:0:0:
64,192,87068,1,0,0:0:0:0:
320,192,87218,1,0,0:0:0:0:
448,192,87368,1,0,0:0:0:0:
320,192,87518,1,0,0:0:0:0:
64,192,87668,1,0,0:0:0:0:
192,192,87818,1,0,0:0:0:0:
64,192,87968,1,0,0:0:0:0:
192,192,88118,1,0,0:0:0:0:
448,192,88268,1,0,0:0:0:0:
320,192,88418,1,0,0:0:0:0:
192,192,88568,1,0,0:0:0:0:
64,192,88718,1,0,0:0:0:0:
448,192,88868,1,0,0:0:0:0:
64,192,89018,1,0,0:0:0:0:
192,192,89168,1,0,0:0:0:0:
320,192,89318,1,0,0:0:0:0:
448,192,89468,1,0,0:0:0:0:
64,192,89768,1,0,0:0:0:0:
448,192,89918,1,0,0:0:0:0:
448,192,90068,1,0,0:0:0:0:
64,192,90218,1,0,0:0:0:0:
192,192,90368,1,0,0:0:0:0:
320,192,90518,1,0,0:0:0:0:
448,192,90668,1,0,0:0:0:0:
192,192,90818,1,0,0:0:0:0:
64,192,90968,1,0,0:0:0:0:
448,192,91118,1,0,0:0:0:0:
192,192,91268,1,0,0:0:0:0:
320,192,91418,1,0,0:0:0:0:
64,192,91568,1,0,0:0:0:0:
192,192,91718,1,0,0:0:0:0:
448,192,91868,1,0,0:0:0:0:
64,192,92018,1,0,0:0:0:0:
192,192,92168,1,0,0:0:0:0:
448,192,92318,1,0,0:0:0:0:
320,192,92468,1,0,0:0:0:0:
192,192,92618,1,0,0:0:0:0:
320,192,92768,1,0,0:0:0:0:
448,192,92918,1,0,0:0:0:0:
320,192,93068,1,0,0:0:0:0:
64,192,93218,1,0,0:0:0:0:
192,192,93368,1,0,0:0:0:0:
448,192,93518,1,0,0:0:0:0:
192,192,93668,1,0,0:0:0:0:
320,192,93818,1,0,0:0:0:0:
192,192,93968,1,0,0:0:0:0:
320,192,94118,1,0,0:0:0:0:
192,192,94268,1,0,0:0:0:0:
64,192,94418,1,0,0:0:0:0:
448,192,94568,1,0,0:0:0:0:
320,192,94718,1,0,0:0:0:0:
448,192,94868,1,0,0:0:0:0:
448,192,95018,1,0,0:0:0:0:
320,192,95168,128,0,96368:0:0:0:0:
448,192,96368,128,0,96668:0:0:0:0:
320,192,96668,128,0,96818:0:0:0:0:
64,192,96818,128,0,96968:0:0:0:0:
64,192,97418,128,0,97568:0:0:0:0:
192,192,97568,128,0,97718:0:0:0:0:
320,192,97718,128,0,97868:0:0:0:0:
448,192,97868,128,0,98018:0:0:0:0:
320,192,98168,1,0,0:0:0:0:
192,192,98543,1,0,0:0:0:0:
64,192,98918,1,0,0:0:0:0:
192,192,99068,1,0,0:0:0:0:
64,192,99218,1,0,0:0:0:0:
192,192,99368,1,0,0:0:0:0:
64,192,99518,1,0,0:0:0:0:
192,192,99668,1,0,0:0:0:0:
448,192,99668,128,0,99968:0:0:0:0:
320,192,99968,1,0,0:0:0:0:
64,192,99968,128,0,100468:0:0:0:0:
448,192,100468,1,0,0:0:0:0:
64,192,100868,1,0,0:0:0:0:
448,192,100868,128,0,102068:0:0:0:0:
64,192,102068,1,0,0:0:0:0:
192,192,102468,1,0,0:0:0:0:
320,192,102468,1,0,0:0:0:0:
192,192,102868,1,0,0:0:0:0:
320,192,102868,1,0,0:0:0:0:
320,192,103268,1,0,0:0:0:0:
448,192,103268,1,0,0:0:0:0:
448,192,104068,1,0,0:0:0:0:
64,192,104468,1,0,0:0:0:0:
192,192,104468,1,0,0:0:0:0:
320,192,104868,1,0,0:0:0:0:
448,192,104868,1,0,0:0:0:0:
64,192,105268,1,0,0:0:0:0:
448,192,105268,1,0,0:0:0:0:
448,192,105668,128,0,106068:0:0:0:0:
64,192,105668,1,0,0:0:0:0:
320,192,106068,128,0,106468:0:0:0:0:
192,192,106468,128,0,106868:0:0:0:0:
320,192,106668,1,0,0:0:0:0:
448,192,106868,1,0,0:0:0:0:
320,192,107068,1,0,0:0:0:0:
64,192,107268,1,0,0:0:0:0:
448,192,107468,1,0,0:0:0:0:
64,192,107668,128,0,108068:0:0:0:0:
192,192,107668,1,0,0:0:0:0:
448,192,108068,1,0,0:0:0:0:
320,192,108468,1,0,0:0:0:0:
320,192,108868,1,0,0:0:0:0:
64,192,109268,1,0,0:0:0:0:
192,192,109468,1,0,0:0:0:0:
448,192,109668,1,0,0:0:0:0:
64,192,109868,1,0,0:0:0:0:
320,192,110068,128,0,110468:0:0:0:0:
448,192,110468,128,0,110668:0:0:0:0:
320,192,110668,128,0,110868:0:0:0:0:
192,192,110868,128,0,111068:0:0:0:0:
64,192,111068,128,0,111268:0:0:0:0:
192,192,111268,128,0,111468:0:0:0:0:
448,192,111468,128,0,111568:0:0:0:0:
64,192,111668,1,0,0:0:0:0:
320,192,112068,1,0,0:0:0:0:
448,192,112068,1,0,0:0:0:0:
64,192,112468,1,0,0:0:0:0:
192,192,112468,1,0,0:0:0:0:
320,192,112868,1,0,0:0:0:0:
448,192,112868,128,0,113268:0:0:0:0:
64,192,113268,1,0,0:0:0:0:
448,192,114068,1,0,0:0:0:0:
192,192,114468,1,0,0:0:0:0:
448,192,114868,1,0,0:0:0:0:
64,192,115268,1,0,0:0:0:0:
448,192,115268,128,0,115668:0:0:0:0:
320,192,115468,1,0,0:0:0:0:
64,192,115668,1,0,0:0:0:0:
320,192,115668,128,0,116068:0:0:0:0:
192,192,116068,128,0,116468:0:0:0:0:
64,192,116468,1,0,0:0:0:0:
320,192,116868,1,0,0:0:0:0:
448,192,116868,128,0,117068:0:0:0:0:
64,192,117268,1,0,0:0:0:0:
192,192,117468,1,0,0:0:0:0:
64,192,117668,128,0,118868:0:0:0:0:
448,192,117668,1,0,0:0:0:0:
320,192,117868,1,0,0:0:0:0:
448,192,118068,1,0,0:0:0:0:
320,192,118268,1,0,0:0:0:0:
192,192,118468,1,0,0:0:0:0:
320,192,118668,1,0,0:0:0:0:
192,192,118868,128,0,120468:0:0:0:0:
320,192,119068,1,0,0:0:0:0:
448,192,119268,1,0,0:0:0:0:
64,192,119468,1,0,0:0:0:0:
320,192,119668,1,0,0:0:0:0:
64,192,119868,1,0,0:0:0:0:
448,192,120068,1,0,0:0:0:0:
320,192,120268,1,0,0:0:0:0:
448,192,120468,128,0,122068:0:0:0:0:
320,192,120668,1,0,0:0:0:0:
64,192,120868,1,0,0:0:0:0:
192,192,121068,1,0,0:0:0:0:
320,192,121268,1,0,0:0:0:0:
192,192,121468,1,0,0:0:0:0:
64,192,121668,1,0,0:0:0:0:
192,192,121868,1,0,0:0:0:0:
320,192,122068,128,0,122268:0:0:0:0:
192,192,122268,128,0,122468:0:0:0:0:
64,192,122468,128,0,122668:0:0:0:0:
192,192,122668,128,0,122868:0:0:0:0:
320,192,122868,128,0,123118:0:0:0:0:
448,192,123118,128,0,124318:0:0:0:0:
320,192,123418,1,0,0:0:0:0:
320,192,123718,1,0,0:0:0:0:
64,192,124018,128,0,124168:0:0:0:0:
320,192,124318,1,0,0:0:0:0:
320,192,124618,128,0,124768:0:0:0:0:
320,192,124918,128,0,125068:0:0:0:0:
64,192,125218,128,0,125368:0:0:0:0:
192,192,125518,128,0,125668:0:0:0:0:
320,192,125818,128,0,125968:0:0:0:0:
64,192,126118,128,0,126343:0:0:0:0:
320,192,126418,128,0,126568:0:0:0:0:
320,192,126718,128,0,126868:0:0:0:0:
448,192,127018,128,0,127168:0:0:0:0:
320,192,127318,1,0,0:0:0:0:
448,192,127468,1,0,0:0:0:0:
320,192,127618,1,0,0:0:0:0:
64,192,127618,128,0,127768:0:0:0:0:
192,192,127918,1,0,0:0:0:0:
448,192,128068,1,0,0:0:0:0:
192,192,128218,128,0,128368:0:0:0:0:
64,192,128518,128,0,128968:0:0:0:0:
448,192,128818,1,0,0:0:0:0:
320,192,129118,1,0,0:0:0:0:
64,192,129268,1,0,0:0:0:0:
448,192,129418,1,0,0:0:0:0:
192,192,129568,1,0,0:0:0:0:
320,192,129718,1,0,0:0:0:0:
64,192,129868,1,0,0:0:0:0:
192,192,130018,1,0,0:0:0:0:
320,192,130168,1,0,0:0:0:0:
320,192,131818,1,0,0:0:0:0:
320,192,132118,1,0,0:0:0:0:
64,192,132418,1,0,0:0:0:0:
64,192,132718,1,0,0:0:0:0:
320,192,133018,128,0,133468:0:0:0:0:
320,192,133618,1,0,0:0:0:0:
320,192,133918,128,0,134368:0:0:0:0:
448,192,134368,1,0,0:0:0:0:
448,192,134668,1,0,0:0:0:0:
320,192,134818,1,0,0:0:0:0:
448,192,135118,1,0,0:0:0:0:
192,192,135268,1,0,0:0:0:0:
64,192,135418,1,0,0:0:0:0:
64,192,135718,128,0,136618:0:0:0:0:
320,192,136618,128,0,136768:0:0:0:0:
64,192,136768,128,0,137443:0:0:0:0:
192,192,137368,1,0,0:0:0:0:
192,192,137518,128,0,138418:0:0:0:0:
64,192,137518,1,0,0:0:0:0:
448,192,137668,1,0,0:0:0:0:
64,192,137818,1,0,0:0:0:0:
320,192,137968,1,0,0:0:0:0:
64,192,138118,1,0,0:0:0:0:
448,192,138268,1,0,0:0:0:0:
320,192,138418,128,0,139318:0:0:0:0:
64,192,138418,1,0,0:0:0:0:
192,192,138568,1,0,0:0:0:0:
448,192,138718,1,0,0:0:0:0:
64,192,138868,1,0,0:0:0:0:
448,192,139018,1,0,0:0:0:0:
64,192,139168,1,0,0:0:0:0:
192,192,139318,128,0,140218:0:0:0:0:
448,192,139468,1,0,0:0:0:0:
320,192,139618,1,0,0:0:0:0:
64,192,139768,1,0,0:0:0:0:
320,192,139918,1,0,0:0:0:0:
64,192,140068,1,0,0:0:0:0:
320,192,140218,128,0,141118:0:0:0:0:
448,192,140368,1,0,0:0:0:0:
64,192,140518,1,0,0:0:0:0:
192,192,140668,1,0,0:0:0:0:
448,192,140818,1,0,0:0:0:0:
64,192,140968,1,0,0:0:0:0:
192,192,141118,128,0,142018:0:0:0:0:
64,192,141268,1,0,0:0:0:0:
320,192,141418,1,0,0:0:0:0:
64,192,141568,1,0,0:0:0:0:
448,192,141718,1,0,0:0:0:0:
64,192,141868,1,0,0:0:0:0:
448,192,142018,128,0,142918:0:0:0:0:
320,192,142168,1,0,0:0:0:0:
64,192,142318,1,0,0:0:0:0:
320,192,142468,1,0,0:0:0:0:
64,192,142618,1,0,0:0:0:0:
320,192,142768,1,0,0:0:0:0:
64,192,142918,128,0,146368:0:0:0:0:
192,192,143068,1,0,0:0:0:0:
320,192,143218,1,0,0:0:0:0:
448,192,143368,1,0,0:0:0:0:
192,192,143518,1,0,0:0:0:0:
448,192,143668,1,0,0:0:0:0:
192,192,143818,1,0,0:0:0:0:
448,192,143968,1,0,0:0:0:0:
192,192,144118,1,0,0:0:0:0:
448,192,144268,1,0,0:0:0:0:
320,192,144418,1,0,0:0:0:0:
192,192,144568,1,0,0:0:0:0:
448,192,144718,128,0,146368:0:0:0:0:
320,192,144868,1,0,0:0:0:0:
192,192,145018,1,0,0:0:0:0:
320,192,145168,1,0,0:0:0:0:
192,192,145318,1,0,0:0:0:0:
320,192,145468,1,0,0:0:0:0:
192,192,145618,1,0,0:0:0:0:
320,192,145768,1,0,0:0:0:0:
192,192,145918,1,0,0:0:0:0:
320,192,146068,1,0,0:0:0:0:
192,192,146218,1,0,0:0:0:0:
192,192,146518,1,0,0:0:0:0:
320,192,146518,1,0,0:0:0:0:
320,192,146818,1,0,0:0:0:0:
320,192,147118,1,0,0:0:0:0:
64,192,147418,1,0,0:0:0:0:
320,192,147718,1,0,0:0:0:0:
448,192,147980,1,0,0:0:0:0:
448,192,148280,1,0,0:0:0:0:
192,192,148580,128,0,149180:0:0:0:0:
320,192,149180,128,0,150080:0:0:0:0:
448,192,150080,128,0,150530:0:0:0:0:
320,192,150530,128,0,150830:0:0:0:0:
448,192,150830,128,0,151055:0:0:0:0:
320,192,151055,128,0,151280:0:0:0:0:
448,192,151280,128,0,151580:0:0:0:0:
192,192,151580,128,0,151880:0:0:0:0:
320,192,151880,128,0,152480:0:0:0:0:
64,192,152480,128,0,153680:0:0:0:0:
448,192,153680,1,0,0:0:0:0:
320,192,153980,1,0,0:0:0:0:
64,192,154280,128,0,155180:0:0:0:0:
448,192,154280,1,0,0:0:0:0:
192,192,154430,1,0,0:0:0:0:
320,192,154580,1,0,0:0:0:0:
448,192,154880,1,0,0:0:0:0:
320,192,155030,1,0,0:0:0:0:
448,192,155180,128,0,155780:0:0:0:0:
320,192,155480,1,0,0:0:0:0:
192,192,155780,1,0,0:0:0:0:
448,192,156080,128,0,156380:0:0:0:0:
64,192,156080,1,0,0:0:0:0:
192,192,156380,128,0,156980:0:0:0:0:
64,192,156680,1,0,0:0:0:0:
448,192,156980,128,0,157280:0:0:0:0:
320,192,157280,128,0,157730:0:0:0:0:
448,192,157730,128,0,158030:0:0:0:0:
320,192,158030,128,0,158236:0:0:0:0:
192,192,158236,128,0,158480:0:0:0:0:
320,192,158480,128,0,158780:0:0:0:0:
64,192,158780,128,0,159080:0:0:0:0:
448,192,159080,128,0,159530:0:0:0:0:
320,192,159530,128,0,159905:0:0:0:0:
192,192,159905,128,0,160205:0:0:0:0:
64,192,160205,128,0,160505:0:0:0:0:
448,192,160505,128,0,160880:0:0:0:0:
64,192,160880,1,0,0:0:0:0:
448,192,161030,1,0,0:0:0:0:
64,192,161180,1,0,0:0:0:0:
448,192,161330,1,0,0:0:0:0:
64,192,161480,1,0,0:0:0:0:
448,192,161630,1,0,0:0:0:0:
64,192,161780,1,0,0:0:0:0:
320,192,161930,1,0,0:0:0:0:
64,192,162080,1,0,0:0:0:0:
320,192,162230,1,0,0:0:0:0:
448,192,162380,1,0,0:0:0:0:
64,192,162530,1,0,0:0:0:0:
320,192,162680,1,0,0:0:0:0:
64,192,162830,1,0,0:0:0:0:
448,192,162980,1,0,0:0:0:0:
64,192,163130,1,0,0:0:0:0:
320,192,163280,1,0,0:0:0:0:
64,192,163430,1,0,0:0:0:0:
192,192,163580,1,0,0:0:0:0:
64,192,163730,1,0,0:0:0:0:
448,192,163880,1,0,0:0:0:0:
320,192,164030,1,0,0:0:0:0:
192,192,164180,1,0,0:0:0:0:
64,192,164330,1,0,0:0:0:0:
448,192,164480,1,0,0:0:0:0:
192,192,164630,1,0,0:0:0:0:
320,192,164780,1,0,0:0:0:0:
64,192,164930,1,0,0:0:0:0:
192,192,165080,1,0,0:0:0:0:
320,192,165230,1,0,0:0:0:0:
448,192,165380,1,0,0:0:0:0:
64,192,165530,1,0,0:0:0:0:
320,192,165680,1,0,0:0:0:0:
192,192,165830,1,0,0:0:0:0:
320,192,165980,1,0,0:0:0:0:
64,192,166130,1,0,0:0:0:0:
448,192,166280,1,0,0:0:0:0:
192,192,166430,1,0,0:0:0:0:
448,192,166580,1,0,0:0:0:0:
64,192,166730,1,0,0:0:0:0:
320,192,166880,1,0,0:0:0:0:
448,192,167030,1,0,0:0:0:0:
64,192,167180,1,0,0:0:0:0:
320,192,167330,1,0,0:0:0:0:
64,192,167480,1,0,0:0:0:0:
320,192,167630,1,0,0:0:0:0:
192,192,167780,1,0,0:0:0:0:
320,192,167930,1,0,0:0:0:0:
448,192,168080,128,0,168380:0:0:0:0:
64,192,168380,128,0,168680:0:0:0:0:
192,192,168680,128,0,168980:0:0:0:0:
448,192,168980,128,0,169280:0:0:0:0:
448,192,169580,128,0,169880:0:0:0:0:
64,192,169880,128,0,170180:0:0:0:0:
448,192,170180,1,0,0:0:0:0:
64,192,170480,1,0,0:0:0:0:
192,192,170780,128,0,171080:0:0:0:0:
448,192,171080,1,0,0:0:0:0:
64,192,171380,1,0,0:0:0:0:
448,192,171680,1,0,0:0:0:0:
64,192,171980,1,0,0:0:0:0:
448,192,172280,1,0,0:0:0:0:
64,192,172580,128,0,172880:0:0:0:0:
192,192,172880,1,0,0:0:0:0:
320,192,173180,1,0,0:0:0:0:
448,192,173480,1,0,0:0:0:0:
192,192,173780,1,0,0:0:0:0:
320,192,174080,1,0,0:0:0:0:
192,192,174380,1,0,0:0:0:0:
64,192,174530,1,0,0:0:0:0:
320,192,174680,1,0,0:0:0:0:
448,192,174830,1,0,0:0:0:0:
192,192,174980,1,0,0:0:0:0:
64,192,175130,1,0,0:0:0:0:
320,192,175280,1,0,0:0:0:0:
64,192,175580,1,0,0:0:0:0:
448,192,175880,128,0,176480:0:0:0:0:
64,192,176180,1,0,0:0:0:0:
192,192,176780,1,0,0:0:0:0:
64,192,177080,1,0,0:0:0:0:
448,192,177080,128,0,177680:0:0:0:0:
320,192,177380,1,0,0:0:0:0:
64,192,177680,1,0,0:0:0:0:
448,192,177980,1,0,0:0:0:0:
64,192,178280,1,0,0:0:0:0:
448,192,178580,1,0,0:0:0:0:
192,192,178880,128,0,179330:0:0:0:0:
320,192,179330,128,0,179630:0:0:0:0:
448,192,179630,128,0,179780:0:0:0:0:
320,192,179780,128,0,180230:0:0:0:0:
448,192,180230,128,0,180380:0:0:0:0:
320,192,180380,128,0,180680:0:0:0:0:
192,192,180680,128,0,181280:0:0:0:0:
320,192,180980,1,0,0:0:0:0:
64,192,181280,128,0,181880:0:0:0:0:
448,192,181430,1,0,0:0:0:0:
320,192,181580,1,0,0:0:0:0:
192,192,181730,1,0,0:0:0:0:
448,192,181880,1,0,0:0:0:0:
320,192,182030,1,0,0:0:0:0:
192,192,182180,1,0,0:0:0:0:
64,192,182330,1,0,0:0:0:0:
448,192,182480,128,0,183080:0:0:0:0:
192,192,182780,1,0,0:0:0:0:
320,192,183080,1,0,0:0:0:0:
192,192,183380,1,0,0:0:0:0:
320,192,183680,128,0,183980:0:0:0:0:
448,192,183680,1,0,0:0:0:0:
192,192,183980,128,0,184280:0:0:0:0:
64,192,183980,1,0,0:0:0:0:
320,192,184280,1,0,0:0:0:0:
64,192,184580,1,0,0:0:0:0:
192,192,184880,1,0,0:0:0:0:
448,192,185180,1,0,0:0:0:0:
320,192,185480,1,0,0:0:0:0:
192,192,185780,1,0,0:0:0:0:
64,192,186080,1,0,0:0:0:0:
320,192,186380,1,0,0:0:0:0:
64,192,186680,1,0,0:0:0:0:
192,192,186980,1,0,0:0:0:0:
320,192,187280,1,0,0:0:0:0:
192,192,187580,1,0,0:0:0:0:
320,192,187880,1,0,0:0:0:0:
192,192,188180,1,0,0:0:0:0:
64,192,188480,1,0,0:0:0:0:
448,192,188780,1,0,0:0:0:0:
192,192,189080,1,0,0:0:0:0:
448,192,189380,128,0,193880:0:0:0:0:
64,192,193880,1,0,0:0:0:0:
192,192,194180,1,0,0:0:0:0:
320,192,194480,1,0,0:0:0:0:
448,192,194780,1,0,0:0:0:0:
64,192,195080,1,0,0:0:0:0:
192,192,195380,1,0,0:0:0:0:
320,192,195680,1,0,0:0:0:0:
320,192,195980,1,0,0:0:0:0:
448,192,196280,1,0,0:0:0:0:
192,192,196430,1,0,0:0:0:0:
64,192,196580,1,0,0:0:0:0:
192,192,196730,1,0,0:0:0:0:
320,192,196880,1,0,0:0:0:0:
448,192,197030,1,0,0:0:0:0:
64,192,197180,1,0,0:0:0:0:
192,192,197330,1,0,0:0:0:0:
320,192,197480,1,0,0:0:0:0:
448,192,197555,1,0,0:0:0:0:
64,192,197630,1,0,0:0:0:0:
192,192,197705,1,0,0:0:0:0:
320,192,197780,1,0,0:0:0:0:
448,192,197855,1,0,0:0:0:0:
64,192,197930,1,0,0:0:0:0:
192,192,198005,1,0,0:0:0:0:
320,192,198080,1,0,0:0:0:0:
448,192,198155,1,0,0:0:0:0:
64,192,198380,1,0,0:0:0:0:
192,192,198680,1,0,0:0:0:0:
448,192,198680,1,0,0:0:0:0:
320,192,198980,1,0,0:0:0:0:
64,192,199280,1,0,0:0:0:0:
192,192,199280,1,0,0:0:0:0:
320,192,199580,1,0,0:0:0:0:
448,192,199580,1,0,0:0:0:0:
192,192,199880,1,0,0:0:0:0:
448,192,200180,1,0,0:0:0:0:
64,192,200180,1,0,0:0:0:0:
192,192,200480,1,0,0:0:0:0:
320,192,200480,1,0,0:0:0:0:
192,192,200780,1,0,0:0:0:0:
448,192,200780,1,0,0:0:0:0:
320,192,201080,1,0,0:0:0:0:
64,192,201380,1,0,0:0:0:0:
192,192,201380,1,0,0:0:0:0:
448,192,201680,1,0,0:0:0:0:
192,192,201980,1,0,0:0:0:0:
448,192,202280,1,0,0:0:0:0:
64,192,202580,1,0,0:0:0:0:
192,192,202880,1,0,0:0:0:0:
448,192,203180,1,0,0:0:0:0:
192,192,203480,1,0,0:0:0:0:
320,192,203780,1,0,0:0:0:0:
64,192,204080,1,0,0:0:0:0:
448,192,204380,1,0,0:0:0:0:
192,192,204680,1,0,0:0:0:0:
448,192,204980,1,0,0:0:0:0:
448,192,205280,1,0,0:0:0:0:
320,192,205580,1,0,0:0:0:0:
64,192,205880,1,0,0:0:0:0:
320,192,206030,1,0,0:0:0:0:
448,192,206180,1,0,0:0:0:0:
64,192,206330,1,0,0:0:0:0:
320,192,206480,1,0,0:0:0:0:
448,192,206630,1,0,0:0:0:0:
64,192,206780,1,0,0:0:0:0:
320,192,206930,1,0,0:0:0:0:
64,192,207080,1,0,0:0:0:0:
320,192,207230,1,0,0:0:0:0:
192,192,207380,1,0,0:0:0:0:
448,192,207530,1,0,0:0:0:0:
320,192,207680,1,0,0:0:0:0:
192,192,207830,1,0,0:0:0:0:
320,192,207980,1,0,0:0:0:0:
448,192,208130,1,0,0:0:0:0:
320,192,208280,1,0,0:0:0:0:
192,192,208430,1,0,0:0:0:0:
64,192,208580,1,0,0:0:0:0:
320,192,208655,128,0,208880:0:0:0:0:
64,192,208880,1,0,0:0:0:0:
448,192,209030,1,0,0:0:0:0:
192,192,209180,1,0,0:0:0:0:
64,192,209330,1,0,0:0:0:0:
448,192,209480,1,0,0:0:0:0:
192,192,209630,1,0,0:0:0:0:
320,192,209780,1,0,0:0:0:0:
192,192,209930,1,0,0:0:0:0:
64,192,210080,1,0,0:0:0:0:
448,192,210230,1,0,0:0:0:0:
192,192,210380,1,0,0:0:0:0:
320,192,210530,1,0,0:0:0:0:
64,192,210680,1,0,0:0:0:0:
448,192,210830,1,0,0:0:0:0:
64,192,210980,1,0,0:0:0:0:
320,192,211130,1,0,0:0:0:0:
192,192,211280,1,0,0:0:0:0:
320,192,211430,1,0,0:0:0:0:
192,192,211580,1,0,0:0:0:0:
320,192,211730,1,0,0:0:0:0:
192,192,211880,1,0,0:0:0:0:
320,192,212030,1,0,0:0:0:0:
64,192,212180,1,0,0:0:0:0:
448,192,212480,1,0,0:0:0:0:
192,192,212780,1,0,0:0:0:0:
320,192,213080,1,0,0:0:0:0:
448,192,213380,1,0,0:0:0:0:
320,192,213680,1,0,0:0:0:0:
192,192,213980,1,0,0:0:0:0:
192,192,214280,1,0,0:0:0:0:
320,192,214580,1,0,0:0:0:0:
192,192,214880,1,0,0:0:0:0:
192,192,215180,1,0,0:0:0:0:
64,192,215480,1,0,0:0:0:0:
448,192,215780,1,0,0:0:0:0:
448,192,216080,1,0,0:0:0:0:
192,192,216380,1,0,0:0:0:0:
320,192,216680,1,0,0:0:0:0:
320,192,216980,1,0,0:0:0:0:
64,192,217280,1,0,0:0:0:0:
192,192,217580,1,0,0:0:0:0:
192,192,217880,1,0,0:0:0:0:
320,192,218180,1,0,0:0:0:0:
64,192,218480,1,0,0:0:0:0:
448,192,218780,1,0,0:0:0:0:
192,192,219080,1,0,0:0:0:0:
320,192,219380,1,0,0:0:0:0:
320,192,219680,1,0,0:0:0:0:
320,192,219980,128,0,220280:0:0:0:0:
