osu file format v14

[General]
AudioFilename: audio.mp3
AudioLeadIn: 0
PreviewTime: -1
Countdown: 1
SampleSet: Soft
StackLeniency: 0.7
Mode: 3
LetterboxInBreaks: 0
SpecialStyle: 0
WidescreenStoryboard: 0

[Editor]
DistanceSpacing: 0.9
BeatDivisor: 12
GridSize: 16
TimelineZoom: 2.699999

[Metadata]
Title:Barbecue
TitleUnicode:Barbecue
Artist:Igorrr
ArtistUnicode:Igorrr
Creator:Adri
Version:Burnt Chicken
Source:
Tags:
BeatmapID:1151496
BeatmapSetID:543258

[Difficulty]
HPDrainRate:8
CircleSize:4
OverallDifficulty:8
ApproachRate:5
SliderMultiplier:1.4
SliderTickRate:1

[Events]
//Background and Video events
//Break Periods
//Storyboard Layer 0 (Background)
//Storyboard Layer 1 (Fail)
//Storyboard Layer 2 (Pass)
//Storyboard Layer 3 (Foreground)
//Storyboard Sound Samples

[TimingPoints]
668,400,4,2,0,100,1,0
668,-75,4,2,0,100,0,0
51068,300,4,2,0,100,1,0
51068,-100,4,2,0,100,0,0
99668,400,4,2,0,100,1,0
99668,-75,4,2,0,100,0,0
123118,300,4,2,0,100,1,0
123118,-100,4,2,0,100,0,0
148280,300,4,2,0,100,1,0
148280,-100,4,2,0,100,0,0

[HitObjects]
64,192,668,5,0,0:0:0:0:
448,192,668,1,0,0:0:0:0:
192,192,1069,5,0,0:0:0:0:
320,192,1069,1,0,0:0:0:0:
448,192,1469,1,0,0:0:0:0:
320,192,1469,1,0,0:0:0:0:
64,192,1469,1,0,0:0:0:0:
64,192,1869,1,0,0:0:0:0:
320,192,1869,1,0,0:0:0:0:
192,192,2269,1,0,0:0:0:0:
320,192,2269,1,0,0:0:0:0:
448,192,2669,1,0,0:0:0:0:
320,192,2669,1,0,0:0:0:0:
192,192,2669,1,0,0:0:0:0:
448,192,3069,1,0,0:0:0:0:
192,192,3069,1,0,0:0:0:0:
320,192,3069,1,0,0:0:0:0:
448,192,3469,1,0,0:0:0:0:
192,192,3469,1,0,0:0:0:0:
64,192,3469,1,0,0:0:0:0:
448,192,3869,1,0,0:0:0:0:
64,192,3869,1,0,0:0:0:0:
64,192,4269,1,0,0:0:0:0:
320,192,4269,1,0,0:0:0:0:
448,192,4269,1,0,0:0:0:0:
192,192,4669,1,0,0:0:0:0:
64,192,4669,1,0,0:0:0:0:
320,192,5069,1,0,0:0:0:0:
64,192,5069,1,0,0:0:0:0:
64,192,5469,1,0,0:0:0:0:
192,192,5869,1,0,0:0:0:0:
320,192,6069,1,0,0:0:0:0:
448,192,6269,1,0,0:0:0:0:
448,192,6469,1,0,0:0:0:0:
192,192,6669,1,0,0:0:0:0:
320,192,7069,1,0,0:0:0:0:
448,192,7269,1,0,0:0:0:0:
448,192,7469,1,0,0:0:0:0:
320,192,7669,1,0,0:0:0:0:
64,192,7869,1,0,0:0:0:0:
192,192,7869,1,0,0:0:0:0:
192,192,8269,1,0,0:0:0:0:
64,192,8469,1,0,0:0:0:0:
448,192,8669,1,0,0:0:0:0:
192,192,8869,1,0,0:0:0:0:
64,192,9069,1,0,0:0:0:0:
192,192,9469,1,0,0:0:0:0:
320,192,9469,1,0,0:0:0:0:
320,192,9869,1,0,0:0:0:0:
448,192,9869,1,0,0:0:0:0:
64,192,10269,1,0,0:0:0:0:
320,192,10269,1,0,0:0:0:0:
192,192,10669,1,0,0:0:0:0:
320,192,10669,1,0,0:0:0:0:
448,192,11069,1,0,0:0:0:0:
320,192,11069,1,0,0:0:0:0:
64,192,11469,1,0,0:0:0:0:
192,192,11469,1,0,0:0:0:0:
192,192,11869,1,0,0:0:0:0:
320,192,11869,1,0,0:0:0:0:
320,192,12269,1,0,0:0:0:0:
448,192,12269,1,0,0:0:0:0:
192,192,12269,1,0,0:0:0:0:
448,192,12669,1,0,0:0:0:0:
192,192,12669,1,0,0:0:0:0:
320,192,12669,1,0,0:0:0:0:
192,192,13069,1,0,0:0:0:0:
64,192,13069,1,0,0:0:0:0:
448,192,13069,1,0,0:0:0:0:
64,192,13469,1,0,0:0:0:0:
320,192,13469,1,0,0:0:0:0:
320,192,13869,1,0,0:0:0:0:
64,192,13869,1,0,0:0:0:0:
448,192,13869,1,0,0:0:0:0:
192,192,14269,1,0,0:0:0:0:
64,192,14269,1,0,0:0:0:0:
448,192,14669,1,0,0:0:0:0:
320,192,14669,1,0,0:0:0:0:
64,192,15069,1,0,0:0:0:0:
448,192,15069,1,0,0:0:0:0:
192,192,15469,1,0,0:0:0:0:
320,192,15669,1,0,0:0:0:0:
448,192,15869,1,0,0:0:0:0:
448,192,16069,1,0,0:0:0:0:
64,192,16269,1,0,0:0:0:0:
192,192,16669,1,0,0:0:0:0:
448,192,16869,1,0,0:0:0:0:
320,192,17069,1,0,0:0:0:0:
192,192,17269,1,0,0:0:0:0:
64,192,17469,1,0,0:0:0:0:
192,192,17869,1,0,0:0:0:0:
64,192,18069,1,0,0:0:0:0:
320,192,18269,1,0,0:0:0:0:
192,192,18469,1,0,0:0:0:0:
64,192,18669,1,0,0:0:0:0:
192,192,19069,1,0,0:0:0:0:
320,192,19469,1,0,0:0:0:0:
64,192,19869,1,0,0:0:0:0:
448,192,19869,1,0,0:0:0:0:
320,192,19869,128,0,20269:0:0:0:0:
192,192,20269,1,0,0:0:0:0:
448,192,20269,1,0,0:0:0:0:
448,192,20669,1,0,0:0:0:0:
64,192,21069,1,0,0:0:0:0:
448,192,21069,1,0,0:0:0:0:
320,192,21069,128,0,21469:0:0:0:0:
192,192,21469,1,0,0:0:0:0:
448,192,21469,1,0,0:0:0:0:
320,192,21869,1,0,0:0:0:0:
64,192,22269,1,0,0:0:0:0:
320,192,22269,1,0,0:0:0:0:
448,192,22269,128,0,22669:0:0:0:0:
192,192,22669,1,0,0:0:0:0:
320,192,22669,1,0,0:0:0:0:
448,192,23069,1,0,0:0:0:0:
64,192,23469,1,0,0:0:0:0:
320,192,23469,1,0,0:0:0:0:
448,192,23469,128,0,23869:0:0:0:0:
192,192,23869,1,0,0:0:0:0:
320,192,23869,1,0,0:0:0:0:
448,192,24269,1,0,0:0:0:0:
64,192,24669,1,0,0:0:0:0:
320,192,24669,1,0,0:0:0:0:
192,192,24669,128,0,25069:0:0:0:0:
64,192,25069,1,0,0:0:0:0:
448,192,25469,1,0,0:0:0:0:
64,192,25869,1,0,0:0:0:0:
320,192,25869,128,0,26269:0:0:0:0:
192,192,26269,1,0,0:0:0:0:
64,192,26269,1,0,0:0:0:0:
448,192,26669,1,0,0:0:0:0:
64,192,27069,1,0,0:0:0:0:
448,192,27069,128,0,27469:0:0:0:0:
192,192,27469,1,0,0:0:0:0:
64,192,27469,1,0,0:0:0:0:
448,192,27869,1,0,0:0:0:0:
64,192,27869,1,0,0:0:0:0:
320,192,27869,1,0,0:0:0:0:
64,192,28269,1,0,0:0:0:0:
320,192,28269,128,0,28669:0:0:0:0:
192,192,28669,1,0,0:0:0:0:
64,192,28669,1,0,0:0:0:0:
448,192,28669,1,0,0:0:0:0:
448,192,29069,1,0,0:0:0:0:
320,192,29069,1,0,0:0:0:0:
64,192,29069,1,0,0:0:0:0:
64,192,29469,1,0,0:0:0:0:
320,192,29469,128,0,29869:0:0:0:0:
448,192,29469,1,0,0:0:0:0:
192,192,29869,1,0,0:0:0:0:
64,192,29869,1,0,0:0:0:0:
448,192,30269,1,0,0:0:0:0:
320,192,30269,1,0,0:0:0:0:
64,192,30269,1,0,0:0:0:0:
64,192,30669,1,0,0:0:0:0:
448,192,30669,128,0,31069:0:0:0:0:
192,192,31069,1,0,0:0:0:0:
64,192,31069,1,0,0:0:0:0:
448,192,31469,1,0,0:0:0:0:
64,192,31469,1,0,0:0:0:0:
320,192,31469,1,0,0:0:0:0:
64,192,31869,1,0,0:0:0:0:
192,192,31869,1,0,0:0:0:0:
320,192,31869,1,0,0:0:0:0:
448,192,31869,1,0,0:0:0:0:
320,192,32169,1,0,0:0:0:0:
192,192,32269,1,0,0:0:0:0:
64,192,32269,1,0,0:0:0:0:
448,192,32269,1,0,0:0:0:0:
64,192,32669,1,0,0:0:0:0:
192,192,32669,1,0,0:0:0:0:
192,192,33069,1,0,0:0:0:0:
64,192,33069,1,0,0:0:0:0:
448,192,33069,128,0,34269:0:0:0:0:
320,192,34169,1,0,0:0:0:0:
192,192,34269,1,0,0:0:0:0:
64,192,34269,1,0,0:0:0:0:
64,192,34669,1,0,0:0:0:0:
320,192,34669,1,0,0:0:0:0:
448,192,34669,1,0,0:0:0:0:
448,192,35069,1,0,0:0:0:0:
192,192,35069,1,0,0:0:0:0:
64,192,35069,1,0,0:0:0:0:
192,192,35469,1,0,0:0:0:0:
448,192,35469,1,0,0:0:0:0:
320,192,35469,1,0,0:0:0:0:
320,192,35868,1,0,0:0:0:0:
64,192,36268,1,0,0:0:0:0:
64,192,36668,128,0,36968:0:0:0:0:
448,192,36668,128,0,36968:0:0:0:0:
192,192,36669,1,0,0:0:0:0:
192,192,37068,128,0,37368:0:0:0:0:
320,192,37068,128,0,37368:0:0:0:0:
64,192,37468,1,0,0:0:0:0:
448,192,37468,1,0,0:0:0:0:
320,192,37568,1,0,0:0:0:0:
192,192,37668,1,0,0:0:0:0:
64,192,37768,1,0,0:0:0:0:
320,192,37869,1,0,0:0:0:0:
448,192,37869,128,0,38269:0:0:0:0:
64,192,38269,1,0,0:0:0:0:
192,192,38269,1,0,0:0:0:0:
320,192,38269,128,0,38669:0:0:0:0:
64,192,38669,1,0,0:0:0:0:
448,192,38669,1,0,0:0:0:0:
192,192,38669,128,0,39069:0:0:0:0:
448,192,38935,1,0,0:0:0:0:
320,192,39002,1,0,0:0:0:0:
64,192,39069,1,0,0:0:0:0:
448,192,39135,1,0,0:0:0:0:
192,192,39201,1,0,0:0:0:0:
320,192,39268,1,0,0:0:0:0:
64,192,39335,1,0,0:0:0:0:
448,192,39402,1,0,0:0:0:0:
192,192,39468,1,0,0:0:0:0:
320,192,39534,1,0,0:0:0:0:
64,192,39602,1,0,0:0:0:0:
448,192,39669,1,0,0:0:0:0:
64,192,39735,128,0,40269:0:0:0:0:
320,192,40269,1,0,0:0:0:0:
192,192,40269,1,0,0:0:0:0:
448,192,40269,1,0,0:0:0:0:
64,192,41469,1,0,0:0:0:0:
320,192,41469,1,0,0:0:0:0:
448,192,41569,1,0,0:0:0:0:
192,192,41669,1,0,0:0:0:0:
448,192,41769,1,0,0:0:0:0:
64,192,41769,128,0,41969:0:0:0:0:
192,192,41869,1,0,0:0:0:0:
448,192,41969,1,0,0:0:0:0:
192,192,42069,1,0,0:0:0:0:
448,192,42169,1,0,0:0:0:0:
64,192,42269,1,0,0:0:0:0:
192,192,42269,1,0,0:0:0:0:
320,192,42269,1,0,0:0:0:0:
448,192,42369,1,0,0:0:0:0:
192,192,42469,1,0,0:0:0:0:
448,192,42569,1,0,0:0:0:0:
192,192,42669,1,0,0:0:0:0:
64,192,42669,1,0,0:0:0:0:
320,192,42669,128,0,43869:0:0:0:0:
448,192,42769,1,0,0:0:0:0:
192,192,42869,1,0,0:0:0:0:
448,192,42969,1,0,0:0:0:0:
64,192,43069,1,0,0:0:0:0:
448,192,43169,1,0,0:0:0:0:
192,192,43269,1,0,0:0:0:0:
448,192,43369,1,0,0:0:0:0:
64,192,43469,1,0,0:0:0:0:
448,192,43569,1,0,0:0:0:0:
192,192,43669,1,0,0:0:0:0:
448,192,43769,1,0,0:0:0:0:
192,192,43869,1,0,0:0:0:0:
64,192,43869,1,0,0:0:0:0:
448,192,44169,1,0,0:0:0:0:
64,192,44269,1,0,0:0:0:0:
192,192,44269,1,0,0:0:0:0:
320,192,44269,1,0,0:0:0:0:
64,192,44569,1,0,0:0:0:0:
192,192,44669,1,0,0:0:0:0:
320,192,44669,1,0,0:0:0:0:
448,192,44669,1,0,0:0:0:0:
64,192,45069,1,0,0:0:0:0:
448,192,45069,128,0,46269:0:0:0:0:
320,192,45069,1,0,0:0:0:0:
192,192,45069,128,0,46269:0:0:0:0:
64,192,46269,1,0,0:0:0:0:
320,192,46269,1,0,0:0:0:0:
192,192,46569,1,0,0:0:0:0:
64,192,46669,1,0,0:0:0:0:
448,192,46669,1,0,0:0:0:0:
320,192,46669,1,0,0:0:0:0:
320,192,46969,1,0,0:0:0:0:
192,192,47069,1,0,0:0:0:0:
64,192,47069,1,0,0:0:0:0:
448,192,47069,1,0,0:0:0:0:
448,192,47369,1,0,0:0:0:0:
64,192,47369,1,0,0:0:0:0:
192,192,47469,1,0,0:0:0:0:
448,192,47568,1,0,0:0:0:0:
192,192,47669,1,0,0:0:0:0:
320,192,47669,1,0,0:0:0:0:
64,192,47769,1,0,0:0:0:0:
320,192,47868,1,0,0:0:0:0:
64,192,47969,1,0,0:0:0:0:
192,192,47969,1,0,0:0:0:0:
320,192,48069,1,0,0:0:0:0:
448,192,48069,1,0,0:0:0:0:
192,192,48169,1,0,0:0:0:0:
64,192,48169,1,0,0:0:0:0:
320,192,48269,1,0,0:0:0:0:
448,192,48269,1,0,0:0:0:0:
192,192,48368,1,0,0:0:0:0:
320,192,48468,1,0,0:0:0:0:
64,192,48469,1,0,0:0:0:0:
192,192,48568,1,0,0:0:0:0:
64,192,48669,1,0,0:0:0:0:
448,192,48669,1,0,0:0:0:0:
320,192,48769,1,0,0:0:0:0:
64,192,48868,1,0,0:0:0:0:
192,192,48969,1,0,0:0:0:0:
448,192,49069,1,0,0:0:0:0:
320,192,49169,1,0,0:0:0:0:
448,192,49269,128,0,49469:0:0:0:0:
192,192,49369,1,0,0:0:0:0:
64,192,49469,1,0,0:0:0:0:
320,192,49469,128,0,49869:0:0:0:0:
192,192,49568,1,0,0:0:0:0:
448,192,49668,1,0,0:0:0:0:
64,192,49769,1,0,0:0:0:0:
192,192,49869,128,0,51069:0:0:0:0:
448,192,49869,128,0,51069:0:0:0:0:
64,192,51068,1,0,0:0:0:0:
64,192,51668,128,0,51743:0:0:0:0:
192,192,51743,128,0,51818:0:0:0:0:
320,192,51818,128,0,51893:0:0:0:0:
448,192,51893,128,0,51968:0:0:0:0:
64,192,52268,1,0,0:0:0:0:
448,192,52343,1,0,0:0:0:0:
192,192,52418,1,0,0:0:0:0:
448,192,52493,1,0,0:0:0:0:
64,192,52568,1,0,0:0:0:0:
320,192,52643,1,0,0:0:0:0:
192,192,52718,1,0,0:0:0:0:
448,192,52793,1,0,0:0:0:0:
64,192,52868,1,0,0:0:0:0:
64,192,53018,1,0,0:0:0:0:
64,192,53168,1,0,0:0:0:0:
64,192,53318,1,0,0:0:0:0:
64,192,53543,1,0,0:0:0:0:
64,192,53768,1,0,0:0:0:0:
448,192,54068,1,0,0:0:0:0:
64,192,54143,1,0,0:0:0:0:
192,192,54218,1,0,0:0:0:0:
448,192,54293,1,0,0:0:0:0:
64,192,54368,1,0,0:0:0:0:
320,192,54443,1,0,0:0:0:0:
192,192,54518,1,0,0:0:0:0:
64,192,54593,1,0,0:0:0:0:
320,192,54668,1,0,0:0:0:0:
192,192,54743,1,0,0:0:0:0:
320,192,54818,1,0,0:0:0:0:
192,192,54893,1,0,0:0:0:0:
64,192,54968,1,0,0:0:0:0:
448,192,55043,1,0,0:0:0:0:
320,192,55118,1,0,0:0:0:0:
448,192,55193,1,0,0:0:0:0:
192,192,55268,1,0,0:0:0:0:
64,192,55343,1,0,0:0:0:0:
320,192,55418,1,0,0:0:0:0:
192,192,55493,1,0,0:0:0:0:
448,192,55568,1,0,0:0:0:0:
192,192,55643,1,0,0:0:0:0:
320,192,55718,1,0,0:0:0:0:
192,192,55793,1,0,0:0:0:0:
64,192,55868,1,0,0:0:0:0:
448,192,56018,1,0,0:0:0:0:
320,192,56168,1,0,0:0:0:0:
192,192,56318,1,0,0:0:0:0:
64,192,56468,1,0,0:0:0:0:
320,192,56618,1,0,0:0:0:0:
192,192,56768,1,0,0:0:0:0:
64,192,56918,1,0,0:0:0:0:
192,192,57068,1,0,0:0:0:0:
64,192,57143,1,0,0:0:0:0:
320,192,57218,1,0,0:0:0:0:
448,192,57293,1,0,0:0:0:0:
320,192,57368,1,0,0:0:0:0:
192,192,57443,1,0,0:0:0:0:
320,192,57518,1,0,0:0:0:0:
64,192,57593,1,0,0:0:0:0:
320,192,57668,1,0,0:0:0:0:
192,192,57743,1,0,0:0:0:0:
448,192,57818,1,0,0:0:0:0:
64,192,57893,1,0,0:0:0:0:
192,192,57968,1,0,0:0:0:0:
448,192,57968,1,0,0:0:0:0:
320,192,58118,1,0,0:0:0:0:
64,192,58268,1,0,0:0:0:0:
448,192,58268,1,0,0:0:0:0:
192,192,58418,128,0,58568:0:0:0:0:
320,192,58418,128,0,58568:0:0:0:0:
64,192,58718,128,0,58868:0:0:0:0:
448,192,58718,128,0,58868:0:0:0:0:
192,192,58868,128,0,59468:0:0:0:0:
320,192,58868,128,0,59468:0:0:0:0:
64,192,59468,1,0,0:0:0:0:
448,192,59543,1,0,0:0:0:0:
192,192,59618,1,0,0:0:0:0:
320,192,59693,1,0,0:0:0:0:
64,192,59768,1,0,0:0:0:0:
448,192,59843,1,0,0:0:0:0:
320,192,59918,1,0,0:0:0:0:
64,192,59993,1,0,0:0:0:0:
192,192,60068,1,0,0:0:0:0:
64,192,60143,1,0,0:0:0:0:
192,192,60218,1,0,0:0:0:0:
448,192,60293,1,0,0:0:0:0:
320,192,60368,1,0,0:0:0:0:
64,192,60443,1,0,0:0:0:0:
192,192,60518,1,0,0:0:0:0:
448,192,60593,1,0,0:0:0:0:
320,192,60668,1,0,0:0:0:0:
192,192,60743,1,0,0:0:0:0:
320,192,60818,1,0,0:0:0:0:
192,192,60893,1,0,0:0:0:0:
64,192,60968,128,0,61268:0:0:0:0:
192,192,61268,128,0,61418:0:0:0:0:
320,192,61418,128,0,61568:0:0:0:0:
448,192,61568,128,0,61868:0:0:0:0:
64,192,61868,1,0,0:0:0:0:
320,192,61868,1,0,0:0:0:0:
192,192,61868,128,0,63068:0:0:0:0:
448,192,62768,1,0,0:0:0:0:
320,192,62918,1,0,0:0:0:0:
64,192,63068,1,0,0:0:0:0:
448,192,63068,128,0,63968:0:0:0:0:
64,192,63218,128,0,63368:0:0:0:0:
192,192,63368,128,0,63518:0:0:0:0:
320,192,63518,128,0,63668:0:0:0:0:
64,192,63968,1,0,0:0:0:0:
320,192,63968,1,0,0:0:0:0:
64,192,64268,1,0,0:0:0:0:
320,192,64268,1,0,0:0:0:0:
192,192,64418,1,0,0:0:0:0:
64,192,64868,1,0,0:0:0:0:
448,192,64868,1,0,0:0:0:0:
192,192,65018,1,0,0:0:0:0:
320,192,65093,1,0,0:0:0:0:
192,192,65168,1,0,0:0:0:0:
320,192,65243,1,0,0:0:0:0:
192,192,65318,1,0,0:0:0:0:
320,192,65393,1,0,0:0:0:0:
64,192,65468,1,0,0:0:0:0:
448,192,65468,1,0,0:0:0:0:
192,192,65543,1,0,0:0:0:0:
64,192,65618,1,0,0:0:0:0:
64,192,65768,1,0,0:0:0:0:
448,192,65768,1,0,0:0:0:0:
320,192,65843,1,0,0:0:0:0:
192,192,65918,1,0,0:0:0:0:
64,192,66068,1,0,0:0:0:0:
448,192,66068,1,0,0:0:0:0:
192,192,66143,1,0,0:0:0:0:
320,192,66180,1,0,0:0:0:0:
448,192,66218,1,0,0:0:0:0:
192,192,66255,1,0,0:0:0:0:
64,192,66293,1,0,0:0:0:0:
320,192,66330,1,0,0:0:0:0:
448,192,66368,1,0,0:0:0:0:
192,192,66518,1,0,0:0:0:0:
320,192,66518,1,0,0:0:0:0:
64,192,66668,1,0,0:0:0:0:
192,192,66668,1,0,0:0:0:0:
320,192,66818,1,0,0:0:0:0:
64,192,66968,1,0,0:0:0:0:
192,192,66968,1,0,0:0:0:0:
320,192,66968,1,0,0:0:0:0:
448,192,66968,1,0,0:0:0:0:
448,192,67118,128,0,67193:0:0:0:0:
448,192,67343,128,0,67418:0:0:0:0:
64,192,67568,1,0,0:0:0:0:
192,192,67568,1,0,0:0:0:0:
320,192,67568,1,0,0:0:0:0:
448,192,67718,128,0,67793:0:0:0:0:
320,192,67868,1,0,0:0:0:0:
192,192,67943,1,0,0:0:0:0:
64,192,68018,1,0,0:0:0:0:
320,192,68093,1,0,0:0:0:0:
448,192,68168,128,0,68468:0:0:0:0:
448,192,68768,1,0,0:0:0:0:
192,192,68768,1,0,0:0:0:0:
320,192,68843,1,0,0:0:0:0:
64,192,68918,1,0,0:0:0:0:
448,192,69068,1,0,0:0:0:0:
64,192,69068,1,0,0:0:0:0:
192,192,69143,1,0,0:0:0:0:
320,192,69218,1,0,0:0:0:0:
320,192,69518,1,0,0:0:0:0:
192,192,69593,1,0,0:0:0:0:
64,192,69668,1,0,0:0:0:0:
320,192,69668,1,0,0:0:0:0:
448,192,69668,1,0,0:0:0:0:
448,192,69968,128,0,70043:0:0:0:0:
448,192,70118,128,0,70193:0:0:0:0:
320,192,70268,1,0,0:0:0:0:
64,192,70268,1,0,0:0:0:0:
192,192,70343,1,0,0:0:0:0:
448,192,70418,1,0,0:0:0:0:
64,192,70568,1,0,0:0:0:0:
448,192,70568,128,0,70718:0:0:0:0:
192,192,70568,1,0,0:0:0:0:
320,192,70718,128,0,70868:0:0:0:0:
64,192,70718,1,0,0:0:0:0:
192,192,70868,128,0,71018:0:0:0:0:
64,192,70868,1,0,0:0:0:0:
64,192,71018,1,0,0:0:0:0:
320,192,71093,1,0,0:0:0:0:
448,192,71168,1,0,0:0:0:0:
192,192,71243,1,0,0:0:0:0:
448,192,71318,1,0,0:0:0:0:
64,192,71468,1,0,0:0:0:0:
320,192,71468,1,0,0:0:0:0:
192,192,71468,128,0,71768:0:0:0:0:
320,192,71768,1,0,0:0:0:0:
64,192,71768,128,0,72668:0:0:0:0:
192,192,72668,128,0,75068:0:0:0:0:
448,192,72743,1,0,0:0:0:0:
64,192,72818,1,0,0:0:0:0:
448,192,72893,1,0,0:0:0:0:
64,192,72968,1,0,0:0:0:0:
448,192,73043,1,0,0:0:0:0:
64,192,73118,1,0,0:0:0:0:
448,192,73193,1,0,0:0:0:0:
64,192,73268,1,0,0:0:0:0:
448,192,73343,1,0,0:0:0:0:
64,192,73418,1,0,0:0:0:0:
448,192,73493,1,0,0:0:0:0:
64,192,73568,1,0,0:0:0:0:
448,192,73643,1,0,0:0:0:0:
64,192,73718,1,0,0:0:0:0:
448,192,73793,1,0,0:0:0:0:
448,192,74468,1,0,0:0:0:0:
320,192,74768,1,0,0:0:0:0:
64,192,75068,1,0,0:0:0:0:
448,192,75068,1,0,0:0:0:0:
64,192,75668,1,0,0:0:0:0:
448,192,75668,1,0,0:0:0:0:
64,192,75968,1,0,0:0:0:0:
448,192,75968,1,0,0:0:0:0:
192,192,76193,1,0,0:0:0:0:
320,192,76193,1,0,0:0:0:0:
64,192,76268,1,0,0:0:0:0:
448,192,76343,1,0,0:0:0:0:
64,192,76418,1,0,0:0:0:0:
320,192,76605,1,0,0:0:0:0:
64,192,76830,1,0,0:0:0:0:
320,192,77205,1,0,0:0:0:0:
64,192,77768,1,0,0:0:0:0:
448,192,77768,1,0,0:0:0:0:
192,192,78743,1,0,0:0:0:0:
320,192,78843,1,0,0:0:0:0:
448,192,78943,128,0,79568:0:0:0:0:
64,192,79568,1,0,0:0:0:0:
192,192,79568,1,0,0:0:0:0:
192,192,79868,1,0,0:0:0:0:
320,192,79868,1,0,0:0:0:0:
320,192,80018,1,0,0:0:0:0:
448,192,80018,1,0,0:0:0:0:
192,192,80168,1,0,0:0:0:0:
64,192,80168,1,0,0:0:0:0:
320,192,80505,1,0,0:0:0:0:
448,192,80505,1,0,0:0:0:0:
192,192,80655,1,0,0:0:0:0:
320,192,80655,1,0,0:0:0:0:
64,192,80805,1,0,0:0:0:0:
192,192,80805,1,0,0:0:0:0:
64,192,81068,1,0,0:0:0:0:
448,192,81068,1,0,0:0:0:0:
192,192,81068,128,0,81668:0:0:0:0:
320,192,81668,128,0,82268:0:0:0:0:
448,192,82268,128,0,83168:0:0:0:0:
64,192,83168,1,0,0:0:0:0:
320,192,83168,1,0,0:0:0:0:
192,192,83318,1,0,0:0:0:0:
448,192,83468,1,0,0:0:0:0:
320,192,83618,1,0,0:0:0:0:
192,192,83693,1,0,0:0:0:0:
64,192,83768,1,0,0:0:0:0:
320,192,83768,1,0,0:0:0:0:
448,192,83843,1,0,0:0:0:0:
192,192,83918,1,0,0:0:0:0:
448,192,84068,1,0,0:0:0:0:
320,192,84218,1,0,0:0:0:0:
64,192,84368,1,0,0:0:0:0:
192,192,84368,1,0,0:0:0:0:
320,192,84518,1,0,0:0:0:0:
448,192,84668,1,0,0:0:0:0:
320,192,84818,1,0,0:0:0:0:
64,192,84893,1,0,0:0:0:0:
192,192,84968,1,0,0:0:0:0:
448,192,85118,1,0,0:0:0:0:
448,192,85268,1,0,0:0:0:0:
320,192,85418,1,0,0:0:0:0:
64,192,85568,1,0,0:0:0:0:
448,192,85568,1,0,0:0:0:0:
192,192,85718,1,0,0:0:0:0:
448,192,85868,1,0,0:0:0:0:
320,192,85868,1,0,0:0:0:0:
192,192,86018,1,0,0:0:0:0:
320,192,86093,1,0,0:0:0:0:
64,192,86168,1,0,0:0:0:0:
192,192,86243,1,0,0:0:0:0:
64,192,86318,1,0,0:0:0:0:
448,192,86318,1,0,0:0:0:0:
320,192,86393,1,0,0:0:0:0:
192,192,86468,1,0,0:0:0:0:
448,192,86468,1,0,0:0:0:0:
320,192,86618,1,0,0:0:0:0:
64,192,86768,1,0,0:0:0:0:
448,192,86768,1,0,0:0:0:0:
192,192,86918,1,0,0:0:0:0:
64,192,87068,1,0,0:0:0:0:
448,192,87068,1,0,0:0:0:0:
320,192,87218,1,0,0:0:0:0:
192,192,87293,1,0,0:0:0:0:
448,192,87368,1,0,0:0:0:0:
192,192,87443,1,0,0:0:0:0:
320,192,87518,1,0,0:0:0:0:
64,192,87668,1,0,0:0:0:0:
448,192,87668,1,0,0:0:0:0:
192,192,87818,1,0,0:0:0:0:
320,192,87818,1,0,0:0:0:0:
64,192,87968,1,0,0:0:0:0:
448,192,87968,1,0,0:0:0:0:
320,192,87968,1,0,0:0:0:0:
192,192,88118,1,0,0:0:0:0:
448,192,88268,1,0,0:0:0:0:
320,192,88418,1,0,0:0:0:0:
64,192,88493,1,0,0:0:0:0:
192,192,88568,1,0,0:0:0:0:
448,192,88643,1,0,0:0:0:0:
64,192,88718,1,0,0:0:0:0:
320,192,88793,1,0,0:0:0:0:
192,192,88868,1,0,0:0:0:0:
448,192,88868,1,0,0:0:0:0:
64,192,89018,1,0,0:0:0:0:
192,192,89168,1,0,0:0:0:0:
320,192,89318,1,0,0:0:0:0:
192,192,89468,1,0,0:0:0:0:
448,192,89468,1,0,0:0:0:0:
320,192,89618,1,0,0:0:0:0:
192,192,89693,1,0,0:0:0:0:
64,192,89768,1,0,0:0:0:0:
192,192,89918,1,0,0:0:0:0:
448,192,89918,1,0,0:0:0:0:
192,192,90068,1,0,0:0:0:0:
448,192,90068,1,0,0:0:0:0:
64,192,90218,1,0,0:0:0:0:
192,192,90368,1,0,0:0:0:0:
320,192,90518,1,0,0:0:0:0:
448,192,90668,1,0,0:0:0:0:
192,192,90668,1,0,0:0:0:0:
64,192,90818,1,0,0:0:0:0:
192,192,90893,1,0,0:0:0:0:
64,192,90968,1,0,0:0:0:0:
320,192,91043,1,0,0:0:0:0:
192,192,91118,1,0,0:0:0:0:
448,192,91118,1,0,0:0:0:0:
192,192,91268,1,0,0:0:0:0:
448,192,91268,1,0,0:0:0:0:
320,192,91418,1,0,0:0:0:0:
64,192,91568,1,0,0:0:0:0:
192,192,91718,1,0,0:0:0:0:
320,192,91868,1,0,0:0:0:0:
448,192,91868,1,0,0:0:0:0:
192,192,92018,1,0,0:0:0:0:
64,192,92018,1,0,0:0:0:0:
64,192,92168,1,0,0:0:0:0:
192,192,92318,1,0,0:0:0:0:
448,192,92318,1,0,0:0:0:0:
320,192,92468,1,0,0:0:0:0:
192,192,92618,1,0,0:0:0:0:
320,192,92768,1,0,0:0:0:0:
64,192,92768,1,0,0:0:0:0:
448,192,92918,1,0,0:0:0:0:
64,192,93068,1,0,0:0:0:0:
320,192,93068,1,0,0:0:0:0:
64,192,93218,1,0,0:0:0:0:
320,192,93218,1,0,0:0:0:0:
192,192,93368,1,0,0:0:0:0:
320,192,93518,1,0,0:0:0:0:
448,192,93518,1,0,0:0:0:0:
192,192,93668,1,0,0:0:0:0:
448,192,93668,1,0,0:0:0:0:
320,192,93818,1,0,0:0:0:0:
192,192,93968,1,0,0:0:0:0:
320,192,94118,1,0,0:0:0:0:
192,192,94268,1,0,0:0:0:0:
448,192,94268,1,0,0:0:0:0:
64,192,94418,1,0,0:0:0:0:
320,192,94493,1,0,0:0:0:0:
192,192,94568,1,0,0:0:0:0:
448,192,94643,1,0,0:0:0:0:
320,192,94718,1,0,0:0:0:0:
448,192,94868,1,0,0:0:0:0:
192,192,94868,1,0,0:0:0:0:
192,192,95018,1,0,0:0:0:0:
448,192,95018,1,0,0:0:0:0:
320,192,95168,128,0,96368:0:0:0:0:
448,192,96368,128,0,96668:0:0:0:0:
320,192,96668,128,0,96818:0:0:0:0:
64,192,96818,128,0,96968:0:0:0:0:
64,192,97493,128,0,97568:0:0:0:0:
192,192,97568,128,0,97718:0:0:0:0:
320,192,97718,128,0,97868:0:0:0:0:
448,192,97868,128,0,98018:0:0:0:0:
320,192,98168,1,0,0:0:0:0:
192,192,98543,1,0,0:0:0:0:
64,192,98918,1,0,0:0:0:0:
320,192,98993,1,0,0:0:0:0:
64,192,99068,1,0,0:0:0:0:
320,192,99143,1,0,0:0:0:0:
64,192,99218,1,0,0:0:0:0:
320,192,99293,1,0,0:0:0:0:
64,192,99368,1,0,0:0:0:0:
320,192,99443,1,0,0:0:0:0:
64,192,99518,1,0,0:0:0:0:
320,192,99593,1,0,0:0:0:0:
64,192,99668,1,0,0:0:0:0:
448,192,99668,1,0,0:0:0:0:
192,192,99968,1,0,0:0:0:0:
320,192,99968,1,0,0:0:0:0:
448,192,100068,1,0,0:0:0:0:
64,192,100068,128,0,100468:0:0:0:0:
320,192,100268,128,0,100468:0:0:0:0:
192,192,100468,1,0,0:0:0:0:
448,192,100468,1,0,0:0:0:0:
64,192,100868,1,0,0:0:0:0:
192,192,100868,1,0,0:0:0:0:
448,192,100868,128,0,102068:0:0:0:0:
320,192,101968,1,0,0:0:0:0:
64,192,102068,1,0,0:0:0:0:
192,192,102068,1,0,0:0:0:0:
192,192,102468,1,0,0:0:0:0:
320,192,102468,1,0,0:0:0:0:
64,192,102468,1,0,0:0:0:0:
192,192,102868,1,0,0:0:0:0:
320,192,102868,1,0,0:0:0:0:
448,192,102868,1,0,0:0:0:0:
64,192,103268,1,0,0:0:0:0:
320,192,103268,1,0,0:0:0:0:
448,192,103268,1,0,0:0:0:0:
448,192,104068,1,0,0:0:0:0:
448,192,104368,1,0,0:0:0:0:
64,192,104468,1,0,0:0:0:0:
320,192,104468,1,0,0:0:0:0:
192,192,104468,1,0,0:0:0:0:
64,192,104768,1,0,0:0:0:0:
192,192,104868,1,0,0:0:0:0:
320,192,104868,1,0,0:0:0:0:
448,192,104868,1,0,0:0:0:0:
64,192,105268,1,0,0:0:0:0:
448,192,105268,1,0,0:0:0:0:
448,192,105468,1,0,0:0:0:0:
320,192,105568,1,0,0:0:0:0:
448,192,105668,128,0,106068:0:0:0:0:
192,192,105668,1,0,0:0:0:0:
64,192,105668,1,0,0:0:0:0:
320,192,106068,128,0,106468:0:0:0:0:
64,192,106068,1,0,0:0:0:0:
192,192,106068,1,0,0:0:0:0:
192,192,106468,128,0,106868:0:0:0:0:
64,192,106468,1,0,0:0:0:0:
320,192,106668,1,0,0:0:0:0:
448,192,106768,1,0,0:0:0:0:
320,192,106868,1,0,0:0:0:0:
64,192,106868,1,0,0:0:0:0:
448,192,106934,1,0,0:0:0:0:
192,192,107001,1,0,0:0:0:0:
320,192,107068,1,0,0:0:0:0:
64,192,107134,1,0,0:0:0:0:
448,192,107201,1,0,0:0:0:0:
192,192,107268,1,0,0:0:0:0:
320,192,107334,1,0,0:0:0:0:
64,192,107401,1,0,0:0:0:0:
448,192,107468,1,0,0:0:0:0:
192,192,107518,128,0,107618:0:0:0:0:
64,192,107618,128,0,108068:0:0:0:0:
320,192,107668,1,0,0:0:0:0:
320,192,108068,1,0,0:0:0:0:
448,192,108068,1,0,0:0:0:0:
320,192,108468,1,0,0:0:0:0:
320,192,108868,1,0,0:0:0:0:
64,192,109268,1,0,0:0:0:0:
448,192,109268,1,0,0:0:0:0:
192,192,109368,1,0,0:0:0:0:
320,192,109368,1,0,0:0:0:0:
64,192,109468,1,0,0:0:0:0:
448,192,109468,1,0,0:0:0:0:
320,192,109568,1,0,0:0:0:0:
64,192,109668,1,0,0:0:0:0:
448,192,109668,1,0,0:0:0:0:
192,192,109768,1,0,0:0:0:0:
64,192,109868,1,0,0:0:0:0:
320,192,109868,1,0,0:0:0:0:
192,192,109968,1,0,0:0:0:0:
320,192,110068,128,0,110468:0:0:0:0:
64,192,110068,128,0,110468:0:0:0:0:
192,192,110468,1,0,0:0:0:0:
448,192,110468,128,0,110668:0:0:0:0:
320,192,110668,128,0,110868:0:0:0:0:
192,192,110868,128,0,111068:0:0:0:0:
64,192,111068,128,0,111268:0:0:0:0:
192,192,111268,128,0,111368:0:0:0:0:
320,192,111368,128,0,111468:0:0:0:0:
448,192,111468,128,0,111568:0:0:0:0:
64,192,111668,1,0,0:0:0:0:
192,192,111668,1,0,0:0:0:0:
320,192,111668,1,0,0:0:0:0:
448,192,111668,1,0,0:0:0:0:
320,192,112068,1,0,0:0:0:0:
64,192,112068,1,0,0:0:0:0:
448,192,112068,1,0,0:0:0:0:
64,192,112468,1,0,0:0:0:0:
448,192,112468,1,0,0:0:0:0:
192,192,112468,1,0,0:0:0:0:
64,192,112868,1,0,0:0:0:0:
192,192,112868,1,0,0:0:0:0:
320,192,112868,1,0,0:0:0:0:
448,192,112868,128,0,113268:0:0:0:0:
64,192,113268,1,0,0:0:0:0:
64,192,114018,1,0,0:0:0:0:
320,192,114068,1,0,0:0:0:0:
448,192,114068,1,0,0:0:0:0:
320,192,114468,1,0,0:0:0:0:
448,192,114468,1,0,0:0:0:0:
192,192,114468,1,0,0:0:0:0:
64,192,114868,1,0,0:0:0:0:
320,192,114868,1,0,0:0:0:0:
448,192,114868,1,0,0:0:0:0:
64,192,115268,1,0,0:0:0:0:
192,192,115268,1,0,0:0:0:0:
448,192,115268,128,0,115668:0:0:0:0:
320,192,115468,1,0,0:0:0:0:
192,192,115568,1,0,0:0:0:0:
64,192,115668,1,0,0:0:0:0:
320,192,115668,128,0,116068:0:0:0:0:
64,192,116068,1,0,0:0:0:0:
448,192,116068,1,0,0:0:0:0:
192,192,116068,128,0,116468:0:0:0:0:
64,192,116468,1,0,0:0:0:0:
448,192,116468,1,0,0:0:0:0:
64,192,116818,1,0,0:0:0:0:
192,192,116868,1,0,0:0:0:0:
320,192,116868,1,0,0:0:0:0:
448,192,116868,128,0,117068:0:0:0:0:
64,192,117268,1,0,0:0:0:0:
320,192,117268,1,0,0:0:0:0:
192,192,117401,1,0,0:0:0:0:
448,192,117401,1,0,0:0:0:0:
64,192,117534,1,0,0:0:0:0:
320,192,117534,1,0,0:0:0:0:
448,192,117668,1,0,0:0:0:0:
64,192,117718,1,0,0:0:0:0:
320,192,117768,1,0,0:0:0:0:
192,192,117818,1,0,0:0:0:0:
448,192,117868,1,0,0:0:0:0:
64,192,117918,1,0,0:0:0:0:
320,192,117968,1,0,0:0:0:0:
192,192,118018,1,0,0:0:0:0:
448,192,118068,1,0,0:0:0:0:
64,192,118118,1,0,0:0:0:0:
320,192,118168,1,0,0:0:0:0:
192,192,118218,1,0,0:0:0:0:
448,192,118268,1,0,0:0:0:0:
64,192,118318,1,0,0:0:0:0:
320,192,118368,1,0,0:0:0:0:
192,192,118418,1,0,0:0:0:0:
448,192,118468,1,0,0:0:0:0:
64,192,118518,1,0,0:0:0:0:
320,192,118568,1,0,0:0:0:0:
192,192,118618,1,0,0:0:0:0:
448,192,118668,1,0,0:0:0:0:
64,192,118718,1,0,0:0:0:0:
320,192,118768,1,0,0:0:0:0:
192,192,118818,1,0,0:0:0:0:
64,192,118868,1,0,0:0:0:0:
448,192,118868,1,0,0:0:0:0:
320,192,118918,1,0,0:0:0:0:
192,192,118968,1,0,0:0:0:0:
64,192,119018,1,0,0:0:0:0:
448,192,119068,1,0,0:0:0:0:
320,192,119118,1,0,0:0:0:0:
192,192,119168,1,0,0:0:0:0:
64,192,119218,1,0,0:0:0:0:
448,192,119268,1,0,0:0:0:0:
192,192,119318,1,0,0:0:0:0:
320,192,119368,1,0,0:0:0:0:
448,192,119418,1,0,0:0:0:0:
64,192,119468,1,0,0:0:0:0:
192,192,119518,1,0,0:0:0:0:
320,192,119568,1,0,0:0:0:0:
448,192,119618,1,0,0:0:0:0:
64,192,119668,1,0,0:0:0:0:
192,192,119718,1,0,0:0:0:0:
448,192,119768,1,0,0:0:0:0:
320,192,119818,1,0,0:0:0:0:
64,192,119868,1,0,0:0:0:0:
192,192,119918,1,0,0:0:0:0:
448,192,119968,1,0,0:0:0:0:
320,192,120018,1,0,0:0:0:0:
64,192,120068,1,0,0:0:0:0:
192,192,120118,1,0,0:0:0:0:
448,192,120168,1,0,0:0:0:0:
320,192,120218,1,0,0:0:0:0:
64,192,120268,1,0,0:0:0:0:
192,192,120318,1,0,0:0:0:0:
448,192,120368,1,0,0:0:0:0:
320,192,120418,1,0,0:0:0:0:
192,192,120468,1,0,0:0:0:0:
448,192,120518,1,0,0:0:0:0:
64,192,120568,1,0,0:0:0:0:
320,192,120618,1,0,0:0:0:0:
192,192,120668,1,0,0:0:0:0:
448,192,120718,1,0,0:0:0:0:
64,192,120768,1,0,0:0:0:0:
320,192,120818,1,0,0:0:0:0:
192,192,120868,1,0,0:0:0:0:
448,192,120918,1,0,0:0:0:0:
64,192,120968,1,0,0:0:0:0:
320,192,121018,1,0,0:0:0:0:
192,192,121068,1,0,0:0:0:0:
448,192,121118,1,0,0:0:0:0:
64,192,121168,1,0,0:0:0:0:
320,192,121218,1,0,0:0:0:0:
192,192,121268,1,0,0:0:0:0:
448,192,121318,1,0,0:0:0:0:
64,192,121368,1,0,0:0:0:0:
320,192,121418,1,0,0:0:0:0:
192,192,121468,1,0,0:0:0:0:
448,192,121518,1,0,0:0:0:0:
320,192,121568,1,0,0:0:0:0:
64,192,121618,1,0,0:0:0:0:
192,192,121668,1,0,0:0:0:0:
320,192,121718,1,0,0:0:0:0:
64,192,121768,1,0,0:0:0:0:
448,192,121818,1,0,0:0:0:0:
192,192,121868,1,0,0:0:0:0:
320,192,121918,1,0,0:0:0:0:
64,192,121968,1,0,0:0:0:0:
192,192,122018,1,0,0:0:0:0:
448,192,122068,1,0,0:0:0:0:
320,192,122118,1,0,0:0:0:0:
192,192,122168,1,0,0:0:0:0:
64,192,122218,1,0,0:0:0:0:
320,192,122268,1,0,0:0:0:0:
192,192,122318,1,0,0:0:0:0:
64,192,122368,1,0,0:0:0:0:
448,192,122418,1,0,0:0:0:0:
320,192,122468,1,0,0:0:0:0:
192,192,122518,1,0,0:0:0:0:
64,192,122568,1,0,0:0:0:0:
320,192,122618,1,0,0:0:0:0:
448,192,122668,1,0,0:0:0:0:
192,192,122718,1,0,0:0:0:0:
64,192,122768,1,0,0:0:0:0:
448,192,122818,1,0,0:0:0:0:
320,192,122868,1,0,0:0:0:0:
64,192,122918,1,0,0:0:0:0:
448,192,122968,1,0,0:0:0:0:
192,192,123018,1,0,0:0:0:0:
320,192,123068,1,0,0:0:0:0:
448,192,123118,128,0,124318:0:0:0:0:
64,192,123118,128,0,123268:0:0:0:0:
192,192,123418,128,0,123568:0:0:0:0:
320,192,123418,128,0,123568:0:0:0:0:
192,192,123718,128,0,123868:0:0:0:0:
320,192,123718,128,0,123868:0:0:0:0:
64,192,124018,128,0,124168:0:0:0:0:
320,192,124318,1,0,0:0:0:0:
192,192,124318,1,0,0:0:0:0:
192,192,124580,1,0,0:0:0:0:
320,192,124580,128,0,124768:0:0:0:0:
192,192,124880,1,0,0:0:0:0:
320,192,124880,128,0,125068:0:0:0:0:
64,192,125180,128,0,125368:0:0:0:0:
192,192,125180,1,0,0:0:0:0:
192,192,125518,128,0,125668:0:0:0:0:
448,192,125518,1,0,0:0:0:0:
320,192,125818,128,0,125968:0:0:0:0:
64,192,125818,1,0,0:0:0:0:
192,192,126118,1,0,0:0:0:0:
64,192,126118,128,0,126343:0:0:0:0:
448,192,126118,1,0,0:0:0:0:
320,192,126418,128,0,126568:0:0:0:0:
448,192,126418,1,0,0:0:0:0:
320,192,126718,128,0,126868:0:0:0:0:
64,192,126718,1,0,0:0:0:0:
448,192,127018,128,0,127168:0:0:0:0:
192,192,127018,1,0,0:0:0:0:
320,192,127318,1,0,0:0:0:0:
64,192,127318,1,0,0:0:0:0:
448,192,127468,1,0,0:0:0:0:
320,192,127618,1,0,0:0:0:0:
64,192,127618,128,0,127768:0:0:0:0:
192,192,127618,1,0,0:0:0:0:
64,192,127868,1,0,0:0:0:0:
448,192,127918,1,0,0:0:0:0:
320,192,128018,128,0,128143:0:0:0:0:
192,192,128143,128,0,128468:0:0:0:0:
64,192,128468,128,0,129118:0:0:0:0:
448,192,128818,1,0,0:0:0:0:
320,192,128818,1,0,0:0:0:0:
320,192,129043,1,0,0:0:0:0:
448,192,129043,1,0,0:0:0:0:
192,192,129118,1,0,0:0:0:0:
320,192,129193,1,0,0:0:0:0:
448,192,129193,1,0,0:0:0:0:
192,192,129268,1,0,0:0:0:0:
64,192,129268,1,0,0:0:0:0:
320,192,129343,1,0,0:0:0:0:
448,192,129343,1,0,0:0:0:0:
192,192,129418,1,0,0:0:0:0:
64,192,129418,1,0,0:0:0:0:
320,192,129493,1,0,0:0:0:0:
448,192,129493,1,0,0:0:0:0:
192,192,129568,1,0,0:0:0:0:
64,192,129568,1,0,0:0:0:0:
320,192,129643,1,0,0:0:0:0:
448,192,129643,1,0,0:0:0:0:
192,192,129718,1,0,0:0:0:0:
64,192,129718,1,0,0:0:0:0:
320,192,129793,1,0,0:0:0:0:
448,192,129793,1,0,0:0:0:0:
192,192,129868,1,0,0:0:0:0:
64,192,129868,1,0,0:0:0:0:
448,192,129943,1,0,0:0:0:0:
320,192,130018,1,0,0:0:0:0:
64,192,130018,1,0,0:0:0:0:
192,192,130093,1,0,0:0:0:0:
64,192,130168,1,0,0:0:0:0:
320,192,130168,1,0,0:0:0:0:
192,192,130268,128,0,133918:0:0:0:0:
448,192,130268,128,0,133918:0:0:0:0:
64,192,131780,1,0,0:0:0:0:
320,192,131818,1,0,0:0:0:0:
64,192,132080,1,0,0:0:0:0:
320,192,132118,1,0,0:0:0:0:
320,192,132380,1,0,0:0:0:0:
64,192,132418,1,0,0:0:0:0:
320,192,132680,1,0,0:0:0:0:
64,192,132718,1,0,0:0:0:0:
64,192,132980,1,0,0:0:0:0:
320,192,133018,128,0,133468:0:0:0:0:
64,192,133580,1,0,0:0:0:0:
320,192,133618,1,0,0:0:0:0:
64,192,133880,1,0,0:0:0:0:
320,192,133918,128,0,134368:0:0:0:0:
192,192,134330,1,0,0:0:0:0:
448,192,134368,1,0,0:0:0:0:
192,192,134668,1,0,0:0:0:0:
448,192,134743,1,0,0:0:0:0:
320,192,134818,1,0,0:0:0:0:
448,192,135043,1,0,0:0:0:0:
192,192,135118,1,0,0:0:0:0:
320,192,135193,1,0,0:0:0:0:
192,192,135418,1,0,0:0:0:0:
64,192,135718,128,0,136618:0:0:0:0:
448,192,136543,128,0,136618:0:0:0:0:
320,192,136618,128,0,136693:0:0:0:0:
192,192,136693,128,0,136768:0:0:0:0:
64,192,136768,128,0,137443:0:0:0:0:
192,192,137368,1,0,0:0:0:0:
448,192,137443,1,0,0:0:0:0:
192,192,137518,1,0,0:0:0:0:
320,192,137593,1,0,0:0:0:0:
448,192,137668,1,0,0:0:0:0:
192,192,137743,1,0,0:0:0:0:
64,192,137818,1,0,0:0:0:0:
320,192,137893,1,0,0:0:0:0:
448,192,137968,1,0,0:0:0:0:
64,192,138043,1,0,0:0:0:0:
192,192,138118,1,0,0:0:0:0:
448,192,138193,1,0,0:0:0:0:
320,192,138268,1,0,0:0:0:0:
64,192,138343,1,0,0:0:0:0:
448,192,138418,1,0,0:0:0:0:
320,192,138493,1,0,0:0:0:0:
448,192,138568,1,0,0:0:0:0:
320,192,138643,1,0,0:0:0:0:
448,192,138718,1,0,0:0:0:0:
192,192,138793,1,0,0:0:0:0:
448,192,138868,1,0,0:0:0:0:
320,192,138943,1,0,0:0:0:0:
448,192,139018,1,0,0:0:0:0:
320,192,139093,1,0,0:0:0:0:
192,192,139168,1,0,0:0:0:0:
448,192,139243,1,0,0:0:0:0:
192,192,139318,1,0,0:0:0:0:
64,192,139393,1,0,0:0:0:0:
192,192,139468,1,0,0:0:0:0:
64,192,139543,1,0,0:0:0:0:
192,192,139618,1,0,0:0:0:0:
320,192,139693,1,0,0:0:0:0:
64,192,139768,1,0,0:0:0:0:
192,192,139843,1,0,0:0:0:0:
320,192,139918,1,0,0:0:0:0:
192,192,139993,1,0,0:0:0:0:
320,192,140068,1,0,0:0:0:0:
64,192,140143,1,0,0:0:0:0:
448,192,140218,1,0,0:0:0:0:
320,192,140293,1,0,0:0:0:0:
448,192,140368,1,0,0:0:0:0:
192,192,140443,1,0,0:0:0:0:
320,192,140518,1,0,0:0:0:0:
448,192,140593,1,0,0:0:0:0:
320,192,140668,1,0,0:0:0:0:
448,192,140743,1,0,0:0:0:0:
192,192,140818,1,0,0:0:0:0:
320,192,140893,1,0,0:0:0:0:
448,192,140968,1,0,0:0:0:0:
320,192,141043,1,0,0:0:0:0:
448,192,141118,1,0,0:0:0:0:
192,192,141193,1,0,0:0:0:0:
64,192,141268,1,0,0:0:0:0:
320,192,141343,1,0,0:0:0:0:
192,192,141418,1,0,0:0:0:0:
64,192,141493,1,0,0:0:0:0:
320,192,141568,1,0,0:0:0:0:
64,192,141643,1,0,0:0:0:0:
192,192,141718,1,0,0:0:0:0:
64,192,141793,1,0,0:0:0:0:
320,192,141868,1,0,0:0:0:0:
192,192,141943,1,0,0:0:0:0:
64,192,142018,1,0,0:0:0:0:
320,192,142093,1,0,0:0:0:0:
448,192,142168,1,0,0:0:0:0:
320,192,142243,1,0,0:0:0:0:
192,192,142318,1,0,0:0:0:0:
448,192,142393,1,0,0:0:0:0:
320,192,142468,1,0,0:0:0:0:
448,192,142543,1,0,0:0:0:0:
192,192,142618,1,0,0:0:0:0:
320,192,142693,1,0,0:0:0:0:
448,192,142768,1,0,0:0:0:0:
192,192,142843,1,0,0:0:0:0:
320,192,142918,1,0,0:0:0:0:
64,192,142993,1,0,0:0:0:0:
192,192,143068,1,0,0:0:0:0:
64,192,143143,1,0,0:0:0:0:
320,192,143218,1,0,0:0:0:0:
192,192,143293,1,0,0:0:0:0:
64,192,143368,1,0,0:0:0:0:
320,192,143443,1,0,0:0:0:0:
192,192,143518,1,0,0:0:0:0:
64,192,143593,1,0,0:0:0:0:
192,192,143668,1,0,0:0:0:0:
320,192,143743,1,0,0:0:0:0:
64,192,143818,1,0,0:0:0:0:
192,192,143893,1,0,0:0:0:0:
320,192,143968,1,0,0:0:0:0:
64,192,144043,1,0,0:0:0:0:
320,192,144118,1,0,0:0:0:0:
192,192,144193,1,0,0:0:0:0:
64,192,144268,1,0,0:0:0:0:
192,192,144343,1,0,0:0:0:0:
320,192,144418,1,0,0:0:0:0:
64,192,144493,1,0,0:0:0:0:
448,192,144568,1,0,0:0:0:0:
192,192,144643,1,0,0:0:0:0:
320,192,144718,1,0,0:0:0:0:
64,192,144793,1,0,0:0:0:0:
448,192,144868,1,0,0:0:0:0:
192,192,144943,1,0,0:0:0:0:
64,192,145018,1,0,0:0:0:0:
320,192,145093,1,0,0:0:0:0:
192,192,145168,1,0,0:0:0:0:
448,192,145243,1,0,0:0:0:0:
192,192,145318,1,0,0:0:0:0:
448,192,145393,1,0,0:0:0:0:
320,192,145468,1,0,0:0:0:0:
448,192,145543,1,0,0:0:0:0:
192,192,145618,1,0,0:0:0:0:
448,192,145693,1,0,0:0:0:0:
64,192,145768,1,0,0:0:0:0:
448,192,145843,1,0,0:0:0:0:
320,192,145918,1,0,0:0:0:0:
448,192,145993,1,0,0:0:0:0:
192,192,146068,1,0,0:0:0:0:
320,192,146143,1,0,0:0:0:0:
448,192,146218,1,0,0:0:0:0:
192,192,146293,1,0,0:0:0:0:
448,192,146368,1,0,0:0:0:0:
64,192,146480,1,0,0:0:0:0:
192,192,146480,1,0,0:0:0:0:
320,192,146480,1,0,0:0:0:0:
448,192,146780,1,0,0:0:0:0:
192,192,146930,1,0,0:0:0:0:
320,192,146993,1,0,0:0:0:0:
64,192,147043,1,0,0:0:0:0:
320,192,147118,128,0,147218:0:0:0:0:
448,192,147218,1,0,0:0:0:0:
192,192,147268,1,0,0:0:0:0:
320,192,147368,1,0,0:0:0:0:
448,192,147368,1,0,0:0:0:0:
64,192,147368,128,0,147668:0:0:0:0:
320,192,147668,1,0,0:0:0:0:
192,192,147818,1,0,0:0:0:0:
320,192,147893,1,0,0:0:0:0:
448,192,147968,1,0,0:0:0:0:
192,192,148118,1,0,0:0:0:0:
448,192,148168,1,0,0:0:0:0:
64,192,148280,1,0,0:0:0:0:
192,192,148280,1,0,0:0:0:0:
448,192,148280,1,0,0:0:0:0:
320,192,148405,1,0,0:0:0:0:
448,192,148480,1,0,0:0:0:0:
192,192,148580,128,0,148880:0:0:0:0:
448,192,148730,1,0,0:0:0:0:
320,192,148805,1,0,0:0:0:0:
64,192,148880,128,0,149180:0:0:0:0:
448,192,148880,1,0,0:0:0:0:
320,192,148955,1,0,0:0:0:0:
192,192,149180,128,0,149780:0:0:0:0:
448,192,149330,1,0,0:0:0:0:
320,192,149405,1,0,0:0:0:0:
64,192,149480,1,0,0:0:0:0:
448,192,149630,1,0,0:0:0:0:
320,192,149780,128,0,150080:0:0:0:0:
64,192,149780,1,0,0:0:0:0:
192,192,149930,1,0,0:0:0:0:
64,192,150005,1,0,0:0:0:0:
448,192,150080,128,0,150530:0:0:0:0:
192,192,150080,1,0,0:0:0:0:
64,192,150230,1,0,0:0:0:0:
192,192,150230,1,0,0:0:0:0:
320,192,150305,1,0,0:0:0:0:
64,192,150380,1,0,0:0:0:0:
320,192,150530,128,0,150830:0:0:0:0:
192,192,150530,1,0,0:0:0:0:
192,192,150680,1,0,0:0:0:0:
448,192,150830,128,0,151055:0:0:0:0:
64,192,150830,1,0,0:0:0:0:
192,192,150830,1,0,0:0:0:0:
64,192,150980,1,0,0:0:0:0:
320,192,151055,128,0,151280:0:0:0:0:
192,192,151055,1,0,0:0:0:0:
64,192,151130,1,0,0:0:0:0:
448,192,151205,1,0,0:0:0:0:
192,192,151280,128,0,151355:0:0:0:0:
448,192,151355,128,0,151430:0:0:0:0:
320,192,151430,128,0,151580:0:0:0:0:
64,192,151505,1,0,0:0:0:0:
192,192,151580,128,0,151880:0:0:0:0:
320,192,151880,128,0,152480:0:0:0:0:
64,192,152480,128,0,153680:0:0:0:0:
192,192,153680,1,0,0:0:0:0:
448,192,153680,1,0,0:0:0:0:
448,192,153980,1,0,0:0:0:0:
320,192,153980,1,0,0:0:0:0:
192,192,154280,1,0,0:0:0:0:
64,192,154280,128,0,155180:0:0:0:0:
448,192,154380,1,0,0:0:0:0:
320,192,154480,1,0,0:0:0:0:
192,192,154580,1,0,0:0:0:0:
448,192,154580,1,0,0:0:0:0:
448,192,154880,1,0,0:0:0:0:
192,192,154880,1,0,0:0:0:0:
320,192,154980,1,0,0:0:0:0:
192,192,155080,1,0,0:0:0:0:
320,192,155180,1,0,0:0:0:0:
448,192,155180,128,0,155442:0:0:0:0:
192,192,155330,1,0,0:0:0:0:
448,192,155480,128,0,155780:0:0:0:0:
64,192,155480,1,0,0:0:0:0:
192,192,155480,1,0,0:0:0:0:
320,192,155480,1,0,0:0:0:0:
192,192,155630,1,0,0:0:0:0:
320,192,155780,128,0,156080:0:0:0:0:
64,192,155780,1,0,0:0:0:0:
192,192,155780,1,0,0:0:0:0:
192,192,155930,1,0,0:0:0:0:
448,192,156080,128,0,156380:0:0:0:0:
64,192,156080,1,0,0:0:0:0:
192,192,156080,1,0,0:0:0:0:
192,192,156180,1,0,0:0:0:0:
320,192,156180,1,0,0:0:0:0:
192,192,156280,1,0,0:0:0:0:
320,192,156280,1,0,0:0:0:0:
192,192,156380,128,0,156905:0:0:0:0:
64,192,156380,1,0,0:0:0:0:
320,192,156380,1,0,0:0:0:0:
320,192,156530,1,0,0:0:0:0:
64,192,156680,1,0,0:0:0:0:
448,192,156680,128,0,156830:0:0:0:0:
320,192,156905,1,0,0:0:0:0:
192,192,156980,128,0,157242:0:0:0:0:
64,192,156980,1,0,0:0:0:0:
448,192,156980,128,0,157280:0:0:0:0:
64,192,157242,1,0,0:0:0:0:
320,192,157280,128,0,157730:0:0:0:0:
448,192,157730,128,0,158030:0:0:0:0:
320,192,158030,128,0,158236:0:0:0:0:
192,192,158236,128,0,158480:0:0:0:0:
64,192,158480,128,0,158555:0:0:0:0:
320,192,158555,128,0,158630:0:0:0:0:
192,192,158630,128,0,158780:0:0:0:0:
64,192,158780,128,0,159080:0:0:0:0:
448,192,159080,128,0,159530:0:0:0:0:
320,192,159530,128,0,159905:0:0:0:0:
192,192,159905,128,0,160205:0:0:0:0:
64,192,160205,128,0,160505:0:0:0:0:
64,192,160580,128,0,160692:0:0:0:0:
192,192,160692,128,0,160767:0:0:0:0:
320,192,160767,128,0,160842:0:0:0:0:
448,192,160842,128,0,160880:0:0:0:0:
64,192,160880,1,0,0:0:0:0:
192,192,160917,1,0,0:0:0:0:
320,192,160955,1,0,0:0:0:0:
448,192,160992,1,0,0:0:0:0:
64,192,161030,1,0,0:0:0:0:
192,192,161067,1,0,0:0:0:0:
320,192,161105,1,0,0:0:0:0:
448,192,161142,1,0,0:0:0:0:
64,192,161180,1,0,0:0:0:0:
192,192,161217,1,0,0:0:0:0:
320,192,161255,1,0,0:0:0:0:
448,192,161292,1,0,0:0:0:0:
64,192,161330,1,0,0:0:0:0:
192,192,161367,1,0,0:0:0:0:
320,192,161405,1,0,0:0:0:0:
448,192,161442,1,0,0:0:0:0:
64,192,161480,1,0,0:0:0:0:
192,192,161517,1,0,0:0:0:0:
320,192,161555,1,0,0:0:0:0:
448,192,161592,1,0,0:0:0:0:
64,192,161630,1,0,0:0:0:0:
192,192,161667,1,0,0:0:0:0:
320,192,161705,1,0,0:0:0:0:
448,192,161742,1,0,0:0:0:0:
64,192,161780,1,0,0:0:0:0:
192,192,161817,1,0,0:0:0:0:
320,192,161855,1,0,0:0:0:0:
448,192,161892,1,0,0:0:0:0:
64,192,161930,1,0,0:0:0:0:
192,192,161967,1,0,0:0:0:0:
320,192,162005,1,0,0:0:0:0:
448,192,162042,1,0,0:0:0:0:
64,192,162080,1,0,0:0:0:0:
192,192,162117,1,0,0:0:0:0:
320,192,162155,1,0,0:0:0:0:
448,192,162192,1,0,0:0:0:0:
64,192,162230,1,0,0:0:0:0:
192,192,162267,1,0,0:0:0:0:
320,192,162305,1,0,0:0:0:0:
448,192,162342,1,0,0:0:0:0:
64,192,162380,1,0,0:0:0:0:
192,192,162417,1,0,0:0:0:0:
320,192,162455,1,0,0:0:0:0:
448,192,162492,1,0,0:0:0:0:
64,192,162530,1,0,0:0:0:0:
192,192,162567,1,0,0:0:0:0:
320,192,162605,1,0,0:0:0:0:
448,192,162642,1,0,0:0:0:0:
192,192,162680,1,0,0:0:0:0:
64,192,162717,1,0,0:0:0:0:
192,192,162755,1,0,0:0:0:0:
320,192,162792,1,0,0:0:0:0:
448,192,162830,1,0,0:0:0:0:
320,192,162867,1,0,0:0:0:0:
192,192,162905,1,0,0:0:0:0:
64,192,162942,1,0,0:0:0:0:
448,192,162980,1,0,0:0:0:0:
320,192,163017,1,0,0:0:0:0:
192,192,163055,1,0,0:0:0:0:
64,192,163092,1,0,0:0:0:0:
448,192,163130,1,0,0:0:0:0:
320,192,163167,1,0,0:0:0:0:
192,192,163205,1,0,0:0:0:0:
64,192,163242,1,0,0:0:0:0:
448,192,163280,1,0,0:0:0:0:
320,192,163317,1,0,0:0:0:0:
192,192,163355,1,0,0:0:0:0:
64,192,163392,1,0,0:0:0:0:
448,192,163430,1,0,0:0:0:0:
320,192,163467,1,0,0:0:0:0:
192,192,163505,1,0,0:0:0:0:
64,192,163542,1,0,0:0:0:0:
448,192,163580,1,0,0:0:0:0:
320,192,163617,1,0,0:0:0:0:
192,192,163655,1,0,0:0:0:0:
64,192,163692,1,0,0:0:0:0:
448,192,163730,1,0,0:0:0:0:
320,192,163767,1,0,0:0:0:0:
192,192,163805,1,0,0:0:0:0:
64,192,163842,1,0,0:0:0:0:
448,192,163880,1,0,0:0:0:0:
320,192,163917,1,0,0:0:0:0:
192,192,163955,1,0,0:0:0:0:
64,192,163992,1,0,0:0:0:0:
448,192,164030,1,0,0:0:0:0:
320,192,164067,1,0,0:0:0:0:
192,192,164105,1,0,0:0:0:0:
64,192,164142,1,0,0:0:0:0:
448,192,164180,1,0,0:0:0:0:
320,192,164217,1,0,0:0:0:0:
192,192,164255,1,0,0:0:0:0:
64,192,164292,1,0,0:0:0:0:
448,192,164330,1,0,0:0:0:0:
320,192,164367,1,0,0:0:0:0:
192,192,164405,1,0,0:0:0:0:
64,192,164442,1,0,0:0:0:0:
448,192,164480,1,0,0:0:0:0:
320,192,164517,1,0,0:0:0:0:
64,192,164555,1,0,0:0:0:0:
192,192,164592,1,0,0:0:0:0:
448,192,164630,1,0,0:0:0:0:
320,192,164667,1,0,0:0:0:0:
64,192,164705,1,0,0:0:0:0:
192,192,164742,1,0,0:0:0:0:
448,192,164780,1,0,0:0:0:0:
320,192,164817,1,0,0:0:0:0:
64,192,164855,1,0,0:0:0:0:
192,192,164892,1,0,0:0:0:0:
448,192,164930,1,0,0:0:0:0:
320,192,164967,1,0,0:0:0:0:
64,192,165005,1,0,0:0:0:0:
192,192,165042,1,0,0:0:0:0:
448,192,165080,1,0,0:0:0:0:
320,192,165117,1,0,0:0:0:0:
64,192,165155,1,0,0:0:0:0:
192,192,165192,1,0,0:0:0:0:
448,192,165230,1,0,0:0:0:0:
320,192,165267,1,0,0:0:0:0:
64,192,165305,1,0,0:0:0:0:
192,192,165342,1,0,0:0:0:0:
448,192,165380,1,0,0:0:0:0:
320,192,165417,1,0,0:0:0:0:
64,192,165455,1,0,0:0:0:0:
192,192,165492,1,0,0:0:0:0:
448,192,165530,1,0,0:0:0:0:
320,192,165567,1,0,0:0:0:0:
64,192,165605,1,0,0:0:0:0:
192,192,165642,1,0,0:0:0:0:
448,192,165680,1,0,0:0:0:0:
320,192,165717,1,0,0:0:0:0:
64,192,165755,1,0,0:0:0:0:
192,192,165792,1,0,0:0:0:0:
448,192,165830,1,0,0:0:0:0:
320,192,165867,1,0,0:0:0:0:
64,192,165905,1,0,0:0:0:0:
192,192,165942,1,0,0:0:0:0:
448,192,165980,1,0,0:0:0:0:
320,192,166017,1,0,0:0:0:0:
64,192,166055,1,0,0:0:0:0:
192,192,166092,1,0,0:0:0:0:
448,192,166130,1,0,0:0:0:0:
320,192,166167,1,0,0:0:0:0:
64,192,166205,1,0,0:0:0:0:
192,192,166242,1,0,0:0:0:0:
320,192,166280,1,0,0:0:0:0:
448,192,166280,1,0,0:0:0:0:
320,192,166380,1,0,0:0:0:0:
448,192,166380,1,0,0:0:0:0:
320,192,166480,1,0,0:0:0:0:
448,192,166480,1,0,0:0:0:0:
320,192,166580,1,0,0:0:0:0:
64,192,166580,1,0,0:0:0:0:
192,192,166580,1,0,0:0:0:0:
64,192,166680,1,0,0:0:0:0:
192,192,166680,1,0,0:0:0:0:
192,192,166780,1,0,0:0:0:0:
320,192,166780,1,0,0:0:0:0:
192,192,166880,1,0,0:0:0:0:
64,192,166880,1,0,0:0:0:0:
320,192,166980,1,0,0:0:0:0:
448,192,166980,1,0,0:0:0:0:
64,192,167080,1,0,0:0:0:0:
192,192,167080,1,0,0:0:0:0:
192,192,167180,1,0,0:0:0:0:
448,192,167180,1,0,0:0:0:0:
192,192,167280,1,0,0:0:0:0:
64,192,167280,1,0,0:0:0:0:
320,192,167380,1,0,0:0:0:0:
448,192,167380,1,0,0:0:0:0:
64,192,167480,1,0,0:0:0:0:
448,192,167480,1,0,0:0:0:0:
320,192,167580,1,0,0:0:0:0:
448,192,167580,1,0,0:0:0:0:
64,192,167680,1,0,0:0:0:0:
192,192,167680,1,0,0:0:0:0:
320,192,167780,1,0,0:0:0:0:
448,192,167780,1,0,0:0:0:0:
320,192,167880,1,0,0:0:0:0:
448,192,167880,1,0,0:0:0:0:
192,192,167980,1,0,0:0:0:0:
64,192,167980,1,0,0:0:0:0:
448,192,168080,128,0,168380:0:0:0:0:
64,192,168080,1,0,0:0:0:0:
192,192,168080,128,0,168380:0:0:0:0:
64,192,168380,128,0,168680:0:0:0:0:
320,192,168380,1,0,0:0:0:0:
192,192,168530,1,0,0:0:0:0:
448,192,168680,1,0,0:0:0:0:
320,192,168680,1,0,0:0:0:0:
192,192,168680,128,0,168980:0:0:0:0:
64,192,168867,1,0,0:0:0:0:
320,192,168980,1,0,0:0:0:0:
448,192,168980,128,0,169280:0:0:0:0:
320,192,169280,1,0,0:0:0:0:
64,192,169280,1,0,0:0:0:0:
192,192,169467,1,0,0:0:0:0:
64,192,169580,1,0,0:0:0:0:
320,192,169580,1,0,0:0:0:0:
448,192,169580,128,0,169880:0:0:0:0:
320,192,169767,1,0,0:0:0:0:
64,192,169880,1,0,0:0:0:0:
192,192,169880,1,0,0:0:0:0:
320,192,169880,128,0,169955:0:0:0:0:
192,192,169955,128,0,170030:0:0:0:0:
64,192,170030,128,0,170105:0:0:0:0:
64,192,170180,1,0,0:0:0:0:
192,192,170180,1,0,0:0:0:0:
448,192,170180,1,0,0:0:0:0:
192,192,170367,1,0,0:0:0:0:
320,192,170367,1,0,0:0:0:0:
64,192,170480,1,0,0:0:0:0:
448,192,170480,1,0,0:0:0:0:
64,192,170667,1,0,0:0:0:0:
320,192,170667,1,0,0:0:0:0:
448,192,170667,1,0,0:0:0:0:
64,192,170780,1,0,0:0:0:0:
192,192,170780,128,0,171080:0:0:0:0:
64,192,171080,1,0,0:0:0:0:
320,192,171080,1,0,0:0:0:0:
448,192,171080,1,0,0:0:0:0:
192,192,171267,1,0,0:0:0:0:
320,192,171267,1,0,0:0:0:0:
64,192,171380,1,0,0:0:0:0:
448,192,171380,1,0,0:0:0:0:
64,192,171567,1,0,0:0:0:0:
192,192,171567,1,0,0:0:0:0:
320,192,171680,1,0,0:0:0:0:
448,192,171680,1,0,0:0:0:0:
192,192,171830,1,0,0:0:0:0:
64,192,171980,1,0,0:0:0:0:
320,192,171980,128,0,172280:0:0:0:0:
192,192,172280,1,0,0:0:0:0:
448,192,172280,1,0,0:0:0:0:
320,192,172430,1,0,0:0:0:0:
192,192,172580,1,0,0:0:0:0:
64,192,172580,128,0,172880:0:0:0:0:
192,192,172880,1,0,0:0:0:0:
320,192,172880,1,0,0:0:0:0:
448,192,173030,1,0,0:0:0:0:
192,192,173180,1,0,0:0:0:0:
320,192,173180,1,0,0:0:0:0:
64,192,173330,1,0,0:0:0:0:
448,192,173480,1,0,0:0:0:0:
192,192,173480,1,0,0:0:0:0:
64,192,173630,1,0,0:0:0:0:
192,192,173780,1,0,0:0:0:0:
320,192,173780,1,0,0:0:0:0:
448,192,173930,1,0,0:0:0:0:
320,192,174080,1,0,0:0:0:0:
64,192,174080,1,0,0:0:0:0:
192,192,174230,128,0,174380:0:0:0:0:
320,192,174380,1,0,0:0:0:0:
448,192,174380,1,0,0:0:0:0:
64,192,174480,1,0,0:0:0:0:
192,192,174480,1,0,0:0:0:0:
320,192,174580,1,0,0:0:0:0:
448,192,174580,1,0,0:0:0:0:
64,192,174680,1,0,0:0:0:0:
192,192,174680,1,0,0:0:0:0:
320,192,174780,1,0,0:0:0:0:
448,192,174780,1,0,0:0:0:0:
64,192,174880,1,0,0:0:0:0:
192,192,174880,1,0,0:0:0:0:
320,192,174980,1,0,0:0:0:0:
448,192,174980,1,0,0:0:0:0:
64,192,175080,1,0,0:0:0:0:
192,192,175080,1,0,0:0:0:0:
320,192,175180,1,0,0:0:0:0:
448,192,175180,1,0,0:0:0:0:
192,192,175280,1,0,0:0:0:0:
64,192,175280,128,0,175880:0:0:0:0:
192,192,175580,1,0,0:0:0:0:
448,192,175580,1,0,0:0:0:0:
320,192,175880,1,0,0:0:0:0:
448,192,175880,128,0,176480:0:0:0:0:
64,192,176180,1,0,0:0:0:0:
320,192,176180,1,0,0:0:0:0:
192,192,176480,1,0,0:0:0:0:
320,192,176480,1,0,0:0:0:0:
64,192,176780,1,0,0:0:0:0:
192,192,176780,1,0,0:0:0:0:
64,192,177080,1,0,0:0:0:0:
320,192,177080,1,0,0:0:0:0:
448,192,177080,128,0,177680:0:0:0:0:
192,192,177380,1,0,0:0:0:0:
320,192,177380,1,0,0:0:0:0:
64,192,177680,1,0,0:0:0:0:
192,192,177680,1,0,0:0:0:0:
64,192,177980,1,0,0:0:0:0:
320,192,177980,1,0,0:0:0:0:
448,192,177980,1,0,0:0:0:0:
192,192,178205,1,0,0:0:0:0:
64,192,178280,1,0,0:0:0:0:
320,192,178280,1,0,0:0:0:0:
192,192,178430,1,0,0:0:0:0:
64,192,178580,1,0,0:0:0:0:
448,192,178580,1,0,0:0:0:0:
320,192,178730,1,0,0:0:0:0:
64,192,178880,1,0,0:0:0:0:
192,192,178880,128,0,179330:0:0:0:0:
448,192,179030,1,0,0:0:0:0:
64,192,179180,1,0,0:0:0:0:
320,192,179330,128,0,179630:0:0:0:0:
448,192,179330,1,0,0:0:0:0:
64,192,179480,1,0,0:0:0:0:
448,192,179630,128,0,179780:0:0:0:0:
192,192,179630,1,0,0:0:0:0:
320,192,179780,128,0,180230:0:0:0:0:
192,192,179780,1,0,0:0:0:0:
64,192,179930,1,0,0:0:0:0:
448,192,180080,1,0,0:0:0:0:
448,192,180230,128,0,180380:0:0:0:0:
64,192,180230,1,0,0:0:0:0:
320,192,180380,128,0,180680:0:0:0:0:
192,192,180380,1,0,0:0:0:0:
192,192,180680,128,0,181280:0:0:0:0:
448,192,180680,1,0,0:0:0:0:
64,192,180680,1,0,0:0:0:0:
320,192,180905,1,0,0:0:0:0:
64,192,180980,1,0,0:0:0:0:
448,192,180980,1,0,0:0:0:0:
320,192,181130,1,0,0:0:0:0:
64,192,181280,128,0,181730:0:0:0:0:
448,192,181280,1,0,0:0:0:0:
320,192,181355,1,0,0:0:0:0:
448,192,181430,1,0,0:0:0:0:
320,192,181505,1,0,0:0:0:0:
192,192,181580,1,0,0:0:0:0:
448,192,181580,1,0,0:0:0:0:
320,192,181655,1,0,0:0:0:0:
192,192,181730,1,0,0:0:0:0:
64,192,181805,1,0,0:0:0:0:
448,192,181880,1,0,0:0:0:0:
320,192,181955,1,0,0:0:0:0:
192,192,182030,1,0,0:0:0:0:
64,192,182105,1,0,0:0:0:0:
448,192,182180,1,0,0:0:0:0:
320,192,182255,1,0,0:0:0:0:
192,192,182330,1,0,0:0:0:0:
64,192,182405,1,0,0:0:0:0:
320,192,182480,1,0,0:0:0:0:
448,192,182480,1,0,0:0:0:0:
64,192,182555,1,0,0:0:0:0:
192,192,182630,1,0,0:0:0:0:
64,192,182705,1,0,0:0:0:0:
448,192,182780,1,0,0:0:0:0:
320,192,182855,1,0,0:0:0:0:
192,192,182930,1,0,0:0:0:0:
64,192,183005,1,0,0:0:0:0:
320,192,183080,1,0,0:0:0:0:
192,192,183155,1,0,0:0:0:0:
64,192,183230,1,0,0:0:0:0:
320,192,183305,1,0,0:0:0:0:
448,192,183380,1,0,0:0:0:0:
64,192,183455,1,0,0:0:0:0:
192,192,183530,1,0,0:0:0:0:
320,192,183605,1,0,0:0:0:0:
448,192,183680,1,0,0:0:0:0:
192,192,183755,1,0,0:0:0:0:
64,192,183830,1,0,0:0:0:0:
192,192,183905,1,0,0:0:0:0:
320,192,183980,1,0,0:0:0:0:
448,192,184055,1,0,0:0:0:0:
64,192,184130,1,0,0:0:0:0:
192,192,184205,1,0,0:0:0:0:
320,192,184280,1,0,0:0:0:0:
64,192,184355,1,0,0:0:0:0:
192,192,184430,1,0,0:0:0:0:
448,192,184505,1,0,0:0:0:0:
64,192,184580,1,0,0:0:0:0:
320,192,184655,1,0,0:0:0:0:
448,192,184730,1,0,0:0:0:0:
192,192,184805,1,0,0:0:0:0:
320,192,184880,1,0,0:0:0:0:
448,192,184955,1,0,0:0:0:0:
64,192,185030,1,0,0:0:0:0:
192,192,185105,1,0,0:0:0:0:
448,192,185180,1,0,0:0:0:0:
320,192,185255,1,0,0:0:0:0:
192,192,185330,1,0,0:0:0:0:
64,192,185405,1,0,0:0:0:0:
448,192,185480,1,0,0:0:0:0:
192,192,185555,1,0,0:0:0:0:
64,192,185630,1,0,0:0:0:0:
320,192,185705,1,0,0:0:0:0:
192,192,185780,1,0,0:0:0:0:
64,192,185855,1,0,0:0:0:0:
448,192,185930,1,0,0:0:0:0:
192,192,186005,1,0,0:0:0:0:
320,192,186080,1,0,0:0:0:0:
64,192,186155,1,0,0:0:0:0:
448,192,186230,1,0,0:0:0:0:
192,192,186305,1,0,0:0:0:0:
320,192,186380,1,0,0:0:0:0:
64,192,186455,1,0,0:0:0:0:
192,192,186530,1,0,0:0:0:0:
320,192,186605,1,0,0:0:0:0:
448,192,186680,1,0,0:0:0:0:
192,192,186755,1,0,0:0:0:0:
64,192,186830,1,0,0:0:0:0:
320,192,186905,1,0,0:0:0:0:
192,192,186980,1,0,0:0:0:0:
448,192,187055,1,0,0:0:0:0:
64,192,187130,1,0,0:0:0:0:
192,192,187205,1,0,0:0:0:0:
320,192,187280,1,0,0:0:0:0:
448,192,187355,1,0,0:0:0:0:
320,192,187430,1,0,0:0:0:0:
192,192,187505,1,0,0:0:0:0:
64,192,187580,1,0,0:0:0:0:
448,192,187655,1,0,0:0:0:0:
320,192,187730,1,0,0:0:0:0:
192,192,187805,1,0,0:0:0:0:
64,192,187880,1,0,0:0:0:0:
192,192,187955,1,0,0:0:0:0:
320,192,188030,1,0,0:0:0:0:
64,192,188105,1,0,0:0:0:0:
192,192,188180,1,0,0:0:0:0:
448,192,188255,1,0,0:0:0:0:
320,192,188330,1,0,0:0:0:0:
64,192,188405,1,0,0:0:0:0:
192,192,188480,1,0,0:0:0:0:
320,192,188555,1,0,0:0:0:0:
64,192,188630,1,0,0:0:0:0:
448,192,188705,1,0,0:0:0:0:
320,192,188780,1,0,0:0:0:0:
192,192,188855,1,0,0:0:0:0:
64,192,188930,1,0,0:0:0:0:
320,192,189005,1,0,0:0:0:0:
192,192,189080,1,0,0:0:0:0:
448,192,189155,1,0,0:0:0:0:
64,192,189230,1,0,0:0:0:0:
192,192,189305,1,0,0:0:0:0:
320,192,189380,1,0,0:0:0:0:
448,192,189455,1,0,0:0:0:0:
64,192,189530,1,0,0:0:0:0:
448,192,189605,1,0,0:0:0:0:
64,192,189680,1,0,0:0:0:0:
448,192,189755,1,0,0:0:0:0:
64,192,189830,1,0,0:0:0:0:
448,192,189905,1,0,0:0:0:0:
192,192,189980,1,0,0:0:0:0:
320,192,190055,1,0,0:0:0:0:
192,192,190130,1,0,0:0:0:0:
320,192,190205,1,0,0:0:0:0:
192,192,190280,1,0,0:0:0:0:
320,192,190355,1,0,0:0:0:0:
192,192,190430,1,0,0:0:0:0:
320,192,190505,1,0,0:0:0:0:
192,192,190580,1,0,0:0:0:0:
320,192,190655,1,0,0:0:0:0:
192,192,190730,1,0,0:0:0:0:
320,192,190805,1,0,0:0:0:0:
192,192,190880,1,0,0:0:0:0:
320,192,190955,1,0,0:0:0:0:
192,192,191030,1,0,0:0:0:0:
320,192,191105,1,0,0:0:0:0:
192,192,191180,1,0,0:0:0:0:
320,192,191255,1,0,0:0:0:0:
192,192,191330,1,0,0:0:0:0:
448,192,191405,1,0,0:0:0:0:
192,192,191480,1,0,0:0:0:0:
320,192,191555,1,0,0:0:0:0:
64,192,191630,1,0,0:0:0:0:
448,192,191705,1,0,0:0:0:0:
192,192,191780,1,0,0:0:0:0:
320,192,191855,1,0,0:0:0:0:
64,192,191930,1,0,0:0:0:0:
448,192,192005,1,0,0:0:0:0:
192,192,192080,1,0,0:0:0:0:
320,192,192155,1,0,0:0:0:0:
64,192,192230,1,0,0:0:0:0:
448,192,192305,1,0,0:0:0:0:
192,192,192380,1,0,0:0:0:0:
320,192,192455,1,0,0:0:0:0:
64,192,192530,1,0,0:0:0:0:
448,192,192605,1,0,0:0:0:0:
192,192,192680,1,0,0:0:0:0:
320,192,192755,1,0,0:0:0:0:
64,192,192830,1,0,0:0:0:0:
448,192,192905,1,0,0:0:0:0:
192,192,192980,1,0,0:0:0:0:
320,192,193055,1,0,0:0:0:0:
64,192,193130,1,0,0:0:0:0:
448,192,193205,1,0,0:0:0:0:
192,192,193280,1,0,0:0:0:0:
320,192,193355,1,0,0:0:0:0:
64,192,193430,1,0,0:0:0:0:
192,192,195080,1,0,0:0:0:0:
192,192,195380,1,0,0:0:0:0:
320,192,195680,1,0,0:0:0:0:
320,192,195980,1,0,0:0:0:0:
448,192,196280,1,0,0:0:0:0:
192,192,196430,1,0,0:0:0:0:
64,192,196580,1,0,0:0:0:0:
192,192,196730,1,0,0:0:0:0:
320,192,196880,1,0,0:0:0:0:
448,192,197030,1,0,0:0:0:0:
64,192,197180,1,0,0:0:0:0:
192,192,197330,1,0,0:0:0:0:
320,192,197480,1,0,0:0:0:0:
448,192,197555,1,0,0:0:0:0:
64,192,197630,1,0,0:0:0:0:
192,192,197705,1,0,0:0:0:0:
320,192,197780,1,0,0:0:0:0:
448,192,197855,1,0,0:0:0:0:
64,192,197930,1,0,0:0:0:0:
192,192,198005,1,0,0:0:0:0:
320,192,198080,1,0,0:0:0:0:
448,192,198155,1,0,0:0:0:0:
64,192,198230,1,0,0:0:0:0:
192,192,198267,1,0,0:0:0:0:
320,192,198305,1,0,0:0:0:0:
448,192,198342,1,0,0:0:0:0:
64,192,198380,1,0,0:0:0:0:
192,192,198417,1,0,0:0:0:0:
320,192,198455,1,0,0:0:0:0:
448,192,198492,1,0,0:0:0:0:
64,192,198530,1,0,0:0:0:0:
192,192,198567,1,0,0:0:0:0:
320,192,198605,1,0,0:0:0:0:
448,192,198642,1,0,0:0:0:0:
64,192,198680,1,0,0:0:0:0:
192,192,198680,1,0,0:0:0:0:
320,192,198830,1,0,0:0:0:0:
64,192,198980,1,0,0:0:0:0:
448,192,198980,1,0,0:0:0:0:
320,192,199055,1,0,0:0:0:0:
192,192,199130,1,0,0:0:0:0:
64,192,199205,1,0,0:0:0:0:
320,192,199280,1,0,0:0:0:0:
448,192,199280,1,0,0:0:0:0:
192,192,199430,1,0,0:0:0:0:
64,192,199580,1,0,0:0:0:0:
320,192,199580,1,0,0:0:0:0:
448,192,199580,1,0,0:0:0:0:
192,192,199655,1,0,0:0:0:0:
320,192,199730,1,0,0:0:0:0:
448,192,199805,1,0,0:0:0:0:
64,192,199880,1,0,0:0:0:0:
320,192,200030,1,0,0:0:0:0:
192,192,200180,1,0,0:0:0:0:
448,192,200180,1,0,0:0:0:0:
320,192,200255,1,0,0:0:0:0:
192,192,200330,1,0,0:0:0:0:
64,192,200405,1,0,0:0:0:0:
320,192,200480,1,0,0:0:0:0:
448,192,200480,1,0,0:0:0:0:
192,192,200630,1,0,0:0:0:0:
192,192,200780,1,0,0:0:0:0:
448,192,200780,1,0,0:0:0:0:
64,192,200855,1,0,0:0:0:0:
320,192,200930,1,0,0:0:0:0:
192,192,201005,1,0,0:0:0:0:
64,192,201080,1,0,0:0:0:0:
448,192,201080,1,0,0:0:0:0:
320,192,201155,1,0,0:0:0:0:
192,192,201230,1,0,0:0:0:0:
320,192,201305,1,0,0:0:0:0:
64,192,201380,1,0,0:0:0:0:
448,192,201380,1,0,0:0:0:0:
320,192,201455,1,0,0:0:0:0:
192,192,201530,1,0,0:0:0:0:
64,192,201605,1,0,0:0:0:0:
448,192,201680,1,0,0:0:0:0:
192,192,201680,1,0,0:0:0:0:
320,192,201755,1,0,0:0:0:0:
64,192,201830,1,0,0:0:0:0:
192,192,201830,1,0,0:0:0:0:
320,192,201905,1,0,0:0:0:0:
192,192,201980,1,0,0:0:0:0:
448,192,201980,1,0,0:0:0:0:
320,192,202055,1,0,0:0:0:0:
64,192,202130,1,0,0:0:0:0:
320,192,202205,1,0,0:0:0:0:
192,192,202280,1,0,0:0:0:0:
448,192,202280,1,0,0:0:0:0:
320,192,202430,1,0,0:0:0:0:
64,192,202580,1,0,0:0:0:0:
320,192,202580,1,0,0:0:0:0:
192,192,202655,1,0,0:0:0:0:
320,192,202730,1,0,0:0:0:0:
448,192,202805,1,0,0:0:0:0:
192,192,202880,1,0,0:0:0:0:
64,192,202880,1,0,0:0:0:0:
320,192,203030,1,0,0:0:0:0:
192,192,203180,1,0,0:0:0:0:
448,192,203180,1,0,0:0:0:0:
320,192,203330,1,0,0:0:0:0:
192,192,203480,1,0,0:0:0:0:
448,192,203480,1,0,0:0:0:0:
64,192,203630,1,0,0:0:0:0:
192,192,203780,1,0,0:0:0:0:
320,192,203780,1,0,0:0:0:0:
448,192,203930,1,0,0:0:0:0:
64,192,204080,1,0,0:0:0:0:
320,192,204080,1,0,0:0:0:0:
192,192,204230,1,0,0:0:0:0:
64,192,204380,1,0,0:0:0:0:
448,192,204380,1,0,0:0:0:0:
320,192,204530,1,0,0:0:0:0:
192,192,204680,1,0,0:0:0:0:
448,192,204680,1,0,0:0:0:0:
64,192,204830,1,0,0:0:0:0:
448,192,204980,128,0,205130:0:0:0:0:
192,192,205167,1,0,0:0:0:0:
448,192,205280,1,0,0:0:0:0:
64,192,205355,1,0,0:0:0:0:
320,192,205430,1,0,0:0:0:0:
448,192,205580,1,0,0:0:0:0:
64,192,205655,1,0,0:0:0:0:
320,192,205730,1,0,0:0:0:0:
64,192,205880,1,0,0:0:0:0:
192,192,205955,1,0,0:0:0:0:
320,192,206030,1,0,0:0:0:0:
448,192,206105,1,0,0:0:0:0:
320,192,206180,1,0,0:0:0:0:
192,192,206255,1,0,0:0:0:0:
64,192,206330,1,0,0:0:0:0:
192,192,206405,1,0,0:0:0:0:
320,192,206480,1,0,0:0:0:0:
448,192,206555,1,0,0:0:0:0:
320,192,206630,1,0,0:0:0:0:
192,192,206705,1,0,0:0:0:0:
64,192,206780,1,0,0:0:0:0:
320,192,206930,1,0,0:0:0:0:
64,192,207080,1,0,0:0:0:0:
192,192,207155,1,0,0:0:0:0:
320,192,207230,1,0,0:0:0:0:
64,192,207305,1,0,0:0:0:0:
192,192,207380,1,0,0:0:0:0:
320,192,207455,1,0,0:0:0:0:
448,192,207530,1,0,0:0:0:0:
320,192,207605,1,0,0:0:0:0:
192,192,207680,1,0,0:0:0:0:
64,192,207755,1,0,0:0:0:0:
192,192,207830,1,0,0:0:0:0:
320,192,207905,1,0,0:0:0:0:
448,192,207980,1,0,0:0:0:0:
320,192,208055,1,0,0:0:0:0:
192,192,208130,1,0,0:0:0:0:
320,192,208205,1,0,0:0:0:0:
448,192,208280,1,0,0:0:0:0:
320,192,208355,1,0,0:0:0:0:
192,192,208430,1,0,0:0:0:0:
64,192,208505,1,0,0:0:0:0:
192,192,208580,1,0,0:0:0:0:
320,192,208655,128,0,208880:0:0:0:0:
64,192,208880,1,0,0:0:0:0:
192,192,208955,1,0,0:0:0:0:
448,192,209030,1,0,0:0:0:0:
320,192,209105,1,0,0:0:0:0:
192,192,209180,1,0,0:0:0:0:
64,192,209255,1,0,0:0:0:0:
192,192,209330,1,0,0:0:0:0:
320,192,209405,1,0,0:0:0:0:
448,192,209480,1,0,0:0:0:0:
320,192,209555,1,0,0:0:0:0:
192,192,209630,1,0,0:0:0:0:
64,192,209705,1,0,0:0:0:0:
320,192,209780,1,0,0:0:0:0:
448,192,209855,1,0,0:0:0:0:
192,192,209930,1,0,0:0:0:0:
64,192,210005,1,0,0:0:0:0:
192,192,210080,1,0,0:0:0:0:
320,192,210155,1,0,0:0:0:0:
448,192,210230,1,0,0:0:0:0:
320,192,210305,1,0,0:0:0:0:
192,192,210380,1,0,0:0:0:0:
64,192,210455,1,0,0:0:0:0:
320,192,210530,1,0,0:0:0:0:
192,192,210605,1,0,0:0:0:0:
64,192,210680,1,0,0:0:0:0:
320,192,210755,1,0,0:0:0:0:
448,192,210830,1,0,0:0:0:0:
192,192,210905,1,0,0:0:0:0:
64,192,210980,1,0,0:0:0:0:
320,192,211055,1,0,0:0:0:0:
448,192,211130,1,0,0:0:0:0:
320,192,211205,1,0,0:0:0:0:
192,192,211280,1,0,0:0:0:0:
64,192,211355,1,0,0:0:0:0:
320,192,211430,1,0,0:0:0:0:
448,192,211505,1,0,0:0:0:0:
192,192,211580,1,0,0:0:0:0:
64,192,211617,1,0,0:0:0:0:
320,192,211730,1,0,0:0:0:0:
448,192,211767,1,0,0:0:0:0:
192,192,211880,1,0,0:0:0:0:
64,192,211917,1,0,0:0:0:0:
320,192,212030,1,0,0:0:0:0:
448,192,212067,1,0,0:0:0:0:
64,192,212180,1,0,0:0:0:0:
448,192,212180,1,0,0:0:0:0:
192,192,212255,1,0,0:0:0:0:
320,192,212330,1,0,0:0:0:0:
64,192,212330,1,0,0:0:0:0:
448,192,212405,1,0,0:0:0:0:
192,192,212480,1,0,0:0:0:0:
64,192,212480,1,0,0:0:0:0:
320,192,212555,1,0,0:0:0:0:
192,192,212630,1,0,0:0:0:0:
448,192,212630,1,0,0:0:0:0:
64,192,212705,1,0,0:0:0:0:
192,192,212780,1,0,0:0:0:0:
320,192,212780,1,0,0:0:0:0:
448,192,212855,1,0,0:0:0:0:
64,192,212930,1,0,0:0:0:0:
320,192,212930,1,0,0:0:0:0:
192,192,213005,1,0,0:0:0:0:
64,192,213080,1,0,0:0:0:0:
448,192,213080,1,0,0:0:0:0:
320,192,213155,1,0,0:0:0:0:
192,192,213230,1,0,0:0:0:0:
64,192,213230,1,0,0:0:0:0:
448,192,213305,1,0,0:0:0:0:
192,192,213380,1,0,0:0:0:0:
320,192,213380,1,0,0:0:0:0:
64,192,213455,1,0,0:0:0:0:
192,192,213530,1,0,0:0:0:0:
448,192,213530,1,0,0:0:0:0:
320,192,213605,1,0,0:0:0:0:
64,192,213680,1,0,0:0:0:0:
192,192,213680,1,0,0:0:0:0:
448,192,213755,1,0,0:0:0:0:
192,192,213830,1,0,0:0:0:0:
320,192,213830,1,0,0:0:0:0:
64,192,213905,1,0,0:0:0:0:
320,192,213980,1,0,0:0:0:0:
448,192,213980,1,0,0:0:0:0:
192,192,214055,1,0,0:0:0:0:
64,192,214130,1,0,0:0:0:0:
320,192,214130,1,0,0:0:0:0:
448,192,214205,1,0,0:0:0:0:
64,192,214280,1,0,0:0:0:0:
320,192,214280,1,0,0:0:0:0:
192,192,214355,1,0,0:0:0:0:
64,192,214430,1,0,0:0:0:0:
448,192,214430,1,0,0:0:0:0:
320,192,214505,1,0,0:0:0:0:
192,192,214580,1,0,0:0:0:0:
448,192,214580,1,0,0:0:0:0:
320,192,214655,1,0,0:0:0:0:
64,192,214730,1,0,0:0:0:0:
192,192,214730,1,0,0:0:0:0:
448,192,214805,1,0,0:0:0:0:
192,192,214880,1,0,0:0:0:0:
320,192,214880,1,0,0:0:0:0:
448,192,214955,1,0,0:0:0:0:
192,192,215030,1,0,0:0:0:0:
320,192,215030,1,0,0:0:0:0:
64,192,215105,1,0,0:0:0:0:
192,192,215180,1,0,0:0:0:0:
320,192,215180,1,0,0:0:0:0:
64,192,215255,1,0,0:0:0:0:
192,192,215330,1,0,0:0:0:0:
320,192,215330,1,0,0:0:0:0:
64,192,215405,1,0,0:0:0:0:
448,192,215405,1,0,0:0:0:0:
320,192,215480,1,0,0:0:0:0:
64,192,215555,1,0,0:0:0:0:
448,192,215555,1,0,0:0:0:0:
320,192,215630,1,0,0:0:0:0:
64,192,215705,1,0,0:0:0:0:
448,192,215705,1,0,0:0:0:0:
192,192,215780,1,0,0:0:0:0:
64,192,215855,1,0,0:0:0:0:
448,192,215855,1,0,0:0:0:0:
192,192,215930,1,0,0:0:0:0:
64,192,216005,1,0,0:0:0:0:
448,192,216005,1,0,0:0:0:0:
192,192,216080,1,0,0:0:0:0:
320,192,216155,1,0,0:0:0:0:
448,192,216230,1,0,0:0:0:0:
320,192,216305,1,0,0:0:0:0:
192,192,216380,1,0,0:0:0:0:
320,192,216455,1,0,0:0:0:0:
448,192,216530,1,0,0:0:0:0:
320,192,216605,1,0,0:0:0:0:
64,192,216680,1,0,0:0:0:0:
192,192,216680,1,0,0:0:0:0:
448,192,216755,1,0,0:0:0:0:
64,192,216830,1,0,0:0:0:0:
192,192,216830,1,0,0:0:0:0:
320,192,216905,1,0,0:0:0:0:
64,192,216980,1,0,0:0:0:0:
192,192,216980,1,0,0:0:0:0:
448,192,217055,1,0,0:0:0:0:
64,192,217130,1,0,0:0:0:0:
192,192,217130,1,0,0:0:0:0:
320,192,217205,1,0,0:0:0:0:
64,192,217280,1,0,0:0:0:0:
192,192,217280,1,0,0:0:0:0:
320,192,217355,1,0,0:0:0:0:
448,192,217355,1,0,0:0:0:0:
64,192,217430,1,0,0:0:0:0:
192,192,217430,1,0,0:0:0:0:
320,192,217505,1,0,0:0:0:0:
448,192,217505,1,0,0:0:0:0:
64,192,217580,1,0,0:0:0:0:
192,192,217580,1,0,0:0:0:0:
320,192,217655,1,0,0:0:0:0:
448,192,217655,1,0,0:0:0:0:
64,192,217730,1,0,0:0:0:0:
192,192,217730,1,0,0:0:0:0:
320,192,217805,1,0,0:0:0:0:
448,192,217805,1,0,0:0:0:0:
64,192,217880,1,0,0:0:0:0:
192,192,217880,1,0,0:0:0:0:
320,192,217955,1,0,0:0:0:0:
448,192,217955,1,0,0:0:0:0:
192,192,218030,1,0,0:0:0:0:
64,192,218030,1,0,0:0:0:0:
320,192,218105,1,0,0:0:0:0:
448,192,218105,1,0,0:0:0:0:
64,192,218180,1,0,0:0:0:0:
192,192,218180,1,0,0:0:0:0:
320,192,218255,1,0,0:0:0:0:
448,192,218255,1,0,0:0:0:0:
192,192,218330,1,0,0:0:0:0:
64,192,218330,1,0,0:0:0:0:
320,192,218405,1,0,0:0:0:0:
448,192,218405,1,0,0:0:0:0:
64,192,218480,1,0,0:0:0:0:
192,192,218480,1,0,0:0:0:0:
320,192,218555,1,0,0:0:0:0:
448,192,218555,1,0,0:0:0:0:
192,192,218630,1,0,0:0:0:0:
320,192,218705,1,0,0:0:0:0:
448,192,218705,1,0,0:0:0:0:
64,192,218780,1,0,0:0:0:0:
320,192,218855,1,0,0:0:0:0:
448,192,218855,1,0,0:0:0:0:
192,192,218930,1,0,0:0:0:0:
320,192,219005,1,0,0:0:0:0:
448,192,219005,1,0,0:0:0:0:
64,192,219080,1,0,0:0:0:0:
320,192,219155,1,0,0:0:0:0:
448,192,219155,1,0,0:0:0:0:
192,192,219230,1,0,0:0:0:0:
320,192,219305,1,0,0:0:0:0:
448,192,219305,1,0,0:0:0:0:
64,192,219380,1,0,0:0:0:0:
320,192,219455,1,0,0:0:0:0:
448,192,219455,1,0,0:0:0:0:
192,192,219530,1,0,0:0:0:0:
320,192,219605,1,0,0:0:0:0:
448,192,219605,1,0,0:0:0:0:
64,192,219680,1,0,0:0:0:0:
320,192,219755,1,0,0:0:0:0:
448,192,219755,1,0,0:0:0:0:
192,192,219830,1,0,0:0:0:0:
320,192,219905,1,0,0:0:0:0:
448,192,219905,1,0,0:0:0:0:
64,192,219980,1,0,0:0:0:0:
192,192,220055,128,0,220280:0:0:0:0:
320,192,220055,128,0,220280:0:0:0:0:
448,192,220055,128,0,220280:0:0:0:0:
