osu file format v14

[General]
AudioFilename: audio.mp3
AudioLeadIn: 0
PreviewTime: 196906
Countdown: 1
SampleSet: None
StackLeniency: 0.6
Mode: 0
LetterboxInBreaks: 0
WidescreenStoryboard: 1

[Editor]
Bookmarks: 706,220306,447583,717444,947961,1225773,1245879
DistanceSpacing: 0.7
BeatDivisor: 4
GridSize: 8
TimelineZoom: 1.24

[Metadata]
Title:Maigre
TitleUnicode:Maigre
Artist:Igorrr & Ruby My Dear
ArtistUnicode:Igorrr & Ruby My Dear
Creator:Megatrook89
Version:Barbecue [primus]
Source:
Tags:breakcore adnoiseam marathon baroquecore EP barbecue figue folle cuisse alain biquette
BeatmapID:1271536
BeatmapSetID:592447

[Difficulty]
HPDrainRate:6
CircleSize:4
OverallDifficulty:8
ApproachRate:9.3
SliderMultiplier:1.4
SliderTickRate:1

[Events]
//Background and Video events
0,0,"maigre.jpg",0,0
//Break Periods
2,117906,122552
2,189831,195452
//Storyboard Layer 0 (Background)
//Storyboard Layer 1 (Fail)
//Storyboard Layer 2 (Pass)
//Storyboard Layer 3 (Foreground)
//Storyboard Sound Samples

[TimingPoints]
706,400,3,2,0,50,1,0
706,-166.666666666667,3,2,0,30,0,0
31906,-133.333333333333,3,3,0,40,0,0
32306,-66.6666666666667,3,3,0,40,0,0
32706,-133.333333333333,3,3,0,40,0,0
34306,-100,3,3,0,40,0,0
34706,-66.6666666666667,3,3,0,40,0,0
35106,-133.333333333333,3,3,0,40,0,0
35506,-200,3,2,0,40,0,0
36706,-63.2911392405063,3,3,0,40,0,0
37106,-133.333333333333,3,3,0,40,0,0
37506,-66.6666666666667,3,3,0,40,0,0
37906,-100,3,2,0,40,0,0
38906,-100,3,3,0,40,0,0
39106,-133.333333333333,3,3,0,40,0,0
39506,-100,3,3,0,40,0,0
39906,-133.333333333333,3,3,0,40,0,0
40306,-133.333333333333,3,2,0,20,0,0
41506,-117.647058823529,3,3,0,45,0,0
41906,-58.8235294117647,3,3,0,45,0,0
42306,-133.333333333333,3,3,0,45,0,0
43906,-90.9090909090909,3,3,0,45,0,0
44306,-133.333333333333,3,3,0,45,0,0
44706,-76.9230769230769,3,3,0,45,0,0
45107,-100,3,2,0,30,0,0
46306,-133.333333333333,3,3,0,45,0,0
46706,-86.9565217391304,3,3,0,45,0,0
47506,-100,3,2,0,45,0,0
48706,-66.6666666666667,3,3,0,45,0,0
49106,-58.8235294117647,3,3,0,45,0,0
49506,-133.333333333333,3,3,0,45,0,0
51106,300,4,2,0,50,1,0
51106,-100,4,2,0,40,0,0
55006,-66.6666666666667,4,2,0,40,0,0
55306,-100,4,2,0,40,0,0
58456,-111.111111111111,4,2,0,40,0,0
59506,-100,4,2,0,40,0,0
61043,-100,4,2,0,5,0,0
61156,-100,4,2,0,10,0,0
61456,-100,4,2,0,15,0,0
61606,-100,4,2,0,25,0,0
61756,-100,4,2,0,35,0,0
61906,-100,4,2,0,40,0,0
63106,-133.333333333333,4,3,0,40,0,0
64006,-100,4,2,0,40,0,0
65506,-133.333333333333,4,2,0,40,0,0
66106,-100,4,2,0,40,0,0
66406,-76.9230769230769,4,2,0,40,0,0
67006,-100,4,2,0,40,0,0
67606,-66.6666666666667,4,2,0,40,0,0
67906,-100,4,3,0,40,0,0
68206,-66.6666666666667,4,2,0,40,0,0
69106,-133.333333333333,4,2,0,40,0,0
69706,-76.9230769230769,4,3,0,40,0,0
70006,-62.5,4,3,0,40,0,0
70306,-100,4,2,0,40,0,0
70606,-100,4,2,0,30,0,0
74506,-100,4,3,0,40,0,0
75106,-100,4,3,0,40,0,0
83206,300,4,2,0,50,1,0
83206,-100,4,2,0,40,0,0
93556,-100,4,3,0,40,0,0
94006,-100,4,2,0,40,0,0
96406,-133.333333333333,4,3,0,25,0,0
96706,-200,4,3,0,25,0,0
97531,-100,4,2,0,25,0,0
98006,-133.333333333333,4,3,0,25,0,0
98306,-117.647058823529,4,3,0,25,0,0
98606,-100,4,3,0,25,0,0
98806,-117.647058823529,4,2,0,25,0,0
99706,400,3,2,0,50,1,0
99706,-133.333333333333,3,3,0,40,0,0
100106,-66.6666666666667,3,3,0,40,0,0
100506,-90.9090909090909,3,3,0,40,0,0
102107,-100,3,3,0,40,0,0
102506,-66.6666666666667,3,3,0,40,0,0
102906,-133.333333333333,3,3,0,40,0,0
103306,-200,3,2,0,40,0,0
104506,-65.359477124183,3,3,0,40,0,0
104906,-100,3,3,0,40,0,0
105306,-66.6666666666667,3,3,0,40,0,0
105706,-100,3,2,0,40,0,0
106706,-100,3,3,0,40,0,0
106906,-133.333333333333,3,3,0,40,0,0
107306,-90.9090909090909,3,3,0,40,0,0
107706,-133.333333333333,3,3,0,40,0,0
108106,-133.333333333333,3,2,0,20,0,0
109306,-117.647058823529,3,3,0,45,0,0
109706,-71.4285714285714,3,3,0,45,0,0
110106,-100,3,3,0,45,0,0
111706,-133.333333333333,3,3,0,45,0,0
112106,-100,3,3,0,45,0,0
112506,-76.9230769230769,3,3,0,45,0,0
112906,-100,3,2,0,35,0,0
113306,-76.9230769230769,3,3,0,70,0,0
114106,-133.333333333333,3,3,0,45,0,0
114506,-100,3,3,0,45,0,0
115306,-100,3,2,0,45,0,0
116506,-76.9230769230769,3,3,0,45,0,0
116906,-58.8235294117647,3,3,0,45,0,0
117306,-133.333333333333,3,3,0,45,0,0
117706,300,4,2,0,50,1,0
117706,-100,4,2,0,30,0,0
123106,300,3,2,0,50,1,0
123106,-100,3,2,0,30,0,0
128506,-153.846153846153,3,2,0,30,0,0
129106,-100,3,3,0,35,0,0
130306,-100,3,2,0,42,0,0
130381,-100,3,2,0,30,0,0
133906,-133.333333333333,3,3,0,30,0,0
136568,-200,3,2,0,30,0,0
137506,-117.647058823529,3,2,0,30,0,0
141406,-117.647058823529,3,2,0,20,0,0
142006,-117.647058823529,3,2,0,30,0,0
142306,-117.647058823529,3,2,0,20,0,0
142906,-117.647058823529,3,2,0,30,0,0
142981,-117.647058823529,3,2,0,15,0,0
143806,-100,3,2,0,30,0,0
143881,-100,3,2,0,17,0,0
144706,-86.9565217391304,3,2,0,30,0,0
144781,-86.9565217391304,3,2,0,23,0,0
145606,-76.9230769230769,3,2,0,30,0,0
146206,-100,3,2,0,35,0,0
146506,-100,3,3,0,40,0,0
146806,-133.333333333333,3,3,0,40,0,0
147106,-66.6666666666667,3,3,0,40,0,0
147406,-100,3,3,0,40,0,0
147706,-117.647058823529,3,3,0,40,0,0
148006,-58.8235294117647,3,3,0,40,0,0
148306,-100,3,3,0,40,0,0
148606,-133.333333333333,3,3,0,40,0,0
148906,-71.4285714285714,3,3,0,40,0,0
149206,-100,3,3,0,40,0,0
149506,-83.3333333333333,3,3,0,40,0,0
149806,-66.6666666666667,3,3,0,40,0,0
150106,-100,3,3,0,40,0,0
150406,-133.333333333333,3,3,0,40,0,0
150706,-58.8235294117647,3,3,0,40,0,0
151006,-100,3,3,0,40,0,0
151306,-76.9230769230769,3,3,0,40,0,0
151606,-111.111111111111,3,3,0,40,0,0
151906,-100,3,3,0,40,0,0
152206,-133.333333333333,3,3,0,40,0,0
152356,-133.333333333333,3,2,0,40,0,0
152506,-100,3,3,0,45,0,0
152806,-100,3,3,0,40,0,0
153106,-66.6666666666667,3,3,0,40,0,0
153406,-55.5555555555556,3,3,0,40,0,0
153706,-100,3,3,0,40,0,0
154006,-133.333333333333,3,3,0,40,0,0
154306,-111.111111111111,3,3,0,40,0,0
154606,-100,3,3,0,40,0,0
155206,-76.9230769230769,3,3,0,40,0,0
155506,-100,3,3,0,40,0,0
155806,-117.647058823529,3,3,0,40,0,0
156406,-100,3,3,0,40,0,0
156706,-76.9230769230769,3,3,0,40,0,0
157006,-58.8235294117647,3,3,0,40,0,0
157306,-100,3,2,0,30,0,0
159106,-133.333333333333,3,2,0,25,0,0
160906,-133.333333333333,3,2,0,20,0,0
166306,-166.666666666667,3,2,0,30,0,0
168106,-133.333333333333,3,2,0,30,0,0
173506,-200,3,2,0,30,0,0
173806,-133.333333333333,3,3,0,35,0,0
174406,-133.333333333333,3,3,0,45,0,0
175306,-100,3,3,0,45,0,0
175606,-133.333333333333,3,3,0,45,0,0
175906,-71.4285714285714,3,3,0,45,0,0
176206,-100,3,3,0,45,0,0
176506,-153.846153846153,3,3,0,45,0,0
176806,-83.3333333333333,3,3,0,45,0,0
177106,-100,3,3,0,45,0,0
177406,-133.333333333333,3,3,0,45,0,0
177706,-58.8235294117647,3,3,0,45,0,0
178006,-100,3,3,0,45,0,0
178306,-117.647058823529,3,3,0,45,0,0
178606,-66.6666666666667,3,3,0,45,0,0
178906,-100,3,3,0,45,0,0
179206,-76.9230769230769,3,3,0,45,0,0
179506,-62.5,3,3,0,45,0,0
179806,-100,3,3,0,45,0,0
180106,-76.9230769230769,3,3,0,45,0,0
180406,-111.111111111111,3,3,0,45,0,0
180706,-100,3,3,0,45,0,0
181006,-133.333333333333,3,3,0,45,0,0
181156,-133.333333333333,3,2,0,45,0,0
181306,-133.333333333333,3,3,0,45,0,0
181606,-100,3,2,0,45,0,0
182506,-100,3,3,0,45,0,0
196006,-100,3,2,0,10,0,0
197056,-100,3,2,0,12,0,0
197131,-100,3,2,0,14,0,0
197206,-100,3,2,0,16,0,0
197356,-100,3,2,0,18,0,0
197431,-100,3,2,0,21,0,0
197581,-100,3,2,0,23,0,0
197806,-100,3,2,0,26,0,0
198031,-100,3,2,0,28,0,0
198106,-100,3,2,0,20,0,0
198181,-100,3,2,0,17,0,0
198256,-100,3,2,0,30,0,0
198706,-58.8235294117647,3,2,0,45,0,0
199606,-52.6315789473684,3,2,0,45,0,0
199906,-58.8235294117647,3,2,0,45,0,0
200506,-50,3,2,0,45,0,0
200656,-58.8235294117647,3,2,0,45,0,0
201406,-66.6666666666667,3,2,0,45,0,0
201706,-58.8235294117647,3,2,0,45,0,0
203206,-52.6315789473684,3,2,0,45,0,0
203506,-66.6666666666667,3,2,0,45,0,0
203806,-83.3333333333333,3,2,0,45,0,0
204106,-58.8235294117647,3,2,0,45,0,0
205006,-58.8235294117647,3,3,0,45,0,0
205906,-52.6315789473684,3,2,0,45,0,0
206206,-58.8235294117647,3,2,0,45,0,0
209506,-50,3,2,0,45,0,0
209806,-58.8235294117647,3,2,0,45,0,0
211306,-66.6666666666667,3,2,0,55,0,0
212206,-58.8235294117647,3,3,0,75,0,0
213106,-66.6666666666667,3,3,0,50,0,0
220006,-100,3,3,0,50,0,0
220231,-66.6666666666667,3,2,0,35,0,0
231840,319.148936170213,4,2,0,50,1,0
231840,-200,4,2,0,20,0,0
233754,-166.666666666667,4,2,0,30,0,0
234074,-100,4,2,0,30,0,0
234233,-166.666666666667,4,2,0,30,0,0
234393,-133.333333333333,4,2,0,30,0,0
234871,-133.333333333333,4,3,0,30,0,0
235191,-66.6666666666667,4,2,0,30,0,0
235350,-133.333333333333,4,2,0,30,0,0
235669,-100,4,2,0,30,0,0
236148,-133.333333333333,4,2,0,30,0,0
236308,-133.333333333333,4,2,0,40,0,0
236387,-133.333333333333,4,2,0,50,0,0
236627,-100,4,2,0,40,0,0
236946,-100,4,2,0,30,0,0
238063,-66.6666666666667,4,2,0,30,0,0
238222,-100,4,2,0,30,0,0
238382,-50,4,3,0,50,0,0
238542,-100,4,2,0,40,0,0
238861,-83.3333333333333,4,2,0,30,0,0
239499,-83.3333333333333,4,3,0,30,0,0
240297,-83.3333333333333,4,2,0,30,0,0
240457,-76.9230769230769,4,2,0,32,0,0
240616,-71.4285714285714,4,2,0,34,0,0
240776,-66.6666666666667,4,2,0,36,0,0
240935,-62.5,4,2,0,38,0,0
241095,-58.8235294117647,4,2,0,40,0,0
241254,-55.5555555555556,4,2,0,42,0,0
241414,-100,4,2,0,20,0,0
241733,-100,4,2,0,16,0,0
242052,-100,4,2,0,10,0,0
243010,-133.333333333333,4,2,0,20,0,0
243329,-100,4,2,0,10,0,0
244605,-100,4,2,0,30,0,0
245722,-55.5555555555556,4,2,0,30,0,0
246042,-66.6666666666667,4,2,0,30,0,0
246361,-66.6666666666667,4,3,0,30,0,0
246520,-66.6666666666667,4,2,0,45,0,0
246680,-66.6666666666667,4,3,0,45,0,0
246840,-100,4,3,0,45,0,0
247159,-100,4,2,0,30,0,0
248435,-83.3333333333333,4,3,0,30,0,0
248754,-83.3333333333333,4,3,0,35,0,0
249074,-83.3333333333333,4,2,0,25,0,0
250510,-83.3333333333333,4,2,0,20,0,0
250988,-133.333333333333,4,2,0,25,0,0
251308,-133.333333333333,4,3,0,25,0,0
252265,425.531914893617,3,2,0,15,1,0
252265,-100,3,2,0,15,0,0
259924,-100,3,2,0,20,0,0
261201,-100,3,2,0,25,0,0
262477,319.148936170213,4,2,0,50,1,0
262477,-133.333333333333,4,2,0,10,0,0
262796,-133.333333333333,4,3,0,10,0,0
262955,-133.333333333333,4,2,0,10,0,0
263115,-133.333333333333,4,2,0,14,0,0
263195,-133.333333333333,4,3,0,14,0,0
263434,-133.333333333333,4,2,0,14,0,0
263753,-133.333333333333,4,2,0,19,0,0
264072,-133.333333333333,4,3,0,19,0,0
264232,-133.333333333333,4,2,0,19,0,0
264391,-133.333333333333,4,2,0,25,0,0
264471,-133.333333333333,4,3,0,25,0,0
264711,-200,4,3,0,30,0,0
264950,-200,4,3,0,50,0,0
265030,-58.8235294117647,4,2,0,45,0,0
265349,-100,4,2,0,45,0,0
265668,-50,4,3,0,45,0,0
265987,-100,4,2,0,45,0,0
266306,-50,4,3,0,45,0,0
266625,-66.6666666666667,4,2,0,45,0,0
266785,-66.6666666666667,4,3,0,45,0,0
266945,-200,4,3,0,45,0,0
267264,-100,4,2,0,45,0,0
267423,-100,4,3,0,55,0,0
267583,-100,4,2,0,45,0,0
268381,-76.9230769230769,4,2,0,45,0,0
268859,-100,4,2,0,45,0,0
270136,-66.6666666666667,4,2,0,45,0,0
270455,-76.9230769230769,4,3,0,45,0,0
270615,-76.9230769230769,4,2,0,45,0,0
271014,-50,4,3,0,45,0,0
271253,-50,4,2,0,45,0,0
271413,-100,4,3,0,45,0,0
271891,-50,4,3,0,30,0,0
271971,-50,4,3,0,38,0,0
272051,-50,4,3,0,45,0,0
272211,-71.4285714285714,4,3,0,45,0,0
272530,-62.5,4,2,0,45,0,0
272689,-100,4,2,0,45,0,0
273647,-100,4,2,0,30,0,0
274445,-76.9230769230769,4,3,0,45,0,0
275242,-76.9230769230769,4,2,0,35,0,0
276519,-100,4,2,0,30,0,0
276998,-133.333333333333,4,2,0,30,0,0
277796,-100,4,2,0,30,0,0
279711,-100,4,2,0,40,0,0
280349,-133.333333333333,4,2,0,30,0,0
280668,-76.9230769230769,4,2,0,30,0,0
281625,-76.9230769230769,4,3,0,38,0,0
282264,-76.9230769230769,4,2,0,30,0,0
282583,-66.6666666666667,4,2,0,45,0,0
282902,-100,4,2,0,45,0,0
284817,-100,4,3,0,45,0,0
285455,-100,4,2,0,30,0,0
288008,-100,4,3,0,30,0,0
288328,-100,4,2,0,30,0,0
288487,-71.4285714285714,4,3,0,45,0,0
288647,-55.5555555555556,4,3,0,45,0,0
288806,-50,4,2,0,45,0,0
289285,-50,4,2,0,30,0,0
289445,-50,4,3,0,45,0,0
289923,-133.333333333333,4,2,0,25,0,0
290402,-133.333333333333,4,2,0,45,0,0
290562,-100,4,3,0,35,0,0
291200,-100,4,2,0,45,0,0
291838,-100,4,3,0,45,0,0
292477,-100,4,2,0,45,0,0
292955,-76.9230769230769,4,2,0,45,0,0
293115,-100,4,3,0,35,0,0
294152,-100,4,3,0,45,0,0
294232,-133.333333333333,4,2,0,20,0,0
294391,-66.6666666666667,4,2,0,45,0,0
294711,-100,4,2,0,45,0,0
294870,-76.9230769230769,4,3,0,45,0,0
295030,-100,4,2,0,45,0,0
295349,-58.8235294117647,4,2,0,45,0,0
295668,-50,4,2,0,30,0,0
295987,-76.9230769230769,4,2,0,30,0,0
297583,-133.333333333333,4,2,0,30,0,0
297902,-100,4,2,0,30,0,0
299817,-76.9230769230769,4,2,0,30,0,0
301094,-133.333333333333,4,2,0,10,0,0
301413,-133.333333333333,4,2,0,21,0,0
301732,-133.333333333333,4,2,0,32,0,0
302051,-133.333333333333,4,2,0,20,0,0
303168,-133.333333333333,4,2,0,60,0,0
303328,-133.333333333333,4,2,0,45,0,0
304764,-133.333333333333,4,2,0,30,0,0
304923,-133.333333333333,4,2,0,45,0,0
305562,-100,4,2,0,45,0,0
305881,-200,4,2,0,10,0,0
315455,-200,4,2,0,15,0,0
316094,-200,4,2,0,10,0,0
323434,-133.333333333333,4,3,0,25,0,0
323753,-133.333333333333,4,3,0,32,0,0
325030,-117.647058823529,4,3,0,40,0,0
325349,-100,4,3,0,40,0,0
325668,-86.9565217391304,4,3,0,40,0,0
325987,-100,4,2,0,35,0,0
326306,-100,4,3,0,40,0,0
327264,-133.333333333333,4,2,0,35,0,0
327583,-76.9230769230769,4,3,0,35,0,0
328859,-200,4,2,0,20,0,0
329021,-133.333333333333,4,2,0,24,0,0
329179,-100,4,2,0,28,0,0
329338,-86.9565217391304,4,2,0,32,0,0
329498,-76.9230769230769,4,2,0,36,0,0
329657,-68.9655172413793,4,2,0,40,0,0
329817,-62.5,4,2,0,45,0,0
329977,-57.1428571428571,4,2,0,50,0,0
330136,-66.6666666666667,4,3,0,50,0,0
335242,-66.6666666666667,4,2,0,35,0,0
342822,-100,4,2,0,5,0,0
342862,-100,4,2,0,8,0,0
342902,-100,4,2,0,13,0,0
342982,-100,4,2,0,20,0,0
343062,-100,4,2,0,30,0,0
343301,-100,4,2,0,20,0,0
343341,-100,4,2,0,15,0,0
343381,-100,4,2,0,35,0,0
343421,-100,4,2,0,20,0,0
343461,-100,4,2,0,35,0,0
343939,-100,4,2,0,40,0,0
344019,-100,4,2,0,45,0,0
344099,-100,4,2,0,40,0,0
344139,-100,4,2,0,20,0,0
344179,-100,4,2,0,30,0,0
344817,-100,4,2,0,25,0,0
345455,-100,4,2,0,35,0,0
347051,-76.9230769230769,4,2,0,35,0,0
347530,-76.9230769230769,4,3,0,40,0,0
347609,-76.9230769230769,4,2,0,40,0,0
347689,-76.9230769230769,4,2,0,35,0,0
347849,-76.9230769230769,4,3,0,40,0,0
348168,-76.9230769230769,4,2,0,35,0,0
349125,-76.9230769230769,4,3,0,45,0,0
349285,-76.9230769230769,4,2,0,20,0,0
350322,-133.333333333333,4,2,0,35,0,0
350562,-66.6666666666667,4,3,0,40,0,0
353115,-100,4,2,0,40,0,0
353753,-100,4,3,0,40,0,0
354391,-100,4,2,0,40,0,0
355030,-100,4,2,0,20,0,0
355668,-100,4,2,0,40,0,0
356306,-100,4,2,0,30,0,0
356945,-100,4,2,0,40,0,0
357104,-100,4,3,0,40,0,0
357264,-100,4,2,0,40,0,0
357583,-153.846153846153,4,2,0,40,0,0
360136,-100,4,2,0,40,0,0
360774,-133.333333333333,4,3,0,40,0,0
361413,-71.4285714285714,4,3,0,40,0,0
361625,-88.4955752212389,4,3,0,42,0,0
361838,-70.9219858156028,4,3,0,44,0,0
362051,-100,4,3,0,40,0,0
362689,-71.4285714285714,4,3,0,40,0,0
362902,-58.8235294117647,4,3,0,40,0,0
363115,-68.9655172413793,4,2,0,40,0,0
363328,-100,4,2,0,40,0,0
363647,-100,4,3,0,40,0,0
363966,-100,4,2,0,40,0,0
364179,-76.9230769230769,4,2,0,40,0,0
364391,-133.333333333333,4,3,0,40,0,0
364604,-100,4,2,0,40,0,0
364923,-100,4,2,0,30,0,0
365242,-100,4,2,0,35,0,0
365562,-117.647058823529,4,2,0,30,0,0
365881,-100,4,2,0,30,0,0
366519,-100,4,3,0,40,0,0
366599,-100,4,3,0,30,0,0
367796,-100,4,2,0,20,0,0
368434,-100,4,3,0,35,0,0
369072,-100,4,2,0,35,0,0
369471,-100,4,2,0,30,0,0
369551,-100,4,2,0,25,0,0
369631,-100,4,2,0,20,0,0
369711,-100,4,2,0,30,0,0
373540,-100,4,3,0,23,0,0
374179,-133.333333333333,4,3,0,23,0,0
374817,-133.333333333333,4,2,0,25,0,0
376094,-100,4,2,0,30,0,0
377370,-100,4,3,0,35,0,0
378647,-100,4,2,0,35,0,0
379923,-153.846153846153,4,2,0,35,0,0
380774,-153.846153846153,4,2,0,25,0,0
380987,-153.846153846153,4,2,0,35,0,0
381838,-153.846153846153,4,2,0,20,0,0
382477,-100,4,2,0,30,0,0
383540,-100,4,2,0,35,0,0
385030,-100,4,2,0,28,0,0
385668,-100,4,2,0,20,0,0
385881,-100,4,2,0,18,0,0
386094,-100,4,2,0,16,0,0
387503,-83.3333333333333,4,2,0,14,0,0
387543,-83.3333333333333,4,2,0,16,0,0
387583,-83.3333333333333,4,2,0,18,0,0
387623,-83.3333333333333,4,2,0,21,0,0
387663,-83.3333333333333,4,2,0,25,0,0
390136,-83.3333333333333,4,3,0,35,0,0
391413,-133.333333333333,4,2,0,10,0,0
393647,-133.333333333333,4,3,0,45,0,0
393966,-133.333333333333,4,2,0,10,0,0
395242,-133.333333333333,4,2,0,15,0,0
396519,-133.333333333333,4,3,0,45,0,0
397370,-133.333333333333,4,2,0,10,0,0
399072,-133.333333333333,4,3,0,31,0,0
399923,-133.333333333333,4,2,0,10,0,0
401625,-133.333333333333,4,2,0,20,0,0
402742,-133.333333333333,4,3,0,25,0,0
403540,-133.333333333333,4,2,0,20,0,0
404179,-133.333333333333,4,2,0,10,0,0
406732,-111.111111111111,4,2,0,35,0,0
409285,-83.3333333333333,4,2,0,35,0,0
410881,-83.3333333333333,4,3,0,40,0,0
411200,-66.6666666666667,4,2,0,35,0,0
411359,-100,4,2,0,35,0,0
411838,-100,4,3,0,40,0,0
412157,-100,4,2,0,35,0,0
413274,-100,4,3,0,35,0,0
413434,-100,4,2,0,35,0,0
415881,-100,4,2,0,42,0,0
416945,-100,4,2,0,35,0,0
417902,-76.9230769230769,4,2,0,35,0,0
418221,-100,4,2,0,35,0,0
419019,-66.6666666666667,4,3,0,40,0,0
419498,-66.6666666666667,4,2,0,35,0,0
420774,-117.647058823529,4,2,0,45,0,0
422051,-100,4,2,0,40,0,0
423008,-58.8235294117647,4,2,0,40,0,0
423328,-100,4,2,0,40,0,0
423966,-100,4,3,0,45,0,0
424604,-100,4,2,0,30,0,0
425881,-100,4,3,0,30,0,0
426838,-153.846153846153,4,2,0,30,0,0
427157,-66.6666666666667,4,2,0,35,0,0
427955,-100,4,3,0,40,0,0
428434,-83.3333333333333,4,2,0,40,0,0
428913,-66.6666666666667,4,2,0,40,0,0
429711,-100,4,2,0,30,0,0
430987,-83.3333333333333,4,2,0,35,0,0
431466,-66.6666666666667,4,2,0,35,0,0
431865,-100,4,2,0,30,0,0
432264,-71.4285714285714,4,2,0,45,0,0
432583,-100,4,3,0,45,0,0
432742,-62.5,4,2,0,45,0,0
433062,-100,4,3,0,45,0,0
433221,-55.5555555555556,4,2,0,45,0,0
433540,-100,4,3,0,40,0,0
433859,-100,4,2,0,40,0,0
434179,-66.6666666666667,4,2,0,35,0,0
434338,-83.3333333333333,4,2,0,35,0,0
434498,-58.8235294117647,4,2,0,35,0,0
434817,-100,4,2,0,30,0,0
435296,-76.9230769230769,4,2,0,40,0,0
435455,-76.9230769230769,4,3,0,35,0,0
435615,-100,4,3,0,30,0,0
436094,-83.3333333333333,4,2,0,35,0,0
437370,-100,4,2,0,40,0,0
437849,-100,4,2,0,44,0,0
438008,-100,4,2,0,40,0,0
438168,-100,4,2,0,44,0,0
438328,-100,4,2,0,40,0,0
438647,-133.333333333333,4,2,0,35,0,0
439285,-76.9230769230769,4,2,0,40,0,0
439305,-76.9230769230769,4,2,0,10,0,0
439325,-76.9230769230769,4,2,0,18,0,0
439365,-76.9230769230769,4,2,0,35,0,0
439923,-100,4,2,0,30,0,0
440242,-100,4,2,0,35,0,0
441200,-66.6666666666667,4,2,0,35,0,0
441679,-58.8235294117647,4,2,0,35,0,0
441758,-58.8235294117647,4,2,0,45,0,0
441838,-181.818181818181,4,2,0,20,0,0
442477,-83.3333333333333,4,2,0,25,0,0
444391,-62.5,4,2,0,25,0,0
444711,-83.3333333333333,4,2,0,35,0,0
445030,-66.6666666666667,4,2,0,40,0,0
445987,-50,4,2,0,40,0,0
446306,-58.8235294117647,4,2,0,40,0,0
447264,-58.8235294117647,4,3,0,30,0,0
502261,300,4,2,0,50,1,0
502261,-100,4,2,0,50,0,0
658261,300,7,2,0,50,1,0
664561,300,4,2,0,50,1,0
666961,300,7,2,0,50,1,0
681661,300,4,2,0,50,1,0
684061,300,7,2,0,50,1,0
700861,545.454545454546,4,2,0,50,1,0
723119,315.789473684211,4,2,0,50,1,0
723119,-100,4,2,0,50,0,0
963099,319.148936170213,3,2,0,50,1,0
963099,-100,3,2,0,50,0,0
1079269,322.58064516129,5,2,0,50,1,0
1080881,319.148936170213,4,2,0,50,1,0
1083434,319.148936170213,5,2,0,50,1,0
1085029,319.148936170213,3,2,0,50,1,0
1108007,319.148936170213,4,2,0,50,1,0
1111198,319.148936170213,4,2,0,50,1,0
1129710,319.148936170213,4,2,0,50,1,0
1188433,319.148936170213,3,2,0,50,1,0
1248104,-10,3,2,0,50,0,0

[HitObjects]
418,57,706,6,0,P|359:44|329:61,2,83.9999974365235,0|0|2,0:0|0:0|0:0,0:0:0:0:
463,117,1906,2,0,L|466:206,1,83.9999974365235
427,266,2706,1,2,0:0:0:0:
463,117,3106,5,2,0:0:0:0:
429,135,3506,1,2,0:0:0:0:
429,98,3906,1,0,0:0:0:0:
495,0,4306,1,2,0:0:0:0:
463,117,4706,2,0,L|466:206,1,83.9999974365235
427,266,5506,6,0,B|374:290|362:231|296:263,1,125.999996154785,0|2,0:0|0:0,0:0:0:0:
284,286,6506,2,0,L|283:328,1,41.9999987182618,0|2,0:0|0:0,0:0:0:0:
315,146,7306,5,2,0:0:0:0:
284,286,7706,2,0,L|283:328,1,41.9999987182618,0|2,0:0|0:0,0:0:0:0:
427,266,8506,2,0,B|374:290|362:231|296:263,1,125.999996154785,2|0,0:0|0:0,0:0:0:0:
284,286,9506,1,0,0:0:0:0:
315,146,9906,1,2,0:0:0:0:
348,333,10306,6,0,B|319:356|319:356|272:365,2,83.9999974365235,0|0|2,0:0|0:0|0:0,0:0:0:0:
284,286,11506,2,0,L|195:289,1,83.9999974365235
140,335,12306,1,2,0:0:0:0:
357,260,12706,5,2,0:0:0:0:
394,249,13106,1,2,0:0:0:0:
366,222,13506,1,0,0:0:0:0:
492,366,13906,1,2,0:0:0:0:
284,286,14306,2,0,L|195:289,1,83.9999974365235
138,335,15106,6,0,P|78:347|30:308,1,125.999996154785,2|0,0:0|0:0,0:0:0:0:
97,274,16106,2,0,L|96:316,1,41.9999987182618,0|2,0:0|0:0,0:0:0:0:
49,138,16906,1,0,0:0:0:0:
97,274,17306,2,0,L|96:316,1,41.9999987182618,0|2,0:0|0:0,0:0:0:0:
30,308,18106,6,0,P|82:348|140:335,1,125.999996154785,2|0,0:0|0:0,0:0:0:0:
97,274,19106,1,0,0:0:0:0:
49,138,19506,1,0,0:0:0:0:
14,327,19906,5,2,0:0:0:0:
203,291,20306,1,2,0:0:0:0:
212,323,20706,1,0,0:0:0:0:
133,224,21106,5,2,0:0:0:0:
332,255,21506,1,2,0:0:0:0:
351,227,21906,1,0,0:0:0:0:
133,224,22306,5,2,0:0:0:0:
336,341,22706,1,2,0:0:0:0:
364,322,23106,1,0,0:0:0:0:
133,224,23506,5,2,0:0:0:0:
285,153,23906,1,2,0:0:0:0:
286,119,24306,1,0,0:0:0:0:
238,277,24706,5,2,0:0:0:0:
451,232,25106,1,2,0:0:0:0:
466,261,25506,1,0,0:0:0:0:
310,198,25906,5,2,0:0:0:0:
453,339,26306,1,2,0:0:0:0:
444,371,26706,1,0,0:0:0:0:
387,135,27106,5,2,0:0:0:0:
453,339,27506,1,2,0:0:0:0:
444,371,27906,1,0,0:0:0:0:
319,375,28306,5,2,0:0:0:0:
453,339,28706,1,2,0:0:0:0:
444,371,29106,5,2,0:0:0:0:
221,298,29506,1,2,0:0:0:0:
256,192,29606,12,0,31506,0:0:0:0:
197,113,31906,6,0,P|186:159|207:191,1,78.7500030040742,12|0,0:0|0:0,0:0:0:0:
264,230,32306,6,2,P|257:297|226:261,1,157.500006008148,2|0,0:0|0:0,0:0:0:0:
364,224,32706,6,0,B|403:209|408:247|458:224,1,78.7500030040742,8|0,0:0|0:0,0:0:0:0:
294,146,33106,5,12,0:0:0:0:
294,146,34206,1,8,0:0:0:0:
274,131,34306,6,0,B|243:128|222:137|222:137|203:118|172:110,1,105,8|0,0:0|0:0,0:0:0:0:
430,58,34706,6,0,B|444:34|444:34|396:17|346:45|355:106,1,157.500006008148,10|0,0:0|0:0,0:0:0:0:
374,193,35106,6,0,L|379:283,1,78.7500030040742,4|0,0:0|0:0,0:0:0:0:
389,350,35506,6,0,L|392:280,2,70,2|0|0,0:0|0:0|0:0,0:0:0:0:
389,350,36706,6,0,B|393:281|393:281|378:272|378:272|374:193,1,165.900004050293,12|0,0:0|0:0,0:0:0:0:
387,107,37106,6,0,B|401:126|401:126|391:180,1,78.7500030040742,2|0,0:0|0:0,0:0:0:0:
297,215,37506,6,0,L|171:216,1,105.000004005432,0|8,0:0|0:0,0:0:0:0:
116,198,37806,1,6,0:0:0:0:
462,240,37906,6,0,L|466:265,6,17.5,10|2|2|2|2|2|2,0:0|0:0|0:0|0:0|0:0|0:0|0:0,0:0:0:0:
390,180,38306,2,0,L|394:155,6,17.5,10|2|2|2|2|2|2,0:0|0:0|0:0|0:0|0:0|0:0|0:0,0:0:0:0:
297,215,38706,2,0,L|296:240,3,17.5,10|2|2|2,0:0|0:0|0:0|0:0,0:0:0:0:
227,160,38972,5,2,0:0:0:0:
227,160,39039,1,0,0:0:0:0:
227,160,39106,6,0,P|185:171|146:163,1,78.7500030040742,12|0,0:0|0:0,0:0:0:0:
80,141,39506,6,0,P|108:204|98:254,1,105,2|0,0:0|0:0,0:0:0:0:
44,296,39906,6,0,L|10:300,1,35.0000013351441,8|0,0:0|0:0,0:0:0:0:
116,315,40172,1,8,0:0:0:0:
1,215,40306,5,2,0:0:0:0:
6,194,40706,1,0,0:0:0:0:
12,173,41106,1,0,0:0:0:0:
116,315,41506,6,0,P|100:341|42:362,1,89.2500017023087,8|0,0:0|0:0,0:0:0:0:
188,238,41906,6,2,B|234:266|246:306|232:346|232:346|207:326|220:290,1,178.500003404617,2|0,0:0|0:0,0:0:0:0:
323,240,42306,6,0,B|341:236|341:236|363:245|363:245|414:241,1,78.7500030040742
237,375,42706,5,0,0:0:0:0:
237,375,43806,1,0,0:0:0:0:
260,361,43906,6,0,B|294:354|319:362|319:362|338:339|372:327,1,115.50000352478,8|0,0:0|0:0,0:0:0:0:
490,336,44306,6,0,B|478:353|478:353|458:282,1,78.7500030040742,2|0,0:0|0:0,0:0:0:0:
367,142,44706,6,0,B|397:121|397:121|387:228,1,136.499993751526,8|0,0:0|0:0,0:0:0:0:
298,272,45106,6,0,L|289:240,22,22.7499989585877,2|2|2|2|2|2|2|2|2|2|2|2|2|2|2|2|2|2|2|2|2|2|2,0:0|0:0|0:0|0:0|0:0|0:0|0:0|0:0|0:0|0:0|0:0|0:0|0:0|0:0|0:0|0:0|0:0|0:0|0:0|0:0|0:0|0:0|0:0,0:0:0:0:
272,285,46306,6,0,P|241:279|188:294,1,78.7500030040742,8|0,0:0|0:0,0:0:0:0:
61,275,46706,6,0,B|99:264|99:264|137:237|116:160,1,120.750002303124,2|0,0:0|0:0,0:0:0:0:
47,96,47106,5,12,0:0:0:0:
73,103,47206,1,12,0:0:0:0:
152,88,47306,5,12,0:0:0:0:
178,81,47406,1,12,0:0:0:0:
256,110,47506,6,0,L|250:134,4,17.5,10|2|2|0|0,0:0|0:0|0:0|0:0|0:0,0:0:0:0:
329,63,47806,1,0,0:0:0:0:
346,44,47906,2,0,L|342:19,6,17.5,10|2|2|2|2|2|2,0:0|0:0|0:0|0:0|0:0|0:0|0:0,0:0:0:0:
439,79,48306,2,0,L|440:104,6,17.5,10|2|2|2|2|2|2,0:0|0:0|0:0|0:0|0:0|0:0|0:0,0:0:0:0:
256,110,48706,6,0,B|209:107|209:107|161:135|161:135|80:113,1,157.500006008148,12|0,0:0|0:0,0:0:0:0:
65,54,49106,6,0,B|107:129|29:153|67:228,1,178.500003404617,6|0,0:0|0:0,0:0:0:0:
121,299,49506,6,0,P|122:324|110:355,1,35.0000013351441,10|0,0:0|0:0,0:0:0:0:
46,314,49772,1,8,0:0:0:0:
150,41,49906,5,0,0:0:0:0:
150,41,51106,5,0,0:0:0:0:
139,49,52006,2,0,L|95:41,1,35,8|0,0:0|0:0,0:0:0:0:
234,150,52306,5,0,0:0:0:0:
268,153,52381,1,2,0:0:0:0:
295,150,52456,1,2,0:0:0:0:
314,145,52531,1,0,0:0:0:0:
326,138,52606,2,0,P|345:114|353:89,1,35,0|2,0:0|0:0,0:0:0:0:
379,236,52756,2,0,P|373:265|379:291,1,35,2|0,0:0|0:0,0:0:0:0:
461,206,52906,5,0,0:0:0:0:
461,206,54106,6,0,L|504:199,1,35,8|0,0:0|0:0,0:0:0:0:
409,264,54256,1,2,0:0:0:0:
398,261,54331,1,0,0:0:0:0:
384,258,54406,1,2,0:0:0:0:
366,256,54481,1,0,0:0:0:0:
345,255,54556,2,0,P|325:259|303:272,1,35,2|0,0:0|0:0,0:0:0:0:
249,337,54706,6,0,L|250:380,2,35,10|0|0,0:0|0:0|0:0,0:0:0:0:
155,256,54931,1,2,0:0:0:0:
124,245,55006,6,0,B|95:242|95:242|48:253,1,52.5000020027161
21,301,55156,1,2,0:0:0:0:
27,326,55231,1,2,0:0:0:0:
53,345,55306,6,0,L|106:347,1,35
187,258,55456,2,0,L|240:256,1,35,2|2,0:0|0:0,0:0:0:0:
343,342,55606,5,0,0:0:0:0:
343,342,57106,6,0,B|356:354|356:354|394:351,11,35
302,274,58006,1,2,0:0:0:0:
295,246,58081,1,2,0:0:0:0:
298,218,58156,1,2,0:0:0:0:
311,193,58231,1,0,0:0:0:0:
323,168,58306,6,0,P|332:134|328:112,1,35,10|0,0:0|0:0,0:0:0:0:
282,58,58456,6,0,P|329:76|379:38,1,94.499997116089,10|0,0:0|0:0,0:0:0:0:
403,4,58756,2,0,P|406:39|417:58,1,31.4999990386963,2|0,0:0|0:0,0:0:0:0:
453,96,58906,1,4,0:0:0:0:
453,96,59506,5,8,0:0:0:0:
421,75,59581,1,2,0:0:0:0:
403,42,59656,1,2,0:0:0:0:
403,4,59731,1,0,0:0:0:0:
329,47,59806,5,4,0:0:0:0:
304,47,59881,1,2,0:0:0:0:
282,40,59956,1,2,0:0:0:0:
264,24,60031,1,2,0:0:0:0:
243,10,60106,6,0,P|222:3|194:5,1,35,2|0,0:0|0:0,0:0:0:0:
127,80,60256,2,0,P|148:77|173:63,1,35,2|0,0:0|0:0,0:0:0:0:
51,41,60406,2,0,B|42:50|42:50|43:100,3,35,2|0|2|0,0:0|0:0|0:0|0:0,0:0:0:0:
77,147,60706,2,0,B|83:158|83:158|69:206,3,35,2|0|0|0,0:0|0:0|0:0|0:0,0:0:0:0:
13,229,61006,6,0,L|15:262,22,17.5,2|2|2|2|2|2|2|2|2|2|2|2|2|2|2|2|2|2|2|2|2|2|2,0:0|0:0|0:0|0:0|0:0|0:0|0:0|0:0|0:0|0:0|0:0|0:0|0:0|0:0|0:0|0:0|0:0|0:0|0:0|0:0|0:0|0:0|0:0,0:0:0:0:
69,300,61906,5,0,0:0:0:0:
69,300,63106,6,0,B|81:273|69:258|69:258|20:256|-26:301|29:399|116:380|145:315|126:276,1,288.750011014939,10|0,0:0|0:0,0:0:0:0:
36,137,64006,1,2,0:0:0:0:
69,300,64306,5,0,0:0:0:0:
36,137,64456,1,10,0:0:0:0:
69,300,64906,5,2,0:0:0:0:
36,137,65056,1,10,0:0:0:0:
28,156,65131,1,0,0:0:0:0:
19,175,65206,1,2,0:0:0:0:
71,172,65281,1,2,0:0:0:0:
123,167,65356,1,2,0:0:0:0:
175,162,65431,1,2,0:0:0:0:
202,170,65506,6,0,P|234:171|272:154,1,52.5000020027161,8|0,0:0|0:0,0:0:0:0:
318,125,65731,1,0,0:0:0:0:
325,105,65806,2,0,L|321:63,2,26.2500010013581,10|2|2,0:0|0:0|0:0,0:0:0:0:
389,192,66106,6,0,L|386:220,6,17.5,2|2|2|2|2|2|0,0:0|0:0|0:0|0:0|0:0|0:0|0:0,0:0:0:0:
404,169,66406,6,0,P|407:151|401:104,1,45.4999979171754,2|0,0:0|0:0,0:0:0:0:
270,191,66556,2,0,P|267:209|273:256,1,45.4999979171754
460,243,66706,1,0,0:0:0:0:
488,176,66781,1,0,0:0:0:0:
483,103,66856,1,0,0:0:0:0:
471,78,66931,1,0,0:0:0:0:
455,63,67006,6,0,P|396:48|345:80,2,93.3333333333333
341,75,67606,6,0,P|286:83|243:51,1,105.000004005432
152,33,67906,5,0,0:0:0:0:
125,42,67981,1,2,0:0:0:0:
107,54,68056,1,4,0:0:0:0:
97,64,68131,1,8,0:0:0:0:
90,76,68206,5,2,0:0:0:0:
90,76,68806,2,0,B|80:60|80:60|92:-1,3,52.5000020027161,2|0|2|0,0:0|0:0|0:0|0:0,0:0:0:0:
122,153,69106,6,0,P|126:169|123:201,1,26.2500010013581,8|0,0:0|0:0,0:0:0:0:
99,247,69256,2,0,P|95:263|98:295,1,26.2500010013581,8|0,0:0|0:0,0:0:0:0:
138,334,69406,1,2,0:0:0:0:
151,342,69481,1,2,0:0:0:0:
171,343,69556,1,8,0:0:0:0:
196,336,69631,1,0,0:0:0:0:
230,324,69706,6,0,P|257:321|286:327,1,45.4999979171754,8|0,0:0|0:0,0:0:0:0:
348,349,69856,1,0,0:0:0:0:
374,353,69931,1,4,0:0:0:0:
407,356,70006,6,2,B|424:357|424:357|473:344,1,56,10|0,0:0|0:0,0:0:0:0:
301,237,70156,2,2,B|285:230|285:230|234:225,1,56,14|0,0:0|0:0,0:0:0:0:
63,344,70306,5,4,0:0:0:0:
23,278,70456,2,0,L|26:235,1,35
60,171,70606,6,0,L|57:153,2,17.5,10|2|2,0:0|0:0|0:0,0:0:0:0:
111,94,70756,2,0,L|114:76,2,17.5,10|2|2,0:0|0:0|0:0,0:0:0:0:
34,49,70906,2,0,L|31:31,6,17.5,10|2|2|2|2|2|2,0:0|0:0|0:0|0:0|0:0|0:0|0:0,0:0:0:0:
111,94,71206,6,0,L|114:76,2,17.5,10|2|2,0:0|0:0|0:0,0:0:0:0:
34,49,71356,2,0,L|31:31,2,17.5,10|2|2,0:0|0:0|0:0,0:0:0:0:
138,172,71506,2,0,L|141:190,6,17.5,10|2|2|2|2|2|2,0:0|0:0|0:0|0:0|0:0|0:0|0:0,0:0:0:0:
198,61,71806,6,0,L|201:43,54,17.5,10|2|2|2|2|2|2|2|2|2|2|2|2|2|2|2|2|2|2|2|2|2|2|2|2|2|2|2|2|2|2|2|2|2|2|2|2|2|2|2|2|2|2|2|2|2|2|2|2|2|2|2|2|2|2,0:0|0:0|0:0|0:0|0:0|0:0|0:0|0:0|0:0|0:0|0:0|0:0|0:0|0:0|0:0|0:0|0:0|0:0|0:0|0:0|0:0|0:0|0:0|0:0|0:0|0:0|0:0|0:0|0:0|0:0|0:0|0:0|0:0|0:0|0:0|0:0|0:0|0:0|0:0|0:0|0:0|0:0|0:0|0:0|0:0|0:0|0:0|0:0|0:0|0:0|0:0|0:0|0:0|0:0|0:0,0:0:0:0:
184,77,74506,5,2,0:0:0:0:
342,57,74806,1,6,0:0:0:0:
441,247,75106,5,0,0:0:0:0:
441,247,75706,1,0,0:0:0:0:
310,221,76006,1,8,0:0:0:0:
349,295,76231,1,10,0:0:0:0:
349,295,77806,5,2,0:0:0:0:
310,221,78781,1,0,0:0:0:0:
310,221,78856,1,0,0:0:0:0:
310,221,78931,2,0,L|339:220,16,17.5,2|0|0|0|0|0|0|0|0|0|0|0|0|0|0|0|0,0:0|0:0|0:0|0:0|0:0|0:0|0:0|0:0|0:0|0:0|0:0|0:0|0:0|0:0|0:0|0:0|0:0,0:0:0:0:
245,258,79606,5,0,0:0:0:0:
310,221,79906,1,0,0:0:0:0:
349,295,80056,1,0,0:0:0:0:
245,258,80206,1,2,0:0:0:0:
185,314,80524,5,0,0:0:0:0:
118,220,80674,1,2,0:0:0:0:
245,258,80824,1,0,0:0:0:0:
48,284,81106,5,0,0:0:0:0:
256,192,81181,12,0,83056,0:0:0:0:
116,117,83206,6,0,P|100:160|114:200,1,70,2|0,0:0|0:0,0:0:0:0:
158,237,83506,1,8,0:0:0:0:
226,272,83656,2,0,P|249:276|271:272,1,35
286,265,83806,2,0,P|309:261|331:265,1,35,2|0,0:0|0:0,0:0:0:0:
344,277,83956,2,0,P|367:281|389:277,1,35,2|0,0:0|0:0,0:0:0:0:
404,270,84106,1,8,0:0:0:0:
369,201,84256,1,0,0:0:0:0:
158,237,84406,6,0,L|153:334,1,70,2|0,0:0|0:0,0:0:0:0:
203,365,84706,1,8,0:0:0:0:
158,237,84856,1,0,0:0:0:0:
156,271,84931,1,2,0:0:0:0:
154,306,85006,1,2,0:0:0:0:
203,365,85156,1,8,0:0:0:0:
404,270,85306,1,2,0:0:0:0:
369,201,85456,1,0,0:0:0:0:
333,301,85606,6,0,P|362:336|403:344,1,70,2|0,0:0|0:0,0:0:0:0:
459,325,85906,1,8,0:0:0:0:
281,244,86056,2,0,P|259:252|242:266,1,35
224,272,86206,2,0,P|202:263|185:249,1,35,2|0,0:0|0:0,0:0:0:0:
171,239,86356,2,0,P|161:217|159:195,1,35,2|0,0:0|0:0,0:0:0:0:
164,178,86506,1,8,0:0:0:0:
333,301,86656,1,0,0:0:0:0:
172,341,86806,6,0,L|91:341,1,70,2|0,0:0|0:0,0:0:0:0:
38,297,87106,1,8,0:0:0:0:
172,341,87256,1,0,0:0:0:0:
137,341,87331,1,2,0:0:0:0:
102,341,87406,1,0,0:0:0:0:
69,319,87481,1,2,0:0:0:0:
38,297,87556,1,0,0:0:0:0:
164,178,87706,1,8,0:0:0:0:
172,341,87856,1,0,0:0:0:0:
98,213,88006,6,0,P|89:168|110:131,1,70,2|0,0:0|0:0,0:0:0:0:
161,102,88306,1,8,0:0:0:0:
219,244,88456,2,0,P|208:264|192:279,5,35,0|0|2|0|2|0,0:0|0:0|0:0|0:0|0:0|0:0,0:0:0:0:
177,281,88906,1,8,0:0:0:0:
238,164,89056,1,0,0:0:0:0:
333,188,89206,6,0,P|363:222|363:265,1,70,2|0,0:0|0:0,0:0:0:0:
336,316,89506,1,8,0:0:0:0:
333,188,89656,1,0,0:0:0:0:
359,211,89731,1,2,0:0:0:0:
367,245,89806,1,2,0:0:0:0:
336,316,89956,1,0,0:0:0:0:
164,178,90106,1,8,0:0:0:0:
333,188,90256,1,0,0:0:0:0:
99,231,90406,6,0,B|66:223|66:223|41:195,1,70,2|0,0:0|0:0,0:0:0:0:
47,122,90706,1,8,0:0:0:0:
164,178,90856,2,0,L|181:224,5,35,0|0|2|0|2|0,0:0|0:0|0:0|0:0|0:0|0:0,0:0:0:0:
171,235,91306,1,8,0:0:0:0:
63,300,91456,1,0,0:0:0:0:
47,122,91606,6,0,L|56:34,1,70,2|0,0:0|0:0,0:0:0:0:
176,20,91906,1,8,0:0:0:0:
69,198,92056,2,0,L|70:109,1,70,2|0,0:0|0:0,0:0:0:0:
176,20,92356,1,8,0:0:0:0:
258,73,92506,1,0,0:0:0:0:
94,109,92656,1,2,0:0:0:0:
278,66,92806,6,0,B|311:62|311:62|344:79,1,70,2|0,0:0|0:0,0:0:0:0:
420,71,93106,1,8,0:0:0:0:
258,73,93256,2,0,B|290:82|290:82|326:70,1,70,2|0,0:0|0:0,0:0:0:0:
420,71,93556,1,2,0:0:0:0:
388,141,93706,1,12,0:0:0:0:
359,3,93856,1,8,0:0:0:0:
449,186,94006,6,0,L|443:264,1,70
388,141,94306,1,8,0:0:0:0:
449,186,94456,1,0,0:0:0:0:
446,220,94531,1,2,0:0:0:0:
443,255,94606,1,2,0:0:0:0:
425,272,94681,1,2,0:0:0:0:
406,287,94756,2,0,B|387:297|387:297|361:290,1,35,8|0,0:0|0:0,0:0:0:0:
332,216,94906,2,0,B|352:211|352:211|376:224,1,35,8|0,0:0|0:0,0:0:0:0:
302,324,95056,2,0,B|280:323|280:323|261:304,1,35,8|0,0:0|0:0,0:0:0:0:
241,243,95206,5,2,0:0:0:0:
241,243,96406,6,0,P|230:197|251:165,1,78.7500030040742,12|0,0:0|0:0,0:0:0:0:
180,298,96706,6,0,B|167:305|167:305|135:279|105:288,1,70,2|0,0:0|0:0,0:0:0:0:
101,308,97531,6,0,L|97:345,6,23.3333333333333,2|2|2|2|2|2|0,0:0|0:0|0:0|0:0|0:0|0:0|0:0,0:0:0:0:
30,312,98006,6,0,L|103:332,1,70.0000026702882,8|0,0:0|0:0,0:0:0:0:
42,236,98306,6,0,B|19:229|19:229|27:319,1,79.3333348464966,2|0,0:0|0:0,0:0:0:0:
115,188,98606,6,0,P|124:154|121:131,1,46.6666666666667,12|0,0:0|0:0,0:0:0:0:
57,81,98806,6,0,L|56:106,22,14.8750002837181,0|0|0|0|0|2|2|2|2|2|2|2|2|2|2|2|2|2|2|2|2|2|2,0:0|0:0|0:0|0:0|0:0|0:0|0:0|0:0|0:0|0:0|0:0|0:0|0:0|0:0|0:0|0:0|0:0|0:0|0:0|0:0|0:0|0:0|0:0,0:0:0:0:
43,62,99706,6,0,P|85:64|118:25,1,78.7500030040742,12|0,0:0|0:0,0:0:0:0:
217,90,100106,6,2,P|177:102|227:95,1,157.500006008148,2|0,0:0|0:0,0:0:0:0:
394,55,100506,6,0,B|401:34|401:34|331:24|315:97,1,115.50000352478,8|0,3:0|0:0,0:0:0:0:
276,221,100906,5,12,0:0:0:0:
276,221,102006,5,8,0:0:0:0:
297,237,102106,6,0,B|329:244|354:222|354:222|380:242|437:234,1,115.50000352478,8|0,0:0|0:0,0:0:0:0:
216,224,102506,6,0,B|198:194|198:194|234:135|323:172,1,157.500006008148,2|0,0:0|0:0,0:0:0:0:
129,308,102906,6,0,P|114:271|120:220,1,78.7500030040742,8|0,0:0|0:0,0:0:0:0:
112,154,103306,6,0,P|124:178|119:223,2,70,2|0|0,0:0|0:0|0:0,0:0:0:0:
112,154,104506,6,0,B|136:188|119:222|119:222|116:232|116:232|105:279|132:312,1,160.650007231407,12|0,0:0|0:0,0:0:0:0:
241,230,104906,6,0,P|197:232|212:290,1,105,2|0,0:0|0:0,0:0:0:0:
298,304,105306,6,0,B|449:300,1,105.000004005432,8|8,0:0|0:0,0:0:0:0:
479,284,105606,1,6,0:0:0:0:
236,351,105706,6,0,L|240:376,6,17.5,10|2|2|2|2|2|2,0:0|0:0|0:0|0:0|0:0|0:0|0:0,0:0:0:0:
127,306,106106,2,0,L|131:281,6,17.5,10|2|2|2|2|2|2,0:0|0:0|0:0|0:0|0:0|0:0|0:0,0:0:0:0:
241,230,106506,2,0,L|237:255,3,17.5,10|2|2|2,0:0|0:0|0:0|0:0,0:0:0:0:
164,154,106772,5,0,0:0:0:0:
164,154,106839,1,0,0:0:0:0:
164,154,106906,6,0,P|153:112|161:73,1,78.7500030040742,12|0,0:0|0:0,0:0:0:0:
296,169,107306,6,0,P|306:225|266:277,1,115.50000352478
246,66,107706,6,0,L|252:10,1,35.0000013351441,10|0,0:0|0:0,0:0:0:0:
322,7,107972,1,8,0:0:0:0:
233,209,108106,5,2,0:0:0:0:
219,225,108506,1,0,0:0:0:0:
205,240,108906,1,0,0:0:0:0:
323,93,109306,6,0,P|387:89|415:116,1,89.2500017023087,12|0,0:0|0:0,0:0:0:0:
425,264,109706,6,2,B|404:213|420:174|447:168|447:168|447:192|422:208,1,146.999995513916,2|0,0:0|0:0,0:0:0:0:
297,290,110106,6,0,B|254:290|254:290|240:281|240:281|204:280|204:280|186:293,1,105,8|0,0:0|0:0,0:0:0:0:
475,340,110506,5,0,0:0:0:0:
475,340,111706,6,0,B|455:352|455:352|380:343,1,78.7500030040742,12|0,0:0|0:0,0:0:0:0:
372,180,112106,6,0,B|394:158|394:158|412:240,1,105,2|0,0:0|0:0,0:0:0:0:
299,290,112506,6,0,B|218:325|221:240|148:294,1,136.499993751526,8|0,0:0|0:0,0:0:0:0:
56,361,112906,5,2,0:0:0:0:
265,226,113306,5,6,0:0:0:0:
265,226,114106,6,0,B|276:255|276:255|260:324,1,78.7500030040742,12|0,0:0|0:0,0:0:0:0:
203,140,114506,6,0,B|175:100|192:68|192:68|221:70|235:103,1,105
180,242,114906,5,4,0:0:0:0:
156,249,115006,1,2,0:0:0:0:
88,206,115106,5,6,0:0:0:0:
64,199,115206,1,8,0:0:0:0:
11,254,115306,6,0,L|9:279,4,17.5,10|2|2|2|2,0:0|0:0|0:0|0:0|0:0,0:0:0:0:
64,199,115606,1,0,0:0:0:0:
78,170,115706,2,0,L|76:144,6,17.5,10|2|2|2|2|2|2,0:0|0:0|0:0|0:0|0:0|0:0|0:0,0:0:0:0:
156,249,116106,2,0,L|159:274,6,17.5,10|2|2|2|2|2|2,0:0|0:0|0:0|0:0|0:0|0:0|0:0,0:0:0:0:
259,176,116506,6,0,B|301:183|301:183|354:155|354:155|427:176,1,136.499993751526,12|0,0:0|0:0,0:0:0:0:
456,224,116906,6,0,B|479:258|479:258|512:163|512:163|476:166,1,178.500003404617,2|0,0:0|0:0,0:0:0:0:
299,285,117306,6,0,P|301:308|316:331,1,35.0000013351441,6|0,0:0|0:0,0:0:0:0:
374,284,117572,1,8,0:0:0:0:
276,73,117706,5,4,0:0:0:0:
276,73,123106,5,2,0:0:0:0:
192,60,123406,1,0,0:0:0:0:
117,98,123706,1,0,0:0:0:0:
276,73,124006,5,2,0:0:0:0:
192,60,124306,1,0,0:0:0:0:
117,98,124606,1,2,0:0:0:0:
109,181,124906,5,2,0:0:0:0:
192,60,125206,1,2,0:0:0:0:
117,98,125506,1,0,0:0:0:0:
197,229,125806,5,2,0:0:0:0:
192,60,126106,1,0,0:0:0:0:
109,181,126406,1,0,0:0:0:0:
197,229,126706,5,2,0:0:0:0:
306,206,127006,1,0,0:0:0:0:
241,338,127306,1,0,0:0:0:0:
256,146,127606,5,2,0:0:0:0:
373,289,127906,1,2,0:0:0:0:
241,338,128206,1,2,0:0:0:0:
369,180,128506,6,0,P|381:138|329:38,1,159.249992710114
309,42,129106,5,8,0:0:0:0:
318,64,129181,1,4,0:0:0:0:
341,84,129256,1,6,0:0:0:0:
378,91,129331,1,0,0:0:0:0:
446,63,129406,6,0,B|455:52|455:52|460:14,3,35,8|8|14|8,0:0|0:0|0:0|0:0,0:0:0:0:
484,170,129706,2,0,B|470:175|470:175|447:205,3,35,8|8|14|8,0:0|0:0|0:0|0:0,0:0:0:0:
341,250,130006,2,0,B|355:250|355:250|385:274,3,35,8|8|14|8,3:0|3:0|3:0|3:0,3:0:0:0:
448,357,130306,5,4,0:0:0:0:
256,192,130381,12,0,133606,0:0:0:0:
174,46,133906,6,0,L|169:5,4,26.2500010013581,14|0|0|0|0,3:0|3:0|3:0|3:0|3:0,3:0:0:0:
274,91,134318,2,0,L|279:50,3,26.2500010013581,12|0|0|0,3:0|3:0|3:0|3:0,3:0:0:0:
174,46,134618,2,0,L|169:5,1,26.2500010013581,14|0,3:0|3:0,3:0:0:0:
261,210,134768,6,0,L|266:169,3,26.2500010013581,4|0|0|0,3:0|3:0|3:0|3:0,3:0:0:0:
371,132,135068,2,0,L|366:91,3,26.2500010013581,12|0|0|0,3:0|3:0|3:0|3:0,3:0:0:0:
261,210,135368,2,0,L|266:169,4,26.2500010013581,12|0|0|0|0,3:0|3:0|3:0|3:0|3:0,3:0:0:0:
371,132,135706,2,0,L|368:106,11,26.2500010013581,12|0|6|0|6|0|6|0|6|0|6|0,3:0|3:0|3:0|3:0|3:0|3:0|3:0|3:0|3:0|3:0|3:0|3:0,3:0:0:0:
160,163,136606,5,2,0:0:0:0:
160,163,137506,6,0,B|138:164|138:164|121:155|121:155|93:157,2,59.5000011348725,2|0|0,0:0|0:0|0:0,0:0:0:0:
228,119,137956,2,0,B|250:120|250:120|267:111|267:111|295:113,2,59.5000011348725
157,84,138406,2,0,P|149:51|154:17,1,59.5000011348725,2|0,0:0|0:0,0:0:0:0:
231,200,138706,2,0,L|223:269,1,59.5000011348725
172,317,139006,2,0,L|180:386,1,59.5000011348725
291,307,139306,6,0,B|312:301|312:301|357:315,2,59.5000011348725,2|0|0,0:0|0:0|0:0,0:0:0:0:
127,241,139756,2,0,B|106:247|106:247|61:233,2,59.5000011348725
231,200,140206,2,0,P|264:197|297:208,1,59.5000011348725,2|0,0:0|0:0,0:0:0:0:
364,223,140506,2,0,L|451:218,1,59.5000011348725
491,299,140806,2,0,L|404:294,1,59.5000011348725
403,121,141106,6,0,P|409:80|425:60,1,59.5000011348725,2|0,0:0|0:0,0:0:0:0:
487,29,141406,1,2,0:0:0:0:
506,122,141556,1,0,0:0:0:0:
341,191,141706,2,0,L|262:185,1,59.5000011348725,2|0,0:0|0:0,0:0:0:0:
129,131,142006,6,0,P|167:115|192:119,1,59.5000011348725,2|0,0:0|0:0,0:0:0:0:
281,186,142306,1,2,0:0:0:0:
212,251,142456,1,0,0:0:0:0:
262,104,142606,2,0,L|253:33,1,59.5000011348725,2|0,0:0|0:0,0:0:0:0:
140,7,142906,6,0,P|99:14|59:43,1,89.2500017023087,2|0,0:0|0:0,0:0:0:0:
37,68,143206,2,0,B|53:94|53:94|55:165,1,89.2500017023087,2|0,0:0|0:0,0:0:0:0:
37,184,143506,2,0,L|45:288,1,89.2500017023087,2|0,0:0|0:0,0:0:0:0:
25,310,143806,6,0,P|66:296|132:329,1,105,2|0,0:0|0:0,0:0:0:0:
212,259,144106,2,0,P|205:239|209:266,1,105,2|0,0:0|0:0,0:0:0:0:
146,337,144406,2,0,B|160:360|160:360|206:371|256:356,1,105,2|0,0:0|0:0,0:0:0:0:
311,314,144706,6,0,L|411:320,1,80.5000015354157,2|0,0:0|0:0,0:0:0:0:
492,336,145006,2,0,L|392:342,1,80.5000015354157,2|0,0:0|0:0,0:0:0:0:
270,289,145306,2,0,L|370:295,1,80.5000015354157,2|0,0:0|0:0,0:0:0:0:
432,141,145606,6,0,L|328:148,1,90.9999958343508,2|0,0:0|0:0,0:0:0:0:
173,195,145906,2,0,L|277:202,1,90.9999958343508,2|0,0:0|0:0,0:0:0:0:
487,215,146206,5,2,0:0:0:0:
475,232,146506,6,0,P|437:240|403:206,1,70,12|0,0:0|0:0,0:0:0:0:
343,69,146731,1,0,0:0:0:0:
358,82,146806,6,0,B|369:97|369:97|360:147,1,52.5000020027161,2|0,0:0|0:0,0:0:0:0:
272,222,147031,1,0,3:0:0:0:
258,245,147106,6,0,B|252:261|257:287|257:287|214:249|221:187|258:157,1,157.500006008148,12|0,3:0|3:0,3:0:0:0:
349,295,147406,6,0,P|358:325|299:378,1,105,12|0,0:0|0:0,0:0:0:0:
202,289,147706,6,0,P|256:285|276:305,1,59.5000011348725,2|0,0:0|0:0,0:0:0:0:
118,338,147931,1,0,0:0:0:0:
105,303,148006,6,0,B|108:259|108:259|127:233|127:233|130:159,1,119.000002269745,8|0,0:0|0:0,0:0:0:0:
106,89,148231,1,0,0:0:0:0:
99,61,148306,6,0,P|73:84|39:93,1,70,8|0,0:0|0:0,0:0:0:0:
202,45,148531,1,0,0:0:0:0:
216,29,148606,6,0,P|240:26|277:41,1,52.5000020027161,2|0,0:0|0:0,0:0:0:0:
354,104,148831,1,8,0:0:0:0:
372,132,148906,6,0,B|383:148|403:152|403:152|375:68|426:39,1,146.999995513916,12|0,0:0|0:0,0:0:0:0:
461,221,149206,6,0,P|446:256|399:266,1,70,12|0,0:0|0:0,0:0:0:0:
254,234,149431,1,0,0:0:0:0:
279,212,149506,6,0,B|306:195|337:212|337:212|337:225|315:242,1,83.9999974365235,2|0,0:0|0:0,0:0:0:0:
140,338,149731,1,4,0:0:0:0:
139,300,149806,6,0,B|143:244|177:216|201:214|201:214|207:247|171:261,1,157.500006008148,8|0,0:0|0:0,0:0:0:0:
53,221,150106,6,0,P|37:189|37:154,1,70,12|0,0:0|0:0,0:0:0:0:
87,51,150331,1,0,0:0:0:0:
103,43,150406,6,0,B|129:38|129:38|157:56,1,52.5000020027161,2|0,0:0|0:0,0:0:0:0:
213,126,150631,1,0,0:0:0:0:
242,146,150706,6,0,B|296:174|307:124|369:154,1,119.000002269745,12|0,0:0|0:0,0:0:0:0:
469,190,150931,1,4,0:0:0:0:
462,213,151006,6,0,P|450:233|446:191,1,105,12|0,0:0|0:0,0:0:0:0:
481,304,151306,6,0,B|474:316|474:316|428:325,1,45.4999979171754,4|0,0:0|0:0,0:0:0:0:
367,318,151456,2,0,P|351:301|314:297,1,45.4999979171754,4|0,0:0|0:0,0:0:0:0:
223,322,151606,6,0,B|218:345|218:345|245:350|264:306|218:279,1,94.499997116089,2|0,0:0|0:0,0:0:0:0:
154,307,151906,6,0,P|174:338|222:340,1,70,12|0,0:0|0:0,0:0:0:0:
289,232,152131,1,4,0:0:0:0:
270,221,152206,6,0,L|237:218,1,26.2500010013581,2|0,0:0|0:0,0:0:0:0:
170,231,152356,2,0,L|152:233,2,13.125000500679,2|2|2,0:0|0:0|0:0,0:0:0:0:
153,206,152506,5,12,0:0:0:0:
128,172,152581,1,2,0:0:0:0:
131,137,152656,1,6,0:0:0:0:
151,117,152731,1,6,0:0:0:0:
170,110,152806,6,0,P|205:112|236:129,1,70,12|0,0:0|0:0,0:0:0:0:
113,56,153031,1,0,0:0:0:0:
137,36,153106,6,0,P|190:18|293:50,1,157.500006008148,6|0,0:0|0:0,0:0:0:0:
36,86,153406,6,0,B|29:63|29:63|29:26|56:-6,2,83.9999974365235,6|12|6,0:0|0:0|0:0,0:0:0:0:
73,183,153706,6,0,P|72:226|18:273,1,105,12|0,0:0|0:0,0:0:0:0:
88,371,154006,6,0,P|99:341|143:313,1,78.7500030040742,2|0,0:0|0:0,0:0:0:0:
259,355,154306,6,0,P|242:364|205:367,2,41.9999987182618,6|0|8,0:0|0:0|0:0,0:0:0:0:
346,332,154606,6,0,B|375:321|375:321|465:332,1,105,12|0,0:0|0:0,0:0:0:0:
477,356,154906,5,6,0:0:0:0:
467,305,155006,1,8,0:0:0:0:
477,250,155106,1,4,0:0:0:0:
473,195,155206,6,0,B|487:152|468:125|468:125|450:98|465:49,1,136.499993751526,12|0,0:0|0:0,0:0:0:0:
401,12,155506,6,0,P|373:36|326:26,1,70,12|0,0:0|0:0,0:0:0:0:
232,5,155731,1,0,0:0:0:0:
251,8,155806,6,0,B|263:25|263:25|249:61,1,59.5000011348725,2|0,0:0|0:0,0:0:0:0:
136,131,156031,1,0,0:0:0:0:
120,116,156106,5,6,0:0:0:0:
167,113,156206,1,0,0:0:0:0:
210,140,156306,1,8,0:0:0:0:
232,191,156406,6,0,P|238:225|228:258,1,70,8|0,0:0|0:0,0:0:0:0:
59,197,156706,6,2,B|38:203|38:203|24:178|24:178|37:151|37:151|62:143,1,90.9999958343508,6|0,0:0|0:0,0:0:0:0:
134,222,156931,1,0,0:0:0:0:
115,252,157006,6,0,P|90:270|42:276,1,59.5000011348725,12|0,0:0|0:0,0:0:0:0:
54,289,157306,6,0,P|106:288|165:328,1,105,8|0,0:0|0:0,0:0:0:0:
206,367,157606,2,0,L|304:354,1,70,2|0,0:0|0:0,0:0:0:0:
404,316,157906,2,0,L|306:303,1,70,2|0,0:0|0:0,0:0:0:0:
234,245,158206,6,0,P|211:198|223:126,1,105,8|0,0:0|0:0,0:0:0:0:
271,94,158506,2,0,L|356:86,1,70,2|0,0:0|0:0,0:0:0:0:
421,184,158806,2,0,L|336:176,1,70,2|0,0:0|0:0,0:0:0:0:
180,75,159106,5,8,0:0:0:0:
227,11,159256,1,0,0:0:0:0:
247,9,159331,1,2,0:0:0:0:
266,16,159406,1,0,0:0:0:0:
180,75,159556,5,8,0:0:0:0:
101,80,159706,1,0,0:0:0:0:
83,72,159781,1,2,0:0:0:0:
70,57,159856,1,0,0:0:0:0:
180,75,160006,6,0,L|186:104,1,26.2500010013581,2|0,0:0|0:0,0:0:0:0:
218,169,160156,2,0,L|212:198,1,26.2500010013581,2|0,0:0|0:0,0:0:0:0:
175,259,160306,6,0,L|181:288,1,26.2500010013581,2|0,0:0|0:0,0:0:0:0:
265,105,160456,2,0,L|259:76,1,26.2500010013581,2|0,0:0|0:0,0:0:0:0:
106,214,160606,6,0,L|100:243,1,26.2500010013581,2|0,0:0|0:0,0:0:0:0:
337,132,160756,2,0,L|343:103,1,26.2500010013581,2|0,0:0|0:0,0:0:0:0:
61,147,160906,5,4,0:0:0:0:
256,192,160981,12,0,161656,0:0:0:0:
61,147,161806,5,4,0:0:0:0:
256,192,161881,12,0,162556,0:0:0:0:
288,84,162706,5,4,0:0:0:0:
256,192,162781,12,0,163456,0:0:0:0:
288,84,163606,5,4,0:0:0:0:
256,192,163681,12,0,164356,0:0:0:0:
353,280,164506,5,4,0:0:0:0:
256,192,164581,12,0,165256,0:0:0:0:
353,280,165406,5,4,0:0:0:0:
256,192,165481,12,0,166156,0:0:0:0:
136,244,166306,6,0,L|132:279,3,27.9999991455078,2|0|0|0,0:0|0:0|0:0|0:0,0:0:0:0:
185,185,166706,2,0,L|180:148,1,27.9999991455078,2|0,0:0|0:0,0:0:0:0:
150,87,166906,2,0,L|154:50,1,27.9999991455078,2|0,0:0|0:0,0:0:0:0:
213,10,167106,1,0,0:0:0:0:
274,54,167206,6,0,L|278:91,3,27.9999991455078,2|0|0|0,0:0|0:0|0:0|0:0,0:0:0:0:
318,145,167606,2,0,L|314:182,1,27.9999991455078,2|0,0:0|0:0,0:0:0:0:
91,173,167806,2,0,L|95:136,1,27.9999991455078,2|0,0:0|0:0,0:0:0:0:
262,254,168006,1,0,0:0:0:0:
198,283,168106,6,0,P|151:281|127:247,1,78.7500030040742,2|0,0:0|0:0,0:0:0:0:
262,254,168406,2,0,P|309:256|333:290,1,78.7500030040742,2|0,0:0|0:0,0:0:0:0:
198,283,168706,2,0,P|151:281|127:247,1,78.7500030040742,2|0,0:0|0:0,0:0:0:0:
246,64,169006,6,0,L|241:143,1,78.7500030040742,2|0,0:0|0:0,0:0:0:0:
197,282,169307,2,0,L|203:204,1,78.7500030040742,2|0,0:0|0:0,0:0:0:0:
246,64,169606,2,0,L|241:143,1,78.7500030040742,2|0,0:0|0:0,0:0:0:0:
135,165,169906,5,2,0:0:0:0:
110,135,170006,1,0,0:0:0:0:
109,96,170106,1,0,0:0:0:0:
165,29,170206,5,2,0:0:0:0:
170,42,170306,1,0,0:0:0:0:
172,56,170406,1,0,0:0:0:0:
109,96,170506,5,2,0:0:0:0:
61,107,170606,1,0,0:0:0:0:
18,84,170706,1,0,0:0:0:0:
71,27,170806,5,4,0:0:0:0:
182,132,171106,1,2,0:0:0:0:
8,206,171406,1,0,0:0:0:0:
82,307,171706,6,0,B|99:334|99:334|159:326,1,78.7500030040742,2|0,0:0|0:0,0:0:0:0:
258,290,172006,2,0,B|241:263|241:263|181:271,1,78.7500030040742,2|0,0:0|0:0,0:0:0:0:
82,307,172306,2,0,B|99:334|99:334|159:326,1,78.7500030040742,2|0,0:0|0:0,0:0:0:0:
258,290,172606,6,0,P|322:264|340:281,1,78.7500030040742,2|0,0:0|0:0,0:0:0:0:
449,313,172906,2,0,P|380:303|373:279,1,70.0000026702882,2|0,0:0|0:0,0:0:0:0:
361,177,173206,2,0,P|387:241|370:259,1,70.0000026702882,2|0,0:0|0:0,0:0:0:0:
268,292,173506,6,0,L|204:287,1,52.5,6|0,0:0|0:0,0:0:0:0:
152,232,173806,6,0,P|144:201|149:180,2,35.0000013351441,6|0|8,0:0|0:0|0:0,0:0:0:0:
166,351,174106,2,0,P|138:366|116:367,2,35.0000013351441,6|0|8,0:0|0:0|0:0,0:0:0:0:
268,292,174406,5,12,0:0:0:0:
285,253,174506,1,2,0:0:0:0:
273,212,174606,1,4,0:0:0:0:
201,167,174706,5,12,0:0:0:0:
191,193,174806,1,2,0:0:0:0:
192,220,174906,1,4,0:0:0:0:
273,212,175006,5,12,0:0:0:0:
273,138,175106,1,12,0:0:0:0:
217,89,175206,1,6,0:0:0:0:
144,108,175306,6,0,P|101:96|85:70,1,70,12|0,0:0|0:0,0:0:0:0:
7,10,175531,1,0,0:0:0:0:
18,25,175606,6,0,B|23:39|23:39|12:84,1,52.5000020027161,2|0,0:0|0:0,0:0:0:0:
0,169,175831,1,0,0:0:0:0:
21,195,175906,6,0,B|49:259|10:307|10:307|10:271|40:244,1,146.999995513916,12|0,0:0|0:0,0:0:0:0:
145,224,176206,6,0,P|186:225|214:244,1,70,12|0,0:0|0:0,0:0:0:0:
283,355,176431,1,0,0:0:0:0:
271,340,176506,6,0,P|271:312|291:291,1,45.4999979171754,2|0,0:0|0:0,0:0:0:0:
416,215,176731,1,0,0:0:0:0:
429,240,176806,6,0,B|437:259|418:279|418:279|387:279|357:257|346:232,1,125.999996154785,12|0,0:0|0:0,0:0:0:0:
358,75,177106,6,0,P|396:53|426:61,1,70,12|0,0:0|0:0,0:0:0:0:
310,160,177331,1,0,0:0:0:0:
298,174,177406,6,0,B|287:185|287:185|278:131,1,52.5000020027161,2|0,0:0|0:0,0:0:0:0:
232,29,177631,1,8,0:0:0:0:
255,56,177706,6,0,B|258:73|258:73|200:83|161:50|161:50|134:74|86:65,1,178.500003404617,8|0,0:0|0:0,0:0:0:0:
33,69,178006,6,0,P|73:61|98:38,1,70,12|0,0:0|0:0,0:0:0:0:
88,158,178231,1,0,0:0:0:0:
73,171,178306,6,0,P|53:210|58:241,1,59.5000011348725,2|0,0:0|0:0,0:0:0:0:
216,276,178531,1,4,0:0:0:0:
221,245,178606,6,0,B|206:224|206:224|172:213|113:254|136:326,1,157.500006008148,12|0,0:0|0:0,0:0:0:0:
314,334,178906,6,0,L|385:323,1,70,12|0,0:0|0:0,0:0:0:0:
481,186,179131,1,0,0:0:0:0:
460,173,179206,6,0,B|416:160|416:160|369:193,1,90.9999958343508,2|0,0:0|0:0,0:0:0:0:
463,331,179431,1,0,0:0:0:0:
486,354,179506,6,0,B|513:314|513:314|511:243|511:243|486:202,1,168,12|0,0:0|0:0,0:0:0:0:
425,86,179806,6,0,P|442:45|499:68,1,105,12|0,0:0|0:0,0:0:0:0:
354,129,180106,6,0,B|337:134|337:134|298:115,1,45.4999979171754,4|0,0:0|0:0,0:0:0:0:
260,68,180256,2,0,P|238:59|206:74,1,45.4999979171754,4|0,0:0|0:0,0:0:0:0:
130,110,180406,6,0,B|103:110|95:135|95:135|119:143|138:121,1,94.499997116089,2|0,0:0|0:0,0:0:0:0:
205,173,180706,6,0,P|204:217|183:239,1,70,12|0,0:0|0:0,0:0:0:0:
54,309,180931,1,6,0:0:0:0:
40,296,181006,6,0,L|45:257,1,26.2500010013581,2|0,0:0|0:0,0:0:0:0:
72,230,181156,2,0,L|70:212,2,13.125000500679,2|2|2,0:0|0:0|0:0,0:0:0:0:
43,198,181306,5,4,0:0:0:0:
30,160,181381,1,12,0:0:0:0:
36,115,181456,1,14,0:0:0:0:
72,74,181531,1,4,0:0:0:0:
138,52,181606,6,0,B|160:52|160:52|178:66,3,35,14|2|2|0,0:0|0:0|0:0|0:0,0:0:0:0:
283,121,181906,2,0,B|263:131|263:131|253:151,3,35,10|2|2|0,0:0|0:0|0:0|0:0,0:0:0:0:
402,39,182206,2,0,B|397:17|397:17|406:-3,3,35,10|2|2|0,0:0|0:0|0:0|0:0,0:0:0:0:
486,202,182506,5,4,0:0:0:0:
306,233,182806,1,0,0:0:0:0:
486,202,183106,1,0,0:0:0:0:
222,162,183406,5,4,0:0:0:0:
267,338,183706,1,0,0:0:0:0:
281,112,184006,1,0,0:0:0:0:
222,162,184156,1,0,0:0:0:0:
222,162,184231,1,0,0:0:0:0:
222,162,184306,5,4,0:0:0:0:
267,338,184606,1,0,0:0:0:0:
306,233,184906,1,0,0:0:0:0:
62,299,185206,5,4,0:0:0:0:
267,338,185506,1,0,0:0:0:0:
62,299,185806,1,0,0:0:0:0:
267,338,186106,5,4,0:0:0:0:
306,233,186406,1,0,0:0:0:0:
143,214,186706,1,0,0:0:0:0:
62,299,187006,5,4,0:0:0:0:
267,338,187306,1,0,0:0:0:0:
222,162,187606,1,2,0:0:0:0:
143,214,187906,5,12,0:0:0:0:
143,214,187981,1,0,0:0:0:0:
143,214,188056,1,0,0:0:0:0:
143,214,188131,1,0,0:0:0:0:
143,214,188206,2,0,L|146:257,1,35,4|0,0:0|0:0,0:0:0:0:
222,162,188356,2,0,L|219:119,1,35,4|0,0:0|0:0,0:0:0:0:
153,88,188506,2,0,L|150:45,1,35,4|0,0:0|0:0,0:0:0:0:
210,295,188656,2,0,L|207:338,1,35,4|0,0:0|0:0,0:0:0:0:
147,375,188806,5,4,0:0:0:0:
304,311,189106,1,0,0:0:0:0:
304,311,189181,1,0,0:0:0:0:
304,311,189256,1,0,0:0:0:0:
304,311,189331,1,0,0:0:0:0:
304,311,189406,2,0,L|357:317,1,35,6|0,0:0|0:0,0:0:0:0:
413,261,189556,2,0,L|466:255,1,35,6|0,0:0|0:0,0:0:0:0:
243,177,196006,6,0,L|241:197,60,17.5,0|0|0|0|0|0|0|0|0|0|0|0|0|0|0|0|0|0|0|0|0|0|0|0|0|0|0|2|2|2|2|2|2|2|2|2|2|2|2|2|2|2|2|2|2|2|2|2|2|2|2|2|2|2|2|2|2|2|2|2|10,0:0|0:0|0:0|0:0|0:0|0:0|0:0|0:0|0:0|0:0|0:0|0:0|0:0|0:0|0:0|0:0|0:0|0:0|0:0|0:0|0:0|0:0|0:0|0:0|0:0|0:0|0:0|0:0|0:0|0:0|0:0|0:0|0:0|0:0|0:0|0:0|0:0|0:0|0:0|0:0|0:0|0:0|0:0|0:0|0:0|0:0|0:0|0:0|0:0|0:0|0:0|0:0|0:0|0:0|0:0|0:0|0:0|0:0|0:0|0:0|0:0,0:0:0:0:
263,150,198706,6,0,P|178:147|147:102,1,119.000002269745,6|0,0:0|0:0,0:0:0:0:
85,48,198931,1,2,0:0:0:0:
69,80,199006,6,0,B|60:103|40:111|40:111|15:72|46:19,1,119.000002269745,8|2,0:0|0:0,0:0:0:0:
119,195,199231,1,2,0:0:0:0:
131,234,199306,5,8,0:0:0:0:
100,278,199381,1,2,0:0:0:0:
48,293,199456,1,2,0:0:0:0:
83,270,199531,1,2,0:0:0:0:
165,261,199606,6,0,B|213:264|213:264|242:283|242:283|308:288,1,132.999996448517,10|0,0:0|0:0,0:0:0:0:
442,314,199831,1,8,0:0:0:0:
467,328,199906,6,0,L|385:338,1,59.5000011348725,10|0,0:0|0:0,0:0:0:0:
330,213,200056,2,0,L|412:223,1,59.5000011348725,2|0,0:0|0:0,0:0:0:0:
218,349,200206,5,10,0:0:0:0:
213,277,200281,1,0,0:0:0:0:
227,225,200356,1,2,0:0:0:0:
250,190,200431,1,0,0:0:0:0:
269,167,200506,6,0,P|287:107|252:65,1,70,6|0,0:0|0:0,0:0:0:0:
232,44,200656,2,0,P|260:79|251:126,1,59.5000011348725,8|0,0:0|0:0,0:0:0:0:
191,188,200806,5,2,0:0:0:0:
150,197,200881,1,2,0:0:0:0:
104,184,200956,1,2,0:0:0:0:
71,141,201031,1,0,0:0:0:0:
75,81,201106,6,0,B|102:56|102:56|92:171,1,119.000002269745,10|2,0:0|0:0,0:0:0:0:
28,283,201331,1,0,0:0:0:0:
11,263,201406,6,0,P|68:259|105:317,1,105.000004005432,14|0,0:0|0:0,0:0:0:0:
222,367,201631,1,0,0:0:0:0:
200,338,201706,5,10,0:0:0:0:
218,287,201781,1,0,0:0:0:0:
252,254,201856,1,10,0:0:0:0:
292,244,201931,1,0,0:0:0:0:
326,252,202006,5,10,0:0:0:0:
372,260,202081,1,10,0:0:0:0:
429,244,202156,1,2,0:0:0:0:
470,185,202231,1,2,0:0:0:0:
455,109,202306,6,0,B|426:125|426:125|435:177|435:177|488:148,1,119.000002269745,6|0,0:0|0:0,0:0:0:0:
458,24,202531,1,0,0:0:0:0:
424,12,202606,6,0,L|332:32,2,59.5000011348725,10|2|2,0:0|0:0|0:0,0:0:0:0:
311,105,202831,1,0,0:0:0:0:
277,117,202906,6,0,L|185:97,2,59.5000011348725,10|8|0,0:0|0:0|0:0,0:0:0:0:
195,15,203131,1,2,0:0:0:0:
165,15,203206,6,0,P|218:64|190:115,1,132.999996448517,14|0,0:0|0:0,0:0:0:0:
39,160,203431,1,2,0:0:0:0:
39,127,203506,6,0,B|54:114|79:115|79:115|118:143|118:185,1,105.000004005432,10|0,0:0|0:0,0:0:0:0:
97,298,203731,1,2,0:0:0:0:
68,289,203806,6,0,B|69:271|85:257|85:257|127:250|152:276,1,83.9999974365235,8|0,0:0|0:0,0:0:0:0:
229,323,204031,1,2,0:0:0:0:
202,309,204106,5,6,0:0:0:0:
232,290,204181,1,2,0:0:0:0:
273,284,204256,1,8,0:0:0:0:
317,301,204331,1,0,0:0:0:0:
370,305,204406,5,10,0:0:0:0:
420,286,204481,1,2,0:0:0:0:
444,238,204556,1,0,0:0:0:0:
434,185,204631,1,2,0:0:0:0:
403,165,204706,5,10,0:0:0:0:
418,197,204781,1,2,0:0:0:0:
446,218,204856,1,2,0:0:0:0:
481,219,204931,1,0,0:0:0:0:
503,212,205006,5,6,0:0:0:0:
503,212,205906,6,0,B|475:196|447:205|447:205|418:219|387:217|353:184,1,132.999996448517,6|0,0:0|0:0,0:0:0:0:
300,86,206131,1,0,0:0:0:0:
317,62,206206,6,0,P|332:88|336:153,1,59.5000011348725,10|0,0:0|0:0,0:0:0:0:
156,91,206356,2,0,P|161:60|200:8,1,59.5000011348725
413,137,206506,5,10,0:0:0:0:
426,170,206581,1,8,0:0:0:0:
417,216,206656,1,8,0:0:0:0:
368,251,206731,1,8,0:0:0:0:
296,254,206806,6,0,B|320:227|320:227|314:278|324:332|324:332|291:289,1,178.500003404617,6|0,0:0|0:0,0:0:0:0:
225,281,207106,5,8,0:0:0:0:
296,273,207181,1,8,0:0:0:0:
367,268,207256,1,8,0:0:0:0:
438,261,207331,1,2,0:0:0:0:
460,281,207406,6,0,L|463:360,1,59.5000011348725,10|0,0:0|0:0,0:0:0:0:
396,180,207556,2,0,L|403:101,1,59.5000011348725,2|0,0:0|0:0,0:0:0:0:
450,49,207706,6,0,B|473:47|489:36|489:36|472:84|416:102|341:66,1,178.500003404617,6|10,0:0|0:0,0:0:0:0:
296,53,208006,6,0,L|301:132,3,59.5000011348725,10|2|2|2,0:0|0:0|0:0|0:0,0:0:0:0:
396,180,208306,2,0,L|403:101,3,59.5000011348725,10|2|2|2,0:0|0:0|0:0|0:0,0:0:0:0:
301,214,208606,5,6,0:0:0:0:
271,207,208681,1,2,0:0:0:0:
236,198,208756,1,2,0:0:0:0:
195,186,208831,1,2,0:0:0:0:
166,177,208906,5,10,0:0:0:0:
203,159,208981,1,2,0:0:0:0:
218,120,209056,1,2,0:0:0:0:
210,79,209131,1,2,0:0:0:0:
171,62,209206,5,10,0:0:0:0:
173,131,209281,1,2,0:0:0:0:
107,157,209356,1,2,0:0:0:0:
63,101,209431,1,2,0:0:0:0:
102,41,209506,6,0,B|144:9|183:21|183:21|215:41|222:73,1,140,6|0,0:0|0:0,0:0:0:0:
38,213,209731,1,2,0:0:0:0:
13,187,209806,6,0,B|30:147|62:139|62:139|93:141|110:161,1,119.000002269745,10|0,0:0|0:0,0:0:0:0:
177,321,210031,1,2,2:0:0:0:
146,319,210106,5,10,0:0:0:0:
118,280,210181,1,2,0:0:0:0:
127,227,210256,1,2,0:0:0:0:
174,190,210331,1,0,0:0:0:0:
237,194,210406,6,0,B|262:201|288:187|288:187|261:232|208:239|170:210|166:161,1,178.500003404617,6|0,0:0|0:0,0:0:0:0:
252,124,210706,6,0,P|303:112|340:140,3,59.5000011348725,10|0|2|0,0:0|0:0|0:0|0:0,0:0:0:0:
362,168,211006,2,0,P|394:209|440:212,3,59.5000011348725,10|0|2|0,0:0|0:0|0:0|0:0,0:0:0:0:
378,89,211306,5,12,0:0:0:0:
381,62,211381,2,0,L|371:26,1,26.2500010013581,2|2,0:0|0:0,0:0:0:0:
392,94,211456,5,8,0:0:0:0:
395,67,211531,2,0,L|385:31,1,26.2500010013581,2|2,0:0|0:0,0:0:0:0:
406,99,211606,5,8,0:0:0:0:
409,72,211681,2,0,L|399:36,1,26.2500010013581,2|2,0:0|0:0,0:0:0:0:
420,104,211756,5,8,0:0:0:0:
423,77,211831,2,0,L|413:41,1,26.2500010013581,2|2,0:0|0:0,0:0:0:0:
434,109,211906,5,8,0:0:0:0:
437,82,211981,2,0,L|427:46,1,26.2500010013581,2|2,0:0|0:0,0:0:0:0:
448,114,212056,5,8,0:0:0:0:
451,87,212131,2,0,L|441:51,1,26.2500010013581,2|2,0:0|0:0,0:0:0:0:
473,102,212206,5,6,0:0:0:0:
473,102,213106,6,0,B|483:115|483:115|478:191,3,52.5000020027161,14|4|6|4,0:0|0:0|0:0|0:0,0:0:0:0:
369,220,213406,2,0,B|355:210|355:210|341:135,3,52.5000020027161,14|4|6|4,0:0|0:0|0:0|0:0,0:0:0:0:
268,91,213706,2,0,B|252:95|252:95|209:158,3,52.5000020027161,14|4|6|4,0:0|0:0|0:0|0:0,0:0:0:0:
143,193,214006,5,14,0:0:0:0:
106,195,214081,1,4,0:0:0:0:
80,176,214156,1,6,0:0:0:0:
75,150,214231,1,4,0:0:0:0:
85,132,214306,5,14,0:0:0:0:
85,148,214381,1,4,0:0:0:0:
80,163,214456,1,6,0:0:0:0:
71,175,214531,1,4,0:0:0:0:
52,184,214606,5,14,0:0:0:0:
83,187,214681,1,4,0:0:0:0:
110,218,214756,1,6,0:0:0:0:
102,269,214831,1,4,0:0:0:0:
69,291,214906,6,0,B|53:297|53:297|-18:272,3,52.5000020027161,14|4|6|4,0:0|0:0|0:0|0:0,0:0:0:0:
192,232,215206,2,0,B|200:218|200:218|273:196,3,52.5000020027161,14|4|6|4,0:0|0:0|0:0|0:0,0:0:0:0:
292,323,215506,2,0,B|296:338|296:338|362:378,3,52.5000020027161,14|4|6|4,0:0|0:0|0:0|0:0,0:0:0:0:
420,283,215806,5,14,0:0:0:0:
378,272,215881,1,4,0:0:0:0:
345,238,215956,1,6,0:0:0:0:
340,185,216031,1,4,0:0:0:0:
359,154,216106,5,14,0:0:0:0:
365,189,216181,1,4,0:0:0:0:
388,224,216256,1,6,0:0:0:0:
431,242,216331,1,4,0:0:0:0:
456,233,216406,5,14,0:0:0:0:
430,224,216481,1,4,0:0:0:0:
408,202,216556,1,6,0:0:0:0:
401,165,216631,1,4,0:0:0:0:
428,97,216706,6,0,P|449:82|493:82,1,52.5000020027161,14|0,0:0|0:0,0:0:0:0:
482,308,216856,2,0,P|456:310|418:287,1,52.5000020027161,14|0,0:0|0:0,0:0:0:0:
332,87,217006,6,0,P|342:63|381:42,1,52.5000020027161,14|0,0:0|0:0,0:0:0:0:
322,253,217156,2,0,P|299:266|256:262,1,52.5000020027161,14|0,0:0|0:0,0:0:0:0:
182,132,217306,6,0,P|207:136|238:167,1,52.5000020027161,14|0,0:0|0:0,0:0:0:0:
143,310,217456,2,0,P|118:318|76:306,1,52.5000020027161,14|0,0:0|0:0,0:0:0:0:
77,93,217606,6,0,B|76:76|76:76|123:17,3,52.5000020027161,14|4|6|4,0:0|0:0|0:0|0:0,0:0:0:0:
182,132,217906,2,0,B|196:139|196:139|209:173,3,52.5000020027161,14|4|6|4,0:0|0:0|0:0|0:0,0:0:0:0:
91,210,218206,2,0,B|77:218|77:218|41:213,3,52.5000020027161,14|4|6|4,0:0|0:0|0:0|0:0,0:0:0:0:
217,50,218506,6,0,L|289:58,1,52.5000020027161,14|0,0:0|0:0,0:0:0:0:
432,82,218656,2,0,L|360:90,1,52.5000020027161,14|0,0:0|0:0,0:0:0:0:
169,137,218806,6,0,L|241:132,1,52.5000020027161,14|0,0:0|0:0,0:0:0:0:
461,176,218956,2,0,L|388:171,1,52.5000020027161,14|0,0:0|0:0,0:0:0:0:
183,223,219106,6,0,P|212:225|250:249,1,52.5000020027161,14|0,0:0|0:0,0:0:0:0:
433,252,219256,2,0,P|404:259|371:289,1,52.5000020027161,14|0,0:0|0:0,0:0:0:0:
242,360,219406,6,0,L|247:298,1,52.5000020027161,14|0,0:0|0:0,0:0:0:0:
314,156,219556,2,0,L|319:218,1,52.5000020027161,14|0,0:0|0:0,0:0:0:0:
383,345,219706,6,0,B|357:354|357:354|339:331,1,52.5000020027161,10|0,0:0|0:0,0:0:0:0:
183,223,219856,2,0,B|201:202|201:202|228:213,1,52.5000020027161,10|0,0:0|0:0,0:0:0:0:
478,349,220006,6,0,P|487:369|484:407,3,35,14|4|4|4,0:0|0:0|0:0|0:0,0:0:0:0:
