osu file format v14

[General]
AudioFilename: audio.mp3
AudioLeadIn: 0
PreviewTime: 38359
Countdown: 0
SampleSet: Normal
StackLeniency: 0.7
Mode: 1
LetterboxInBreaks: 0
WidescreenStoryboard: 0

[Editor]
Bookmarks: 9317,40912,81763,99316,121337,167295,177507
DistanceSpacing: 1
BeatDivisor: 4
GridSize: 32
TimelineZoom: 3.9

[Metadata]
Title:Figue Folle
TitleUnicode:Figue Folle
Artist:Igorrr & Ruby My Dear
ArtistUnicode:Igorrr & Ruby My Dear
Creator:yea
Version:Fatal Oni
Source:
Tags:glitch french speedcore electronic scary
BeatmapID:1256739
BeatmapSetID:594135

[Difficulty]
HPDrainRate:4
CircleSize:5
OverallDifficulty:6
ApproachRate:10
SliderMultiplier:1.6
SliderTickRate:1

[Events]
//Background and Video events
0,0,"background.jpg",0,0
//Break Periods
//Storyboard Layer 0 (Background)
//Storyboard Layer 1 (Fail)
//Storyboard Layer 2 (Pass)
//Storyboard Layer 3 (Foreground)
//Storyboard Sound Samples

[TimingPoints]
7722,319.148936170213,4,1,0,75,1,0
17934,-33.3333333333333,4,1,0,75,0,0
19211,-100,4,1,0,75,0,0
22722,-50,4,1,0,75,0,0
23041,-100,4,1,0,75,0,0
28147,425.531914893617,3,1,0,75,1,0
35806,-95.2380952380952,3,1,0,75,0,0
36019,-90.9090909090909,3,1,0,75,0,0
36232,-86.9565217391304,3,1,0,75,0,0
36444,-83.3333333333333,3,1,0,75,0,0
36657,-80,3,1,0,75,0,0
36870,-76.9230769230769,3,1,0,75,0,0
37083,-74.0740740740741,3,1,0,75,0,0
37295,-71.4285714285714,3,1,0,75,0,0
38359,319.148936170213,4,1,0,75,1,0
40912,-100,4,1,0,75,0,1
45380,-50,4,1,0,75,0,0
46018,-100,4,1,0,75,0,1
50327,-100,4,1,0,75,0,0
55593,-33.3333333333333,4,1,0,75,0,0
56231,-100,4,1,0,75,0,0
76018,-33.3333333333333,4,1,0,75,0,0
76976,-100,4,1,0,75,0,0
77055,-97.0873786407767,4,1,0,75,0,0
77135,-94.3396226415094,4,1,0,75,0,0
77215,-91.743119266055,4,1,0,75,0,0
77295,-89.2857142857143,4,1,0,75,0,0
77374,-86.9565217391304,4,1,0,75,0,0
77454,-84.7457627118644,4,1,0,75,0,0
77534,-82.6446280991736,4,1,0,75,0,0
77614,-80.6451612903226,4,1,0,75,0,0
77694,-78.7401574803149,4,1,0,75,0,0
77773,-76.9230769230769,4,1,0,75,0,0
77853,-75.187969924812,4,1,0,75,0,0
77933,-73.5294117647059,4,1,0,75,0,0
78093,-80,4,1,0,75,0,0
82960,-133.333333333333,4,1,0,75,0,0
99316,-100,4,1,0,75,0,0
99396,-95.2380952380952,4,1,0,75,0,0
99476,-90.9090909090909,4,1,0,75,0,0
99555,-86.9565217391304,4,1,0,75,0,0
99635,-83.3333333333333,4,1,0,75,0,0
101071,-80,4,1,0,75,0,0
104741,-83.3333333333333,4,1,0,75,0,0
104901,-86.9565217391304,4,1,0,75,0,0
105061,-90.9090909090909,4,1,0,75,0,0
105380,-86.9565217391304,4,1,0,75,0,0
105539,-83.3333333333333,4,1,0,75,0,0
105699,-80,4,1,0,75,0,0
105859,-76.9230769230769,4,1,0,75,0,0
106018,-74.0740740740741,4,1,0,75,0,1
111124,-76.9230769230769,4,1,0,75,0,0
111337,-80,4,1,0,75,0,0
111550,-83.3333333333333,4,1,0,75,0,0
111763,-86.9565217391304,4,1,0,75,0,0
111976,-90.9090909090909,4,1,0,75,0,0
112188,-95.2380952380952,4,1,0,75,0,0
112401,-100,4,1,0,75,0,0
120699,-100,4,1,0,75,0,0
130912,-50,4,1,0,75,0,0
131550,-86.9565217391304,4,1,0,75,0,0
135061,-33.3333333333333,4,1,0,75,0,0
136018,-86.9565217391304,4,1,0,75,0,0
141763,-133.333333333333,4,1,0,75,0,0
144954,-33.3333333333333,4,1,0,75,0,0
145593,-133.333333333333,4,1,0,75,0,0
150061,-125,4,1,0,75,0,0
150167,-120.481927710843,4,1,0,75,0,0
150273,-116.279069767442,4,1,0,75,0,0
150380,-112.359550561798,4,1,0,75,0,0
150486,-108.695652173913,4,1,0,75,0,0
150593,-105.263157894737,4,1,0,75,0,0
150699,-102.040816326531,4,1,0,75,0,0
150912,-100,4,1,0,75,0,0
153252,-95.2380952380952,4,1,0,75,0,0
153890,-86.9565217391304,4,1,0,75,0,0
157082,-57.1428571428571,4,1,0,75,0,0
158359,-86.9565217391304,4,1,0,75,0,0
167295,-133.333333333333,4,1,0,75,0,0
169529,-86.9565217391304,4,1,0,75,0,0
169848,-133.333333333333,4,1,0,75,0,0
172401,-86.9565217391304,4,1,0,75,0,0
173279,-133.333333333333,4,1,0,75,0,0
173997,-33.3333333333333,4,1,0,75,0,0
174954,-86.9565217391304,4,1,0,75,0,0
175832,-133.333333333333,4,1,0,75,0,0
176656,-100,4,1,0,75,0,0
182614,-100,4,1,0,75,0,1
184688,-100,4,1,0,75,0,0
194103,-66.6666666666667,4,1,0,75,0,0
194741,-86.9565217391304,4,1,0,75,0,0
212614,-33.3333333333333,4,1,0,75,0,0
213252,-86.9565217391304,4,1,0,75,0,0

[HitObjects]
256,192,9317,5,8,0:0:0:0:
256,192,9397,1,0,0:0:0:0:
256,192,9477,1,8,0:0:0:0:
256,192,9557,1,0,0:0:0:0:
256,192,9636,1,8,0:0:0:0:
256,192,9716,1,8,0:0:0:0:
256,192,9796,1,8,0:0:0:0:
256,192,9876,1,0,0:0:0:0:
256,192,9956,1,0,0:0:0:0:
256,192,10035,1,8,0:0:0:0:
256,192,10115,1,8,0:0:0:0:
256,192,10195,1,8,0:0:0:0:
256,128,10275,1,4,0:0:0:0:
256,192,10434,1,8,0:0:0:0:
256,192,10514,1,0,0:0:0:0:
256,192,10594,1,8,0:0:0:0:
256,192,10674,1,0,0:0:0:0:
256,192,10753,1,0,0:0:0:0:
256,192,10833,1,8,0:0:0:0:
256,192,10913,1,8,0:0:0:0:
256,192,10993,1,8,0:0:0:0:
256,192,11073,1,0,0:0:0:0:
256,192,11152,1,8,0:0:0:0:
256,192,11232,1,8,0:0:0:0:
256,192,11312,1,8,0:0:0:0:
256,192,11392,1,0,0:0:0:0:
256,192,11472,1,8,0:0:0:0:
256,192,11551,1,8,0:0:0:0:
256,192,11631,1,0,0:0:0:0:
256,192,11711,1,0,0:0:0:0:
256,192,11791,1,8,0:0:0:0:
256,192,11870,1,0,0:0:0:0:
256,192,11950,1,8,0:0:0:0:
256,192,12030,1,0,0:0:0:0:
256,192,12110,1,0,0:0:0:0:
256,192,12190,1,8,0:0:0:0:
256,192,12269,1,0,0:0:0:0:
256,192,12349,1,8,0:0:0:0:
256,192,12429,1,0,0:0:0:0:
256,192,12509,1,8,0:0:0:0:
256,192,12589,1,8,0:0:0:0:
256,192,12668,1,8,0:0:0:0:
256,192,12748,1,8,0:0:0:0:
256,128,12828,1,4,0:0:0:0:
256,192,12987,1,8,0:0:0:0:
256,192,13067,1,8,0:0:0:0:
256,192,13147,1,0,0:0:0:0:
256,192,13227,1,0,0:0:0:0:
256,192,13307,1,0,0:0:0:0:
256,192,13386,1,8,0:0:0:0:
256,192,13466,1,0,0:0:0:0:
256,192,13546,1,0,0:0:0:0:
256,192,13626,1,8,0:0:0:0:
256,192,13679,1,8,0:0:0:0:
256,192,13732,1,8,0:0:0:0:
256,192,13785,1,0,0:0:0:0:
256,192,13839,1,8,0:0:0:0:
256,192,13892,1,8,0:0:0:0:
256,192,13945,1,0,0:0:0:0:
256,192,14025,1,8,0:0:0:0:
256,192,14104,1,8,0:0:0:0:
256,192,14184,1,8,0:0:0:0:
96,288,14264,2,0,L|192:320,1,80
256,192,14503,1,8,0:0:0:0:
256,192,14583,1,8,0:0:0:0:
256,192,14663,1,8,0:0:0:0:
256,192,14743,1,0,0:0:0:0:
256,192,14823,1,8,0:0:0:0:
256,192,14902,1,0,0:0:0:0:
256,192,14982,1,8,0:0:0:0:
256,192,15062,1,8,0:0:0:0:
256,192,15142,1,0,0:0:0:0:
96,288,15222,2,0,L|256:288,1,160
256,192,15700,1,0,0:0:0:0:
256,192,15780,1,0,0:0:0:0:
256,192,15860,1,8,0:0:0:0:
256,192,15940,1,8,0:0:0:0:
256,192,16019,1,0,0:0:0:0:
256,192,16179,1,8,0:0:0:0:
256,192,16219,1,8,0:0:0:0:
256,192,16339,1,8,0:0:0:0:
256,192,16378,1,8,0:0:0:0:
256,192,16498,1,0,0:0:0:0:
256,192,16538,1,0,0:0:0:0:
256,192,16658,1,8,0:0:0:0:
256,192,16698,1,8,0:0:0:0:
256,192,16817,1,8,0:0:0:0:
256,192,16857,1,8,0:0:0:0:
256,192,16977,1,8,0:0:0:0:
256,192,17017,1,8,0:0:0:0:
256,192,17136,1,8,0:0:0:0:
256,192,17176,1,8,0:0:0:0:
256,192,17296,1,8,0:0:0:0:
256,192,17376,1,0,0:0:0:0:
256,192,17456,1,8,0:0:0:0:
256,192,17535,1,0,0:0:0:0:
256,192,17615,1,8,0:0:0:0:
256,192,17695,1,8,0:0:0:0:
256,192,17775,1,0,0:0:0:0:
256,192,17854,1,0,0:0:0:0:
256,192,17934,12,0,19051,0:0:0:0:
256,192,19211,12,0,20328,0:0:0:0:
256,192,20487,5,0,0:0:0:0:
256,192,20567,1,0,0:0:0:0:
256,192,20647,1,8,0:0:0:0:
256,192,20727,1,0,0:0:0:0:
256,192,20807,1,0,0:0:0:0:
256,192,20886,1,8,0:0:0:0:
256,192,20966,1,0,0:0:0:0:
256,192,21046,1,0,0:0:0:0:
256,192,21126,1,8,0:0:0:0:
256,192,21206,1,0,0:0:0:0:
256,192,21285,1,0,0:0:0:0:
256,192,21365,1,8,0:0:0:0:
256,192,21445,1,8,0:0:0:0:
256,192,21525,1,0,0:0:0:0:
256,192,21604,1,8,0:0:0:0:
256,192,21658,1,8,0:0:0:0:
256,192,21711,1,8,0:0:0:0:
256,192,21764,1,8,0:0:0:0:
256,192,21817,1,8,0:0:0:0:
256,192,21870,1,8,0:0:0:0:
256,192,21924,1,0,0:0:0:0:
256,192,22083,1,8,0:0:0:0:
256,128,22243,1,12,0:0:0:0:
256,192,22402,1,8,0:0:0:0:
256,192,22482,1,8,0:0:0:0:
256,192,22562,1,0,0:0:0:0:
256,128,22722,1,4,0:0:0:0:
256,192,23041,1,0,0:0:0:0:
256,192,23200,1,8,0:0:0:0:
256,192,23360,1,0,0:0:0:0:
256,192,23519,1,8,0:0:0:0:
256,192,23599,1,8,0:0:0:0:
256,192,23679,1,8,0:0:0:0:
256,192,23759,1,8,0:0:0:0:
256,192,23839,1,0,0:0:0:0:
256,192,23892,1,8,0:0:0:0:
256,192,23945,1,8,0:0:0:0:
256,192,23998,1,0,0:0:0:0:
256,192,24078,1,0,0:0:0:0:
256,192,24158,1,8,0:0:0:0:
256,192,24237,1,8,0:0:0:0:
256,192,24317,1,0,0:0:0:0:
256,192,24370,1,8,0:0:0:0:
256,192,24424,1,8,0:0:0:0:
256,192,24477,1,0,0:0:0:0:
256,192,24530,1,8,0:0:0:0:
256,192,24583,1,8,0:0:0:0:
256,192,24636,1,0,0:0:0:0:
256,192,24716,1,0,0:0:0:0:
256,192,24796,1,8,0:0:0:0:
256,192,24876,1,8,0:0:0:0:
256,192,24956,1,0,0:0:0:0:
256,192,25035,1,0,0:0:0:0:
256,192,25115,1,8,0:0:0:0:
256,192,25195,1,0,0:0:0:0:
256,192,25275,1,8,0:0:0:0:
256,192,25354,1,8,0:0:0:0:
256,192,25434,1,8,0:0:0:0:
256,192,25514,1,8,0:0:0:0:
256,192,25594,1,0,0:0:0:0:
256,192,25634,1,0,0:0:0:0:
256,192,25753,1,8,0:0:0:0:
256,192,25793,1,8,0:0:0:0:
256,192,25913,1,0,0:0:0:0:
256,192,25953,1,0,0:0:0:0:
256,192,26073,1,8,0:0:0:0:
256,192,26112,1,8,0:0:0:0:
256,192,26232,1,0,0:0:0:0:
256,192,26272,1,0,0:0:0:0:
128,288,26392,2,8,L|320:288,1,160
256,192,26870,1,0,0:0:0:0:
256,192,26950,1,0,0:0:0:0:
256,192,27030,1,8,0:0:0:0:
256,192,27110,1,8,0:0:0:0:
256,192,27190,1,0,0:0:0:0:
256,128,27349,1,4,0:0:0:0:
256,192,28147,5,0,0:0:0:0:
256,192,28359,1,0,0:0:0:0:
256,192,28572,1,8,0:0:0:0:
256,192,28785,1,8,0:0:0:0:
256,192,28998,1,0,0:0:0:0:
256,192,29210,1,8,0:0:0:0:
256,192,29423,5,0,0:0:0:0:
256,192,29635,1,0,0:0:0:0:
256,192,29848,1,8,0:0:0:0:
256,192,30061,1,8,0:0:0:0:
256,192,30274,1,0,0:0:0:0:
256,192,30486,1,8,0:0:0:0:
256,192,30700,5,0,0:0:0:0:
256,192,30912,1,0,0:0:0:0:
256,192,31125,1,8,0:0:0:0:
256,192,31338,1,8,0:0:0:0:
256,192,31551,1,0,0:0:0:0:
256,192,31763,1,8,0:0:0:0:
256,192,31976,5,0,0:0:0:0:
256,192,32188,1,0,0:0:0:0:
256,192,32401,1,8,0:0:0:0:
256,192,32614,1,8,0:0:0:0:
256,192,32827,1,0,0:0:0:0:
256,192,33039,1,8,0:0:0:0:
256,128,33253,5,12,0:0:0:0:
256,192,33466,1,8,0:0:0:0:
256,192,33678,1,0,0:0:0:0:
256,192,33891,1,8,0:0:0:0:
256,192,34104,1,0,0:0:0:0:
256,192,34317,1,8,0:0:0:0:
256,128,34529,5,12,0:0:0:0:
256,192,34742,1,8,0:0:0:0:
256,192,34954,1,0,0:0:0:0:
256,192,35167,1,8,0:0:0:0:
256,192,35380,1,0,0:0:0:0:
256,192,35593,1,8,0:0:0:0:
256,128,35806,5,12,0:0:0:0:
256,192,36019,1,8,0:0:0:0:
256,192,36231,1,0,0:0:0:0:
256,192,36444,1,8,0:0:0:0:
256,192,36657,1,0,0:0:0:0:
256,192,36870,1,8,0:0:0:0:
256,192,37083,5,8,0:0:0:0:
256,192,37296,1,8,0:0:0:0:
96,288,37508,2,0,L|288:288,2,167.999994873047
256,192,38359,5,8,0:0:0:0:
256,192,38518,1,0,0:0:0:0:
256,192,38678,1,8,0:0:0:0:
256,192,38837,1,8,0:0:0:0:
256,192,38997,1,0,0:0:0:0:
256,192,39156,1,8,0:0:0:0:
256,192,39316,1,8,0:0:0:0:
256,192,39476,1,8,0:0:0:0:
256,192,39635,5,8,0:0:0:0:
256,192,39794,1,0,0:0:0:0:
256,192,39954,1,8,0:0:0:0:
256,192,40113,1,8,0:0:0:0:
256,192,40273,1,0,0:0:0:0:
256,192,40432,1,8,0:0:0:0:
256,192,40592,1,8,0:0:0:0:
256,192,40752,1,8,0:0:0:0:
256,192,40912,5,0,0:0:0:0:
256,192,40991,1,8,0:0:0:0:
256,192,41071,1,8,0:0:0:0:
256,192,41151,1,0,0:0:0:0:
256,192,41231,1,8,0:0:0:0:
256,192,41311,1,0,0:0:0:0:
256,192,41390,1,0,0:0:0:0:
256,192,41470,1,0,0:0:0:0:
256,192,41550,1,8,0:0:0:0:
256,192,41630,1,8,0:0:0:0:
256,192,41710,1,0,0:0:0:0:
256,192,41789,1,0,0:0:0:0:
256,192,41869,1,8,0:0:0:0:
256,192,41949,1,8,0:0:0:0:
256,192,42029,1,0,0:0:0:0:
256,192,42109,1,8,0:0:0:0:
256,192,42188,1,0,0:0:0:0:
256,192,42268,1,0,0:0:0:0:
256,192,42348,1,8,0:0:0:0:
256,192,42428,1,0,0:0:0:0:
256,192,42507,1,8,0:0:0:0:
256,192,42587,1,8,0:0:0:0:
256,192,42667,1,0,0:0:0:0:
256,192,42747,1,0,0:0:0:0:
256,128,42827,1,12,0:0:0:0:
256,192,43146,1,8,0:0:0:0:
256,192,43226,1,8,0:0:0:0:
256,192,43305,1,0,0:0:0:0:
256,192,43465,1,0,0:0:0:0:
256,192,43545,1,0,0:0:0:0:
256,192,43624,1,0,0:0:0:0:
256,192,43704,1,0,0:0:0:0:
256,192,43784,1,8,0:0:0:0:
256,192,43837,1,8,0:0:0:0:
256,192,43890,1,0,0:0:0:0:
256,192,43944,1,0,0:0:0:0:
256,192,43997,1,8,0:0:0:0:
256,192,44050,1,8,0:0:0:0:
256,192,44103,1,0,0:0:0:0:
256,192,44183,1,8,0:0:0:0:
256,192,44263,1,8,0:0:0:0:
256,192,44343,1,0,0:0:0:0:
256,192,44422,1,8,0:0:0:0:
256,192,44476,1,8,0:0:0:0:
256,192,44529,1,8,0:0:0:0:
256,192,44582,1,0,0:0:0:0:
256,192,44662,1,8,0:0:0:0:
256,192,44741,1,0,0:0:0:0:
256,192,44795,1,8,0:0:0:0:
256,192,44848,1,0,0:0:0:0:
256,192,44901,1,0,0:0:0:0:
256,192,44954,1,8,0:0:0:0:
256,192,45007,1,8,0:0:0:0:
256,192,45061,1,0,0:0:0:0:
256,192,45140,1,8,0:0:0:0:
256,192,45220,1,0,0:0:0:0:
256,128,45380,1,12,0:0:0:0:
256,192,46018,5,0,0:0:0:0:
256,192,46098,1,0,0:0:0:0:
256,192,46178,1,8,0:0:0:0:
256,192,46257,1,0,0:0:0:0:
256,192,46337,1,8,0:0:0:0:
256,192,46390,1,8,0:0:0:0:
256,192,46444,1,8,0:0:0:0:
256,192,46497,1,0,0:0:0:0:
256,192,46577,1,8,0:0:0:0:
256,192,46656,1,0,0:0:0:0:
256,192,46710,1,8,0:0:0:0:
256,192,46763,1,8,0:0:0:0:
256,192,46816,1,0,0:0:0:0:
256,192,46869,1,0,0:0:0:0:
256,192,46922,1,8,0:0:0:0:
256,192,46976,1,8,0:0:0:0:
256,192,47055,1,0,0:0:0:0:
256,192,47135,1,8,0:0:0:0:
256,192,47188,1,0,0:0:0:0:
256,192,47241,1,8,0:0:0:0:
256,192,47295,1,0,0:0:0:0:
256,192,47374,1,8,0:0:0:0:
256,192,47454,1,0,0:0:0:0:
256,192,47534,1,8,0:0:0:0:
256,192,47614,1,0,0:0:0:0:
256,192,47694,1,0,0:0:0:0:
256,128,47773,1,12,0:0:0:0:
256,192,48093,1,8,0:0:0:0:
256,192,48146,1,8,0:0:0:0:
256,192,48199,1,8,0:0:0:0:
256,192,48252,1,0,0:0:0:0:
256,192,48332,1,8,0:0:0:0:
256,192,48412,1,0,0:0:0:0:
256,192,48491,1,8,0:0:0:0:
256,192,48571,1,0,0:0:0:0:
256,192,48651,1,8,0:0:0:0:
256,192,48731,1,8,0:0:0:0:
256,192,48811,1,8,0:0:0:0:
256,192,48890,1,8,0:0:0:0:
256,192,48970,1,8,0:0:0:0:
256,192,49050,1,0,0:0:0:0:
256,192,49130,1,0,0:0:0:0:
256,192,49210,1,8,0:0:0:0:
256,192,49289,1,0,0:0:0:0:
256,192,49369,1,8,0:0:0:0:
256,192,49449,1,8,0:0:0:0:
256,192,49529,1,0,0:0:0:0:
256,192,49609,1,8,0:0:0:0:
256,192,49688,1,0,0:0:0:0:
256,192,49768,1,8,0:0:0:0:
256,192,49848,1,0,0:0:0:0:
256,192,49928,1,8,0:0:0:0:
256,192,50007,1,0,0:0:0:0:
256,192,50087,1,8,0:0:0:0:
256,192,50167,1,0,0:0:0:0:
256,192,50247,1,0,0:0:0:0:
256,192,50327,1,8,0:0:0:0:
256,192,50486,1,8,0:0:0:0:
256,192,50566,1,8,0:0:0:0:
256,192,50646,1,8,0:0:0:0:
256,192,50726,1,8,0:0:0:0:
256,192,50805,1,8,0:0:0:0:
256,192,50885,1,8,0:0:0:0:
256,192,50965,1,8,0:0:0:0:
256,192,51045,1,8,0:0:0:0:
256,128,51124,1,4,0:0:0:0:
96,288,52082,2,0,L|256:288,1,160
256,192,52561,1,8,0:0:0:0:
256,192,52720,1,8,0:0:0:0:
256,192,52880,1,8,0:0:0:0:
256,192,52933,1,8,0:0:0:0:
256,192,52986,1,8,0:0:0:0:
256,192,53039,1,8,0:0:0:0:
256,192,53119,1,8,0:0:0:0:
256,192,53199,1,8,0:0:0:0:
256,192,53279,1,8,0:0:0:0:
256,192,53359,1,0,0:0:0:0:
256,192,53438,1,0,0:0:0:0:
256,192,53518,1,8,0:0:0:0:
256,192,53598,1,8,0:0:0:0:
256,192,53678,1,0,0:0:0:0:
256,192,53784,1,8,0:0:0:0:
256,192,53890,1,8,0:0:0:0:
256,192,53997,1,0,0:0:0:0:
256,192,54103,1,8,0:0:0:0:
256,192,54210,1,8,0:0:0:0:
256,192,54316,1,0,0:0:0:0:
256,192,54422,1,0,0:0:0:0:
256,192,54529,1,8,0:0:0:0:
256,192,54635,1,8,0:0:0:0:
256,192,54741,1,0,0:0:0:0:
256,192,54848,1,0,0:0:0:0:
256,192,54954,1,8,0:0:0:0:
256,192,55061,1,8,0:0:0:0:
256,192,55167,1,0,0:0:0:0:
256,192,55273,1,8,0:0:0:0:
256,192,55380,1,0,0:0:0:0:
256,192,55486,1,0,0:0:0:0:
256,192,55593,12,0,56071,0:0:0:0:
256,192,56231,5,0,0:0:0:0:
256,192,56311,1,0,0:0:0:0:
256,192,56390,1,8,0:0:0:0:
256,192,56470,1,0,0:0:0:0:
256,192,56550,1,8,0:0:0:0:
256,192,56603,1,8,0:0:0:0:
256,192,56656,1,8,0:0:0:0:
256,192,56710,1,0,0:0:0:0:
256,192,56789,1,8,0:0:0:0:
256,192,56869,1,0,0:0:0:0:
256,192,56922,1,8,0:0:0:0:
256,192,56976,1,8,0:0:0:0:
256,192,57029,1,0,0:0:0:0:
256,192,57082,1,0,0:0:0:0:
256,192,57135,1,8,0:0:0:0:
256,192,57188,1,8,0:0:0:0:
256,192,57268,1,0,0:0:0:0:
256,192,57348,1,0,0:0:0:0:
256,192,57428,1,8,0:0:0:0:
256,192,57507,1,0,0:0:0:0:
256,192,57587,1,8,0:0:0:0:
256,192,57667,1,0,0:0:0:0:
256,192,57747,1,0,0:0:0:0:
256,192,57827,1,8,0:0:0:0:
256,192,57906,1,8,0:0:0:0:
256,192,57986,1,8,0:0:0:0:
256,192,58066,1,0,0:0:0:0:
256,192,58146,1,8,0:0:0:0:
256,192,58199,1,8,0:0:0:0:
256,192,58252,1,8,0:0:0:0:
256,192,58305,1,0,0:0:0:0:
256,192,58385,1,8,0:0:0:0:
256,192,58465,1,8,0:0:0:0:
256,192,58545,1,0,0:0:0:0:
256,192,58624,1,8,0:0:0:0:
256,192,58704,1,0,0:0:0:0:
256,192,58784,1,8,0:0:0:0:
256,192,58864,1,8,0:0:0:0:
256,192,58944,1,0,0:0:0:0:
256,192,59023,1,0,0:0:0:0:
256,192,59103,1,8,0:0:0:0:
256,192,59183,1,0,0:0:0:0:
256,192,59263,1,8,0:0:0:0:
256,192,59343,1,0,0:0:0:0:
96,288,59422,2,0,L|192:288,1,80
256,192,59662,1,0,0:0:0:0:
256,192,59741,1,8,0:0:0:0:
256,192,59821,1,0,0:0:0:0:
256,192,59901,1,8,0:0:0:0:
256,192,59981,1,0,0:0:0:0:
256,192,60061,1,8,0:0:0:0:
256,192,60140,1,0,0:0:0:0:
256,192,60220,1,8,0:0:0:0:
256,192,60300,1,0,0:0:0:0:
256,192,60380,1,8,0:0:0:0:
256,192,60460,1,0,0:0:0:0:
256,192,60539,1,8,0:0:0:0:
256,192,60619,1,0,0:0:0:0:
256,192,60699,1,0,0:0:0:0:
256,192,60859,1,0,0:0:0:0:
256,192,61018,1,8,0:0:0:0:
256,192,61178,1,0,0:0:0:0:
256,192,61337,5,0,0:0:0:0:
256,192,61497,1,8,0:0:0:0:
256,192,61577,1,8,0:0:0:0:
256,192,61656,1,0,0:0:0:0:
256,192,61710,1,8,0:0:0:0:
256,192,61763,1,8,0:0:0:0:
256,192,61816,1,0,0:0:0:0:
256,192,61896,1,0,0:0:0:0:
256,192,61976,1,8,0:0:0:0:
256,192,62055,1,0,0:0:0:0:
256,192,62135,1,8,0:0:0:0:
256,192,62188,1,8,0:0:0:0:
256,192,62241,1,8,0:0:0:0:
256,192,62295,1,0,0:0:0:0:
256,192,62348,1,8,0:0:0:0:
256,192,62401,1,0,0:0:0:0:
256,192,62454,1,8,0:0:0:0:
256,192,62614,1,0,0:0:0:0:
256,192,62694,1,8,0:0:0:0:
256,192,62773,1,0,0:0:0:0:
256,192,62853,1,8,0:0:0:0:
256,192,62933,1,0,0:0:0:0:
256,192,63013,1,8,0:0:0:0:
256,192,63093,1,8,0:0:0:0:
256,192,63172,1,0,0:0:0:0:
256,192,63252,1,8,0:0:0:0:
256,192,63305,1,8,0:0:0:0:
256,192,63359,1,8,0:0:0:0:
256,192,63412,1,8,0:0:0:0:
256,192,63491,1,0,0:0:0:0:
256,192,63571,1,8,0:0:0:0:
256,192,63651,1,8,0:0:0:0:
256,192,63731,1,8,0:0:0:0:
256,192,63811,1,0,0:0:0:0:
256,192,63890,1,0,0:0:0:0:
256,192,63970,1,8,0:0:0:0:
256,192,64050,1,8,0:0:0:0:
256,192,64130,1,0,0:0:0:0:
256,192,64210,1,8,0:0:0:0:
256,192,64289,1,0,0:0:0:0:
256,192,64369,1,8,0:0:0:0:
256,192,64409,1,8,0:0:0:0:
256,192,64529,1,8,0:0:0:0:
256,192,64569,1,8,0:0:0:0:
256,192,64688,1,0,0:0:0:0:
256,192,64728,1,0,0:0:0:0:
256,192,64848,1,0,0:0:0:0:
256,192,64888,1,0,0:0:0:0:
256,192,65007,1,0,0:0:0:0:
256,192,65167,5,8,0:0:0:0:
256,192,65220,1,8,0:0:0:0:
256,192,65273,1,8,0:0:0:0:
256,192,65327,1,0,0:0:0:0:
256,192,65486,1,0,0:0:0:0:
256,192,65566,1,8,0:0:0:0:
256,192,65646,1,0,0:0:0:0:
256,192,65726,1,8,0:0:0:0:
96,288,65805,2,0,L|352:288,1,240
256,192,66444,5,0,0:0:0:0:
256,192,66523,1,8,0:0:0:0:
256,192,66603,1,8,0:0:0:0:
256,192,66683,1,8,0:0:0:0:
256,192,66763,1,0,0:0:0:0:
256,192,66843,1,8,0:0:0:0:
256,192,66922,1,0,0:0:0:0:
256,192,67002,1,8,0:0:0:0:
256,192,67082,1,0,0:0:0:0:
256,192,67162,1,0,0:0:0:0:
256,192,67241,1,8,0:0:0:0:
256,192,67321,1,8,0:0:0:0:
256,192,67401,1,0,0:0:0:0:
256,192,67481,1,8,0:0:0:0:
256,192,67561,1,0,0:0:0:0:
256,128,67720,1,12,0:0:0:0:
256,192,67880,1,8,0:0:0:0:
256,192,67960,1,8,0:0:0:0:
256,192,68039,1,0,0:0:0:0:
256,192,68119,1,0,0:0:0:0:
256,192,68199,1,8,0:0:0:0:
256,192,68279,1,0,0:0:0:0:
256,192,68359,1,0,0:0:0:0:
256,192,68438,1,0,0:0:0:0:
256,192,68518,1,8,0:0:0:0:
256,192,68598,1,0,0:0:0:0:
256,192,68678,1,8,0:0:0:0:
256,192,68757,1,8,0:0:0:0:
256,192,68837,1,0,0:0:0:0:
128,288,68997,2,0,L|224:288,1,80
256,192,69236,1,8,0:0:0:0:
256,192,69316,1,8,0:0:0:0:
256,192,69396,1,0,0:0:0:0:
256,192,69476,1,8,0:0:0:0:
256,192,69555,1,0,0:0:0:0:
256,192,69635,1,8,0:0:0:0:
256,192,69715,1,8,0:0:0:0:
256,128,69795,1,4,0:0:0:0:
256,192,69954,1,8,0:0:0:0:
256,192,70034,1,8,0:0:0:0:
256,192,70114,1,0,0:0:0:0:
256,192,70273,1,8,0:0:0:0:
256,192,70353,1,8,0:0:0:0:
256,192,70433,1,0,0:0:0:0:
256,192,70513,1,0,0:0:0:0:
256,192,70593,1,8,0:0:0:0:
256,192,70646,1,8,0:0:0:0:
256,192,70699,1,8,0:0:0:0:
256,192,70752,1,0,0:0:0:0:
256,192,70912,1,8,0:0:0:0:
256,192,70991,1,8,0:0:0:0:
256,192,71071,1,0,0:0:0:0:
256,192,71111,1,8,0:0:0:0:
256,192,71231,1,8,0:0:0:0:
256,192,71311,1,8,0:0:0:0:
256,192,71390,1,8,0:0:0:0:
256,192,71470,1,8,0:0:0:0:
256,128,71550,1,4,0:0:0:0:
256,192,71710,1,8,0:0:0:0:
256,192,71789,1,0,0:0:0:0:
256,192,71869,1,8,0:0:0:0:
256,192,72029,1,4,0:0:0:0:
256,128,72188,1,12,0:0:0:0:
256,192,72348,1,0,0:0:0:0:
256,192,72507,1,0,0:0:0:0:
256,192,72667,1,8,0:0:0:0:
256,192,72747,1,8,0:0:0:0:
256,192,72827,1,0,0:0:0:0:
256,192,72986,1,8,0:0:0:0:
256,192,73066,1,0,0:0:0:0:
256,192,73146,1,8,0:0:0:0:
256,192,73186,1,8,0:0:0:0:
256,192,73305,1,0,0:0:0:0:
256,192,73465,1,8,0:0:0:0:
256,192,73518,1,8,0:0:0:0:
256,192,73571,1,8,0:0:0:0:
256,192,73624,1,0,0:0:0:0:
256,192,73678,1,0,0:0:0:0:
256,192,73731,1,0,0:0:0:0:
256,192,73784,1,8,0:0:0:0:
256,192,73864,1,8,0:0:0:0:
256,192,73944,1,8,0:0:0:0:
256,192,74023,1,8,0:0:0:0:
256,192,74103,1,0,0:0:0:0:
256,192,74183,1,0,0:0:0:0:
256,192,74263,1,8,0:0:0:0:
256,192,74343,1,8,0:0:0:0:
256,192,74422,1,0,0:0:0:0:
256,192,74502,1,0,0:0:0:0:
256,192,74582,1,8,0:0:0:0:
256,128,74741,1,12,0:0:0:0:
256,192,74901,1,8,0:0:0:0:
256,192,75061,1,0,0:0:0:0:
256,192,75140,1,8,0:0:0:0:
256,192,75220,1,8,0:0:0:0:
256,192,75380,1,8,0:0:0:0:
256,192,75539,1,0,0:0:0:0:
256,192,75699,1,8,0:0:0:0:
256,192,75859,1,0,0:0:0:0:
256,192,76018,12,12,76816,0:0:0:0:
256,192,76976,5,0,0:0:0:0:
256,192,77055,1,0,0:0:0:0:
256,192,77135,1,0,0:0:0:0:
256,192,77215,1,8,0:0:0:0:
256,192,77295,1,8,0:0:0:0:
256,192,77374,1,8,0:0:0:0:
256,192,77454,1,0,0:0:0:0:
256,192,77534,1,8,0:0:0:0:
256,192,77614,1,0,0:0:0:0:
256,192,77694,1,0,0:0:0:0:
256,192,77773,1,8,0:0:0:0:
256,192,77853,1,8,0:0:0:0:
256,192,77933,1,0,0:0:0:0:
256,192,78093,1,8,0:0:0:0:
256,192,78172,1,8,0:0:0:0:
256,192,78252,1,8,0:0:0:0:
256,192,78332,1,8,0:0:0:0:
256,192,78412,1,8,0:0:0:0:
256,192,78571,1,8,0:0:0:0:
256,192,78624,1,8,0:0:0:0:
256,192,78678,1,8,0:0:0:0:
256,192,78731,1,8,0:0:0:0:
256,192,78811,1,0,0:0:0:0:
256,192,78890,1,8,0:0:0:0:
256,192,78970,1,8,0:0:0:0:
256,128,79050,1,4,0:0:0:0:
256,128,79210,1,4,0:0:0:0:
256,192,79369,1,8,0:0:0:0:
256,192,79449,1,0,0:0:0:0:
256,192,79529,1,8,0:0:0:0:
256,192,79582,1,8,0:0:0:0:
256,192,79635,1,8,0:0:0:0:
256,192,79688,1,0,0:0:0:0:
256,192,79768,1,8,0:0:0:0:
256,192,79848,1,0,0:0:0:0:
256,192,80007,1,8,0:0:0:0:
256,192,80047,1,8,0:0:0:0:
256,192,80167,1,8,0:0:0:0:
256,192,80207,1,8,0:0:0:0:
256,192,80327,1,0,0:0:0:0:
256,192,80366,1,0,0:0:0:0:
256,128,80486,1,4,0:0:0:0:
256,192,80646,1,8,0:0:0:0:
256,192,80726,1,8,0:0:0:0:
256,192,80805,1,0,0:0:0:0:
256,192,80965,1,0,0:0:0:0:
256,128,81124,1,12,0:0:0:0:
256,128,81284,1,12,0:0:0:0:
256,192,81444,1,0,0:0:0:0:
256,192,81497,1,0,0:0:0:0:
256,192,81550,1,0,0:0:0:0:
256,192,81603,1,8,0:0:0:0:
256,192,81656,1,8,0:0:0:0:
256,192,81710,1,8,0:0:0:0:
256,192,81763,5,0,0:0:0:0:
256,192,82960,5,8,0:0:0:0:
256,192,83039,1,8,0:0:0:0:
256,192,84236,1,8,0:0:0:0:
256,192,84316,1,8,0:0:0:0:
256,192,85513,1,8,0:0:0:0:
256,192,85593,1,8,0:0:0:0:
256,192,86789,1,8,0:0:0:0:
256,192,86869,1,8,0:0:0:0:
256,192,88066,1,8,0:0:0:0:
256,192,88146,1,8,0:0:0:0:
256,192,89343,1,8,0:0:0:0:
256,192,89422,1,8,0:0:0:0:
256,192,90619,1,8,0:0:0:0:
256,192,90699,1,8,0:0:0:0:
256,192,91337,1,8,0:0:0:0:
256,192,91976,1,0,0:0:0:0:
256,192,93172,1,0,0:0:0:0:
256,192,93252,1,8,0:0:0:0:
256,192,94449,1,8,0:0:0:0:
256,192,94529,1,0,0:0:0:0:
256,192,95726,1,8,0:0:0:0:
256,192,95805,1,0,0:0:0:0:
256,192,97002,1,0,0:0:0:0:
256,192,97082,1,8,0:0:0:0:
256,192,98279,1,8,0:0:0:0:
256,192,98359,1,0,0:0:0:0:
256,192,99316,5,0,0:0:0:0:
256,192,99396,1,0,0:0:0:0:
256,192,99476,1,0,0:0:0:0:
256,192,99555,1,0,0:0:0:0:
256,192,99635,1,8,0:0:0:0:
256,192,100593,1,0,0:0:0:0:
256,192,100672,1,0,0:0:0:0:
256,192,100752,1,0,0:0:0:0:
256,192,100832,1,0,0:0:0:0:
256,192,100912,1,8,0:0:0:0:
256,128,101071,1,12,0:0:0:0:
256,128,101231,1,12,0:0:0:0:
256,128,101390,1,12,0:0:0:0:
256,128,101550,1,12,0:0:0:0:
256,128,101710,1,12,0:0:0:0:
256,192,101869,1,8,0:0:0:0:
256,192,101922,1,8,0:0:0:0:
256,192,101976,1,8,0:0:0:0:
256,192,102029,1,8,0:0:0:0:
256,128,102188,1,4,0:0:0:0:
256,128,103465,1,12,0:0:0:0:
256,128,103624,1,12,0:0:0:0:
256,128,103784,1,12,0:0:0:0:
256,128,103944,1,12,0:0:0:0:
256,128,104103,1,12,0:0:0:0:
256,128,104263,1,12,0:0:0:0:
256,128,104422,1,12,0:0:0:0:
256,128,104582,1,12,0:0:0:0:
256,128,104741,1,4,0:0:0:0:
256,192,104901,1,0,0:0:0:0:
256,192,105061,1,8,0:0:0:0:
256,192,105220,1,0,0:0:0:0:
256,192,105380,1,8,0:0:0:0:
256,192,105539,1,8,0:0:0:0:
256,192,105699,1,8,0:0:0:0:
256,192,105859,1,8,0:0:0:0:
256,128,106018,5,4,0:0:0:0:
256,128,106178,1,4,0:0:0:0:
256,128,106337,1,4,0:0:0:0:
256,128,106497,1,4,0:0:0:0:
256,128,106656,1,4,0:0:0:0:
256,128,106816,1,4,0:0:0:0:
256,128,106976,1,4,0:0:0:0:
256,128,107135,1,4,0:0:0:0:
256,128,107295,1,12,0:0:0:0:
256,128,107454,1,12,0:0:0:0:
256,128,107614,1,12,0:0:0:0:
256,128,107773,1,12,0:0:0:0:
256,128,107933,1,4,0:0:0:0:
256,128,108093,1,4,0:0:0:0:
256,128,108252,1,4,0:0:0:0:
256,128,108412,1,4,0:0:0:0:
256,128,108571,1,12,0:0:0:0:
256,128,108731,1,12,0:0:0:0:
256,128,108890,1,12,0:0:0:0:
256,128,109050,1,12,0:0:0:0:
256,128,109210,1,12,0:0:0:0:
256,128,109369,1,12,0:0:0:0:
256,128,109529,1,12,0:0:0:0:
256,128,109688,1,12,0:0:0:0:
256,128,109848,1,4,0:0:0:0:
256,128,110007,1,4,0:0:0:0:
256,128,110167,1,4,0:0:0:0:
256,128,110327,1,4,0:0:0:0:
256,128,110486,1,4,0:0:0:0:
256,128,110646,1,4,0:0:0:0:
256,128,110805,1,4,0:0:0:0:
256,128,110965,1,4,0:0:0:0:
256,192,111124,5,8,0:0:0:0:
256,192,111337,1,8,0:0:0:0:
256,192,111550,1,0,0:0:0:0:
256,192,111763,1,8,0:0:0:0:
256,192,111976,1,8,0:0:0:0:
256,192,112188,1,8,0:0:0:0:
256,192,112401,1,0,0:0:0:0:
256,192,112614,1,0,0:0:0:0:
256,192,112827,1,8,0:0:0:0:
256,192,113039,1,8,0:0:0:0:
256,192,113252,1,0,0:0:0:0:
256,192,113465,1,8,0:0:0:0:
256,192,113678,1,0,0:0:0:0:
256,192,113890,1,0,0:0:0:0:
256,192,114103,1,0,0:0:0:0:
256,192,114316,1,8,0:0:0:0:
256,192,114529,1,8,0:0:0:0:
256,192,114741,1,0,0:0:0:0:
256,192,114954,1,0,0:0:0:0:
256,192,115167,1,0,0:0:0:0:
256,192,115380,1,0,0:0:0:0:
256,192,115593,1,8,0:0:0:0:
256,192,115805,1,8,0:0:0:0:
256,192,116018,1,8,0:0:0:0:
256,192,116231,1,0,0:0:0:0:
256,192,116444,1,0,0:0:0:0:
256,192,116656,1,8,0:0:0:0:
256,192,116869,1,8,0:0:0:0:
256,192,117082,1,8,0:0:0:0:
256,192,117295,1,8,0:0:0:0:
256,192,117507,1,0,0:0:0:0:
256,192,117720,1,0,0:0:0:0:
256,192,117933,1,8,0:0:0:0:
256,192,118146,1,8,0:0:0:0:
256,192,118359,1,8,0:0:0:0:
256,192,118571,1,8,0:0:0:0:
128,288,118784,2,8,L|320:288,3,160
256,128,120061,5,12,0:0:0:0:
256,192,120699,1,8,0:0:0:0:
256,192,120779,1,8,0:0:0:0:
256,192,120859,1,8,0:0:0:0:
256,192,120938,1,8,0:0:0:0:
256,192,121018,1,8,0:0:0:0:
256,192,121098,1,8,0:0:0:0:
256,192,121178,1,8,0:0:0:0:
256,192,121257,1,8,0:0:0:0:
256,192,121337,5,0,0:0:0:0:
256,192,121497,1,8,0:0:0:0:
256,192,121577,1,0,0:0:0:0:
256,192,121656,1,8,0:0:0:0:
256,192,121736,1,0,0:0:0:0:
256,192,121816,1,8,0:0:0:0:
256,192,121896,1,0,0:0:0:0:
256,192,121976,1,8,0:0:0:0:
256,192,122029,1,8,0:0:0:0:
256,192,122082,1,0,0:0:0:0:
256,192,122135,1,0,0:0:0:0:
256,192,122188,1,8,0:0:0:0:
256,192,122241,1,8,0:0:0:0:
256,192,122295,1,0,0:0:0:0:
256,192,122348,1,0,0:0:0:0:
256,192,122401,1,8,0:0:0:0:
256,192,122454,1,8,0:0:0:0:
256,192,122507,1,0,0:0:0:0:
256,192,122561,1,0,0:0:0:0:
256,192,122613,1,8,0:0:0:0:
256,192,122667,1,8,0:0:0:0:
256,192,122720,1,0,0:0:0:0:
256,192,122773,1,0,0:0:0:0:
256,192,122853,1,8,0:0:0:0:
256,192,122933,1,0,0:0:0:0:
256,192,123013,1,8,0:0:0:0:
256,192,123093,1,0,0:0:0:0:
256,192,123172,1,0,0:0:0:0:
256,192,123252,1,0,0:0:0:0:
256,192,123332,1,8,0:0:0:0:
256,192,123412,1,8,0:0:0:0:
256,192,123491,1,0,0:0:0:0:
256,192,123571,1,0,0:0:0:0:
256,192,123651,1,8,0:0:0:0:
256,192,123731,1,0,0:0:0:0:
256,192,123890,1,0,0:0:0:0:
128,288,124050,2,8,L|384:288,1,240
256,192,124688,1,8,0:0:0:0:
256,192,124768,1,0,0:0:0:0:
256,192,124848,1,8,0:0:0:0:
256,192,124888,1,8,0:0:0:0:
256,192,125007,1,8,0:0:0:0:
256,192,125167,12,0,125965,0:0:0:0:
256,192,126204,5,0,0:0:0:0:
256,192,126284,1,8,0:0:0:0:
256,192,126364,1,0,0:0:0:0:
256,192,126444,1,0,0:0:0:0:
256,192,126603,1,0,0:0:0:0:
256,192,126683,1,8,0:0:0:0:
256,192,126763,1,0,0:0:0:0:
256,192,126816,1,8,0:0:0:0:
256,192,126869,1,8,0:0:0:0:
256,192,126922,1,8,0:0:0:0:
256,192,126976,1,8,0:0:0:0:
256,192,127029,1,8,0:0:0:0:
256,192,127082,1,0,0:0:0:0:
256,192,127241,1,0,0:0:0:0:
256,192,127321,1,8,0:0:0:0:
256,192,127401,1,0,0:0:0:0:
256,192,127454,1,8,0:0:0:0:
256,192,127507,1,8,0:0:0:0:
256,192,127560,1,8,0:0:0:0:
256,192,127614,1,8,0:0:0:0:
256,192,127667,1,8,0:0:0:0:
256,192,127720,1,0,0:0:0:0:
256,192,127880,1,0,0:0:0:0:
256,192,127960,1,8,0:0:0:0:
256,192,128040,1,0,0:0:0:0:
256,192,128093,1,8,0:0:0:0:
256,192,128146,1,8,0:0:0:0:
256,192,128199,1,8,0:0:0:0:
256,192,128253,1,8,0:0:0:0:
256,192,128306,1,8,0:0:0:0:
256,192,128359,1,0,0:0:0:0:
256,192,128571,1,8,0:0:0:0:
256,192,128784,1,0,0:0:0:0:
256,128,128997,5,4,0:0:0:0:
256,192,129156,1,8,0:0:0:0:
256,192,129210,1,8,0:0:0:0:
256,192,129263,1,8,0:0:0:0:
256,192,129316,1,0,0:0:0:0:
256,192,129396,1,8,0:0:0:0:
256,192,129476,1,8,0:0:0:0:
256,192,129555,1,8,0:0:0:0:
256,192,129635,1,0,0:0:0:0:
256,192,129848,1,0,0:0:0:0:
256,192,130061,1,8,0:0:0:0:
256,192,130273,1,0,0:0:0:0:
256,192,130353,1,0,0:0:0:0:
256,192,130433,1,8,0:0:0:0:
256,192,130486,1,8,0:0:0:0:
256,192,130539,1,8,0:0:0:0:
256,192,130593,1,0,0:0:0:0:
256,192,130672,1,8,0:0:0:0:
256,192,130752,1,0,0:0:0:0:
256,192,130832,1,8,0:0:0:0:
256,192,130912,12,0,131390,0:0:0:0:
256,192,131550,5,0,0:0:0:0:
256,192,131710,1,8,0:0:0:0:
256,192,131789,1,0,0:0:0:0:
256,192,131869,1,8,0:0:0:0:
256,192,131949,1,8,0:0:0:0:
256,192,132029,1,8,0:0:0:0:
256,192,132109,1,0,0:0:0:0:
256,192,132188,1,8,0:0:0:0:
256,192,132241,1,8,0:0:0:0:
256,192,132295,1,0,0:0:0:0:
256,192,132401,1,8,0:0:0:0:
256,192,132454,1,8,0:0:0:0:
256,192,132507,1,0,0:0:0:0:
256,192,132614,1,8,0:0:0:0:
256,192,132667,1,8,0:0:0:0:
256,192,132720,1,8,0:0:0:0:
256,192,132827,1,0,0:0:0:0:
256,192,132906,1,8,0:0:0:0:
256,192,132986,1,8,0:0:0:0:
256,192,133066,1,0,0:0:0:0:
256,192,133146,1,0,0:0:0:0:
256,192,133226,1,0,0:0:0:0:
256,192,133305,1,8,0:0:0:0:
256,192,133385,1,0,0:0:0:0:
256,192,133465,1,8,0:0:0:0:
96,288,134103,2,8,L|288:288,2,184.000003509522
256,192,134901,1,8,0:0:0:0:
256,192,134981,1,0,0:0:0:0:
256,192,135061,12,0,135220,0:0:0:0:
256,192,135380,12,0,135859,0:0:0:0:
256,192,136018,5,8,0:0:0:0:
256,192,136071,1,8,0:0:0:0:
256,192,136124,1,8,0:0:0:0:
256,192,136178,1,0,0:0:0:0:
256,192,136257,1,8,0:0:0:0:
256,192,136337,1,0,0:0:0:0:
256,192,136417,1,0,0:0:0:0:
256,192,136497,1,8,0:0:0:0:
256,192,136577,1,8,0:0:0:0:
256,128,136656,1,4,0:0:0:0:
256,192,137082,1,0,0:0:0:0:
256,192,137295,1,0,0:0:0:0:
256,192,137507,1,0,0:0:0:0:
256,192,137720,1,0,0:0:0:0:
256,192,137933,1,0,0:0:0:0:
256,192,138199,1,0,0:0:0:0:
256,192,138305,1,0,0:0:0:0:
256,192,138359,1,8,0:0:0:0:
256,128,138571,1,12,0:0:0:0:
256,128,138784,1,12,0:0:0:0:
256,128,138997,1,4,0:0:0:0:
256,128,139210,1,4,0:0:0:0:
256,192,139369,1,8,0:0:0:0:
256,192,139422,1,8,0:0:0:0:
256,192,139476,1,8,0:0:0:0:
256,192,139529,1,0,0:0:0:0:
256,192,139609,1,0,0:0:0:0:
256,192,139688,1,0,0:0:0:0:
256,192,139768,1,0,0:0:0:0:
256,128,139848,1,12,0:0:0:0:
256,128,140061,1,12,0:0:0:0:
256,128,140273,1,12,0:0:0:0:
256,128,140486,1,12,0:0:0:0:
256,192,140646,1,8,0:0:0:0:
256,192,140699,1,8,0:0:0:0:
256,192,140752,1,8,0:0:0:0:
256,192,140805,1,0,0:0:0:0:
96,288,141124,2,8,L|288:288,1,184.000003509522
256,192,141763,5,8,0:0:0:0:
256,192,142401,1,0,0:0:0:0:
256,192,143039,1,8,0:0:0:0:
256,192,143252,1,0,0:0:0:0:
256,192,143359,1,0,0:0:0:0:
256,192,143465,1,8,0:0:0:0:
256,192,143571,1,0,0:0:0:0:
256,192,143678,1,8,0:0:0:0:
256,192,143731,1,8,0:0:0:0:
256,192,143784,1,8,0:0:0:0:
256,192,143837,1,8,0:0:0:0:
256,192,144316,1,0,0:0:0:0:
256,192,144529,1,0,0:0:0:0:
256,192,144741,1,0,0:0:0:0:
256,192,144954,12,0,145433,0:0:0:0:
256,192,145593,5,8,0:0:0:0:
256,192,145699,1,8,0:0:0:0:
256,192,145805,1,0,0:0:0:0:
256,192,145912,1,0,0:0:0:0:
256,192,146018,1,8,0:0:0:0:
256,192,146124,1,8,0:0:0:0:
256,192,146231,1,0,0:0:0:0:
256,192,146284,1,8,0:0:0:0:
256,192,146337,1,8,0:0:0:0:
256,192,146390,1,8,0:0:0:0:
256,192,146444,1,0,0:0:0:0:
256,192,146550,1,8,0:0:0:0:
256,192,146656,1,0,0:0:0:0:
256,192,146869,5,0,0:0:0:0:
256,192,146976,1,0,0:0:0:0:
256,192,147082,1,0,0:0:0:0:
256,192,147188,1,8,0:0:0:0:
256,192,147241,1,8,0:0:0:0:
256,192,147295,1,8,0:0:0:0:
256,192,147348,1,8,0:0:0:0:
256,128,147507,1,12,0:0:0:0:
256,128,147720,1,4,0:0:0:0:
256,128,147933,1,12,0:0:0:0:
256,192,148146,1,0,0:0:0:0:
256,192,148252,1,8,0:0:0:0:
256,192,148359,1,0,0:0:0:0:
256,192,148465,1,8,0:0:0:0:
256,192,148571,1,8,0:0:0:0:
256,192,148678,1,8,0:0:0:0:
256,128,148784,1,4,0:0:0:0:
256,192,148997,1,8,0:0:0:0:
256,128,149210,1,4,0:0:0:0:
256,192,149422,1,8,0:0:0:0:
256,192,149635,1,8,0:0:0:0:
256,192,149848,1,0,0:0:0:0:
256,192,150061,1,0,0:0:0:0:
256,192,150167,1,8,0:0:0:0:
256,192,150273,1,0,0:0:0:0:
256,192,150380,1,8,0:0:0:0:
256,192,150486,1,0,0:0:0:0:
256,192,150593,1,0,0:0:0:0:
256,192,150699,1,8,0:0:0:0:
256,192,150912,1,8,0:0:0:0:
256,192,151124,1,0,0:0:0:0:
256,192,151337,1,8,0:0:0:0:
256,192,151390,1,8,0:0:0:0:
256,192,151444,1,8,0:0:0:0:
256,192,151497,1,8,0:0:0:0:
256,192,151550,1,0,0:0:0:0:
256,192,151603,1,0,0:0:0:0:
256,192,151656,1,8,0:0:0:0:
256,192,151763,1,8,0:0:0:0:
256,192,151869,1,8,0:0:0:0:
256,192,151976,5,0,0:0:0:0:
256,192,152082,1,8,0:0:0:0:
256,192,152188,1,0,0:0:0:0:
256,192,152295,1,0,0:0:0:0:
256,192,152401,1,8,0:0:0:0:
256,192,152507,1,8,0:0:0:0:
256,192,152614,1,8,0:0:0:0:
256,192,152694,1,8,0:0:0:0:
256,192,152773,1,0,0:0:0:0:
256,192,152853,1,0,0:0:0:0:
256,192,152933,1,8,0:0:0:0:
256,128,153252,1,4,0:0:0:0:
256,128,153890,1,4,0:0:0:0:
256,128,154103,1,4,0:0:0:0:
256,128,154210,1,4,0:0:0:0:
256,128,154316,1,12,0:0:0:0:
256,128,154529,1,12,0:0:0:0:
256,192,155061,1,8,0:0:0:0:
256,192,155167,1,0,0:0:0:0:
256,192,155273,1,8,0:0:0:0:
256,192,155380,1,8,0:0:0:0:
256,192,155486,1,8,0:0:0:0:
256,192,155593,1,8,0:0:0:0:
256,192,155699,1,8,0:0:0:0:
256,192,155805,1,0,0:0:0:0:
256,192,155912,1,0,0:0:0:0:
256,192,156018,1,0,0:0:0:0:
256,192,156124,1,0,0:0:0:0:
256,192,156231,1,0,0:0:0:0:
256,192,156337,1,8,0:0:0:0:
256,192,156444,1,0,0:0:0:0:
256,192,156656,1,0,0:0:0:0:
256,192,156869,1,8,0:0:0:0:
256,192,156976,1,0,0:0:0:0:
256,192,157082,12,0,157561,0:0:0:0:
256,192,157720,12,0,158199,0:0:0:0:
256,192,158359,5,8,0:0:0:0:
256,192,158465,1,0,0:0:0:0:
256,192,158571,1,8,0:0:0:0:
256,192,158678,1,8,0:0:0:0:
256,192,158784,1,0,0:0:0:0:
256,192,158890,1,0,0:0:0:0:
96,288,158997,2,0,L|288:288,1,184.000003509522
256,192,159422,1,8,0:0:0:0:
256,192,159635,1,8,0:0:0:0:
256,192,159741,1,0,0:0:0:0:
256,192,159848,1,0,0:0:0:0:
256,192,159954,1,0,0:0:0:0:
256,192,160061,1,8,0:0:0:0:
256,192,160273,1,8,0:0:0:0:
256,192,160486,1,0,0:0:0:0:
256,192,160593,1,8,0:0:0:0:
256,192,160699,1,0,0:0:0:0:
256,192,160805,1,8,0:0:0:0:
256,192,160912,12,8,162188,0:0:0:0:
256,128,166018,5,12,0:0:0:0:
256,192,167295,5,0,0:0:0:0:
256,192,168172,1,8,0:0:0:0:
256,192,168252,1,8,0:0:0:0:
256,192,168332,1,8,0:0:0:0:
256,192,168412,1,8,0:0:0:0:
256,192,168491,1,8,0:0:0:0:
256,192,168571,1,0,0:0:0:0:
256,128,169529,1,4,0:0:0:0:
256,192,169848,5,0,0:0:0:0:
256,192,170725,1,8,0:0:0:0:
256,192,170805,1,8,0:0:0:0:
256,192,170885,1,8,0:0:0:0:
256,192,170965,1,8,0:0:0:0:
256,192,171044,1,8,0:0:0:0:
256,192,171124,1,0,0:0:0:0:
256,128,172401,1,4,0:0:0:0:
256,128,172614,1,4,0:0:0:0:
256,128,172827,1,4,0:0:0:0:
256,192,173279,1,8,0:0:0:0:
256,192,173359,1,8,0:0:0:0:
256,192,173438,1,8,0:0:0:0:
256,192,173518,1,8,0:0:0:0:
256,192,173598,1,8,0:0:0:0:
256,192,173678,1,0,0:0:0:0:
256,192,173997,12,0,174635,0:0:0:0:
256,192,174954,5,8,0:0:0:0:
256,192,175007,1,8,0:0:0:0:
256,192,175167,1,8,0:0:0:0:
256,192,175220,1,8,0:0:0:0:
256,192,175380,1,8,0:0:0:0:
256,192,175433,1,8,0:0:0:0:
256,192,175832,1,8,0:0:0:0:
256,192,175912,1,8,0:0:0:0:
256,192,175991,1,8,0:0:0:0:
256,192,176071,1,8,0:0:0:0:
256,192,176151,1,8,0:0:0:0:
256,192,176231,1,0,0:0:0:0:
256,192,176656,1,8,0:0:0:0:
256,192,176869,1,8,0:0:0:0:
256,192,177082,1,8,0:0:0:0:
256,192,177348,1,0,0:0:0:0:
256,192,177428,1,0,0:0:0:0:
256,192,177507,5,8,0:0:0:0:
256,192,177667,1,8,0:0:0:0:
256,192,177747,1,0,0:0:0:0:
256,192,177827,1,8,0:0:0:0:
256,192,177986,1,8,0:0:0:0:
256,192,178066,1,0,0:0:0:0:
256,192,178146,1,8,0:0:0:0:
256,192,178199,1,8,0:0:0:0:
256,192,178252,1,8,0:0:0:0:
256,192,178305,1,0,0:0:0:0:
256,192,178385,1,8,0:0:0:0:
256,192,178465,1,8,0:0:0:0:
256,192,178545,1,0,0:0:0:0:
256,192,178624,1,0,0:0:0:0:
256,192,178704,1,8,0:0:0:0:
256,192,178784,1,0,0:0:0:0:
256,192,178944,1,0,0:0:0:0:
256,192,179103,1,0,0:0:0:0:
256,192,179263,1,0,0:0:0:0:
256,128,179422,1,12,0:0:0:0:
256,192,180061,1,8,0:0:0:0:
256,192,180938,1,8,0:0:0:0:
256,192,181018,1,8,0:0:0:0:
256,192,181098,1,8,0:0:0:0:
256,192,181178,1,8,0:0:0:0:
256,192,181257,1,8,0:0:0:0:
256,192,181337,1,0,0:0:0:0:
256,192,181896,1,0,0:0:0:0:
256,192,182055,1,8,0:0:0:0:
256,192,182135,1,8,0:0:0:0:
256,192,182215,1,0,0:0:0:0:
256,192,182614,5,0,0:0:0:0:
256,192,182694,1,8,0:0:0:0:
256,192,182773,1,8,0:0:0:0:
256,192,182853,1,0,0:0:0:0:
256,192,182933,1,8,0:0:0:0:
256,192,183013,1,0,0:0:0:0:
256,192,183093,1,0,0:0:0:0:
256,192,183172,1,8,0:0:0:0:
256,192,183252,1,0,0:0:0:0:
256,192,183332,1,0,0:0:0:0:
256,192,183412,1,8,0:0:0:0:
256,192,183491,1,8,0:0:0:0:
256,192,183571,1,0,0:0:0:0:
256,192,183651,1,0,0:0:0:0:
256,192,183731,1,8,0:0:0:0:
256,192,183811,1,8,0:0:0:0:
256,192,183890,1,8,0:0:0:0:
256,192,183970,1,0,0:0:0:0:
256,192,184050,1,0,0:0:0:0:
256,192,184130,1,0,0:0:0:0:
256,192,184210,1,8,0:0:0:0:
256,192,184369,1,8,0:0:0:0:
256,192,184529,1,8,0:0:0:0:
256,128,184688,1,4,0:0:0:0:
256,192,185167,1,0,0:0:0:0:
256,192,185247,1,8,0:0:0:0:
256,192,185327,1,8,0:0:0:0:
256,192,185406,1,8,0:0:0:0:
256,192,185486,1,8,0:0:0:0:
256,192,185646,1,8,0:0:0:0:
256,192,185726,1,8,0:0:0:0:
256,192,185805,1,0,0:0:0:0:
256,192,185965,1,0,0:0:0:0:
256,192,186045,1,8,0:0:0:0:
256,192,186124,1,8,0:0:0:0:
256,192,186204,1,0,0:0:0:0:
256,192,186284,1,8,0:0:0:0:
256,192,186444,1,8,0:0:0:0:
256,192,186603,1,0,0:0:0:0:
256,192,186683,1,8,0:0:0:0:
256,192,186763,1,0,0:0:0:0:
256,128,186922,1,4,0:0:0:0:
256,128,187082,1,4,0:0:0:0:
256,128,187241,1,4,0:0:0:0:
256,128,187561,1,12,0:0:0:0:
256,128,187720,5,4,0:0:0:0:
256,192,188039,1,8,0:0:0:0:
256,192,188199,1,8,0:0:0:0:
256,128,188359,1,12,0:0:0:0:
256,192,188518,1,8,0:0:0:0:
256,192,188678,1,8,0:0:0:0:
256,128,188837,1,12,0:0:0:0:
256,192,188997,1,8,0:0:0:0:
256,192,189077,1,8,0:0:0:0:
256,192,189156,1,0,0:0:0:0:
256,192,189236,1,0,0:0:0:0:
256,192,189316,1,8,0:0:0:0:
256,192,189396,1,0,0:0:0:0:
256,192,189476,1,8,0:0:0:0:
256,192,189529,1,8,0:0:0:0:
256,192,189582,1,8,0:0:0:0:
256,192,189635,1,8,0:0:0:0:
256,192,189688,1,8,0:0:0:0:
256,192,189741,1,8,0:0:0:0:
256,192,189795,1,0,0:0:0:0:
256,192,190273,5,0,0:0:0:0:
256,192,190353,1,0,0:0:0:0:
256,192,190433,1,8,0:0:0:0:
256,192,190513,1,8,0:0:0:0:
256,192,190593,1,0,0:0:0:0:
256,192,190672,1,8,0:0:0:0:
256,192,190752,1,0,0:0:0:0:
256,192,190832,1,0,0:0:0:0:
256,192,190912,1,8,0:0:0:0:
256,192,191151,1,8,0:0:0:0:
256,192,191231,1,0,0:0:0:0:
256,192,191390,1,8,0:0:0:0:
256,128,191550,1,4,0:0:0:0:
256,192,191763,1,0,0:0:0:0:
256,192,191816,1,8,0:0:0:0:
256,192,191976,1,0,0:0:0:0:
256,192,192029,1,8,0:0:0:0:
256,192,192188,1,0,0:0:0:0:
256,192,192241,1,8,0:0:0:0:
256,192,192401,1,8,0:0:0:0:
256,192,192454,1,0,0:0:0:0:
256,192,192614,1,8,0:0:0:0:
256,192,192667,1,0,0:0:0:0:
256,128,192827,1,4,0:0:0:0:
256,192,192986,1,8,0:0:0:0:
256,192,193066,1,8,0:0:0:0:
256,192,193146,1,0,0:0:0:0:
256,192,193226,1,0,0:0:0:0:
256,192,193305,1,8,0:0:0:0:
256,128,193465,1,4,0:0:0:0:
256,192,193624,1,8,0:0:0:0:
256,192,193704,1,0,0:0:0:0:
256,192,193784,1,8,0:0:0:0:
256,192,193864,1,0,0:0:0:0:
256,192,193944,1,8,0:0:0:0:
256,192,194023,1,0,0:0:0:0:
256,192,194103,12,0,194582,0:0:0:0:
256,192,194741,5,8,0:0:0:0:
256,192,194901,1,8,0:0:0:0:
256,192,195061,1,8,0:0:0:0:
256,192,195220,1,8,0:0:0:0:
256,192,195300,1,8,0:0:0:0:
256,192,195380,1,0,0:0:0:0:
256,192,195460,1,8,0:0:0:0:
256,192,195539,1,0,0:0:0:0:
256,192,195619,1,8,0:0:0:0:
256,192,195699,1,0,0:0:0:0:
256,192,195779,1,0,0:0:0:0:
256,192,195859,1,0,0:0:0:0:
256,192,195938,1,8,0:0:0:0:
256,192,196018,1,8,0:0:0:0:
256,192,196098,1,8,0:0:0:0:
256,192,196178,1,0,0:0:0:0:
256,192,196257,1,8,0:0:0:0:
256,192,196337,1,0,0:0:0:0:
256,192,196417,1,8,0:0:0:0:
256,192,196497,1,0,0:0:0:0:
256,192,196577,1,8,0:0:0:0:
256,192,196656,1,0,0:0:0:0:
256,192,196736,1,8,0:0:0:0:
256,192,196816,1,8,0:0:0:0:
256,192,196896,1,8,0:0:0:0:
256,192,196976,1,8,0:0:0:0:
256,192,197055,1,8,0:0:0:0:
256,192,197135,1,0,0:0:0:0:
256,192,197215,1,0,0:0:0:0:
256,192,197295,1,0,0:0:0:0:
256,192,197454,1,0,0:0:0:0:
256,192,197614,1,0,0:0:0:0:
256,192,197694,1,8,0:0:0:0:
256,192,197773,1,0,0:0:0:0:
256,192,197853,1,0,0:0:0:0:
256,192,197933,1,8,0:0:0:0:
256,192,198013,1,8,0:0:0:0:
256,192,198093,1,8,0:0:0:0:
256,192,198172,1,0,0:0:0:0:
256,192,198252,1,8,0:0:0:0:
256,192,198305,1,8,0:0:0:0:
256,192,198359,1,8,0:0:0:0:
256,192,198412,1,8,0:0:0:0:
256,192,198465,1,8,0:0:0:0:
256,192,198518,1,8,0:0:0:0:
256,192,198571,1,0,0:0:0:0:
256,192,198731,1,8,0:0:0:0:
256,192,198890,1,0,0:0:0:0:
256,192,198970,1,8,0:0:0:0:
256,192,199050,1,0,0:0:0:0:
256,192,199130,1,0,0:0:0:0:
256,192,199210,1,0,0:0:0:0:
256,192,199449,1,0,0:0:0:0:
256,192,199529,1,0,0:0:0:0:
256,192,199609,1,8,0:0:0:0:
256,192,199688,1,8,0:0:0:0:
256,192,199768,1,0,0:0:0:0:
256,192,199848,1,0,0:0:0:0:
256,128,200007,1,12,0:0:0:0:
256,128,200167,1,4,0:0:0:0:
256,192,200327,1,8,0:0:0:0:
256,192,200486,1,0,0:0:0:0:
256,128,201763,5,4,0:0:0:0:
256,192,202241,1,8,0:0:0:0:
256,192,202401,1,8,0:0:0:0:
256,192,202481,1,8,0:0:0:0:
256,192,202561,1,0,0:0:0:0:
256,192,202720,1,8,0:0:0:0:
256,192,202773,1,8,0:0:0:0:
256,192,202827,1,8,0:0:0:0:
256,192,202880,1,8,0:0:0:0:
256,192,202933,1,8,0:0:0:0:
256,192,202986,1,8,0:0:0:0:
256,192,203039,1,0,0:0:0:0:
256,192,203199,1,0,0:0:0:0:
256,192,203252,1,8,0:0:0:0:
256,192,203305,1,8,0:0:0:0:
256,192,203359,1,0,0:0:0:0:
256,192,203438,1,8,0:0:0:0:
256,192,203518,1,0,0:0:0:0:
256,192,203598,1,0,0:0:0:0:
256,128,203678,1,4,0:0:0:0:
96,288,203837,2,0,L|288:288,1,184.000003509522
256,128,204316,5,4,0:0:0:0:
256,192,204476,1,8,0:0:0:0:
256,192,204555,1,8,0:0:0:0:
256,192,204635,1,0,0:0:0:0:
256,192,204715,1,8,0:0:0:0:
256,192,204795,1,8,0:0:0:0:
256,192,204874,1,8,0:0:0:0:
256,192,204954,1,0,0:0:0:0:
256,192,205194,12,8,205433,0:0:0:0:
256,128,205593,5,4,0:0:0:0:
256,192,205752,1,0,0:0:0:0:
256,192,205832,1,8,0:0:0:0:
256,192,205912,1,0,0:0:0:0:
256,192,206071,1,0,0:0:0:0:
256,192,206231,1,8,0:0:0:0:
256,192,206311,1,0,0:0:0:0:
256,192,206390,1,8,0:0:0:0:
256,192,206444,1,8,0:0:0:0:
256,192,206497,1,8,0:0:0:0:
256,192,206550,1,8,0:0:0:0:
256,192,206603,1,0,0:0:0:0:
256,192,206656,1,0,0:0:0:0:
256,192,206710,1,8,0:0:0:0:
256,192,206763,1,8,0:0:0:0:
256,192,206816,1,0,0:0:0:0:
256,192,206869,1,0,0:0:0:0:
256,192,207029,1,8,0:0:0:0:
256,192,207109,1,0,0:0:0:0:
256,160,207348,1,0,0:0:0:0:
256,160,207428,1,8,0:0:0:0:
256,192,207827,1,8,0:0:0:0:
256,192,207906,1,8,0:0:0:0:
256,192,207986,1,8,0:0:0:0:
256,192,208066,1,8,0:0:0:0:
256,192,208146,1,0,0:0:0:0:
256,192,208226,1,8,0:0:0:0:
256,192,208305,1,8,0:0:0:0:
256,192,208385,1,8,0:0:0:0:
256,192,208465,1,0,0:0:0:0:
256,192,208624,1,8,0:0:0:0:
256,192,208704,1,8,0:0:0:0:
256,192,208784,1,0,0:0:0:0:
256,192,208864,1,8,0:0:0:0:
256,192,208944,1,0,0:0:0:0:
256,192,209103,1,0,0:0:0:0:
256,192,209183,1,8,0:0:0:0:
256,192,209263,1,8,0:0:0:0:
256,192,209422,1,0,0:0:0:0:
256,192,209502,1,8,0:0:0:0:
256,192,209582,1,0,0:0:0:0:
256,192,209662,1,8,0:0:0:0:
256,192,209741,1,0,0:0:0:0:
256,192,209848,1,8,0:0:0:0:
256,192,209954,1,8,0:0:0:0:
256,128,210061,1,4,0:0:0:0:
256,192,210220,1,0,0:0:0:0:
256,192,210300,1,0,0:0:0:0:
256,192,210380,1,8,0:0:0:0:
256,192,210460,1,8,0:0:0:0:
256,192,210539,1,8,0:0:0:0:
256,192,210619,1,8,0:0:0:0:
256,192,210699,1,0,0:0:0:0:
256,192,210859,1,8,0:0:0:0:
256,192,210912,1,8,0:0:0:0:
256,192,210965,1,8,0:0:0:0:
256,192,211018,1,0,0:0:0:0:
256,192,211098,1,8,0:0:0:0:
256,192,211178,1,0,0:0:0:0:
256,192,211257,1,8,0:0:0:0:
256,128,211337,1,4,0:0:0:0:
96,288,211497,2,0,L|192:288,2,92.0000017547608
256,128,211976,5,4,0:0:0:0:
256,192,212135,1,8,0:0:0:0:
256,192,212188,1,8,0:0:0:0:
256,192,212241,1,8,0:0:0:0:
256,192,212295,1,0,0:0:0:0:
256,192,212348,1,0,0:0:0:0:
256,192,212401,1,0,0:0:0:0:
256,192,212454,1,8,0:0:0:0:
256,192,212507,1,8,0:0:0:0:
256,192,212561,1,8,0:0:0:0:
256,192,212614,12,0,213093,0:0:0:0:
256,192,213252,5,0,0:0:0:0:
256,192,213412,1,8,0:0:0:0:
256,192,213491,1,8,0:0:0:0:
256,192,213571,1,0,0:0:0:0:
256,192,213651,1,8,0:0:0:0:
256,192,213731,1,0,0:0:0:0:
256,192,213811,1,8,0:0:0:0:
256,192,213890,1,0,0:0:0:0:
256,192,213970,1,0,0:0:0:0:
256,192,214050,1,8,0:0:0:0:
256,192,214130,1,8,0:0:0:0:
256,192,214210,1,0,0:0:0:0:
256,192,214289,1,8,0:0:0:0:
256,192,214369,1,0,0:0:0:0:
256,192,214449,1,8,0:0:0:0:
256,192,214529,1,0,0:0:0:0:
256,192,214609,1,0,0:0:0:0:
256,192,214688,1,0,0:0:0:0:
256,192,214768,1,0,0:0:0:0:
256,192,214848,1,8,0:0:0:0:
256,192,214928,1,8,0:0:0:0:
256,192,215007,1,0,0:0:0:0:
256,192,215087,1,8,0:0:0:0:
256,192,215167,1,0,0:0:0:0:
256,192,215247,1,8,0:0:0:0:
256,192,215327,1,8,0:0:0:0:
256,192,215406,1,0,0:0:0:0:
256,192,215486,1,8,0:0:0:0:
256,192,215566,1,8,0:0:0:0:
256,192,215646,1,0,0:0:0:0:
256,192,215726,1,8,0:0:0:0:
256,128,215805,1,4,0:0:0:0:
256,192,216124,1,0,0:0:0:0:
256,192,216204,1,0,0:0:0:0:
256,192,216284,1,8,0:0:0:0:
256,192,216364,1,8,0:0:0:0:
256,192,216444,1,0,0:0:0:0:
256,192,216523,1,0,0:0:0:0:
256,192,216603,1,8,0:0:0:0:
256,192,216683,1,8,0:0:0:0:
256,192,216763,1,8,0:0:0:0:
256,192,216843,1,8,0:0:0:0:
256,192,216922,1,8,0:0:0:0:
256,192,217002,1,8,0:0:0:0:
256,192,217082,1,0,0:0:0:0:
256,192,217241,1,8,0:0:0:0:
256,192,217321,1,8,0:0:0:0:
256,192,217401,1,0,0:0:0:0:
256,192,217561,1,0,0:0:0:0:
256,192,217640,1,8,0:0:0:0:
96,320,217720,2,0,L|224:320,3,92.0000017547608
256,192,218359,5,0,0:0:0:0:
256,192,218438,1,8,0:0:0:0:
256,192,218518,1,8,0:0:0:0:
256,192,218598,1,8,0:0:0:0:
256,192,218678,1,0,0:0:0:0:
256,192,218837,1,0,0:0:0:0:
256,192,218917,1,8,0:0:0:0:
256,192,218997,1,8,0:0:0:0:
256,192,219077,1,8,0:0:0:0:
256,192,219156,1,0,0:0:0:0:
256,192,219316,1,0,0:0:0:0:
256,192,219396,1,8,0:0:0:0:
256,192,219476,1,8,0:0:0:0:
256,192,219555,1,0,0:0:0:0:
256,192,219635,1,0,0:0:0:0:
256,192,219795,1,8,0:0:0:0:
256,192,219848,1,8,0:0:0:0:
256,192,219901,1,8,0:0:0:0:
256,192,219954,1,0,0:0:0:0:
256,192,220034,1,8,0:0:0:0:
256,192,220114,1,0,0:0:0:0:
256,192,220273,1,8,0:0:0:0:
256,192,220327,1,8,0:0:0:0:
256,192,220380,1,8,0:0:0:0:
256,192,220433,1,8,0:0:0:0:
256,192,220486,1,0,0:0:0:0:
256,192,220539,1,8,0:0:0:0:
256,192,220593,1,0,0:0:0:0:
256,192,220672,1,8,0:0:0:0:
256,192,220752,1,0,0:0:0:0:
256,192,220832,1,8,0:0:0:0:
256,128,220912,5,4,0:0:0:0:
256,128,221151,1,4,0:0:0:0:
256,128,221390,1,4,0:0:0:0:
256,128,221630,1,4,0:0:0:0:
256,128,221869,1,4,0:0:0:0:
