osu file format v14

[General]
AudioFilename: audio.mp3
AudioLeadIn: 0
PreviewTime: 38360
Countdown: 0
SampleSet: Normal
StackLeniency: 0.7
Mode: 1
LetterboxInBreaks: 0
WidescreenStoryboard: 1

[Editor]
Bookmarks: 7721,9397,20487,28147,38359,40912,61337,81763,99635,111124,121337,131550,141763,166018,182614,203039
DistanceSpacing: 1
BeatDivisor: 4
GridSize: 32
TimelineZoom: 1.708

[Metadata]
Title:Figue Folle
TitleUnicode:Figue Folle
Artist:Igorrr & Ruby My Dear
ArtistUnicode:Igorrr & Ruby My Dear
Creator:-Kazu-
Version:Oni
Source:
Tags:maigre glitch french speedcore breakcore baroquecore
BeatmapID:1458720
BeatmapSetID:680739

[Difficulty]
HPDrainRate:5
CircleSize:2
OverallDifficulty:6
ApproachRate:5
SliderMultiplier:1.4
SliderTickRate:1

[Events]
//Background and Video events
0,0,"ScrapeC3_Resized.jpg",0,75
//Break Periods
2,161112,164818
//Storyboard Layer 0 (Background)
//Storyboard Layer 1 (Fail)
//Storyboard Layer 2 (Pass)
//Storyboard Layer 3 (Foreground)
//Storyboard Sound Samples

[TimingPoints]
7722,319.148936170213,4,1,0,55,1,0
16179,-95.2380952380952,4,1,0,55,0,0
16339,-93.4579439252336,4,1,0,55,0,0
16498,-92.5925925925926,4,1,0,55,0,0
16658,-90.9090909090909,4,1,0,55,0,0
17296,-86.9565217391304,4,1,0,55,0,0
19211,-133.333333333333,4,1,0,55,0,0
20487,-100,4,1,0,55,0,0
28147,425.531914893617,3,1,0,75,1,0
33040,-97.0873786407767,3,1,0,75,0,0
33253,-95.2380952380952,3,1,0,75,0,0
35593,-93.4579439252336,3,1,0,75,0,0
35806,-90.9090909090909,3,1,0,75,0,0
37721,-86.9565217391304,3,1,0,75,0,0
37934,-83.3333333333333,3,1,0,75,0,0
38147,-80,3,1,0,75,0,0
38359,319.148936170213,4,1,0,75,1,0
40912,-100,4,1,0,75,0,1
45380,-100,4,1,0,75,0,0
46018,-100,4,1,0,75,0,1
51124,-100,4,1,0,75,0,0
53678,-100,4,1,0,75,0,1
60699,-100,4,1,0,75,0,0
83039,-117.647058823529,4,1,0,35,0,0
99316,-100,4,1,0,75,0,0
100912,-90.9090909090909,4,1,0,75,0,0
106018,-86.9565217391304,4,1,0,75,0,1
111124,-86.9565217391304,4,1,0,75,0,0
111550,-90.9090909090909,4,1,0,75,0,0
120699,-100,4,1,0,75,0,0
182614,-100,4,1,0,75,0,1
200646,-100,4,1,0,50,0,1
201763,-100,4,1,0,75,0,1
221909,-100,4,1,0,75,0,0

[HitObjects]
256,192,62,12,0,4370,0:0:0:0:
256,192,4530,12,0,9158,0:0:0:0:
256,192,9397,5,8,0:0:0:0:
256,192,9477,1,8,0:0:0:0:
256,192,9636,1,8,0:0:0:0:
256,192,9796,1,8,0:0:0:0:
256,192,9876,1,8,0:0:0:0:
256,192,10035,1,8,0:0:0:0:
256,192,10115,1,0,0:0:0:0:
256,192,10275,1,0,0:0:0:0:
256,192,10434,1,8,0:0:0:0:
256,192,10594,1,8,0:0:0:0:
256,192,10753,1,0,0:0:0:0:
256,192,10913,1,0,0:0:0:0:
256,192,10993,1,0,0:0:0:0:
256,192,11073,1,8,0:0:0:0:
256,192,11232,1,0,0:0:0:0:
256,192,11312,1,0,0:0:0:0:
256,192,11392,1,8,0:0:0:0:
256,192,11551,1,8,0:0:0:0:
256,192,11631,1,0,0:0:0:0:
256,192,11711,1,8,0:0:0:0:
256,192,11791,1,0,0:0:0:0:
256,192,11870,1,8,0:0:0:0:
256,192,12030,1,8,0:0:0:0:
256,192,12190,1,0,0:0:0:0:
256,192,12269,1,8,0:0:0:0:
256,192,12349,1,8,0:0:0:0:
256,192,12509,1,8,0:0:0:0:
256,192,12589,1,0,0:0:0:0:
256,192,12668,1,8,0:0:0:0:
256,192,12748,1,0,0:0:0:0:
256,192,12828,1,0,0:0:0:0:
256,192,12987,1,8,0:0:0:0:
256,192,13147,1,8,0:0:0:0:
256,192,13466,1,8,0:0:0:0:
256,192,13626,1,8,0:0:0:0:
256,192,13706,1,8,0:0:0:0:
256,192,13785,1,0,0:0:0:0:
256,192,13945,1,8,0:0:0:0:
256,192,14025,1,8,0:0:0:0:
256,192,14104,1,8,0:0:0:0:
256,192,14184,1,8,0:0:0:0:
256,192,14264,1,0,0:0:0:0:
256,192,14424,1,0,0:0:0:0:
256,192,14583,1,8,0:0:0:0:
256,192,14663,1,8,0:0:0:0:
256,192,14743,1,0,0:0:0:0:
256,192,14902,1,0,0:0:0:0:
256,192,15062,1,0,0:0:0:0:
256,192,15381,1,0,0:0:0:0:
256,192,15541,1,0,0:0:0:0:
256,192,15700,1,8,0:0:0:0:
256,192,15860,1,0,0:0:0:0:
256,192,16179,1,8,0:0:0:0:
256,192,16339,1,8,0:0:0:0:
256,192,16498,1,8,0:0:0:0:
256,192,16658,1,8,0:0:0:0:
256,192,16817,1,8,0:0:0:0:
256,192,16977,1,8,0:0:0:0:
256,192,17136,1,8,0:0:0:0:
256,192,17296,1,0,0:0:0:0:
256,192,17376,1,0,0:0:0:0:
256,192,17456,1,0,0:0:0:0:
256,192,17615,1,0,0:0:0:0:
256,192,17934,1,8,0:0:0:0:
256,192,19211,1,0,0:0:0:0:
256,192,20487,1,0,0:0:0:0:
256,192,20647,1,8,0:0:0:0:
256,192,20727,1,8,0:0:0:0:
256,192,20807,1,0,0:0:0:0:
256,192,20886,1,8,0:0:0:0:
256,192,20966,1,0,0:0:0:0:
256,192,21126,1,0,0:0:0:0:
256,192,21285,1,0,0:0:0:0:
256,192,21365,1,0,0:0:0:0:
256,192,21445,1,0,0:0:0:0:
256,192,21604,1,8,0:0:0:0:
256,192,21764,1,8,0:0:0:0:
256,192,22083,1,0,0:0:0:0:
256,192,22243,1,0,0:0:0:0:
256,192,22402,1,8,0:0:0:0:
256,192,22562,1,0,0:0:0:0:
256,192,22722,1,12,0:0:0:0:
256,192,23041,1,0,0:0:0:0:
256,192,23200,1,8,0:0:0:0:
256,192,23280,1,8,0:0:0:0:
256,192,23360,1,0,0:0:0:0:
256,192,23519,1,8,0:0:0:0:
256,192,23599,1,8,0:0:0:0:
256,192,23679,1,0,0:0:0:0:
256,192,23759,1,8,0:0:0:0:
256,192,23839,1,8,0:0:0:0:
256,192,23998,1,0,0:0:0:0:
256,192,24078,1,0,0:0:0:0:
256,192,24158,1,8,0:0:0:0:
256,192,24317,1,8,0:0:0:0:
256,192,24636,1,8,0:0:0:0:
256,192,24716,1,0,0:0:0:0:
256,192,24796,1,8,0:0:0:0:
256,192,24956,1,0,0:0:0:0:
256,192,25115,1,0,0:0:0:0:
256,192,25275,1,8,0:0:0:0:
256,192,25354,1,8,0:0:0:0:
256,192,25434,1,8,0:0:0:0:
256,192,25514,1,8,0:0:0:0:
256,192,25594,1,0,0:0:0:0:
256,192,25753,1,8,0:0:0:0:
256,192,25913,1,8,0:0:0:0:
256,192,26073,1,0,0:0:0:0:
256,192,26232,1,8,0:0:0:0:
256,192,26392,1,0,0:0:0:0:
256,192,26870,1,8,0:0:0:0:
256,192,26950,1,8,0:0:0:0:
256,192,27030,1,8,0:0:0:0:
256,192,27190,1,8,0:0:0:0:
256,192,27349,1,0,0:0:0:0:
256,192,28147,1,0,0:0:0:0:
256,192,28359,1,0,0:0:0:0:
256,192,28572,1,8,0:0:0:0:
256,192,28785,1,0,0:0:0:0:
256,192,28998,1,8,0:0:0:0:
256,192,29210,1,8,0:0:0:0:
256,192,29423,1,0,0:0:0:0:
256,192,29636,1,0,0:0:0:0:
256,192,29849,1,8,0:0:0:0:
256,192,30061,1,0,0:0:0:0:
256,192,30274,1,8,0:0:0:0:
256,192,30487,1,8,0:0:0:0:
256,192,30700,1,0,0:0:0:0:
256,192,30912,1,0,0:0:0:0:
256,192,31125,1,8,0:0:0:0:
256,192,31338,1,0,0:0:0:0:
256,192,31551,1,8,0:0:0:0:
256,192,31764,1,8,0:0:0:0:
256,192,31976,1,0,0:0:0:0:
256,192,32189,1,0,0:0:0:0:
256,192,32402,1,8,0:0:0:0:
256,192,32615,1,0,0:0:0:0:
256,192,32827,1,8,0:0:0:0:
256,192,33040,1,8,0:0:0:0:
256,192,33253,1,0,0:0:0:0:
256,192,33466,1,0,0:0:0:0:
256,192,33678,1,8,0:0:0:0:
256,192,34104,1,8,0:0:0:0:
256,192,34317,1,0,0:0:0:0:
256,192,34529,1,0,0:0:0:0:
256,192,34742,1,0,0:0:0:0:
256,192,34955,1,8,0:0:0:0:
256,192,35381,1,8,0:0:0:0:
256,192,35593,1,8,0:0:0:0:
256,192,35806,1,0,0:0:0:0:
256,192,36019,1,0,0:0:0:0:
256,192,36232,1,8,0:0:0:0:
256,192,36657,1,0,0:0:0:0:
256,192,36870,1,8,0:0:0:0:
256,192,37083,1,0,0:0:0:0:
256,192,37295,1,0,0:0:0:0:
256,192,37508,1,8,0:0:0:0:
256,192,37721,1,0,0:0:0:0:
256,192,37934,1,8,0:0:0:0:
256,192,38147,1,8,0:0:0:0:
256,192,38359,1,0,0:0:0:0:
256,192,38678,1,0,0:0:0:0:
256,192,38837,1,8,0:0:0:0:
256,192,39156,1,8,0:0:0:0:
256,192,39316,1,8,0:0:0:0:
256,192,39476,1,8,0:0:0:0:
256,192,39635,1,0,0:0:0:0:
256,192,39954,1,0,0:0:0:0:
256,192,40114,1,8,0:0:0:0:
256,192,40433,1,8,0:0:0:0:
256,192,40593,1,0,0:0:0:0:
256,192,40912,1,0,0:0:0:0:
256,192,41151,1,0,0:0:0:0:
256,192,41231,1,8,0:0:0:0:
256,192,41390,1,0,0:0:0:0:
256,192,41710,1,0,0:0:0:0:
256,192,41869,1,8,0:0:0:0:
256,192,42029,1,0,0:0:0:0:
256,192,42188,1,0,0:0:0:0:
256,192,42428,1,0,0:0:0:0:
256,192,42507,1,8,0:0:0:0:
256,192,42667,1,0,0:0:0:0:
256,192,42827,1,8,0:0:0:0:
256,192,43146,1,8,0:0:0:0:
256,192,43226,1,8,0:0:0:0:
256,192,43305,1,0,0:0:0:0:
256,192,43465,1,0,0:0:0:0:
256,192,43784,1,8,0:0:0:0:
256,192,43864,1,8,0:0:0:0:
256,192,43944,1,0,0:0:0:0:
256,192,44023,1,8,0:0:0:0:
256,192,44103,1,0,0:0:0:0:
256,192,44183,1,0,0:0:0:0:
288,256,44263,1,8,0:0:0:0:
256,192,44422,1,0,0:0:0:0:
256,192,44502,1,0,0:0:0:0:
256,192,44582,1,0,0:0:0:0:
256,192,44741,1,0,0:0:0:0:
256,192,44821,1,8,0:0:0:0:
256,192,44901,1,0,0:0:0:0:
256,192,44981,1,8,0:0:0:0:
256,192,45061,1,8,0:0:0:0:
256,192,45140,1,0,0:0:0:0:
256,192,45220,1,0,0:0:0:0:
256,192,45380,1,12,0:0:0:0:
256,192,46018,1,0,0:0:0:0:
256,192,46337,1,8,0:0:0:0:
256,192,46497,1,0,0:0:0:0:
256,192,46656,1,8,0:0:0:0:
256,192,46816,1,0,0:0:0:0:
256,192,46896,1,8,0:0:0:0:
256,192,46976,1,8,0:0:0:0:
256,192,47135,1,8,0:0:0:0:
256,192,47295,1,0,0:0:0:0:
256,192,47374,1,0,0:0:0:0:
256,192,47454,1,0,0:0:0:0:
256,192,47534,1,0,0:0:0:0:
256,192,47614,1,0,0:0:0:0:
256,192,47773,1,8,0:0:0:0:
256,192,48093,1,0,0:0:0:0:
256,192,48412,1,8,0:0:0:0:
256,192,48571,1,0,0:0:0:0:
256,192,49050,1,8,0:0:0:0:
256,192,49130,1,8,0:0:0:0:
256,192,49210,1,0,0:0:0:0:
256,192,49369,1,8,0:0:0:0:
256,192,49529,1,0,0:0:0:0:
256,192,49609,1,0,0:0:0:0:
256,192,49688,1,0,0:0:0:0:
256,192,49768,1,0,0:0:0:0:
256,192,49848,1,0,0:0:0:0:
256,192,50007,1,0,0:0:0:0:
256,192,50087,1,0,0:0:0:0:
256,192,50167,1,0,0:0:0:0:
256,192,50327,1,0,0:0:0:0:
256,192,50486,1,8,0:0:0:0:
256,192,51124,1,0,0:0:0:0:
256,192,52082,1,8,0:0:0:0:
256,192,52401,1,8,0:0:0:0:
256,192,52561,1,8,0:0:0:0:
256,192,52720,1,8,0:0:0:0:
256,192,52880,1,8,0:0:0:0:
256,192,53678,1,0,0:0:0:0:
256,192,53784,1,0,0:0:0:0:
256,192,53890,1,8,0:0:0:0:
256,192,53997,1,0,0:0:0:0:
256,192,54210,1,8,0:0:0:0:
256,192,54316,1,8,0:0:0:0:
256,192,54422,1,0,0:0:0:0:
256,192,54529,1,0,0:0:0:0:
256,192,54635,1,0,0:0:0:0:
256,192,54848,1,0,0:0:0:0:
256,192,54954,1,0,0:0:0:0:
256,192,55061,1,8,0:0:0:0:
256,192,55167,1,0,0:0:0:0:
256,192,55273,1,0,0:0:0:0:
256,192,55380,1,8,0:0:0:0:
256,192,55593,1,12,0:0:0:0:
256,192,56231,1,0,0:0:0:0:
256,192,56550,1,8,0:0:0:0:
256,192,56710,1,0,0:0:0:0:
256,192,56869,1,0,0:0:0:0:
256,192,56949,1,0,0:0:0:0:
256,192,57029,1,8,0:0:0:0:
256,192,57188,1,8,0:0:0:0:
256,192,57348,1,0,0:0:0:0:
256,192,57428,1,8,0:0:0:0:
256,192,57507,1,0,0:0:0:0:
256,192,57587,1,0,0:0:0:0:
256,192,57667,1,8,0:0:0:0:
256,192,57827,1,0,0:0:0:0:
256,192,57986,1,0,0:0:0:0:
256,192,58066,1,0,0:0:0:0:
256,192,58146,1,8,0:0:0:0:
256,192,58465,1,8,0:0:0:0:
256,192,58545,1,0,0:0:0:0:
256,192,58624,1,8,0:0:0:0:
256,192,58704,1,0,0:0:0:0:
256,192,58784,1,0,0:0:0:0:
256,192,58944,1,0,0:0:0:0:
256,192,59103,1,8,0:0:0:0:
256,192,59263,1,8,0:0:0:0:
256,192,59422,1,0,0:0:0:0:
256,192,59502,1,0,0:0:0:0:
256,192,59582,1,8,0:0:0:0:
256,192,59741,1,8,0:0:0:0:
256,192,59821,1,0,0:0:0:0:
256,192,59901,1,8,0:0:0:0:
256,192,59981,1,0,0:0:0:0:
256,192,60061,1,8,0:0:0:0:
256,192,60220,1,8,0:0:0:0:
256,192,60380,1,8,0:0:0:0:
256,192,60460,1,0,0:0:0:0:
256,192,60539,1,8,0:0:0:0:
256,192,60699,1,0,0:0:0:0:
256,192,61337,1,0,0:0:0:0:
256,192,61497,1,8,0:0:0:0:
256,192,61577,1,8,0:0:0:0:
256,192,61656,1,0,0:0:0:0:
256,192,61816,1,8,0:0:0:0:
256,192,61896,1,0,0:0:0:0:
256,192,61976,1,8,0:0:0:0:
256,192,62135,1,0,0:0:0:0:
256,192,62295,1,0,0:0:0:0:
256,192,62374,1,0,0:0:0:0:
256,192,62454,1,8,0:0:0:0:
256,192,62614,1,0,0:0:0:0:
256,192,62933,1,0,0:0:0:0:
256,192,63013,1,0,0:0:0:0:
256,192,63093,1,0,0:0:0:0:
256,192,63252,1,12,0:0:0:0:
256,192,63571,1,8,0:0:0:0:
256,192,63731,1,0,0:0:0:0:
256,192,63890,1,0,0:0:0:0:
256,192,64050,1,8,0:0:0:0:
256,192,64210,1,0,0:0:0:0:
256,192,64289,1,0,0:0:0:0:
256,192,64369,1,0,0:0:0:0:
256,192,64529,1,8,0:0:0:0:
256,192,64688,1,0,0:0:0:0:
256,192,64848,1,0,0:0:0:0:
256,192,65007,1,0,0:0:0:0:
256,192,65167,1,8,0:0:0:0:
256,192,65247,1,8,0:0:0:0:
256,192,65327,1,0,0:0:0:0:
256,192,65486,1,8,0:0:0:0:
256,192,65566,1,8,0:0:0:0:
256,192,65646,1,0,0:0:0:0:
256,192,65805,1,8,0:0:0:0:
256,192,66284,1,8,0:0:0:0:
256,192,66444,1,0,0:0:0:0:
256,192,66603,1,8,0:0:0:0:
256,192,66763,1,0,0:0:0:0:
256,192,66843,1,8,0:0:0:0:
256,192,66922,1,0,0:0:0:0:
256,192,67002,1,0,0:0:0:0:
256,192,67082,1,8,0:0:0:0:
256,192,67241,1,0,0:0:0:0:
256,192,67321,1,0,0:0:0:0:
256,192,67401,1,0,0:0:0:0:
256,192,67561,1,0,0:0:0:0:
256,192,67720,1,8,0:0:0:0:
256,192,67880,1,8,0:0:0:0:
256,192,67960,1,0,0:0:0:0:
256,192,68039,1,0,0:0:0:0:
256,192,68119,1,8,0:0:0:0:
256,192,68199,1,0,0:0:0:0:
256,192,68359,1,0,0:0:0:0:
256,192,68518,1,8,0:0:0:0:
256,192,68598,1,0,0:0:0:0:
256,192,68678,1,0,0:0:0:0:
256,192,68837,1,0,0:0:0:0:
256,192,68997,1,0,0:0:0:0:
256,192,69156,1,8,0:0:0:0:
256,192,69236,1,0,0:0:0:0:
256,192,69316,1,8,0:0:0:0:
256,192,69396,1,8,0:0:0:0:
256,192,69476,1,0,0:0:0:0:
256,192,69635,1,0,0:0:0:0:
256,192,69795,1,0,0:0:0:0:
256,192,70114,1,0,0:0:0:0:
256,192,70273,1,8,0:0:0:0:
256,192,70353,1,8,0:0:0:0:
256,192,70433,1,8,0:0:0:0:
256,192,70513,1,8,0:0:0:0:
256,192,70593,1,0,0:0:0:0:
256,192,70752,1,0,0:0:0:0:
256,192,70912,1,8,0:0:0:0:
256,192,70991,1,8,0:0:0:0:
256,192,71071,1,0,0:0:0:0:
256,192,71231,1,0,0:0:0:0:
256,192,71311,1,0,0:0:0:0:
256,192,71390,1,0,0:0:0:0:
256,192,71470,1,8,0:0:0:0:
256,192,71550,1,0,0:0:0:0:
256,192,71710,1,8,0:0:0:0:
256,192,71789,1,0,0:0:0:0:
256,192,71869,1,8,0:0:0:0:
256,192,72029,1,0,0:0:0:0:
256,192,72188,1,8,0:0:0:0:
256,192,72348,1,0,0:0:0:0:
256,192,72507,1,0,0:0:0:0:
256,192,72667,1,8,0:0:0:0:
256,192,72747,1,8,0:0:0:0:
256,192,72827,1,0,0:0:0:0:
256,192,72986,1,8,0:0:0:0:
256,192,73066,1,8,0:0:0:0:
256,192,73146,1,8,0:0:0:0:
256,192,73305,1,0,0:0:0:0:
256,192,73465,1,8,0:0:0:0:
256,192,73784,1,0,0:0:0:0:
256,192,73944,1,8,0:0:0:0:
256,192,74103,1,8,0:0:0:0:
256,192,74263,1,8,0:0:0:0:
256,192,74422,1,8,0:0:0:0:
256,192,74502,1,0,0:0:0:0:
256,192,74582,1,8,0:0:0:0:
256,192,74741,1,0,0:0:0:0:
256,192,74901,1,8,0:0:0:0:
256,192,75061,1,8,0:0:0:0:
256,192,75140,1,0,0:0:0:0:
256,192,75220,1,0,0:0:0:0:
256,192,75380,1,8,0:0:0:0:
256,192,75539,1,0,0:0:0:0:
256,192,75699,1,8,0:0:0:0:
256,192,75859,1,0,0:0:0:0:
256,192,76018,1,8,0:0:0:0:
256,192,76976,1,8,0:0:0:0:
256,192,77055,1,0,0:0:0:0:
256,192,77135,1,0,0:0:0:0:
256,192,77215,1,0,0:0:0:0:
256,192,77295,1,8,0:0:0:0:
256,192,77454,1,8,0:0:0:0:
256,192,77614,1,8,0:0:0:0:
256,192,77694,1,8,0:0:0:0:
256,192,77773,1,8,0:0:0:0:
256,192,77933,1,0,0:0:0:0:
256,192,78093,1,8,0:0:0:0:
256,192,78252,1,8,0:0:0:0:
256,192,78332,1,0,0:0:0:0:
256,192,78412,1,0,0:0:0:0:
256,192,78571,1,8,0:0:0:0:
256,192,78731,1,8,0:0:0:0:
256,192,78811,1,8,0:0:0:0:
256,192,78890,1,8,0:0:0:0:
256,192,78970,1,8,0:0:0:0:
256,192,79050,1,0,0:0:0:0:
256,192,79210,1,0,0:0:0:0:
256,192,79369,1,8,0:0:0:0:
256,192,79449,1,0,0:0:0:0:
256,192,79529,1,8,0:0:0:0:
256,192,79688,1,0,0:0:0:0:
256,192,79768,1,0,0:0:0:0:
256,192,79848,1,0,0:0:0:0:
256,192,80007,1,8,0:0:0:0:
256,192,80167,1,8,0:0:0:0:
256,192,80327,1,8,0:0:0:0:
256,192,80486,1,0,0:0:0:0:
256,192,80646,1,8,0:0:0:0:
256,192,80726,1,0,0:0:0:0:
256,192,80805,1,8,0:0:0:0:
256,192,80965,1,0,0:0:0:0:
256,192,81124,1,8,0:0:0:0:
256,192,81284,1,8,0:0:0:0:
256,192,81444,1,8,0:0:0:0:
256,192,81763,1,0,0:0:0:0:
256,192,83039,1,0,0:0:0:0:
256,192,84316,1,0,0:0:0:0:
256,192,85593,1,0,0:0:0:0:
256,192,86869,1,0,0:0:0:0:
256,192,88146,1,0,0:0:0:0:
256,192,89422,1,0,0:0:0:0:
256,192,90699,1,0,0:0:0:0:
256,192,91337,1,8,0:0:0:0:
256,192,91976,1,0,0:0:0:0:
256,192,93252,1,8,0:0:0:0:
256,192,94529,1,0,0:0:0:0:
256,192,95805,1,0,0:0:0:0:
256,192,97082,1,8,0:0:0:0:
256,192,98359,1,0,0:0:0:0:
256,192,99316,1,0,0:0:0:0:
256,192,99396,1,0,0:0:0:0:
256,192,99476,1,0,0:0:0:0:
256,192,99635,1,12,0:0:0:0:
256,192,100593,1,0,0:0:0:0:
256,192,100672,1,0,0:0:0:0:
256,192,100752,1,0,0:0:0:0:
256,192,100912,1,0,0:0:0:0:
256,192,101071,1,0,0:0:0:0:
256,192,101231,1,0,0:0:0:0:
256,192,101311,1,0,0:0:0:0:
256,192,101390,1,0,0:0:0:0:
256,192,101550,1,0,0:0:0:0:
256,192,101710,1,0,0:0:0:0:
256,192,101869,1,8,0:0:0:0:
256,192,101949,1,8,0:0:0:0:
256,192,102029,1,0,0:0:0:0:
256,192,102188,1,0,0:0:0:0:
256,192,102507,1,8,0:0:0:0:
256,192,102827,1,0,0:0:0:0:
256,192,103146,1,8,0:0:0:0:
256,192,103226,1,8,0:0:0:0:
256,192,103305,1,8,0:0:0:0:
256,192,103465,1,8,0:0:0:0:
256,192,103624,1,8,0:0:0:0:
256,192,103784,1,8,0:0:0:0:
256,192,103944,1,8,0:0:0:0:
256,192,104103,1,8,0:0:0:0:
256,192,104263,1,8,0:0:0:0:
256,192,104422,1,8,0:0:0:0:
256,192,104502,1,8,0:0:0:0:
256,192,104582,1,8,0:0:0:0:
256,192,104741,1,8,0:0:0:0:
256,192,106018,1,8,0:0:0:0:
256,192,106178,1,8,0:0:0:0:
256,192,106337,1,8,0:0:0:0:
256,192,106417,1,0,0:0:0:0:
256,192,106497,1,8,0:0:0:0:
256,192,106656,1,8,0:0:0:0:
256,192,106816,1,8,0:0:0:0:
256,192,106976,1,8,0:0:0:0:
256,192,107055,1,0,0:0:0:0:
256,192,107135,1,8,0:0:0:0:
256,192,107295,1,8,0:0:0:0:
256,192,107454,1,8,0:0:0:0:
256,192,107614,1,8,0:0:0:0:
256,192,107694,1,0,0:0:0:0:
256,192,107773,1,8,0:0:0:0:
256,192,107933,1,8,0:0:0:0:
256,192,108093,1,8,0:0:0:0:
256,192,108252,1,8,0:0:0:0:
256,192,108332,1,0,0:0:0:0:
256,192,108412,1,8,0:0:0:0:
256,192,108571,1,8,0:0:0:0:
256,192,108731,1,8,0:0:0:0:
256,192,108890,1,8,0:0:0:0:
256,192,108970,1,0,0:0:0:0:
256,192,109050,1,8,0:0:0:0:
256,192,109210,1,8,0:0:0:0:
256,192,109369,1,8,0:0:0:0:
256,192,109529,1,8,0:0:0:0:
256,192,109609,1,0,0:0:0:0:
256,192,109688,1,8,0:0:0:0:
256,192,109848,1,8,0:0:0:0:
256,192,110007,1,8,0:0:0:0:
256,192,110167,1,8,0:0:0:0:
256,192,110247,1,0,0:0:0:0:
256,192,110327,1,8,0:0:0:0:
256,192,110486,1,8,0:0:0:0:
256,192,110566,1,0,0:0:0:0:
256,192,110646,1,8,0:0:0:0:
256,192,110805,1,8,0:0:0:0:
256,192,110885,1,0,0:0:0:0:
256,192,110965,1,8,0:0:0:0:
256,192,111124,1,0,0:0:0:0:
256,192,111550,1,0,0:0:0:0:
256,192,111763,1,8,0:0:0:0:
256,192,111976,1,0,0:0:0:0:
256,192,112401,1,0,0:0:0:0:
256,192,112827,1,0,0:0:0:0:
256,192,113039,1,8,0:0:0:0:
256,192,113252,1,0,0:0:0:0:
256,192,113678,1,0,0:0:0:0:
256,192,114103,1,0,0:0:0:0:
256,192,114316,1,8,0:0:0:0:
256,192,114529,1,0,0:0:0:0:
256,192,114954,1,0,0:0:0:0:
256,192,115167,1,0,0:0:0:0:
256,192,115380,1,0,0:0:0:0:
256,192,115593,1,8,0:0:0:0:
256,192,115805,1,0,0:0:0:0:
256,192,116018,1,0,0:0:0:0:
256,192,116231,1,0,0:0:0:0:
256,192,116656,1,0,0:0:0:0:
256,192,116869,1,8,0:0:0:0:
256,192,117082,1,0,0:0:0:0:
256,192,117507,1,0,0:0:0:0:
256,192,117933,1,0,0:0:0:0:
256,192,118146,1,8,0:0:0:0:
256,192,118359,1,0,0:0:0:0:
256,192,118784,12,0,119901,0:0:0:0:
256,192,120061,5,12,0:0:0:0:
256,192,120699,1,0,0:0:0:0:
256,192,120779,1,0,0:0:0:0:
256,192,120859,1,0,0:0:0:0:
256,192,120938,1,0,0:0:0:0:
256,192,121018,1,0,0:0:0:0:
256,192,121178,1,0,0:0:0:0:
256,192,121337,1,0,0:0:0:0:
256,192,121577,1,8,0:0:0:0:
256,192,121656,1,0,0:0:0:0:
256,192,121976,1,8,0:0:0:0:
256,192,122188,1,8,0:0:0:0:
256,192,122401,1,8,0:0:0:0:
256,192,122614,1,8,0:0:0:0:
256,192,122773,1,0,0:0:0:0:
256,192,122853,1,0,0:0:0:0:
256,192,122933,1,8,0:0:0:0:
256,192,123013,1,8,0:0:0:0:
256,192,123093,1,0,0:0:0:0:
256,192,123252,1,8,0:0:0:0:
256,192,123412,1,0,0:0:0:0:
256,192,123571,1,8,0:0:0:0:
256,192,123890,1,0,0:0:0:0:
256,192,124688,1,0,0:0:0:0:
256,192,124768,1,0,0:0:0:0:
256,192,124848,1,8,0:0:0:0:
256,192,125167,1,0,0:0:0:0:
256,192,126124,1,0,0:0:0:0:
256,192,126204,1,0,0:0:0:0:
256,192,126284,1,8,0:0:0:0:
256,192,126364,1,8,0:0:0:0:
256,192,126444,1,0,0:0:0:0:
256,192,126763,1,8,0:0:0:0:
256,192,126843,1,8,0:0:0:0:
256,192,126922,1,0,0:0:0:0:
256,192,127082,1,0,0:0:0:0:
256,192,127401,1,8,0:0:0:0:
256,192,127481,1,8,0:0:0:0:
256,192,127561,1,0,0:0:0:0:
256,192,127720,1,0,0:0:0:0:
256,192,128039,1,8,0:0:0:0:
256,192,128119,1,8,0:0:0:0:
256,192,128199,1,0,0:0:0:0:
256,192,128359,1,0,0:0:0:0:
256,192,128571,1,8,0:0:0:0:
256,192,128784,1,0,0:0:0:0:
256,192,128997,1,0,0:0:0:0:
256,192,129156,1,8,0:0:0:0:
256,192,129316,1,8,0:0:0:0:
256,192,129396,1,8,0:0:0:0:
256,192,129476,1,8,0:0:0:0:
256,192,129555,1,8,0:0:0:0:
256,192,129635,1,0,0:0:0:0:
256,192,129848,1,8,0:0:0:0:
256,192,130061,1,0,0:0:0:0:
256,192,130273,1,0,0:0:0:0:
256,192,130433,1,8,0:0:0:0:
256,192,130593,1,8,0:0:0:0:
256,192,130672,1,8,0:0:0:0:
256,192,130752,1,8,0:0:0:0:
256,192,130832,1,8,0:0:0:0:
256,192,130912,1,0,0:0:0:0:
256,192,131550,1,0,0:0:0:0:
256,192,131710,1,8,0:0:0:0:
256,192,131789,1,0,0:0:0:0:
256,192,131869,1,8,0:0:0:0:
256,192,132029,1,0,0:0:0:0:
256,192,132109,1,0,0:0:0:0:
256,192,132188,1,8,0:0:0:0:
256,192,132401,1,8,0:0:0:0:
256,192,132614,1,8,0:0:0:0:
256,192,132827,1,0,0:0:0:0:
256,192,132986,1,8,0:0:0:0:
256,192,133066,1,0,0:0:0:0:
256,192,133146,1,8,0:0:0:0:
256,192,133226,1,8,0:0:0:0:
256,192,133305,1,0,0:0:0:0:
256,192,133465,1,0,0:0:0:0:
256,192,134103,1,0,0:0:0:0:
256,192,134901,1,0,0:0:0:0:
256,192,134981,1,0,0:0:0:0:
256,192,135061,1,8,0:0:0:0:
256,192,135380,1,8,0:0:0:0:
256,192,136018,1,8,0:0:0:0:
256,192,136178,1,0,0:0:0:0:
256,192,136337,1,0,0:0:0:0:
256,192,136417,1,0,0:0:0:0:
256,192,136497,1,0,0:0:0:0:
256,192,136577,1,8,0:0:0:0:
256,192,136656,1,0,0:0:0:0:
256,192,137082,1,0,0:0:0:0:
256,192,137295,1,0,0:0:0:0:
256,192,137507,1,0,0:0:0:0:
256,192,137720,1,0,0:0:0:0:
256,192,137933,1,0,0:0:0:0:
256,192,138212,1,0,0:0:0:0:
256,192,138292,1,0,0:0:0:0:
256,192,138372,1,8,0:0:0:0:
256,192,138571,1,8,0:0:0:0:
256,192,138784,1,8,0:0:0:0:
256,192,138997,1,8,0:0:0:0:
256,192,139210,1,0,0:0:0:0:
256,192,139369,1,8,0:0:0:0:
256,192,139529,1,0,0:0:0:0:
256,192,139609,1,0,0:0:0:0:
256,192,139688,1,0,0:0:0:0:
256,192,139768,1,0,0:0:0:0:
256,192,139848,1,8,0:0:0:0:
256,192,140061,1,8,0:0:0:0:
256,192,140273,1,8,0:0:0:0:
256,192,140486,1,0,0:0:0:0:
256,192,140646,1,8,0:0:0:0:
256,192,140805,1,0,0:0:0:0:
256,192,140885,1,8,0:0:0:0:
256,192,140965,1,8,0:0:0:0:
256,192,141045,1,8,0:0:0:0:
256,192,141124,1,0,0:0:0:0:
256,192,141284,1,8,0:0:0:0:
256,192,141444,1,8,0:0:0:0:
256,192,141523,1,8,0:0:0:0:
256,192,141603,1,8,0:0:0:0:
256,192,141683,1,8,0:0:0:0:
256,192,141763,1,0,0:0:0:0:
256,192,142401,1,0,0:0:0:0:
256,192,143039,1,8,0:0:0:0:
256,192,143252,1,0,0:0:0:0:
256,192,143359,1,0,0:0:0:0:
256,192,143465,1,8,0:0:0:0:
256,192,143571,1,0,0:0:0:0:
256,192,143678,1,8,0:0:0:0:
256,192,144316,1,4,0:0:0:0:
256,192,144529,1,4,0:0:0:0:
256,192,144741,1,4,0:0:0:0:
256,192,144954,1,4,0:0:0:0:
256,192,145593,1,0,0:0:0:0:
256,192,145699,1,0,0:0:0:0:
256,192,145805,1,0,0:0:0:0:
256,192,145912,1,0,0:0:0:0:
256,192,146018,1,0,0:0:0:0:
256,192,146124,1,0,0:0:0:0:
256,192,146231,1,8,0:0:0:0:
256,192,146869,1,0,0:0:0:0:
256,192,146976,1,0,0:0:0:0:
256,192,147082,1,0,0:0:0:0:
256,192,147188,1,0,0:0:0:0:
256,192,147507,1,8,0:0:0:0:
256,192,147720,1,0,0:0:0:0:
256,192,147933,1,0,0:0:0:0:
256,192,148146,1,0,0:0:0:0:
256,192,148359,1,0,0:0:0:0:
256,192,148465,1,8,0:0:0:0:
256,192,148571,1,0,0:0:0:0:
256,192,148678,1,0,0:0:0:0:
256,192,148784,1,8,0:0:0:0:
256,192,148997,1,0,0:0:0:0:
256,192,149210,1,8,0:0:0:0:
256,192,149422,1,0,0:0:0:0:
256,192,150061,1,0,0:0:0:0:
256,192,150167,1,0,0:0:0:0:
256,192,150273,1,8,0:0:0:0:
256,192,150380,1,0,0:0:0:0:
256,192,150486,1,8,0:0:0:0:
256,192,150593,1,0,0:0:0:0:
256,192,150699,1,8,0:0:0:0:
256,192,150912,1,8,0:0:0:0:
256,192,151124,1,0,0:0:0:0:
256,192,151337,1,0,0:0:0:0:
256,192,151656,1,8,0:0:0:0:
256,192,151763,1,8,0:0:0:0:
256,192,151869,1,8,0:0:0:0:
256,192,151976,1,0,0:0:0:0:
256,192,152082,1,8,0:0:0:0:
256,192,152188,1,0,0:0:0:0:
256,192,152295,1,0,0:0:0:0:
256,192,152401,1,0,0:0:0:0:
256,192,152507,1,0,0:0:0:0:
256,192,152614,1,8,0:0:0:0:
256,192,153252,1,4,0:0:0:0:
256,192,153890,1,12,0:0:0:0:
256,192,154103,1,0,0:0:0:0:
256,192,154210,1,0,0:0:0:0:
256,192,154316,1,12,0:0:0:0:
256,192,154529,1,4,0:0:0:0:
256,192,155167,1,8,0:0:0:0:
256,192,155273,1,8,0:0:0:0:
256,192,155380,1,8,0:0:0:0:
256,192,155486,1,8,0:0:0:0:
256,192,155593,1,8,0:0:0:0:
256,192,155699,1,8,0:0:0:0:
256,192,155805,1,0,0:0:0:0:
256,192,156444,1,8,0:0:0:0:
256,192,156656,1,0,0:0:0:0:
256,192,156869,1,8,0:0:0:0:
256,192,156976,1,0,0:0:0:0:
256,192,157082,1,0,0:0:0:0:
256,192,157295,1,8,0:0:0:0:
256,192,157401,1,0,0:0:0:0:
256,192,157507,1,8,0:0:0:0:
256,192,157720,1,0,0:0:0:0:
256,192,158359,1,0,0:0:0:0:
256,192,158465,1,8,0:0:0:0:
256,192,158571,1,8,0:0:0:0:
256,192,158678,1,0,0:0:0:0:
256,192,158784,1,8,0:0:0:0:
256,192,158997,1,8,0:0:0:0:
256,192,159422,1,8,0:0:0:0:
256,192,159635,1,0,0:0:0:0:
256,192,159848,1,0,0:0:0:0:
256,192,160061,1,0,0:0:0:0:
256,192,160273,1,0,0:0:0:0:
256,192,160486,1,0,0:0:0:0:
256,192,160699,1,0,0:0:0:0:
256,192,160912,1,0,0:0:0:0:
256,192,166018,5,12,0:0:0:0:
256,192,167295,1,0,0:0:0:0:
256,192,168146,1,8,0:0:0:0:
256,192,168252,1,8,0:0:0:0:
256,192,168359,1,8,0:0:0:0:
256,192,168465,1,8,0:0:0:0:
256,192,168571,1,0,0:0:0:0:
256,192,169529,1,4,0:0:0:0:
256,192,169848,1,0,0:0:0:0:
256,192,170699,1,8,0:0:0:0:
256,192,170805,1,8,0:0:0:0:
256,192,170912,1,8,0:0:0:0:
256,192,171018,1,8,0:0:0:0:
256,192,171124,1,0,0:0:0:0:
256,192,171390,1,0,0:0:0:0:
256,192,171497,1,0,0:0:0:0:
256,192,171603,1,0,0:0:0:0:
256,192,171869,1,0,0:0:0:0:
256,192,172401,1,4,0:0:0:0:
256,192,172614,1,4,0:0:0:0:
256,192,172827,1,4,0:0:0:0:
256,192,173252,1,8,0:0:0:0:
256,192,173359,1,8,0:0:0:0:
256,192,173465,1,8,0:0:0:0:
256,192,173571,1,8,0:0:0:0:
256,192,173678,1,0,0:0:0:0:
96,64,173997,2,0,L|192:64,3,93.3333333333333
256,192,174954,1,0,0:0:0:0:
256,192,175167,1,0,0:0:0:0:
256,192,175380,1,0,0:0:0:0:
256,192,175805,1,8,0:0:0:0:
256,192,175912,1,8,0:0:0:0:
256,192,176018,1,8,0:0:0:0:
256,192,176124,1,8,0:0:0:0:
256,192,176231,1,0,0:0:0:0:
256,192,176656,1,8,0:0:0:0:
256,192,176869,1,8,0:0:0:0:
256,192,177082,1,8,0:0:0:0:
256,192,177268,1,0,0:0:0:0:
256,192,177348,1,0,0:0:0:0:
256,192,177428,1,0,0:0:0:0:
256,192,177507,1,8,0:0:0:0:
256,192,177667,1,0,0:0:0:0:
256,192,177747,1,0,0:0:0:0:
256,192,177827,1,0,0:0:0:0:
256,192,177986,1,0,0:0:0:0:
256,192,178066,1,0,0:0:0:0:
256,192,178146,1,8,0:0:0:0:
256,192,178465,1,8,0:0:0:0:
256,192,178624,1,0,0:0:0:0:
256,192,178704,1,0,0:0:0:0:
256,192,178784,1,0,0:0:0:0:
256,192,178944,1,0,0:0:0:0:
256,192,179103,1,0,0:0:0:0:
256,192,179263,1,0,0:0:0:0:
256,192,179422,1,8,0:0:0:0:
256,192,180061,1,0,0:0:0:0:
256,192,180912,1,8,0:0:0:0:
256,192,181018,1,8,0:0:0:0:
256,192,181124,1,8,0:0:0:0:
256,192,181231,1,8,0:0:0:0:
256,192,181337,1,0,0:0:0:0:
256,192,181896,1,0,0:0:0:0:
256,192,182055,1,12,0:0:0:0:
256,192,182614,1,0,0:0:0:0:
256,192,182773,1,8,0:0:0:0:
256,192,182933,1,0,0:0:0:0:
256,192,183093,1,8,0:0:0:0:
256,192,183172,1,0,0:0:0:0:
256,192,183252,1,8,0:0:0:0:
256,192,183412,1,8,0:0:0:0:
256,192,183571,1,8,0:0:0:0:
256,192,183651,1,0,0:0:0:0:
256,192,183731,1,8,0:0:0:0:
256,192,183890,1,8,0:0:0:0:
256,192,184050,1,8,0:0:0:0:
256,192,184130,1,8,0:0:0:0:
256,192,184210,1,0,0:0:0:0:
256,192,184369,1,8,0:0:0:0:
256,192,184529,1,8,0:0:0:0:
256,192,184688,1,0,0:0:0:0:
256,192,185167,1,0,0:0:0:0:
256,192,185486,1,8,0:0:0:0:
256,192,185646,1,0,0:0:0:0:
256,192,185726,1,8,0:0:0:0:
256,192,185805,1,8,0:0:0:0:
256,192,185965,1,0,0:0:0:0:
256,192,186124,1,8,0:0:0:0:
256,192,186204,1,0,0:0:0:0:
256,192,186284,1,8,0:0:0:0:
256,192,186444,1,0,0:0:0:0:
256,192,186603,1,8,0:0:0:0:
256,192,186683,1,0,0:0:0:0:
256,192,186763,1,0,0:0:0:0:
256,192,186922,1,0,0:0:0:0:
256,192,187082,1,0,0:0:0:0:
256,192,187241,1,0,0:0:0:0:
256,192,187561,1,8,0:0:0:0:
256,192,187720,1,4,0:0:0:0:
256,192,188039,1,0,0:0:0:0:
256,192,188199,1,0,0:0:0:0:
256,192,188359,1,8,0:0:0:0:
256,192,188518,1,0,0:0:0:0:
256,192,188678,1,0,0:0:0:0:
256,192,188837,1,0,0:0:0:0:
256,192,188997,1,8,0:0:0:0:
256,192,189077,1,8,0:0:0:0:
256,192,189156,1,0,0:0:0:0:
256,192,189316,1,8,0:0:0:0:
256,192,189396,1,8,0:0:0:0:
256,192,189476,1,0,0:0:0:0:
256,192,189795,1,4,0:0:0:0:
256,192,190273,1,0,0:0:0:0:
256,192,190486,1,0,0:0:0:0:
256,192,190593,1,8,0:0:0:0:
256,192,190699,1,0,0:0:0:0:
256,192,190912,1,0,0:0:0:0:
256,192,191124,1,0,0:0:0:0:
256,192,191231,1,8,0:0:0:0:
256,192,191337,1,0,0:0:0:0:
256,192,191550,1,0,0:0:0:0:
256,192,191763,1,0,0:0:0:0:
256,192,191976,1,0,0:0:0:0:
256,192,192188,1,0,0:0:0:0:
256,192,192401,1,8,0:0:0:0:
256,192,192614,1,8,0:0:0:0:
256,192,192827,1,0,0:0:0:0:
256,192,192986,1,8,0:0:0:0:
256,192,193146,1,0,0:0:0:0:
256,192,193305,1,0,0:0:0:0:
256,192,193385,1,0,0:0:0:0:
256,192,193465,1,8,0:0:0:0:
256,192,193624,1,0,0:0:0:0:
256,192,193784,1,8,0:0:0:0:
256,192,193864,1,8,0:0:0:0:
256,192,193944,1,8,0:0:0:0:
256,192,194023,1,8,0:0:0:0:
256,192,194103,1,0,0:0:0:0:
256,192,194582,1,0,0:0:0:0:
256,192,194741,1,8,0:0:0:0:
256,192,194901,1,0,0:0:0:0:
256,192,195061,1,0,0:0:0:0:
256,192,195380,1,0,0:0:0:0:
256,192,195699,1,0,0:0:0:0:
256,192,196018,1,8,0:0:0:0:
256,192,196178,1,8,0:0:0:0:
256,192,196257,1,8,0:0:0:0:
256,192,196337,1,8,0:0:0:0:
256,192,196417,1,8,0:0:0:0:
256,192,196497,1,8,0:0:0:0:
256,192,196577,1,8,0:0:0:0:
256,192,196656,1,0,0:0:0:0:
256,192,196976,1,8,0:0:0:0:
256,192,197135,1,0,0:0:0:0:
256,192,197215,1,0,0:0:0:0:
256,192,197295,1,8,0:0:0:0:
256,192,197454,1,8,0:0:0:0:
256,192,197614,1,0,0:0:0:0:
256,192,197694,1,0,0:0:0:0:
256,192,197773,1,0,0:0:0:0:
256,192,197853,1,0,0:0:0:0:
256,192,197933,1,8,0:0:0:0:
256,192,198252,1,8,0:0:0:0:
256,192,198332,1,8,0:0:0:0:
256,192,198412,1,8,0:0:0:0:
256,192,198491,1,8,0:0:0:0:
256,192,198571,1,0,0:0:0:0:
256,192,198731,1,8,0:0:0:0:
256,192,198890,1,0,0:0:0:0:
256,192,199210,1,0,0:0:0:0:
256,192,199369,1,8,0:0:0:0:
256,192,199529,1,0,0:0:0:0:
256,192,199609,1,0,0:0:0:0:
256,192,199688,1,8,0:0:0:0:
256,192,199768,1,0,0:0:0:0:
256,192,199848,1,0,0:0:0:0:
256,192,200007,1,0,0:0:0:0:
256,192,200167,1,8,0:0:0:0:
256,192,200327,1,0,0:0:0:0:
256,192,200486,1,0,0:0:0:0:
256,192,200646,1,0,0:0:0:0:
256,192,200805,1,0,0:0:0:0:
256,192,200965,1,0,0:0:0:0:
256,192,201124,1,0,0:0:0:0:
256,192,201231,1,0,0:0:0:0:
256,192,201337,1,0,0:0:0:0:
256,192,201444,1,0,0:0:0:0:
256,192,201603,1,0,0:0:0:0:
256,192,201763,1,4,0:0:0:0:
256,192,202241,1,0,0:0:0:0:
256,192,202401,1,8,0:0:0:0:
256,192,202481,1,8,0:0:0:0:
256,192,202561,1,0,0:0:0:0:
256,192,202720,1,12,0:0:0:0:
256,192,203039,1,4,0:0:0:0:
256,192,203359,1,8,0:0:0:0:
256,192,203438,1,8,0:0:0:0:
256,192,203518,1,0,0:0:0:0:
256,192,203678,1,0,0:0:0:0:
256,192,203837,1,8,0:0:0:0:
256,192,203917,1,8,0:0:0:0:
256,192,203997,1,8,0:0:0:0:
256,192,204077,1,8,0:0:0:0:
256,192,204156,1,8,0:0:0:0:
256,192,204236,1,8,0:0:0:0:
256,192,204316,1,0,0:0:0:0:
256,192,204476,1,8,0:0:0:0:
256,192,204795,1,8,0:0:0:0:
256,192,205194,1,8,0:0:0:0:
256,192,205273,1,8,0:0:0:0:
256,192,205353,1,8,0:0:0:0:
256,192,205433,1,8,0:0:0:0:
256,192,205593,1,0,0:0:0:0:
256,192,205832,1,0,0:0:0:0:
256,192,205912,1,0,0:0:0:0:
256,192,206071,1,0,0:0:0:0:
256,192,206390,1,8,0:0:0:0:
256,192,206470,1,8,0:0:0:0:
256,192,206550,1,8,0:0:0:0:
256,192,206630,1,8,0:0:0:0:
256,192,206710,1,8,0:0:0:0:
256,192,206789,1,8,0:0:0:0:
256,192,206869,1,0,0:0:0:0:
256,192,207029,1,8,0:0:0:0:
256,192,207348,1,8,0:0:0:0:
256,192,208146,1,4,0:0:0:0:
256,192,208465,1,0,0:0:0:0:
256,192,208624,1,12,0:0:0:0:
256,192,208944,1,0,0:0:0:0:
256,192,209103,1,4,0:0:0:0:
256,192,209422,1,8,0:0:0:0:
256,192,209502,1,8,0:0:0:0:
256,192,209582,1,8,0:0:0:0:
256,192,209662,1,8,0:0:0:0:
256,192,209741,1,0,0:0:0:0:
256,192,209848,1,0,0:0:0:0:
256,192,209954,1,8,0:0:0:0:
256,192,210061,1,0,0:0:0:0:
256,192,210220,1,0,0:0:0:0:
256,192,210380,1,12,0:0:0:0:
256,192,210699,1,4,0:0:0:0:
256,192,211018,1,8,0:0:0:0:
256,192,211098,1,8,0:0:0:0:
256,192,211178,1,0,0:0:0:0:
256,192,211337,1,0,0:0:0:0:
256,192,211497,1,8,0:0:0:0:
256,192,211577,1,8,0:0:0:0:
256,192,211656,1,8,0:0:0:0:
256,192,211736,1,8,0:0:0:0:
256,192,211816,1,8,0:0:0:0:
256,192,211896,1,8,0:0:0:0:
256,192,211976,1,0,0:0:0:0:
256,192,212135,1,8,0:0:0:0:
256,192,212454,1,8,0:0:0:0:
256,192,212614,1,8,0:0:0:0:
256,192,213252,1,4,0:0:0:0:
256,192,213571,1,8,0:0:0:0:
256,192,213651,1,8,0:0:0:0:
256,192,213731,1,0,0:0:0:0:
256,192,213811,1,8,0:0:0:0:
256,192,213890,1,0,0:0:0:0:
256,192,213970,1,0,0:0:0:0:
256,192,214050,1,8,0:0:0:0:
256,192,214210,1,8,0:0:0:0:
256,192,214289,1,8,0:0:0:0:
256,192,214449,1,8,0:0:0:0:
256,192,214529,1,0,0:0:0:0:
256,192,214848,1,0,0:0:0:0:
256,192,215167,1,0,0:0:0:0:
256,192,215486,1,8,0:0:0:0:
256,192,215566,1,0,0:0:0:0:
256,192,215646,1,8,0:0:0:0:
256,192,215726,1,0,0:0:0:0:
256,192,215805,1,0,0:0:0:0:
256,192,216124,1,0,0:0:0:0:
256,192,216284,1,8,0:0:0:0:
256,192,216364,1,8,0:0:0:0:
256,192,216444,1,0,0:0:0:0:
256,192,216603,1,8,0:0:0:0:
256,192,216683,1,8,0:0:0:0:
256,192,216763,1,8,0:0:0:0:
256,192,216843,1,8,0:0:0:0:
256,192,216922,1,8,0:0:0:0:
256,192,217002,1,8,0:0:0:0:
256,192,217082,1,0,0:0:0:0:
256,192,217241,1,8,0:0:0:0:
256,192,217561,1,8,0:0:0:0:
256,192,217720,1,0,0:0:0:0:
256,192,218359,1,0,0:0:0:0:
256,192,218518,1,8,0:0:0:0:
256,192,218598,1,8,0:0:0:0:
256,192,218678,1,0,0:0:0:0:
256,192,218837,1,0,0:0:0:0:
256,192,218997,1,8,0:0:0:0:
256,192,219077,1,8,0:0:0:0:
256,192,219156,1,0,0:0:0:0:
256,192,219316,1,0,0:0:0:0:
256,192,219476,1,8,0:0:0:0:
256,192,219555,1,8,0:0:0:0:
256,192,219635,1,0,0:0:0:0:
256,192,219795,1,8,0:0:0:0:
256,192,219954,1,0,0:0:0:0:
256,192,220034,1,8,0:0:0:0:
256,192,220114,1,0,0:0:0:0:
256,192,220273,1,8,0:0:0:0:
256,192,220353,1,8,0:0:0:0:
256,192,220433,1,0,0:0:0:0:
256,192,220593,1,8,0:0:0:0:
256,192,220672,1,0,0:0:0:0:
256,192,220752,1,8,0:0:0:0:
256,192,220912,1,4,0:0:0:0:
256,192,221151,1,4,0:0:0:0:
256,192,221390,1,4,0:0:0:0:
256,192,221630,1,4,0:0:0:0:
256,192,221869,1,4,0:0:0:0:
