osu file format v14

[General]
AudioFilename: audio.mp3
AudioLeadIn: 0
PreviewTime: 38360
Countdown: 0
SampleSet: Normal
StackLeniency: 0.7
Mode: 1
LetterboxInBreaks: 0
WidescreenStoryboard: 1

[Editor]
Bookmarks: 7721,9397,20487,28147,38359,40912,61337,81763,99635,111124,121337,131550,141763,166018,182614,203039
DistanceSpacing: 1
BeatDivisor: 4
GridSize: 32
TimelineZoom: 0.9080001

[Metadata]
Title:Figue Folle
TitleUnicode:Figue Folle
Artist:Igorrr & Ruby My Dear
ArtistUnicode:Igorrr & Ruby My Dear
Creator:-Kazu-
Version:Kantan
Source:
Tags:maigre glitch french speedcore breakcore baroquecore
BeatmapID:1451023
BeatmapSetID:680739

[Difficulty]
HPDrainRate:8
CircleSize:2
OverallDifficulty:3
ApproachRate:5
SliderMultiplier:1.4
SliderTickRate:1

[Events]
//Background and Video events
0,0,"ScrapeC3_Resized.jpg",0,75
//Break Periods
2,111324,118861
2,161112,164818
//Storyboard Layer 0 (Background)
//Storyboard Layer 1 (Fail)
//Storyboard Layer 2 (Pass)
//Storyboard Layer 3 (Foreground)
//Storyboard Sound Samples

[TimingPoints]
7722,319.148936170213,4,1,0,55,1,0
28147,425.531914893617,3,1,0,75,1,0
28147,-80,3,1,0,75,0,0
38359,319.148936170213,4,1,0,75,1,0
40912,-100,4,1,0,75,0,1
45380,-100,4,1,0,75,0,0
46018,-100,4,1,0,75,0,1
51124,-100,4,1,0,75,0,0
53678,-100,4,1,0,75,0,1
61337,-100,4,1,0,75,0,0
81763,-100,4,1,0,45,0,0
99635,-100,4,1,0,75,0,0
106018,-90.9090909090909,4,1,0,75,0,1
111124,-90.9090909090909,4,1,0,75,0,0
111763,-100,4,1,0,75,0,0
182614,-100,4,1,0,75,0,1
221909,-100,4,1,0,75,0,0

[HitObjects]
256,192,62,12,0,4370,0:0:0:0:
256,192,4530,12,0,9158,0:0:0:0:
256,192,9317,5,8,0:0:0:0:
256,192,10275,1,0,0:0:0:0:
256,192,11232,1,8,0:0:0:0:
256,192,11551,1,0,0:0:0:0:
256,192,12190,1,8,0:0:0:0:
256,192,12828,1,0,0:0:0:0:
256,192,14104,1,0,0:0:0:0:
256,192,14743,1,0,0:0:0:0:
256,192,15381,1,0,0:0:0:0:
256,192,16658,1,0,0:0:0:0:
256,192,17296,1,0,0:0:0:0:
256,192,17934,1,8,0:0:0:0:
256,192,19211,1,0,0:0:0:0:
256,192,20487,1,0,0:0:0:0:
256,192,20807,1,0,0:0:0:0:
256,192,21445,1,0,0:0:0:0:
256,192,22083,1,0,0:0:0:0:
256,192,22402,1,0,0:0:0:0:
256,192,22722,1,8,0:0:0:0:
256,192,23041,1,0,0:0:0:0:
256,192,23998,1,8,0:0:0:0:
256,192,24317,1,8,0:0:0:0:
256,192,24956,1,0,0:0:0:0:
256,192,25594,1,0,0:0:0:0:
256,192,26870,1,8,0:0:0:0:
256,192,28147,1,0,0:0:0:0:
256,192,29423,1,0,0:0:0:0:
256,192,30700,1,0,0:0:0:0:
256,192,31976,1,0,0:0:0:0:
256,192,33253,1,0,0:0:0:0:
256,192,33678,1,8,0:0:0:0:
256,192,34529,1,0,0:0:0:0:
256,192,34955,1,8,0:0:0:0:
256,192,35806,1,0,0:0:0:0:
256,192,36232,1,8,0:0:0:0:
256,192,37083,1,0,0:0:0:0:
256,192,37508,1,8,0:0:0:0:
256,192,38359,1,0,0:0:0:0:
256,192,39635,1,0,0:0:0:0:
256,192,40912,1,4,0:0:0:0:
256,192,41231,1,8,0:0:0:0:
256,192,41869,1,8,0:0:0:0:
256,192,42507,1,8,0:0:0:0:
256,192,42827,1,8,0:0:0:0:
256,192,43465,1,0,0:0:0:0:
256,192,44741,1,0,0:0:0:0:
256,192,45380,1,12,0:0:0:0:
256,192,46018,1,0,0:0:0:0:
256,192,46337,1,8,0:0:0:0:
256,192,46976,1,8,0:0:0:0:
256,192,47295,1,0,0:0:0:0:
256,192,47933,1,0,0:0:0:0:
256,192,48571,1,0,0:0:0:0:
256,192,49210,1,0,0:0:0:0:
256,192,49529,1,0,0:0:0:0:
256,192,50486,1,8,0:0:0:0:
256,192,51124,1,0,0:0:0:0:
256,192,53678,1,0,0:0:0:0:
256,192,54316,1,0,0:0:0:0:
256,192,54954,1,0,0:0:0:0:
256,192,55273,1,0,0:0:0:0:
256,192,55593,1,8,0:0:0:0:
256,192,56231,1,0,0:0:0:0:
256,192,56550,1,8,0:0:0:0:
256,192,57188,1,8,0:0:0:0:
256,192,57507,1,0,0:0:0:0:
256,192,58146,1,8,0:0:0:0:
256,192,58784,1,0,0:0:0:0:
256,192,59103,1,8,0:0:0:0:
256,192,60061,1,8,0:0:0:0:
256,192,60699,1,0,0:0:0:0:
256,192,61337,1,0,0:0:0:0:
256,192,61976,1,8,0:0:0:0:
256,192,62614,1,0,0:0:0:0:
256,192,62933,1,0,0:0:0:0:
256,192,63252,1,8,0:0:0:0:
256,192,63890,1,0,0:0:0:0:
256,192,64210,1,8,0:0:0:0:
256,192,64848,1,8,0:0:0:0:
256,192,65167,1,0,0:0:0:0:
256,192,65805,1,8,0:0:0:0:
256,192,66444,1,0,0:0:0:0:
256,192,67720,1,8,0:0:0:0:
256,192,68997,1,0,0:0:0:0:
256,192,70273,1,8,0:0:0:0:
256,192,70912,1,0,0:0:0:0:
256,192,71231,1,8,0:0:0:0:
256,192,71550,1,0,0:0:0:0:
256,192,72188,1,8,0:0:0:0:
256,192,72827,1,0,0:0:0:0:
256,192,73146,1,0,0:0:0:0:
256,192,73465,1,8,0:0:0:0:
256,192,74103,1,0,0:0:0:0:
256,192,75380,1,8,0:0:0:0:
256,192,76018,1,8,0:0:0:0:
256,192,76656,1,0,0:0:0:0:
256,192,77614,1,8,0:0:0:0:
256,192,77933,1,0,0:0:0:0:
256,192,78252,1,8,0:0:0:0:
256,192,78571,1,0,0:0:0:0:
256,192,79210,1,0,0:0:0:0:
256,192,80486,1,0,0:0:0:0:
256,192,81124,1,8,0:0:0:0:
256,192,81763,1,0,0:0:0:0:
256,192,83039,1,0,0:0:0:0:
256,192,84316,1,0,0:0:0:0:
256,192,85593,1,0,0:0:0:0:
256,192,86869,1,0,0:0:0:0:
256,192,88146,1,0,0:0:0:0:
256,192,89422,1,0,0:0:0:0:
256,192,90699,1,0,0:0:0:0:
256,192,91976,1,0,0:0:0:0:
256,192,93252,1,8,0:0:0:0:
256,192,94529,1,0,0:0:0:0:
256,192,95805,1,0,0:0:0:0:
256,192,97082,1,8,0:0:0:0:
256,192,98359,5,8,0:0:0:0:
256,192,99635,5,8,0:0:0:0:
256,192,100912,1,4,0:0:0:0:
256,192,101550,1,4,0:0:0:0:
256,192,102188,1,4,0:0:0:0:
256,192,103465,1,4,0:0:0:0:
256,192,104103,1,4,0:0:0:0:
256,192,104741,1,12,0:0:0:0:
256,192,106018,1,8,0:0:0:0:
256,192,106337,1,8,0:0:0:0:
256,192,106656,1,8,0:0:0:0:
256,192,107295,1,8,0:0:0:0:
256,192,107933,1,8,0:0:0:0:
256,192,108571,1,8,0:0:0:0:
256,192,108890,1,8,0:0:0:0:
256,192,109210,1,8,0:0:0:0:
256,192,109848,1,8,0:0:0:0:
256,192,110486,1,8,0:0:0:0:
256,192,111124,1,0,0:0:0:0:
256,192,120061,5,12,0:0:0:0:
256,192,120699,1,0,0:0:0:0:
256,192,121337,1,0,0:0:0:0:
256,192,121976,1,8,0:0:0:0:
256,192,123252,1,8,0:0:0:0:
256,192,123890,1,0,0:0:0:0:
256,192,124848,1,8,0:0:0:0:
256,192,125167,1,0,0:0:0:0:
256,192,126444,1,0,0:0:0:0:
256,192,127082,1,0,0:0:0:0:
256,192,127720,1,0,0:0:0:0:
256,192,128359,1,0,0:0:0:0:
256,192,129635,1,8,0:0:0:0:
256,192,130273,1,0,0:0:0:0:
256,192,131550,1,0,0:0:0:0:
256,192,132188,1,8,0:0:0:0:
256,192,133465,1,8,0:0:0:0:
256,192,134103,1,0,0:0:0:0:
256,192,135061,1,8,0:0:0:0:
256,192,135380,1,8,0:0:0:0:
256,192,136018,1,8,0:0:0:0:
256,192,136656,1,0,0:0:0:0:
256,192,137295,1,0,0:0:0:0:
256,192,137933,1,0,0:0:0:0:
256,192,139210,1,0,0:0:0:0:
256,192,139848,1,8,0:0:0:0:
256,192,140486,1,0,0:0:0:0:
256,192,141763,1,0,0:0:0:0:
256,192,142401,1,0,0:0:0:0:
256,192,143678,1,8,0:0:0:0:
256,192,144316,1,0,0:0:0:0:
256,192,144954,1,0,0:0:0:0:
256,192,145593,1,0,0:0:0:0:
256,192,146869,1,0,0:0:0:0:
256,192,147507,1,8,0:0:0:0:
256,192,148146,1,0,0:0:0:0:
256,192,149422,1,0,0:0:0:0:
256,192,150699,1,0,0:0:0:0:
256,192,151976,1,0,0:0:0:0:
256,192,152614,1,12,0:0:0:0:
256,192,153252,1,4,0:0:0:0:
256,192,154529,1,4,0:0:0:0:
256,192,155805,1,0,0:0:0:0:
256,192,157082,1,0,0:0:0:0:
256,192,157720,1,8,0:0:0:0:
256,192,158359,1,0,0:0:0:0:
256,192,159635,1,8,0:0:0:0:
256,192,160912,1,0,0:0:0:0:
256,192,166018,5,8,0:0:0:0:
256,192,167295,1,0,0:0:0:0:
128,96,168093,2,0,L|352:96,1,210
256,192,169529,1,4,0:0:0:0:
256,192,169848,1,0,0:0:0:0:
128,96,170646,2,0,L|352:96,1,210
256,192,172401,1,4,0:0:0:0:
128,96,173199,2,0,L|352:96,1,210
256,192,174954,1,0,0:0:0:0:
128,96,175752,2,0,L|352:96,1,210
256,192,177507,1,0,0:0:0:0:
256,192,178146,1,8,0:0:0:0:
256,192,178784,1,0,0:0:0:0:
256,192,179422,1,8,0:0:0:0:
256,192,182055,1,12,0:0:0:0:
256,192,182614,1,0,0:0:0:0:
256,192,183252,1,8,0:0:0:0:
256,192,183890,1,0,0:0:0:0:
256,192,184210,1,8,0:0:0:0:
256,192,184529,1,0,0:0:0:0:
256,192,185167,1,0,0:0:0:0:
256,192,186444,1,0,0:0:0:0:
256,192,187082,1,8,0:0:0:0:
256,192,187720,1,0,0:0:0:0:
256,192,188997,1,8,0:0:0:0:
256,192,189316,1,8,0:0:0:0:
256,192,190273,1,0,0:0:0:0:
256,192,191550,1,0,0:0:0:0:
256,192,192827,1,0,0:0:0:0:
256,192,193465,1,8,0:0:0:0:
256,192,194103,1,0,0:0:0:0:
256,192,195380,1,0,0:0:0:0:
256,192,196656,1,0,0:0:0:0:
256,192,197933,1,8,0:0:0:0:
256,192,198571,1,8,0:0:0:0:
256,192,199210,1,0,0:0:0:0:
256,192,199848,1,8,0:0:0:0:
256,192,200486,1,0,0:0:0:0:
256,192,201763,1,4,0:0:0:0:
256,192,203039,1,0,0:0:0:0:
256,192,203359,1,8,0:0:0:0:
256,192,204316,1,0,0:0:0:0:
256,192,205593,1,0,0:0:0:0:
256,192,205912,1,8,0:0:0:0:
256,192,206869,1,0,0:0:0:0:
256,192,208146,1,0,0:0:0:0:
256,192,209103,1,0,0:0:0:0:
256,192,209422,1,8,0:0:0:0:
256,192,210699,1,0,0:0:0:0:
256,192,211976,1,0,0:0:0:0:
256,192,212614,1,8,0:0:0:0:
256,192,213252,1,0,0:0:0:0:
256,192,213571,1,8,0:0:0:0:
256,192,214210,1,8,0:0:0:0:
256,192,214848,1,0,0:0:0:0:
256,192,215167,1,0,0:0:0:0:
256,192,215805,1,0,0:0:0:0:
256,192,216124,1,8,0:0:0:0:
256,192,217082,1,0,0:0:0:0:
256,192,218359,1,0,0:0:0:0:
256,192,219316,1,8,0:0:0:0:
256,192,220273,1,8,0:0:0:0:
256,192,220912,1,4,0:0:0:0:
256,192,221869,1,4,0:0:0:0:
