osu file format v14

[General]
AudioFilename: Biquette.mp3
AudioLeadIn: 0
PreviewTime: 143286
Countdown: 0
SampleSet: Normal
StackLeniency: 0.7
Mode: 3
LetterboxInBreaks: 1
SpecialStyle: 0
WidescreenStoryboard: 1

[Editor]
Bookmarks: 14761,45400,106676,142435,157754,183922,193495,213280,242961
DistanceSpacing: 1.3
BeatDivisor: 6
GridSize: 32
TimelineZoom: 1.728

[Metadata]
Title:Biquette
TitleUnicode:Biquette
Artist:Igorrr & Ruby My Dear
ArtistUnicode:Igorrr & Ruby My Dear
Creator:Pope Gadget
Version:du Fromage
Source:
Tags:Baroquecore Maigre EP
BeatmapID:946374
BeatmapSetID:439776

[Difficulty]
HPDrainRate:8.5
CircleSize:4
OverallDifficulty:7.5
ApproachRate:5
SliderMultiplier:1.4
SliderTickRate:1

[Events]
//Background and Video events
0,0,"Biquette BG.png",0,0
//Break Periods
2,176490,180157
//Storyboard Layer 0 (Background)
//Storyboard Layer 1 (Fail)
//Storyboard Layer 2 (Pass)
//Storyboard Layer 3 (Foreground)
//Storyboard Sound Samples

[TimingPoints]
400,319.148936170213,3,1,0,20,1,0
400,-166.666666666667,3,1,0,20,0,0
964,319.148936170213,3,1,0,20,1,0
964,-166.666666666667,3,1,0,20,0,0
1869,319.148936170213,3,1,0,20,1,0
1869,-166.666666666667,3,1,0,20,0,0
2388,319.148936170213,3,1,0,20,1,0
2388,-166.666666666667,3,1,0,20,0,0
2514,319.148936170213,3,1,0,20,1,0
2514,-166.666666666667,3,1,0,20,0,0
2602,319.148936170213,3,1,0,20,1,0
2602,-166.666666666667,3,1,0,20,0,0
3032,319.148936170213,3,1,0,20,1,0
3032,-166.666666666667,3,1,0,20,0,0
3334,319.148936170213,3,1,0,20,1,0
3334,-166.666666666667,3,1,0,20,0,0
3493,319.148936170213,3,1,0,20,1,0
3493,-166.666666666667,3,1,0,20,0,0
3634,319.148936170213,3,1,0,20,1,0
3634,-166.666666666667,3,1,0,20,0,0
3866,319.148936170213,3,1,0,20,1,0
3866,-153.846153846154,3,1,0,20,0,0
4009,319.148936170213,3,1,0,20,1,0
4009,-153.846153846154,3,1,0,20,0,0
4272,319.148936170213,3,1,0,20,1,0
4272,-153.846153846154,3,1,0,20,0,0
4478,319.148936170213,3,1,0,20,1,0
4478,-153.846153846154,3,1,0,20,0,0
4679,319.148936170213,3,1,0,20,1,0
4679,-153.846153846154,3,1,0,20,0,0
4874,319.148936170213,3,1,0,20,1,0
4874,-153.846153846154,3,1,0,20,0,0
5126,319.148936170213,3,1,0,20,1,0
5126,-153.846153846154,3,1,0,20,0,0
5593,319.148936170213,3,1,0,20,1,0
5593,-153.846153846154,3,1,0,20,0,0
5838,319.148936170213,3,1,0,20,1,0
5838,-153.846153846154,3,1,0,20,0,0
5964,319.148936170213,3,1,0,20,1,0
5964,-153.846153846154,3,1,0,20,0,0
6419,319.148936170213,3,1,0,20,1,0
6419,-142.857142857143,3,1,0,20,0,0
6611,319.148936170213,3,1,0,20,1,0
6611,-142.857142857143,3,1,0,20,0,0
6652,319.148936170213,3,1,0,20,1,0
6652,-142.857142857143,3,1,0,20,0,0
6669,319.148936170213,3,1,0,20,1,0
6669,-142.857142857143,3,1,0,20,0,0
6790,319.148936170213,3,1,0,20,1,0
6790,-142.857142857143,3,1,0,20,0,0
6926,319.148936170213,3,1,0,20,1,0
6926,-142.857142857143,3,1,0,20,0,0
7042,319.148936170213,3,1,0,20,1,0
7042,-142.857142857143,3,1,0,20,0,0
7125,319.148936170213,3,1,0,20,1,0
7125,-142.857142857143,3,1,0,20,0,0
7168,319.148936170213,3,1,0,20,1,0
7168,-142.857142857143,3,1,0,20,0,0
7251,319.148936170213,3,1,0,20,1,0
7251,-142.857142857143,3,1,0,20,0,0
7286,319.148936170213,3,1,0,20,1,0
7286,-142.857142857143,3,1,0,20,0,0
7356,319.148936170213,3,1,0,20,1,0
7356,-142.857142857143,3,1,0,20,0,0
7553,319.148936170213,3,1,0,20,1,0
7553,-142.857142857143,3,1,0,20,0,0
7780,319.148936170213,3,1,0,20,1,0
7780,-142.857142857143,3,1,0,20,0,0
7906,319.148936170213,3,1,0,20,1,0
7906,-142.857142857143,3,1,0,20,0,0
7959,319.148936170213,3,1,0,20,1,0
7959,-142.857142857143,3,1,0,20,0,0
8012,319.148936170213,3,1,0,20,1,0
8012,-142.857142857143,3,1,0,20,0,0
8060,319.148936170213,3,1,0,20,1,0
8060,-133.333333333333,3,1,0,20,0,0
8103,319.148936170213,3,1,0,20,1,0
8103,-133.333333333333,3,1,0,20,0,0
8229,319.148936170213,3,1,0,20,1,0
8229,-133.333333333333,3,1,0,20,0,0
8388,319.148936170213,3,1,0,20,1,0
8388,-133.333333333333,3,1,0,20,0,0
8441,319.148936170213,3,1,0,20,1,0
8441,-133.333333333333,3,1,0,20,0,0
8643,319.148936170213,3,1,0,20,1,0
8643,-133.333333333333,3,1,0,20,0,0
8779,319.148936170213,3,1,0,20,1,0
8779,-133.333333333333,3,1,0,20,0,0
8867,319.148936170213,3,1,0,20,1,0
8867,-133.333333333333,3,1,0,20,0,0
9242,319.148936170213,3,1,0,20,1,0
9242,-133.333333333333,3,1,0,20,0,0
9682,319.148936170213,3,1,0,20,1,0
9682,-133.333333333333,3,1,0,20,0,0
9725,319.148936170213,3,1,0,20,1,0
9725,-133.333333333333,3,1,0,20,0,0
9853,319.148936170213,3,1,0,20,1,0
9853,-133.333333333333,3,1,0,20,0,0
9986,319.148936170213,3,1,0,20,1,0
9986,-133.333333333333,3,1,0,20,0,0
10145,319.148936170213,3,1,0,20,1,0
10145,-133.333333333333,3,1,0,20,0,0
10427,319.148936170213,3,1,0,20,1,0
10427,-133.333333333333,3,1,0,20,0,0
11038,319.148936170213,3,1,0,20,1,0
11038,-133.333333333333,3,1,0,20,0,0
11065,319.148936170213,3,1,0,20,1,0
11065,-133.333333333333,3,1,0,20,0,0
11384,319.148936170213,3,1,0,20,1,0
11384,-125,3,1,0,20,0,0
11527,319.148936170213,3,1,0,20,1,0
11527,-125,3,1,0,20,0,0
11679,319.148936170213,3,1,0,20,1,0
11679,-125,3,1,0,20,0,0
11684,319.148936170213,3,1,0,20,1,0
11684,-125,3,1,0,20,0,0
11688,319.148936170213,3,1,0,20,1,0
11688,-125,3,1,0,20,0,0
11993,319.148936170213,3,1,0,20,1,0
11993,-125,3,1,0,20,0,0
12014,319.148936170213,3,1,0,20,1,0
12014,-125,3,1,0,20,0,0
12117,319.148936170213,3,1,0,20,1,0
12117,-125,3,1,0,20,0,0
12309,319.148936170213,3,1,0,20,1,0
12309,-125,3,1,0,20,0,0
12364,319.148936170213,3,1,0,20,1,0
12364,-125,3,1,0,20,0,0
12457,319.148936170213,3,1,0,20,1,0
12457,-125,3,1,0,20,0,0
12500,319.148936170213,3,1,0,20,1,0
12500,-125,3,1,0,20,0,0
12755,319.148936170213,3,1,0,20,1,0
12755,-125,3,1,0,20,0,0
12796,319.148936170213,3,1,0,20,1,0
12796,-125,3,1,0,20,0,0
12820,319.148936170213,3,1,0,20,1,0
12820,-125,3,1,0,20,0,0
12842,319.148936170213,3,1,0,20,1,0
12842,-125,3,1,0,20,0,0
12880,319.148936170213,3,1,0,20,1,0
12880,-125,3,1,0,20,0,0
13082,319.148936170213,3,1,0,20,1,0
13082,-125,3,1,0,20,0,0
13085,319.148936170213,3,1,0,20,1,0
13085,-125,3,1,0,20,0,0
13094,319.148936170213,3,1,0,20,1,0
13094,-125,3,1,0,20,0,0
13100,319.148936170213,3,1,0,20,1,0
13100,-125,3,1,0,20,0,0
13129,319.148936170213,3,1,0,20,1,0
13129,-117.647058823529,3,1,0,20,0,0
13165,319.148936170213,3,1,0,20,1,0
13165,-117.647058823529,3,1,0,20,0,0
13189,319.148936170213,3,1,0,20,1,0
13189,-117.647058823529,3,1,0,20,0,0
13232,319.148936170213,3,1,0,20,1,0
13232,-117.647058823529,3,1,0,20,0,0
13330,319.148936170213,3,1,0,20,1,0
13330,-117.647058823529,3,1,0,20,0,0
13333,319.148936170213,3,1,0,20,1,0
13333,-117.647058823529,3,1,0,20,0,0
13376,319.148936170213,3,1,0,20,1,0
13376,-117.647058823529,3,1,0,20,0,0
13387,319.148936170213,3,1,0,20,1,0
13387,-117.647058823529,3,1,0,20,0,0
13390,319.148936170213,3,1,0,20,1,0
13390,-117.647058823529,3,1,0,20,0,0
13407,319.148936170213,3,1,0,20,1,0
13407,-117.647058823529,3,1,0,20,0,0
13460,319.148936170213,3,1,0,20,1,0
13460,-117.647058823529,3,1,0,20,0,0
13493,319.148936170213,3,1,0,20,1,0
13493,-117.647058823529,3,1,0,20,0,0
13500,319.148936170213,3,1,0,20,1,0
13500,-117.647058823529,3,1,0,20,0,0
13529,319.148936170213,3,1,0,20,1,0
13529,-117.647058823529,3,1,0,20,0,0
13532,319.148936170213,3,1,0,20,1,0
13532,-117.647058823529,3,1,0,20,0,0
13553,319.148936170213,3,1,0,20,1,0
13553,-117.647058823529,3,1,0,20,0,0
13585,319.148936170213,3,1,0,20,1,0
13585,-117.647058823529,3,1,0,20,0,0
13611,319.148936170213,3,1,0,20,1,0
13611,-117.647058823529,3,1,0,20,0,0
13638,319.148936170213,3,1,0,20,1,0
13638,-117.647058823529,3,1,0,20,0,0
13664,319.148936170213,3,1,0,20,1,0
13664,-117.647058823529,3,1,0,20,0,0
13703,319.148936170213,3,1,0,20,1,0
13703,-111.111111111111,3,1,0,20,0,0
13782,319.148936170213,3,1,0,20,1,0
13782,-111.111111111111,3,1,0,20,0,0
13801,319.148936170213,3,1,0,20,1,0
13801,-111.111111111111,3,1,0,20,0,0
13827,319.148936170213,3,1,0,20,1,0
13827,-111.111111111111,3,1,0,20,0,0
13880,319.148936170213,3,1,0,20,1,0
13880,-111.111111111111,3,1,0,20,0,0
13959,319.148936170213,3,1,0,20,1,0
13959,-111.111111111111,3,1,0,20,0,0
13998,319.148936170213,3,1,0,20,1,0
13998,-111.111111111111,3,1,0,20,0,0
14024,319.148936170213,3,1,0,20,1,0
14024,-111.111111111111,3,1,0,20,0,0
14030,319.148936170213,3,1,0,20,1,0
14030,-111.111111111111,3,1,0,20,0,0
14050,319.148936170213,3,1,0,20,1,0
14050,-111.111111111111,3,1,0,20,0,0
14076,319.148936170213,3,1,0,20,1,0
14076,-111.111111111111,3,1,0,20,0,0
14082,319.148936170213,3,1,0,20,1,0
14082,-111.111111111111,3,1,0,20,0,0
14102,319.148936170213,3,1,0,20,1,0
14102,-111.111111111111,3,1,0,20,0,0
14128,319.148936170213,3,1,0,20,1,0
14128,-111.111111111111,3,1,0,20,0,0
14134,319.148936170213,3,1,0,20,1,0
14134,-111.111111111111,3,1,0,20,0,0
14154,319.148936170213,3,1,0,20,1,0
14154,-111.111111111111,3,1,0,20,0,0
14180,319.148936170213,3,1,0,20,1,0
14180,-111.111111111111,3,1,0,20,0,0
14186,319.148936170213,3,1,0,20,1,0
14186,-111.111111111111,3,1,0,20,0,0
14206,319.148936170213,3,1,0,20,1,0
14206,-111.111111111111,3,1,0,20,0,0
14232,319.148936170213,3,1,0,20,1,0
14232,-111.111111111111,3,1,0,20,0,0
14238,319.148936170213,3,1,0,20,1,0
14238,-111.111111111111,3,1,0,20,0,0
14258,319.148936170213,3,1,0,20,1,0
14258,-111.111111111111,3,1,0,20,0,0
14284,319.148936170213,3,1,0,20,1,0
14284,-105.263157894737,3,1,0,20,0,0
14296,319.148936170213,3,1,0,20,1,0
14296,-105.263157894737,3,1,0,20,0,0
14310,319.148936170213,3,1,0,20,1,0
14310,-105.263157894737,3,1,0,20,0,0
14316,319.148936170213,3,1,0,20,1,0
14316,-105.263157894737,3,1,0,20,0,0
14336,319.148936170213,3,1,0,20,1,0
14336,-105.263157894737,3,1,0,20,0,0
14362,319.148936170213,3,1,0,20,1,0
14362,-105.263157894737,3,1,0,20,0,0
14374,319.148936170213,3,1,0,20,1,0
14374,-105.263157894737,3,1,0,20,0,0
14388,319.148936170213,3,1,0,20,1,0
14388,-105.263157894737,3,1,0,20,0,0
14394,319.148936170213,3,1,0,20,1,0
14394,-105.263157894737,3,1,0,20,0,0
14414,319.148936170213,3,1,0,20,1,0
14414,-105.263157894737,3,1,0,20,0,0
14439,319.148936170213,3,1,0,20,1,0
14439,-105.263157894737,3,1,0,20,0,0
14441,319.148936170213,3,1,0,20,1,0
14441,-105.263157894737,3,1,0,20,0,0
14459,319.148936170213,3,1,0,20,1,0
14459,-105.263157894737,3,1,0,20,0,0
14466,319.148936170213,3,1,0,20,1,0
14466,-105.263157894737,3,1,0,20,0,0
14479,319.148936170213,3,1,0,20,1,0
14492,319.148936170213,3,1,0,20,1,0
14499,319.148936170213,3,1,0,20,1,0
14518,319.148936170213,3,1,0,20,1,0
14520,319.148936170213,3,1,0,20,1,0
14539,319.148936170213,3,1,0,20,1,0
14544,319.148936170213,3,1,0,20,1,0
14559,319.148936170213,3,1,0,20,1,0
14570,319.148936170213,3,1,0,20,1,0
14579,319.148936170213,3,1,0,20,1,0
14596,319.148936170213,3,1,0,20,1,0
14599,319.148936170213,3,1,0,20,1,0
14619,319.148936170213,3,1,0,20,1,0
14622,319.148936170213,3,1,0,20,1,0
14639,319.148936170213,3,1,0,20,1,0
14648,319.148936170213,3,1,0,20,1,0
14659,319.148936170213,3,1,0,20,1,0
14674,319.148936170213,3,1,0,20,1,0
14679,319.148936170213,3,1,0,20,1,0
14699,319.148936170213,3,1,0,20,1,0
14700,319.148936170213,3,1,0,20,1,0
14719,319.148936170213,3,1,0,20,1,0
14726,319.148936170213,3,1,0,20,1,0
14732,319.148936170213,3,1,0,20,1,0
14751,319.148936170213,3,1,0,20,1,0
14752,319.148936170213,3,1,0,20,1,0
14761,319.148936170213,3,1,0,20,1,0
14761,-142.857142857143,3,1,0,20,0,0
18272,-147.058823529412,3,1,0,20,0,0
18431,-138.888888888889,3,1,0,20,0,0
18591,-142.857142857143,3,1,0,20,0,0
21782,-151.515151515152,3,1,0,20,0,0
21942,-135.135135135135,3,1,0,20,0,0
22102,-149.253731343284,3,1,0,20,0,0
22261,-136.986301369863,3,1,0,20,0,0
22421,-142.857142857143,3,1,0,20,0,0
23697,-149.253731343284,3,1,0,20,0,0
23857,-136.986301369863,3,1,0,20,0,0
24017,-151.515151515152,3,1,0,20,0,0
24176,-135.135135135135,3,1,0,20,0,0
24336,-142.857142857143,3,1,0,20,0,0
25931,-153.846153846154,3,1,0,20,0,0
26091,-133.333333333333,3,1,0,20,0,0
26251,-142.857142857143,3,1,0,20,0,0
27846,-149.253731343284,3,1,0,20,0,0
28006,-136.986301369863,3,1,0,20,0,0
28165,-142.857142857143,3,1,0,20,0,0
33591,-153.846153846154,3,1,0,20,0,0
33751,-133.333333333333,3,1,0,20,0,0
33910,-142.857142857143,3,1,0,20,0,0
37102,-161.290322580645,3,1,0,20,0,0
37261,-128.205128205128,3,1,0,20,0,0
37421,-142.857142857143,3,1,0,20,0,0
39017,-158.730158730159,3,1,0,20,0,0
39176,-129.87012987013,3,1,0,20,0,0
39336,-156.25,3,1,0,20,0,0
39495,-131.578947368421,3,1,0,20,0,0
39655,-142.857142857143,3,1,0,20,0,0
41251,-153.846153846154,3,1,0,20,0,0
41410,-133.333333333333,3,1,0,20,0,0
41570,-142.857142857143,3,1,0,20,0,0
45267,-153.846153846154,3,1,0,20,0,0
45400,-50,3,1,0,20,0,0
45425,-125,3,1,0,20,0,0
51144,-120.481927710843,3,1,0,20,0,0
52102,-125,3,1,0,20,0,0
52261,-116.279069767442,3,1,0,20,0,0
52421,-126.582278481013,3,1,0,20,0,0
52580,-114.942528735632,3,1,0,20,0,0
52740,-133.333333333333,3,1,0,20,0,0
52900,-117.647058823529,3,1,0,20,0,0
53059,-125,3,1,0,20,0,0
56889,-120.481927710843,3,1,0,20,0,0
58804,-121.951219512195,3,1,0,20,0,0
59761,-120.481927710843,3,1,0,20,0,0
60080,-119.047619047619,3,1,0,20,0,0
60400,-117.647058823529,3,1,0,20,0,0
60719,-57.1428571428571,3,1,0,20,0,0
60745,-125,3,1,0,20,0,0
68059,-121.951219512195,3,1,0,20,0,0
68165,-119.047619047619,3,1,0,20,0,0
68272,-116.279069767442,3,1,0,20,0,0
68378,-125,3,1,0,20,0,0
70267,-100,3,1,0,20,0,0
70293,-76.9230769230769,3,1,0,20,0,0
70320,-125,3,1,0,20,0,0
72208,-119.047619047619,3,1,0,20,0,0
74123,-121.951219512195,3,1,0,20,0,0
75080,-119.047619047619,3,1,0,20,0,0
75400,-116.279069767442,3,1,0,20,0,0
75719,-113.636363636364,3,1,0,20,0,0
76038,-66.6666666666667,3,1,0,20,0,0
76064,-125,3,1,0,20,0,0
87527,-117.647058823529,3,1,0,20,0,0
89442,-121.951219512195,3,1,0,20,0,0
90400,-117.647058823529,3,1,0,20,0,0
90719,-113.636363636364,3,1,0,20,0,0
91038,-109.89010989011,3,1,0,20,0,0
91357,-100,3,1,0,20,0,0
91383,-125,3,1,0,20,0,0
92314,-121.951219512195,3,1,0,20,0,0
93272,-119.047619047619,3,1,0,20,0,0
94548,-120.481927710843,3,1,0,20,0,0
94868,-121.951219512195,3,1,0,20,0,0
95187,-117.647058823529,3,1,0,20,0,0
102846,319.148936170213,3,1,0,20,1,0
102846,-106.382978723404,3,1,0,20,0,0
102899,319.148936170213,3,1,0,20,1,0
102899,-106.382978723404,3,1,0,20,0,0
102952,319.148936170213,3,1,0,20,1,0
102952,-106.382978723404,3,1,0,20,0,0
103005,319.148936170213,3,1,0,20,1,0
103005,-106.382978723404,3,1,0,20,0,0
103058,319.148936170213,3,1,0,20,1,0
103058,-106.382978723404,3,1,0,20,0,0
103086,319.148936170213,3,1,0,20,1,0
103086,-104.166666666667,3,1,0,20,0,0
103123,319.148936170213,3,1,0,20,1,0
103123,-104.166666666667,3,1,0,20,0,0
103162,319.148936170213,3,1,0,20,1,0
103162,-104.166666666667,3,1,0,20,0,0
103201,319.148936170213,3,1,0,20,1,0
103201,-104.166666666667,3,1,0,20,0,0
103240,319.148936170213,3,1,0,20,1,0
103240,-104.166666666667,3,1,0,20,0,0
103279,319.148936170213,3,1,0,20,1,0
103279,-104.166666666667,3,1,0,20,0,0
103318,319.148936170213,3,1,0,20,1,0
103318,-104.166666666667,3,1,0,20,0,0
103325,-102.040816326531,3,1,0,20,0,0
103344,319.148936170213,3,1,0,20,1,0
103344,-102.040816326531,3,1,0,20,0,0
103370,319.148936170213,3,1,0,20,1,0
103370,-102.040816326531,3,1,0,20,0,0
103396,319.148936170213,3,1,0,20,1,0
103396,-102.040816326531,3,1,0,20,0,0
103422,319.148936170213,3,1,0,20,1,0
103422,-102.040816326531,3,1,0,20,0,0
103448,319.148936170213,3,1,0,20,1,0
103448,-102.040816326531,3,1,0,20,0,0
103474,319.148936170213,3,1,0,20,1,0
103474,-102.040816326531,3,1,0,20,0,0
103485,-100,3,1,0,20,0,0
103493,319.148936170213,3,1,0,20,1,0
103512,319.148936170213,3,1,0,20,1,0
103531,319.148936170213,3,1,0,20,1,0
103550,319.148936170213,3,1,0,20,1,0
103569,319.148936170213,3,1,0,20,1,0
103588,319.148936170213,3,1,0,20,1,0
103607,319.148936170213,3,1,0,20,1,0
103626,319.148936170213,3,1,0,20,1,0
103645,319.148936170213,3,1,0,20,1,0
103664,319.148936170213,3,1,0,20,1,0
103683,319.148936170213,3,1,0,20,1,0
103702,319.148936170213,3,1,0,20,1,0
103721,319.148936170213,3,1,0,20,1,0
103747,319.148936170213,3,1,0,20,1,0
103773,319.148936170213,3,1,0,20,1,0
103799,319.148936170213,3,1,0,20,1,0
103838,319.148936170213,3,1,0,20,1,0
103877,319.148936170213,3,1,0,20,1,0
103930,319.148936170213,3,1,0,20,1,0
103983,319.148936170213,3,1,0,20,1,0
104036,319.148936170213,3,1,0,20,1,0
104043,-125,3,1,0,20,0,0
104123,-100,3,1,0,20,0,0
104142,319.148936170213,3,1,0,20,1,0
104195,319.148936170213,3,1,0,20,1,0
104248,319.148936170213,3,1,0,20,1,0
104301,319.148936170213,3,1,0,20,1,0
104354,319.148936170213,3,1,0,20,1,0
104362,-125,3,1,0,20,0,0
104442,-100,3,1,0,20,0,0
104460,319.148936170213,3,1,0,20,1,0
104513,319.148936170213,3,1,0,20,1,0
104566,319.148936170213,3,1,0,20,1,0
104619,319.148936170213,3,1,0,20,1,0
104672,319.148936170213,3,1,0,20,1,0
104681,-113.636363636364,3,1,0,20,0,0
104761,319.148936170213,3,1,0,20,1,0
104761,-109.89010989011,3,1,0,20,0,0
105080,-106.382978723404,3,1,0,20,0,0
105400,-104.166666666667,3,1,0,20,0,0
105719,-103.092783505155,3,1,0,20,0,0
106038,-102.040816326531,3,1,0,20,0,0
106357,-100,3,1,0,20,0,0
106596,-101.010101010101,3,1,0,20,0,0
106676,319.148936170213,4,1,0,20,1,0
106676,9999999999,1000,1,0,20,1,0
106676,-333.333333333333,4,1,0,20,0,0
106683,0.647422909990688,1000,1,0,20,1,0
106684,0.06,1000,1,0,20,1,0
106686,9999999999,1000,1,0,20,1,0
106693,0.650493391801434,1000,1,0,20,1,0
106694,0.06,1000,1,0,20,1,0
106696,9999999999,1000,1,0,20,1,0
106703,0.653587113865495,1000,1,0,20,1,0
106704,0.06,1000,1,0,20,1,0
106706,9999999999,1000,1,0,20,1,0
106713,0.656704289697381,1000,1,0,20,1,0
106714,0.06,1000,1,0,20,1,0
106716,9999999999,1000,1,0,20,1,0
106723,0.659845134762142,1000,1,0,20,1,0
106724,0.06,1000,1,0,20,1,0
106726,9999999999,1000,1,0,20,1,0
106733,0.663009866484224,1000,1,0,20,1,0
106734,0.06,1000,1,0,20,1,0
106736,9999999999,1000,1,0,20,1,0
106743,0.666198704255862,1000,1,0,20,1,0
106744,0.06,1000,1,0,20,1,0
106746,9999999999,1000,1,0,20,1,0
106753,0.669411869445142,1000,1,0,20,1,0
106754,0.06,1000,1,0,20,1,0
106756,9999999999,1000,1,0,20,1,0
106763,0.672649585403604,1000,1,0,20,1,0
106764,0.06,1000,1,0,20,1,0
106766,9999999999,1000,1,0,20,1,0
106773,0.675912077473328,1000,1,0,20,1,0
106774,0.06,1000,1,0,20,1,0
106776,9999999999,1000,1,0,20,1,0
106783,0.679199572993632,1000,1,0,20,1,0
106784,0.06,1000,1,0,20,1,0
106786,9999999999,1000,1,0,20,1,0
106793,0.68251230130722,1000,1,0,20,1,0
106794,0.06,1000,1,0,20,1,0
106796,9999999999,1000,1,0,20,1,0
106803,0.685850493765746,1000,1,0,20,1,0
106804,0.06,1000,1,0,20,1,0
106806,9999999999,1000,1,0,20,1,0
106813,0.689214383734914,1000,1,0,20,1,0
106814,0.06,1000,1,0,20,1,0
106816,9999999999,1000,1,0,20,1,0
106823,0.692604206598938,1000,1,0,20,1,0
106824,0.06,1000,1,0,20,1,0
106826,9999999999,1000,1,0,20,1,0
106833,0.696020199764334,1000,1,0,20,1,0
106834,0.06,1000,1,0,20,1,0
106836,9999999999,1000,1,0,20,1,0
106843,0.699462602663188,1000,1,0,20,1,0
106844,0.06,1000,1,0,20,1,0
106846,9999999999,1000,1,0,20,1,0
106853,0.70293165675561,1000,1,0,20,1,0
106854,0.06,1000,1,0,20,1,0
106856,9999999999,1000,1,0,20,1,0
106863,0.706427605531565,1000,1,0,20,1,0
106864,0.06,1000,1,0,20,1,0
106866,9999999999,1000,1,0,20,1,0
106873,0.709950694511919,1000,1,0,20,1,0
106874,0.06,1000,1,0,20,1,0
106876,9999999999,1000,1,0,20,1,0
106883,0.713501171248712,1000,1,0,20,1,0
106884,0.06,1000,1,0,20,1,0
106886,9999999999,1000,1,0,20,1,0
106893,0.717079285324611,1000,1,0,20,1,0
106894,0.06,1000,1,0,20,1,0
106896,9999999999,1000,1,0,20,1,0
106903,0.720685288351507,1000,1,0,20,1,0
106904,0.06,1000,1,0,20,1,0
106906,9999999999,1000,1,0,20,1,0
106913,0.72431943396822,1000,1,0,20,1,0
106914,0.06,1000,1,0,20,1,0
106916,9999999999,1000,1,0,20,1,0
106923,0.727981977837264,1000,1,0,20,1,0
106924,0.06,1000,1,0,20,1,0
106926,9999999999,1000,1,0,20,1,0
106933,0.731673177640639,1000,1,0,20,1,0
106934,0.06,1000,1,0,20,1,0
106936,9999999999,1000,1,0,20,1,0
106943,0.7353932930746,1000,1,0,20,1,0
106944,0.06,1000,1,0,20,1,0
106946,9999999999,1000,1,0,20,1,0
106953,0.739142585843362,1000,1,0,20,1,0
106954,0.06,1000,1,0,20,1,0
106956,9999999999,1000,1,0,20,1,0
106963,0.742921319651696,1000,1,0,20,1,0
106964,0.06,1000,1,0,20,1,0
106966,9999999999,1000,1,0,20,1,0
106973,0.746729760196355,1000,1,0,20,1,0
106974,0.06,1000,1,0,20,1,0
106976,9999999999,1000,1,0,20,1,0
106983,0.75056817515633,1000,1,0,20,1,0
106984,0.06,1000,1,0,20,1,0
106986,9999999999,1000,1,0,20,1,0
106993,0.754436834181756,1000,1,0,20,1,0
106994,0.06,1000,1,0,20,1,0
106996,9999999999,1000,1,0,20,1,0
107003,0.758336008881619,1000,1,0,20,1,0
107004,0.06,1000,1,0,20,1,0
107006,9999999999,1000,1,0,20,1,0
107013,0.762265972810038,1000,1,0,20,1,0
107014,0.06,1000,1,0,20,1,0
107016,9999999999,1000,1,0,20,1,0
107023,0.76622700145107,1000,1,0,20,1,0
107024,0.06,1000,1,0,20,1,0
107026,9999999999,1000,1,0,20,1,0
107033,0.770219372202146,1000,1,0,20,1,0
107034,0.06,1000,1,0,20,1,0
107036,9999999999,1000,1,0,20,1,0
107043,0.774243364355895,1000,1,0,20,1,0
107044,0.06,1000,1,0,20,1,0
107046,9999999999,1000,1,0,20,1,0
107053,0.778299259080318,1000,1,0,20,1,0
107054,0.06,1000,1,0,20,1,0
107056,9999999999,1000,1,0,20,1,0
107063,0.782387339397399,1000,1,0,20,1,0
107064,0.06,1000,1,0,20,1,0
107066,9999999999,1000,1,0,20,1,0
107073,0.786507890159918,1000,1,0,20,1,0
107074,0.06,1000,1,0,20,1,0
107076,9999999999,1000,1,0,20,1,0
107083,0.790661198026398,1000,1,0,20,1,0
107084,0.06,1000,1,0,20,1,0
107086,9999999999,1000,1,0,20,1,0
107093,0.794847551434324,1000,1,0,20,1,0
107094,0.06,1000,1,0,20,1,0
107096,9999999999,1000,1,0,20,1,0
107103,0.79906724057125,1000,1,0,20,1,0
107104,0.06,1000,1,0,20,1,0
107106,9999999999,1000,1,0,20,1,0
107113,0.803320557343979,1000,1,0,20,1,0
107114,0.06,1000,1,0,20,1,0
107116,9999999999,1000,1,0,20,1,0
107123,0.807607795345604,1000,1,0,20,1,0
107124,0.06,1000,1,0,20,1,0
107126,9999999999,1000,1,0,20,1,0
107133,0.811929249820357,1000,1,0,20,1,0
107134,0.06,1000,1,0,20,1,0
107136,9999999999,1000,1,0,20,1,0
107143,0.816285217626197,1000,1,0,20,1,0
107144,0.06,1000,1,0,20,1,0
107146,9999999999,1000,1,0,20,1,0
107153,0.820675997195037,1000,1,0,20,1,0
107154,0.06,1000,1,0,20,1,0
107156,9999999999,1000,1,0,20,1,0
107163,0.825101888490518,1000,1,0,20,1,0
107164,0.06,1000,1,0,20,1,0
107166,9999999999,1000,1,0,20,1,0
107173,0.829563192963261,1000,1,0,20,1,0
107174,0.06,1000,1,0,20,1,0
107176,9999999999,1000,1,0,20,1,0
107183,0.834060213503464,1000,1,0,20,1,0
107184,0.06,1000,1,0,20,1,0
107186,9999999999,1000,1,0,20,1,0
107193,0.83859325439079,1000,1,0,20,1,0
107194,0.06,1000,1,0,20,1,0
107196,9999999999,1000,1,0,20,1,0
107203,0.843162621241413,1000,1,0,20,1,0
107204,0.06,1000,1,0,20,1,0
107206,9999999999,1000,1,0,20,1,0
107213,0.84776862095213,1000,1,0,20,1,0
107214,0.06,1000,1,0,20,1,0
107216,9999999999,1000,1,0,20,1,0
107223,0.852411561641429,1000,1,0,20,1,0
107224,0.06,1000,1,0,20,1,0
107226,9999999999,1000,1,0,20,1,0
107233,0.857091752587447,1000,1,0,20,1,0
107234,0.06,1000,1,0,20,1,0
107236,9999999999,1000,1,0,20,1,0
107243,0.861809504162557,1000,1,0,20,1,0
107244,0.06,1000,1,0,20,1,0
107246,9999999999,1000,1,0,20,1,0
107253,0.866565127764712,1000,1,0,20,1,0
107254,0.06,1000,1,0,20,1,0
107256,9999999999,1000,1,0,20,1,0
107263,0.871358935745221,1000,1,0,20,1,0
107264,0.06,1000,1,0,20,1,0
107266,9999999999,1000,1,0,20,1,0
107273,0.876191241332842,1000,1,0,20,1,0
107274,0.06,1000,1,0,20,1,0
107276,9999999999,1000,1,0,20,1,0
107283,0.881062358554247,1000,1,0,20,1,0
107284,0.06,1000,1,0,20,1,0
107286,9999999999,1000,1,0,20,1,0
107293,0.885972602150551,1000,1,0,20,1,0
107294,0.06,1000,1,0,20,1,0
107296,9999999999,1000,1,0,20,1,0
107303,0.890922287489748,1000,1,0,20,1,0
107304,0.06,1000,1,0,20,1,0
107306,9999999999,1000,1,0,20,1,0
107313,0.895911730475135,1000,1,0,20,1,0
107314,0.06,1000,1,0,20,1,0
107316,9999999999,1000,1,0,20,1,0
107323,0.900941247449372,1000,1,0,20,1,0
107324,0.06,1000,1,0,20,1,0
107326,9999999999,1000,1,0,20,1,0
107333,0.906011155094021,1000,1,0,20,1,0
107334,0.06,1000,1,0,20,1,0
107336,9999999999,1000,1,0,20,1,0
107343,0.911121770324687,1000,1,0,20,1,0
107344,0.06,1000,1,0,20,1,0
107346,9999999999,1000,1,0,20,1,0
107353,0.91627341018121,1000,1,0,20,1,0
107354,0.06,1000,1,0,20,1,0
107356,9999999999,1000,1,0,20,1,0
107363,0.921466391713089,1000,1,0,20,1,0
107364,0.06,1000,1,0,20,1,0
107366,9999999999,1000,1,0,20,1,0
107373,0.926701031859789,1000,1,0,20,1,0
107374,0.06,1000,1,0,20,1,0
107376,9999999999,1000,1,0,20,1,0
107383,0.931977647325833,1000,1,0,20,1,0
107384,0.06,1000,1,0,20,1,0
107386,9999999999,1000,1,0,20,1,0
107393,0.93729655445048,1000,1,0,20,1,0
107394,0.06,1000,1,0,20,1,0
107396,9999999999,1000,1,0,20,1,0
107403,0.942658069071844,1000,1,0,20,1,0
107404,0.06,1000,1,0,20,1,0
107406,9999999999,1000,1,0,20,1,0
107413,0.948062506385248,1000,1,0,20,1,0
107414,0.06,1000,1,0,20,1,0
107416,9999999999,1000,1,0,20,1,0
107423,0.953510180795641,1000,1,0,20,1,0
107424,0.06,1000,1,0,20,1,0
107426,9999999999,1000,1,0,20,1,0
107433,0.959001405763897,1000,1,0,20,1,0
107434,0.06,1000,1,0,20,1,0
107436,9999999999,1000,1,0,20,1,0
107443,0.964536493646786,1000,1,0,20,1,0
107444,0.06,1000,1,0,20,1,0
107446,9999999999,1000,1,0,20,1,0
107453,0.970115755530441,1000,1,0,20,1,0
107454,0.06,1000,1,0,20,1,0
107456,9999999999,1000,1,0,20,1,0
107463,0.975739501057103,1000,1,0,20,1,0
107464,0.06,1000,1,0,20,1,0
107466,9999999999,1000,1,0,20,1,0
107473,0.981408038244936,1000,1,0,20,1,0
107474,0.06,1000,1,0,20,1,0
107476,9999999999,1000,1,0,20,1,0
107483,0.987121673300767,1000,1,0,20,1,0
107484,0.06,1000,1,0,20,1,0
107486,9999999999,1000,1,0,20,1,0
107493,0.992880710425351,1000,1,0,20,1,0
107494,0.06,1000,1,0,20,1,0
107496,9999999999,1000,1,0,20,1,0
107503,0.998685451611227,1000,1,0,20,1,0
107504,0.06,1000,1,0,20,1,0
107506,9999999999,1000,1,0,20,1,0
107513,1.00453619643272,1000,1,0,20,1,0
107514,0.06,1000,1,0,20,1,0
107516,9999999999,1000,1,0,20,1,0
107523,1.01043324182783,1000,1,0,20,1,0
107524,0.06,1000,1,0,20,1,0
107526,9999999999,1000,1,0,20,1,0
107533,1.01637688187206,1000,1,0,20,1,0
107534,0.06,1000,1,0,20,1,0
107536,9999999999,1000,1,0,20,1,0
107543,1.02236740754366,1000,1,0,20,1,0
107544,0.06,1000,1,0,20,1,0
107546,9999999999,1000,1,0,20,1,0
107553,1.02840510648004,1000,1,0,20,1,0
107554,0.06,1000,1,0,20,1,0
107556,9999999999,1000,1,0,20,1,0
107563,1.03449026272543,1000,1,0,20,1,0
107564,0.06,1000,1,0,20,1,0
107566,9999999999,1000,1,0,20,1,0
107573,1.0406231564692,1000,1,0,20,1,0
107574,0.06,1000,1,0,20,1,0
107576,9999999999,1000,1,0,20,1,0
107583,1.04680406377461,1000,1,0,20,1,0
107584,0.06,1000,1,0,20,1,0
107586,9999999999,1000,1,0,20,1,0
107593,1.05303325629808,1000,1,0,20,1,0
107594,0.06,1000,1,0,20,1,0
107596,9999999999,1000,1,0,20,1,0
107603,1.05931100099825,1000,1,0,20,1,0
107604,0.06,1000,1,0,20,1,0
107606,9999999999,1000,1,0,20,1,0
107613,1.06563755983483,1000,1,0,20,1,0
107614,0.06,1000,1,0,20,1,0
107616,9999999999,1000,1,0,20,1,0
107623,1.07201318945704,1000,1,0,20,1,0
107624,0.06,1000,1,0,20,1,0
107626,9999999999,1000,1,0,20,1,0
107633,1.07843814088111,1000,1,0,20,1,0
107634,0.06,1000,1,0,20,1,0
107636,9999999999,1000,1,0,20,1,0
107643,1.08491265915684,1000,1,0,20,1,0
107644,0.06,1000,1,0,20,1,0
107646,9999999999,1000,1,0,20,1,0
107653,1.09143698302272,1000,1,0,20,1,0
107654,0.06,1000,1,0,20,1,0
107656,9999999999,1000,1,0,20,1,0
107663,1.09801134454948,1000,1,0,20,1,0
107664,0.06,1000,1,0,20,1,0
107666,9999999999,1000,1,0,20,1,0
107673,1.10463596877177,1000,1,0,20,1,0
107674,0.06,1000,1,0,20,1,0
107676,9999999999,1000,1,0,20,1,0
107683,1.11131107330757,1000,1,0,20,1,0
107684,0.06,1000,1,0,20,1,0
107686,9999999999,1000,1,0,20,1,0
107693,1.11803686796524,1000,1,0,20,1,0
107694,0.06,1000,1,0,20,1,0
107696,9999999999,1000,1,0,20,1,0
107703,1.12481355433773,1000,1,0,20,1,0
107704,0.06,1000,1,0,20,1,0
107706,9999999999,1000,1,0,20,1,0
107713,1.13164132538386,1000,1,0,20,1,0
107714,0.06,1000,1,0,20,1,0
107716,9999999999,1000,1,0,20,1,0
107723,1.13946915025901,1000,1,0,20,1,0
107724,0.06,1000,1,0,20,1,0
107726,9999999999,1000,1,0,20,1,0
107733,1.15471593822469,1000,1,0,20,1,0
107734,0.06,1000,1,0,20,1,0
107736,9999999999,1000,1,0,20,1,0
107743,1.16899335361702,1000,1,0,20,1,0
107744,0.06,1000,1,0,20,1,0
107746,9999999999,1000,1,0,20,1,0
107753,1.17927523960036,1000,1,0,20,1,0
107754,0.06,1000,1,0,20,1,0
107756,9999999999,1000,1,0,20,1,0
107763,1.18326929214437,1000,1,0,20,1,0
107764,0.06,1000,1,0,20,1,0
107766,9999999999,1000,1,0,20,1,0
107773,1.18065445936385,1000,1,0,20,1,0
107774,0.06,1000,1,0,20,1,0
107776,9999999999,1000,1,0,20,1,0
107783,1.17368067972164,1000,1,0,20,1,0
107784,0.06,1000,1,0,20,1,0
107786,9999999999,1000,1,0,20,1,0
107793,1.16668682279494,1000,1,0,20,1,0
107794,0.06,1000,1,0,20,1,0
107796,9999999999,1000,1,0,20,1,0
107803,1.16476233244631,1000,1,0,20,1,0
107804,0.06,1000,1,0,20,1,0
107806,9999999999,1000,1,0,20,1,0
107813,1.17217131798852,1000,1,0,20,1,0
107814,0.06,1000,1,0,20,1,0
107816,9999999999,1000,1,0,20,1,0
107823,1.19094991982098,1000,1,0,20,1,0
107824,0.06,1000,1,0,20,1,0
107826,9999999999,1000,1,0,20,1,0
107833,1.21971924936994,1000,1,0,20,1,0
107834,0.06,1000,1,0,20,1,0
107836,9999999999,1000,1,0,20,1,0
107843,1.25285853185843,1000,1,0,20,1,0
107844,0.06,1000,1,0,20,1,0
107846,9999999999,1000,1,0,20,1,0
107853,1.28091738500973,1000,1,0,20,1,0
107854,0.06,1000,1,0,20,1,0
107856,9999999999,1000,1,0,20,1,0
107863,1.29366021422781,1000,1,0,20,1,0
107864,0.06,1000,1,0,20,1,0
107866,9999999999,1000,1,0,20,1,0
107873,1.28558660825818,1000,1,0,20,1,0
107874,0.06,1000,1,0,20,1,0
107876,9999999999,1000,1,0,20,1,0
107883,1.2602682071225,1000,1,0,20,1,0
107884,0.06,1000,1,0,20,1,0
107886,9999999999,1000,1,0,20,1,0
107893,1.22935984282541,1000,1,0,20,1,0
107894,0.06,1000,1,0,20,1,0
107896,9999999999,1000,1,0,20,1,0
107903,1.2072264825023,1000,1,0,20,1,0
107904,0.06,1000,1,0,20,1,0
107906,9999999999,1000,1,0,20,1,0
107913,1.20582627206706,1000,1,0,20,1,0
107914,0.06,1000,1,0,20,1,0
107916,9999999999,1000,1,0,20,1,0
107923,1.23201531109828,1000,1,0,20,1,0
107924,0.06,1000,1,0,20,1,0
107926,9999999999,1000,1,0,20,1,0
107933,1.28559068688445,1000,1,0,20,1,0
107934,0.06,1000,1,0,20,1,0
107936,9999999999,1000,1,0,20,1,0
107943,1.35591569848869,1000,1,0,20,1,0
107944,0.06,1000,1,0,20,1,0
107946,9999999999,1000,1,0,20,1,0
107953,1.4189595722726,1000,1,0,20,1,0
107954,0.06,1000,1,0,20,1,0
107956,9999999999,1000,1,0,20,1,0
107963,1.44360640292901,1000,1,0,20,1,0
107964,0.06,1000,1,0,20,1,0
107966,9999999999,1000,1,0,20,1,0
107973,1.41302280446408,1000,1,0,20,1,0
107974,0.06,1000,1,0,20,1,0
107976,9999999999,1000,1,0,20,1,0
107983,1.34195621235632,1000,1,0,20,1,0
107984,0.06,1000,1,0,20,1,0
107986,9999999999,1000,1,0,20,1,0
107993,1.26588827730486,1000,1,0,20,1,0
107994,0.06,1000,1,0,20,1,0
107996,9999999999,1000,1,0,20,1,0
108003,1.21766658075186,1000,1,0,20,1,0
108004,0.06,1000,1,0,20,1,0
108006,9999999999,1000,1,0,20,1,0
108013,1.21787285364259,1000,1,0,20,1,0
108014,0.06,1000,1,0,20,1,0
108016,9999999999,1000,1,0,20,1,0
108023,1.27696323064073,1000,1,0,20,1,0
108024,0.06,1000,1,0,20,1,0
108026,9999999999,1000,1,0,20,1,0
108033,1.39450389147679,1000,1,0,20,1,0
108034,0.06,1000,1,0,20,1,0
108036,9999999999,1000,1,0,20,1,0
108043,1.54506701552509,1000,1,0,20,1,0
108044,0.06,1000,1,0,20,1,0
108046,9999999999,1000,1,0,20,1,0
108053,1.65866718671479,1000,1,0,20,1,0
108054,0.06,1000,1,0,20,1,0
108056,9999999999,1000,1,0,20,1,0
108063,1.65049196354255,1000,1,0,20,1,0
108064,0.06,1000,1,0,20,1,0
108066,9999999999,1000,1,0,20,1,0
108073,1.517658160985,1000,1,0,20,1,0
108074,0.06,1000,1,0,20,1,0
108076,9999999999,1000,1,0,20,1,0
108083,1.34838679426585,1000,1,0,20,1,0
108084,0.06,1000,1,0,20,1,0
108086,9999999999,1000,1,0,20,1,0
108093,1.22401151952577,1000,1,0,20,1,0
108094,0.06,1000,1,0,20,1,0
108096,9999999999,1000,1,0,20,1,0
108103,1.18114332813578,1000,1,0,20,1,0
108104,0.06,1000,1,0,20,1,0
108106,9999999999,1000,1,0,20,1,0
108113,1.23585401986127,1000,1,0,20,1,0
108114,0.06,1000,1,0,20,1,0
108116,9999999999,1000,1,0,20,1,0
108123,1.40334430808915,1000,1,0,20,1,0
108124,0.06,1000,1,0,20,1,0
108126,9999999999,1000,1,0,20,1,0
108133,1.68278284990078,1000,1,0,20,1,0
108134,0.06,1000,1,0,20,1,0
108136,9999999999,1000,1,0,20,1,0
108143,1.97533829790497,1000,1,0,20,1,0
108144,0.06,1000,1,0,20,1,0
108146,9999999999,1000,1,0,20,1,0
108153,2.03370163127312,1000,1,0,20,1,0
108154,0.06,1000,1,0,20,1,0
108156,9999999999,1000,1,0,20,1,0
108163,1.77672843868973,1000,1,0,20,1,0
108164,0.06,1000,1,0,20,1,0
108166,9999999999,1000,1,0,20,1,0
108173,1.4461542916009,1000,1,0,20,1,0
108174,0.06,1000,1,0,20,1,0
108176,9999999999,1000,1,0,20,1,0
108183,1.22095898002413,1000,1,0,20,1,0
108184,0.06,1000,1,0,20,1,0
108186,9999999999,1000,1,0,20,1,0
108193,1.13357613909224,1000,1,0,20,1,0
108194,0.06,1000,1,0,20,1,0
108196,9999999999,1000,1,0,20,1,0
108203,1.1852504860445,1000,1,0,20,1,0
108204,0.06,1000,1,0,20,1,0
108206,9999999999,1000,1,0,20,1,0
108213,1.40250959960505,1000,1,0,20,1,0
108214,0.06,1000,1,0,20,1,0
108216,9999999999,1000,1,0,20,1,0
108223,1.83515279439204,1000,1,0,20,1,0
108224,0.06,1000,1,0,20,1,0
108226,9999999999,1000,1,0,20,1,0
108233,2.40442159129837,1000,1,0,20,1,0
108234,0.06,1000,1,0,20,1,0
108236,9999999999,1000,1,0,20,1,0
108243,2.57827311940819,1000,1,0,20,1,0
108244,0.06,1000,1,0,20,1,0
108246,9999999999,1000,1,0,20,1,0
108253,2.09670839947706,1000,1,0,20,1,0
108254,0.06,1000,1,0,20,1,0
108256,9999999999,1000,1,0,20,1,0
108263,1.55398582074852,1000,1,0,20,1,0
108264,0.06,1000,1,0,20,1,0
108266,9999999999,1000,1,0,20,1,0
108273,1.23572015390366,1000,1,0,20,1,0
108274,0.06,1000,1,0,20,1,0
108276,9999999999,1000,1,0,20,1,0
108283,1.11859681569592,1000,1,0,20,1,0
108284,0.06,1000,1,0,20,1,0
108286,9999999999,1000,1,0,20,1,0
108293,1.17034857547892,1000,1,0,20,1,0
108294,0.06,1000,1,0,20,1,0
108296,9999999999,1000,1,0,20,1,0
108303,1.41678907316787,1000,1,0,20,1,0
108304,0.06,1000,1,0,20,1,0
108306,9999999999,1000,1,0,20,1,0
108313,1.94158642677993,1000,1,0,20,1,0
108314,0.06,1000,1,0,20,1,0
108316,9999999999,1000,1,0,20,1,0
108323,2.7094988644324,1000,1,0,20,1,0
108324,0.06,1000,1,0,20,1,0
108326,9999999999,1000,1,0,20,1,0
108333,2.99783518853412,1000,1,0,20,1,0
108334,0.06,1000,1,0,20,1,0
108336,9999999999,1000,1,0,20,1,0
108343,2.36879567798026,1000,1,0,20,1,0
108344,0.06,1000,1,0,20,1,0
108346,9999999999,1000,1,0,20,1,0
108353,1.69260948844525,1000,1,0,20,1,0
108354,0.06,1000,1,0,20,1,0
108356,9999999999,1000,1,0,20,1,0
108363,1.31646310115531,1000,1,0,20,1,0
108364,0.06,1000,1,0,20,1,0
108366,9999999999,1000,1,0,20,1,0
108373,1.1755334857367,1000,1,0,20,1,0
108374,0.06,1000,1,0,20,1,0
108376,9999999999,1000,1,0,20,1,0
108383,1.21389835513295,1000,1,0,20,1,0
108384,0.06,1000,1,0,20,1,0
108386,9999999999,1000,1,0,20,1,0
108393,1.44227748686908,1000,1,0,20,1,0
108394,0.06,1000,1,0,20,1,0
108396,9999999999,1000,1,0,20,1,0
108403,1.92472242282575,1000,1,0,20,1,0
108404,0.06,1000,1,0,20,1,0
108406,9999999999,1000,1,0,20,1,0
108413,2.63625704650384,1000,1,0,20,1,0
108414,0.06,1000,1,0,20,1,0
108416,9999999999,1000,1,0,20,1,0
108423,3.01930954586629,1000,1,0,20,1,0
108424,0.06,1000,1,0,20,1,0
108426,9999999999,1000,1,0,20,1,0
108433,2.56088957573395,1000,1,0,20,1,0
108434,0.06,1000,1,0,20,1,0
108436,9999999999,1000,1,0,20,1,0
108443,1.90471828230194,1000,1,0,20,1,0
108444,0.06,1000,1,0,20,1,0
108446,9999999999,1000,1,0,20,1,0
108453,1.48824032774578,1000,1,0,20,1,0
108454,0.06,1000,1,0,20,1,0
108456,9999999999,1000,1,0,20,1,0
108463,1.30418831916785,1000,1,0,20,1,0
108464,0.06,1000,1,0,20,1,0
108466,9999999999,1000,1,0,20,1,0
108473,1.29702021195766,1000,1,0,20,1,0
108474,0.06,1000,1,0,20,1,0
108476,9999999999,1000,1,0,20,1,0
108483,1.45622433137153,1000,1,0,20,1,0
108484,0.06,1000,1,0,20,1,0
108486,9999999999,1000,1,0,20,1,0
108493,1.80895255318953,1000,1,0,20,1,0
108494,0.06,1000,1,0,20,1,0
108496,9999999999,1000,1,0,20,1,0
108503,2.34618207010881,1000,1,0,20,1,0
108504,0.06,1000,1,0,20,1,0
108506,9999999999,1000,1,0,20,1,0
108513,2.80039247034312,1000,1,0,20,1,0
108514,0.06,1000,1,0,20,1,0
108516,9999999999,1000,1,0,20,1,0
108523,2.71180586757027,1000,1,0,20,1,0
108524,0.06,1000,1,0,20,1,0
108526,9999999999,1000,1,0,20,1,0
108533,2.22035640408717,1000,1,0,20,1,0
108534,0.06,1000,1,0,20,1,0
108536,9999999999,1000,1,0,20,1,0
108543,1.77323726828473,1000,1,0,20,1,0
108544,0.06,1000,1,0,20,1,0
108546,9999999999,1000,1,0,20,1,0
108553,1.51166897641452,1000,1,0,20,1,0
108554,0.06,1000,1,0,20,1,0
108556,9999999999,1000,1,0,20,1,0
108563,1.4185592703759,1000,1,0,20,1,0
108564,0.06,1000,1,0,20,1,0
108566,9999999999,1000,1,0,20,1,0
108573,1.47091244253228,1000,1,0,20,1,0
108574,0.06,1000,1,0,20,1,0
108576,9999999999,1000,1,0,20,1,0
108583,1.66862038682076,1000,1,0,20,1,0
108584,0.06,1000,1,0,20,1,0
108586,9999999999,1000,1,0,20,1,0
108593,2.01422888553186,1000,1,0,20,1,0
108594,0.06,1000,1,0,20,1,0
108596,9999999999,1000,1,0,20,1,0
108603,2.43630200110369,1000,1,0,20,1,0
108604,0.06,1000,1,0,20,1,0
108606,9999999999,1000,1,0,20,1,0
108613,2.69418039462954,1000,1,0,20,1,0
108614,0.06,1000,1,0,20,1,0
108616,9999999999,1000,1,0,20,1,0
108623,2.57034500513924,1000,1,0,20,1,0
108624,0.06,1000,1,0,20,1,0
108626,9999999999,1000,1,0,20,1,0
108633,2.2076931766542,1000,1,0,20,1,0
108634,0.06,1000,1,0,20,1,0
108636,9999999999,1000,1,0,20,1,0
108643,1.8654629219645,1000,1,0,20,1,0
108644,0.06,1000,1,0,20,1,0
108646,9999999999,1000,1,0,20,1,0
108653,1.64807726326837,1000,1,0,20,1,0
108654,0.06,1000,1,0,20,1,0
108656,9999999999,1000,1,0,20,1,0
108663,1.56174205049028,1000,1,0,20,1,0
108664,0.06,1000,1,0,20,1,0
108666,9999999999,1000,1,0,20,1,0
108673,1.59554462851426,1000,1,0,20,1,0
108674,0.06,1000,1,0,20,1,0
108676,9999999999,1000,1,0,20,1,0
108683,1.74502787771667,1000,1,0,20,1,0
108684,0.06,1000,1,0,20,1,0
108686,9999999999,1000,1,0,20,1,0
108693,2.00291735772356,1000,1,0,20,1,0
108694,0.06,1000,1,0,20,1,0
108696,9999999999,1000,1,0,20,1,0
108703,2.32248083939214,1000,1,0,20,1,0
108704,0.06,1000,1,0,20,1,0
108706,9999999999,1000,1,0,20,1,0
108713,2.57392220678555,1000,1,0,20,1,0
108714,0.06,1000,1,0,20,1,0
108716,9999999999,1000,1,0,20,1,0
108723,2.6021246359558,1000,1,0,20,1,0
108724,0.06,1000,1,0,20,1,0
108726,9999999999,1000,1,0,20,1,0
108733,2.40291945017772,1000,1,0,20,1,0
108734,0.06,1000,1,0,20,1,0
108736,9999999999,1000,1,0,20,1,0
108743,2.1228317317331,1000,1,0,20,1,0
108744,0.06,1000,1,0,20,1,0
108746,9999999999,1000,1,0,20,1,0
108753,1.88724360731792,1000,1,0,20,1,0
108754,0.06,1000,1,0,20,1,0
108756,9999999999,1000,1,0,20,1,0
108763,1.74290220419849,1000,1,0,20,1,0
108764,0.06,1000,1,0,20,1,0
108766,9999999999,1000,1,0,20,1,0
108773,1.69516268332226,1000,1,0,20,1,0
108774,0.06,1000,1,0,20,1,0
108776,9999999999,1000,1,0,20,1,0
108783,1.73965208637356,1000,1,0,20,1,0
108784,0.06,1000,1,0,20,1,0
108786,9999999999,1000,1,0,20,1,0
108793,1.87117122407911,1000,1,0,20,1,0
108794,0.06,1000,1,0,20,1,0
108796,9999999999,1000,1,0,20,1,0
108803,2.07695342945574,1000,1,0,20,1,0
108804,0.06,1000,1,0,20,1,0
108806,9999999999,1000,1,0,20,1,0
108813,2.31857328366329,1000,1,0,20,1,0
108814,0.06,1000,1,0,20,1,0
108816,9999999999,1000,1,0,20,1,0
108823,2.5174058534295,1000,1,0,20,1,0
108824,0.06,1000,1,0,20,1,0
108826,9999999999,1000,1,0,20,1,0
108833,2.5830998962331,1000,1,0,20,1,0
108834,0.06,1000,1,0,20,1,0
108836,9999999999,1000,1,0,20,1,0
108843,2.48906781243711,1000,1,0,20,1,0
108844,0.06,1000,1,0,20,1,0
108846,9999999999,1000,1,0,20,1,0
108853,2.29746891667816,1000,1,0,20,1,0
108854,0.06,1000,1,0,20,1,0
108856,9999999999,1000,1,0,20,1,0
108863,2.0948699388559,1000,1,0,20,1,0
108864,0.06,1000,1,0,20,1,0
108866,9999999999,1000,1,0,20,1,0
108873,1.93650829388788,1000,1,0,20,1,0
108874,0.06,1000,1,0,20,1,0
108876,9999999999,1000,1,0,20,1,0
108883,1.84349761566095,1000,1,0,20,1,0
108884,0.06,1000,1,0,20,1,0
108886,9999999999,1000,1,0,20,1,0
108893,1.81944268125217,1000,1,0,20,1,0
108894,0.06,1000,1,0,20,1,0
108896,9999999999,1000,1,0,20,1,0
108903,1.86190939348416,1000,1,0,20,1,0
108904,0.06,1000,1,0,20,1,0
108906,9999999999,1000,1,0,20,1,0
108913,1.96545369851274,1000,1,0,20,1,0
108914,0.06,1000,1,0,20,1,0
108916,9999999999,1000,1,0,20,1,0
108923,2.1183851125502,1000,1,0,20,1,0
108924,0.06,1000,1,0,20,1,0
108926,9999999999,1000,1,0,20,1,0
108933,2.29588076515038,1000,1,0,20,1,0
108934,0.06,1000,1,0,20,1,0
108936,9999999999,1000,1,0,20,1,0
108943,2.45565009896512,1000,1,0,20,1,0
108944,0.06,1000,1,0,20,1,0
108946,9999999999,1000,1,0,20,1,0
108953,2.54760601664612,1000,1,0,20,1,0
108954,0.06,1000,1,0,20,1,0
108956,9999999999,1000,1,0,20,1,0
108963,2.5409087392943,1000,1,0,20,1,0
108964,0.06,1000,1,0,20,1,0
108966,9999999999,1000,1,0,20,1,0
108973,2.44544199780788,1000,1,0,20,1,0
108974,0.06,1000,1,0,20,1,0
108976,9999999999,1000,1,0,20,1,0
108983,2.30222652146649,1000,1,0,20,1,0
108984,0.06,1000,1,0,20,1,0
108986,319.148936170213,1000,1,0,20,1,0
109229,319.148936170213,4,1,0,20,1,0
109229,-86.9565217391304,4,1,0,20,0,0
109388,-142.857142857143,4,1,0,20,0,0
109468,-105.263157894737,4,1,0,20,0,0
109628,-117.647058823529,4,1,0,20,0,0
109707,-111.111111111111,4,1,0,20,0,0
109787,-100,4,1,0,20,0,0
109867,-125,4,1,0,20,0,0
110186,-100,4,1,0,20,0,0
110346,-133.333333333333,4,1,0,20,0,0
110426,-100,4,1,0,20,0,0
110505,-111.111111111111,4,1,0,20,0,0
111463,-50,4,1,0,20,0,0
111516,-76.9230769230769,4,1,0,20,0,0
111569,-111.111111111111,4,1,0,20,0,0
111622,-125,4,1,0,20,0,0
111702,-133.333333333333,4,1,0,20,0,0
111782,-111.111111111111,4,1,0,20,0,0
112420,-90.9090909090909,4,1,0,20,0,0
112460,-133.333333333333,4,1,0,20,0,0
112500,-90.9090909090909,4,1,0,20,0,0
112540,-133.333333333333,4,1,0,20,0,0
112580,-90.9090909090909,4,1,0,20,0,0
112620,-133.333333333333,4,1,0,20,0,0
112660,-90.9090909090909,4,1,0,20,0,0
112699,-133.333333333333,4,1,0,20,0,0
112739,-95.2380952380952,4,1,0,20,0,0
112899,-111.111111111111,4,1,0,20,0,0
113058,-125,4,1,0,20,0,0
113218,-133.333333333333,4,1,0,20,0,0
113298,-125,4,1,0,20,0,0
113457,-100,4,1,0,20,0,0
113537,-125,4,1,0,20,0,0
113697,-111.111111111111,4,1,0,20,0,0
114016,-108.695652173913,4,1,0,20,0,0
114096,-106.382978723404,4,1,0,20,0,0
114176,-104.166666666667,4,1,0,20,0,0
114255,-102.040816326531,4,1,0,20,0,0
114335,-116.279069767442,4,1,0,20,0,0
114495,-113.636363636364,4,1,0,20,0,0
114574,-111.111111111111,4,1,0,20,0,0
114734,-108.695652173913,4,1,0,20,0,0
114894,-106.382978723404,4,1,0,20,0,0
114973,-105.263157894737,4,1,0,20,0,0
115293,-104.166666666667,4,1,0,20,0,0
115372,-103.092783505155,4,1,0,20,0,0
115452,-102.040816326531,4,1,0,20,0,0
115532,-101.010101010101,4,1,0,20,0,0
115612,-125,4,1,0,20,0,0
115771,-100,4,1,0,20,0,0
115931,-105.263157894737,4,1,0,20,0,0
116011,-111.111111111111,4,1,0,20,0,0
116250,-106.382978723404,4,1,0,20,0,0
116330,-102.040816326531,4,1,0,20,0,0
116410,-108.695652173913,4,1,0,20,0,0
116489,-104.166666666667,4,1,0,20,0,0
116569,-90.9090909090909,4,1,0,20,0,0
116888,-117.647058823529,4,1,0,20,0,0
117048,-90.9090909090909,4,1,0,20,0,0
117128,-117.647058823529,4,1,0,20,0,0
117287,-90.9090909090909,4,1,0,20,0,0
117367,-117.647058823529,4,1,0,20,0,0
117686,-111.111111111111,4,1,0,20,0,0
118005,-105.263157894737,4,1,0,20,0,0
118085,-133.333333333333,4,1,0,20,0,0
118165,-125,4,1,0,20,0,0
118271,-121.951219512195,4,1,0,20,0,0
118378,-119.047619047619,4,1,0,20,0,0
118484,-116.279069767442,4,1,0,20,0,0
118590,-113.636363636364,4,1,0,20,0,0
118697,-111.111111111111,4,1,0,20,0,0
118803,-105.263157894737,4,1,0,20,0,0
119122,-117.647058823529,4,1,0,20,0,0
119202,-113.636363636364,4,1,0,20,0,0
119282,-108.695652173913,4,1,0,20,0,0
119362,-103.092783505155,4,1,0,20,0,0
119441,-50,4,1,0,20,0,0
119521,-250,4,1,0,20,0,0
119521,-166.666666666667,4,1,0,20,0,0
119601,-125,4,1,0,20,0,0
119681,-200,4,1,0,20,0,0
119761,-142.857142857143,4,1,0,20,0,0
119840,-250,4,1,0,20,0,0
119920,-125,4,1,0,20,0,0
120000,-222.222222222222,4,1,0,20,0,0
120080,-133.333333333333,4,1,0,20,0,0
120160,-125,4,1,0,20,0,0
120239,-250,4,1,0,20,0,0
120319,-166.666666666667,4,1,0,20,0,0
120399,-83.3333333333333,4,1,0,20,0,0
120439,-166.666666666667,4,1,0,20,0,0
120479,-83.3333333333333,4,1,0,20,0,0
120519,-166.666666666667,4,1,0,20,0,0
120558,-111.111111111111,4,1,0,20,0,0
120798,-105.263157894737,4,1,0,20,0,0
120878,-100,4,1,0,20,0,0
120957,-200,4,1,0,20,0,0
120997,-66.6666666666667,4,1,0,20,0,0
121037,-1000,4,1,0,20,0,0
121077,-52.6315789473684,4,1,0,20,0,0
121117,-1000,4,1,0,20,0,0
121157,-52.6315789473684,4,1,0,20,0,0
121197,-1000,4,1,0,20,0,0
121237,-52.6315789473684,4,1,0,20,0,0
121277,-1000,4,1,0,20,0,0
121316,-52.6315789473684,4,1,0,20,0,0
121356,-333.333333333333,4,1,0,20,0,0
121396,-58.8235294117647,4,1,0,20,0,0
121436,-200,4,1,0,20,0,0
121476,-66.6666666666667,4,1,0,20,0,0
121516,-142.857142857143,4,1,0,20,0,0
121556,-76.9230769230769,4,1,0,20,0,0
121596,-111.111111111111,4,1,0,20,0,0
121636,-90.9090909090909,4,1,0,20,0,0
121715,-111.111111111111,4,1,0,20,0,0
121755,-76.9230769230769,4,1,0,20,0,0
121795,-142.857142857143,4,1,0,20,0,0
121835,-66.6666666666667,4,1,0,20,0,0
121875,-200,4,1,0,20,0,0
121915,-58.8235294117647,4,1,0,20,0,0
121955,-333.333333333333,4,1,0,20,0,0
121995,-52.6315789473684,4,1,0,20,0,0
122035,-1000,4,1,0,20,0,0
122074,-100,4,1,0,20,0,0
122154,-90.9090909090909,4,1,0,20,0,0
122314,-100,4,1,0,20,0,0
122473,-111.111111111111,4,1,0,20,0,0
122872,-108.695652173913,4,1,0,20,0,0
122952,-106.382978723404,4,1,0,20,0,0
123032,-104.166666666667,4,1,0,20,0,0
123112,-100,4,1,0,20,0,0
123191,-111.111111111111,4,1,0,20,0,0
124229,-117.647058823529,4,1,0,20,0,0
124548,-100,4,1,0,20,0,0
127101,-10,4,1,0,20,0,0
127121,-83.3333333333333,4,1,0,20,0,0
127181,-100,4,1,0,20,0,0
127261,-125,4,1,0,20,0,0
127340,-142.857142857143,4,1,0,20,0,0
127420,-111.111111111111,4,1,0,20,0,0
127500,-10,4,1,0,20,0,0
127520,-83.3333333333333,4,1,0,20,0,0
127739,-142.857142857143,4,1,0,20,0,0
127979,-10,4,1,0,20,0,0
127999,-83.3333333333333,4,1,0,20,0,0
128218,-142.857142857143,4,1,0,20,0,0
128378,-111.111111111111,4,1,0,20,0,0
128537,-105.263157894737,4,1,0,20,0,0
128617,-100,4,1,0,20,0,0
130931,322.58064516129,5,1,0,20,1,0
132060,-97.0873786407767,5,1,0,20,0,0
132167,-94.3396226415094,5,1,0,20,0,0
132275,-91.743119266055,5,1,0,20,0,0
132382,-89.2857142857143,5,1,0,20,0,0
132490,-86.9565217391304,5,1,0,20,0,0
132543,319.148936170213,4,1,0,20,1,0
132543,-20,4,1,0,20,0,0
132622,-133.333333333333,4,1,0,20,0,0
133819,-20,4,1,0,20,0,0
133899,-142.857142857143,4,1,0,20,0,0
135096,319.148936170213,5,1,0,20,1,0
135096,-166.666666666667,5,1,0,20,0,0
135415,-133.333333333333,5,1,0,20,0,0
135734,-153.846153846154,5,1,0,20,0,0
136053,-142.857142857143,5,1,0,20,0,0
136372,-133.333333333333,5,1,0,20,0,0
136452,-125,5,1,0,20,0,0
136532,-117.647058823529,5,1,0,20,0,0
136611,-10,5,1,0,20,0,0
136691,319.148936170213,3,1,0,20,1,0
136691,-250,3,1,0,20,0,0
137927,-500,3,1,0,20,0,0
137967,-166.666666666667,3,1,0,20,0,0
138007,-500,3,1,0,20,0,0
138047,-166.666666666667,3,1,0,20,0,0
138087,-500,3,1,0,20,0,0
138127,-166.666666666667,3,1,0,20,0,0
138167,-500,3,1,0,20,0,0
138206,-166.666666666667,3,1,0,20,0,0
138246,-500,3,1,0,20,0,0
138286,-166.666666666667,3,1,0,20,0,0
138326,-500,3,1,0,20,0,0
138366,-166.666666666667,3,1,0,20,0,0
138406,-500,3,1,0,20,0,0
138446,-166.666666666667,3,1,0,20,0,0
138486,-500,3,1,0,20,0,0
138526,-166.666666666667,3,1,0,20,0,0
138566,-333.333333333333,3,1,0,20,0,0
138605,-222.222222222222,3,1,0,20,0,0
139563,-200,3,1,0,20,0,0
139882,-188.679245283019,3,1,0,20,0,0
140042,-178.571428571429,3,1,0,20,0,0
140121,-169.491525423729,3,1,0,20,0,0
140281,-161.290322580645,3,1,0,20,0,0
140361,-153.846153846154,3,1,0,20,0,0
140520,-147.058823529412,3,1,0,20,0,0
140600,-140.845070422535,3,1,0,20,0,0
140760,-135.135135135135,3,1,0,20,0,0
140839,-129.87012987013,3,1,0,20,0,0
141159,-125,3,1,0,20,0,0
141318,-120.481927710843,3,1,0,20,0,0
141398,-116.279069767442,3,1,0,20,0,0
141558,-112.359550561798,3,1,0,20,0,0
141637,-108.695652173913,3,1,0,20,0,0
141797,-105.263157894737,3,1,0,20,0,0
141956,-102.040816326531,3,1,0,20,0,0
142116,-99.009900990099,3,1,0,20,0,0
142196,-96.1538461538461,3,1,0,20,0,0
142276,-93.4579439252336,3,1,0,20,0,0
142355,-90.9090909090909,3,1,0,20,0,0
142435,-142.857142857143,3,1,0,20,0,0
156278,319.148936170213,3,1,0,20,1,0
156278,-142.857142857143,3,1,0,20,0,0
156517,319.148936170213,3,1,0,20,1,0
156517,-142.857142857143,3,1,0,20,0,0
156675,319.148936170213,3,1,0,20,1,0
156675,-142.857142857143,3,1,0,20,0,0
156814,319.148936170213,3,1,0,20,1,0
156814,-142.857142857143,3,1,0,20,0,0
156933,319.148936170213,3,1,0,20,1,0
156933,-142.857142857143,3,1,0,20,0,0
157012,319.148936170213,3,1,0,20,1,0
157012,-142.857142857143,3,1,0,20,0,0
157071,319.148936170213,3,1,0,20,1,0
157071,-142.857142857143,3,1,0,20,0,0
157130,319.148936170213,3,1,0,20,1,0
157130,-142.857142857143,3,1,0,20,0,0
157183,319.148936170213,3,1,0,20,1,0
157183,-142.857142857143,3,1,0,20,0,0
157236,319.148936170213,3,1,0,20,1,0
157236,-142.857142857143,3,1,0,20,0,0
157289,319.148936170213,3,1,0,20,1,0
157289,-142.857142857143,3,1,0,20,0,0
157342,319.148936170213,3,1,0,20,1,0
157342,-142.857142857143,3,1,0,20,0,0
157381,319.148936170213,3,1,0,20,1,0
157381,-142.857142857143,3,1,0,20,0,0
157420,319.148936170213,3,1,0,20,1,0
157420,-142.857142857143,3,1,0,20,0,0
157459,319.148936170213,3,1,0,20,1,0
157459,-142.857142857143,3,1,0,20,0,0
157498,319.148936170213,3,1,0,20,1,0
157498,-142.857142857143,3,1,0,20,0,0
157524,319.148936170213,3,1,0,20,1,0
157524,-142.857142857143,3,1,0,20,0,0
157550,319.148936170213,3,1,0,20,1,0
157550,-142.857142857143,3,1,0,20,0,0
157576,319.148936170213,3,1,0,20,1,0
157576,-142.857142857143,3,1,0,20,0,0
157602,319.148936170213,3,1,0,20,1,0
157602,-142.857142857143,3,1,0,20,0,0
157628,319.148936170213,3,1,0,20,1,0
157628,-142.857142857143,3,1,0,20,0,0
157647,319.148936170213,3,1,0,20,1,0
157647,-142.857142857143,3,1,0,20,0,0
157666,319.148936170213,3,1,0,20,1,0
157666,-142.857142857143,3,1,0,20,0,0
157685,319.148936170213,3,1,0,20,1,0
157685,-142.857142857143,3,1,0,20,0,0
157704,319.148936170213,3,1,0,20,1,0
157704,-142.857142857143,3,1,0,20,0,0
157723,319.148936170213,3,1,0,20,1,0
157723,-142.857142857143,3,1,0,20,0,0
157742,319.148936170213,3,1,0,20,1,0
157742,-142.857142857143,3,1,0,20,0,0
157754,319.148936170213,3,1,0,20,1,0
157914,-105.263157894737,3,1,0,20,0,0
158073,-117.647058823529,3,1,0,20,0,0
158233,-142.857142857143,3,1,0,20,0,0
158393,-200,3,1,0,20,0,0
158552,-400,3,1,0,20,0,0
158871,-333.333333333333,3,1,0,20,0,0
159031,-250,3,1,0,20,0,0
159191,-181.818181818182,3,1,0,20,0,0
159350,-133.333333333333,3,1,0,20,0,0
159510,-100,3,1,0,20,0,0
159669,319.148936170213,4,1,0,20,1,0
159669,-66.6666666666667,4,1,0,20,0,0
159708,-133.333333333333,4,1,0,20,0,0
159908,-66.6666666666667,4,1,0,20,0,0
159948,-133.333333333333,4,1,0,20,0,0
160147,-66.6666666666667,4,1,0,20,0,0
160187,-133.333333333333,4,1,0,20,0,0
160307,-100,4,1,0,20,0,0
160945,-74.0740740740741,4,1,0,20,0,0
161065,-142.857142857143,4,1,0,20,0,0
161105,-74.0740740740741,4,1,0,20,0,0
161145,-142.857142857143,4,1,0,20,0,0
161184,-86.9565217391304,4,1,0,20,0,0
161224,-142.857142857143,4,1,0,20,0,0
161264,-74.0740740740741,4,1,0,20,0,0
161304,-142.857142857143,4,1,0,20,0,0
161344,-86.9565217391304,4,1,0,20,0,0
161384,-142.857142857143,4,1,0,20,0,0
161424,-74.0740740740741,4,1,0,20,0,0
161464,-142.857142857143,4,1,0,20,0,0
161796,-181.818181818182,4,1,0,20,0,0
161903,-117.647058823529,4,1,0,20,0,0
162009,-250,4,1,0,20,0,0
162115,-142.857142857143,4,1,0,20,0,0
162222,-80,4,1,0,20,0,0
162262,-142.857142857143,4,1,0,20,0,0
162860,319.148936170213,4,1,0,20,1,0
162860,-111.111111111111,4,1,0,20,0,0
163179,-133.333333333333,4,1,0,20,0,0
163657,-166.666666666667,4,1,0,20,0,0
164136,-200,4,1,0,20,0,0
164668,-151.515151515152,4,1,0,20,0,0
164721,-285.714285714286,4,1,0,20,0,0
164774,-129.87012987013,4,1,0,20,0,0
164828,-285.714285714286,4,1,0,20,0,0
164881,-113.636363636364,4,1,0,20,0,0
164934,-285.714285714286,4,1,0,20,0,0
164987,-101.010101010101,4,1,0,20,0,0
165040,-285.714285714286,4,1,0,20,0,0
165094,-90.9090909090909,4,1,0,20,0,0
165147,-285.714285714286,4,1,0,20,0,0
165200,-82.6446280991736,4,1,0,20,0,0
165253,-285.714285714286,4,1,0,20,0,0
165306,-75.7575757575758,4,1,0,20,0,0
165360,-285.714285714286,4,1,0,20,0,0
165413,-125,4,1,0,20,0,0
165812,-111.111111111111,4,1,0,20,0,0
165891,-133.333333333333,4,1,0,20,0,0
165971,-153.846153846154,4,1,0,20,0,0
166051,-90.9090909090909,4,1,0,20,0,0
166131,-111.111111111111,4,1,0,20,0,0
166211,-142.857142857143,4,1,0,20,0,0
166290,-90.9090909090909,4,1,0,20,0,0
166370,-111.111111111111,4,1,0,20,0,0
166450,-142.857142857143,4,1,0,20,0,0
166530,-90.9090909090909,4,1,0,20,0,0
166610,-111.111111111111,4,1,0,20,0,0
166689,-142.857142857143,4,1,0,20,0,0
166769,-90.9090909090909,4,1,0,20,0,0
166849,-111.111111111111,4,1,0,20,0,0
166929,-142.857142857143,4,1,0,20,0,0
167168,-136.986301369863,4,1,0,20,0,0
167248,-131.578947368421,4,1,0,20,0,0
167328,-126.582278481013,4,1,0,20,0,0
167407,-121.951219512195,4,1,0,20,0,0
167487,-117.647058823529,4,1,0,20,0,0
167567,-113.636363636364,4,1,0,20,0,0
167647,-109.89010989011,4,1,0,20,0,0
167727,-106.382978723404,4,1,0,20,0,0
167806,-103.092783505155,4,1,0,20,0,0
167966,-100,4,1,0,20,0,0
168285,-119.047619047619,4,1,0,20,0,0
168604,-147.058823529412,4,1,0,20,0,0
168684,-138.888888888889,4,1,0,20,0,0
168764,-131.578947368421,4,1,0,20,0,0
168844,-125,4,1,0,20,0,0
168923,-119.047619047619,4,1,0,20,0,0
169003,-113.636363636364,4,1,0,20,0,0
169083,-108.695652173913,4,1,0,20,0,0
169163,-104.166666666667,4,1,0,20,0,0
169242,-114.942528735632,4,1,0,20,0,0
169349,-128.205128205128,4,1,0,20,0,0
169455,-144.927536231884,4,1,0,20,0,0
169562,-166.666666666667,4,1,0,20,0,0
169641,-142.857142857143,4,1,0,20,0,0
169721,-125,4,1,0,20,0,0
169801,-111.111111111111,4,1,0,20,0,0
169881,-500,4,1,0,20,0,0
170280,-400,4,1,0,20,0,0
170679,-333.333333333333,4,1,0,20,0,0
170918,-285.714285714286,4,1,0,20,0,0
171157,-250,4,1,0,20,0,0
171477,-222.222222222222,4,1,0,20,0,0
171796,-200,4,1,0,20,0,0
172115,-166.666666666667,4,1,0,20,0,0
172434,-142.857142857143,4,1,0,20,0,0
172753,-125,4,1,0,20,0,0
173072,-111.111111111111,4,1,0,20,0,0
173232,-133.333333333333,4,1,0,20,0,0
173498,-166.666666666667,4,1,0,20,0,0
173711,-222.222222222222,4,1,0,20,0,0
174987,-181.818181818182,4,1,0,20,0,0
175306,-142.857142857143,4,1,0,20,0,0
175519,-125,4,1,0,20,0,0
175572,-111.111111111111,4,1,0,20,0,0
175625,-100,4,1,0,20,0,0
176264,-333.333333333333,4,1,0,20,0,0
177540,319.148936170213,4,1,0,20,1,0
177540,-333.333333333333,4,1,0,20,0,0
178178,319.148936170213,4,1,0,20,1,0
178178,-333.333333333333,4,1,0,20,0,0
178816,319.148936170213,4,1,0,20,1,0
178816,-333.333333333333,4,1,0,20,0,0
181369,-100,4,1,0,20,0,0
181395,-142.857142857143,4,1,0,20,0,0
182645,-125,4,1,0,20,0,0
183284,-111.111111111111,4,1,0,20,0,0
183603,-100,4,1,0,20,0,0
183922,-95.2380952380952,4,1,0,20,0,1
187433,-97.0873786407767,4,1,0,20,0,1
187539,-95.2380952380952,4,1,0,20,0,1
187645,-92.5925925925926,4,1,0,20,0,1
187752,-92.5925925925926,4,1,0,20,0,0
187911,-108.695652173913,4,1,0,20,0,0
187991,-92.5925925925926,4,1,0,20,0,0
188151,-108.695652173913,4,1,0,20,0,0
188230,-92.5925925925926,4,1,0,20,0,0
188310,-100,4,1,0,20,0,0
188390,-90.9090909090909,4,1,0,20,0,0
188869,-66.6666666666667,4,1,0,20,0,0
188909,-200,4,1,0,20,0,0
188948,-57.1428571428571,4,1,0,20,0,0
188988,-200,4,1,0,20,0,0
189028,-90.9090909090909,4,1,0,20,0,0
189188,-113.636363636364,4,1,0,20,0,0
189268,-90.9090909090909,4,1,0,20,0,0
189427,-113.636363636364,4,1,0,20,0,0
189507,-90.9090909090909,4,1,0,20,0,0
189587,-100,4,1,0,20,0,0
189667,-89.2857142857143,4,1,0,20,0,0
190145,-92.5925925925926,4,1,0,20,0,0
190225,-96.1538461538461,4,1,0,20,0,0
190305,-100,4,1,0,20,0,0
190464,-83.3333333333333,4,1,0,20,0,0
190544,-95.2380952380952,4,1,0,20,0,0
190704,-83.3333333333333,4,1,0,20,0,0
190784,-90.9090909090909,4,1,0,20,0,0
190943,-86.9565217391304,4,1,0,20,0,0
191422,-90.9090909090909,4,1,0,20,0,0
191502,-95.2380952380952,4,1,0,20,0,0
191581,319.148936170213,3,1,0,20,1,0
191581,-142.857142857143,3,1,0,20,0,0
191740,319.148936170213,3,1,0,20,1,0
191740,-136.986301369863,3,1,0,20,0,0
192019,319.148936170213,3,1,0,20,1,0
192019,-131.578947368421,3,1,0,20,0,0
192259,319.148936170213,3,1,0,20,1,0
192259,-126.582278481013,3,1,0,20,0,0
192458,-121.951219512195,3,1,0,20,0,0
192578,319.148936170213,3,1,0,20,1,0
192578,-117.647058823529,3,1,0,20,0,0
192678,-113.636363636364,3,1,0,20,0,0
192777,319.148936170213,3,1,0,20,1,0
192777,-109.89010989011,3,1,0,20,0,0
192897,-106.382978723404,3,1,0,20,0,0
192977,319.148936170213,3,1,0,20,1,0
192977,-103.092783505155,3,1,0,20,0,0
193057,-100,3,1,0,20,0,0
193136,319.148936170213,3,1,0,20,1,0
193136,-97.0873786407767,3,1,0,20,0,0
193216,-94.3396226415094,3,1,0,20,0,0
193296,319.148936170213,3,1,0,20,1,0
193296,-91.743119266055,3,1,0,20,0,0
193376,-89.2857142857143,3,1,0,20,0,0
193456,319.148936170213,3,1,0,20,1,0
193456,-86.9565217391304,3,1,0,20,0,0
193495,319.148936170213,4,1,0,20,1,1
193495,-100,4,1,0,20,0,1
195729,-86.9565217391304,4,1,0,20,0,1
195768,-117.647058823529,4,1,0,20,0,1
195808,-68.9655172413793,4,1,0,20,0,1
195848,-181.818181818182,4,1,0,20,0,1
195888,-62.5,4,1,0,20,0,1
195928,-250,4,1,0,20,0,1
195968,-76.9230769230769,4,1,0,20,0,1
196008,-142.857142857143,4,1,0,20,0,1
196048,-100,4,1,0,20,0,1
196846,-117.647058823529,4,1,0,20,0,1
196925,-80,4,1,0,20,0,1
197085,-133.333333333333,4,1,0,20,0,1
197165,-86.9565217391304,4,1,0,20,0,1
197324,-100,4,1,0,20,0,1
197963,-107.52688172043,4,1,0,20,0,1
198282,-100,4,1,0,20,0,1
198362,-93.4579439252336,4,1,0,20,0,1
198601,-100,4,1,0,20,0,1
199479,-80,4,1,0,20,0,1
199518,-200,4,1,0,20,0,1
199558,-80,4,1,0,20,0,1
199598,-200,4,1,0,20,0,1
199638,-80,4,1,0,20,0,1
199678,-200,4,1,0,20,0,1
199718,-80,4,1,0,20,0,1
199758,-200,4,1,0,20,0,1
199798,-80,4,1,0,20,0,1
199838,-200,4,1,0,20,0,1
199877,-100,4,1,0,20,0,1
200516,-70.4225352112676,4,1,0,20,0,1
200536,-133.333333333333,4,1,0,20,0,1
200556,-70.4225352112676,4,1,0,20,0,1
200576,-133.333333333333,4,1,0,20,0,1
200596,-70.4225352112676,4,1,0,20,0,1
200616,-133.333333333333,4,1,0,20,0,1
200635,-70.4225352112676,4,1,0,20,0,1
200655,-133.333333333333,4,1,0,20,0,1
200675,-70.4225352112676,4,1,0,20,0,1
200695,-133.333333333333,4,1,0,20,0,1
200715,-70.4225352112676,4,1,0,20,0,1
200735,-133.333333333333,4,1,0,20,0,1
200755,-70.4225352112676,4,1,0,20,0,1
200775,-133.333333333333,4,1,0,20,0,1
200795,-70.4225352112676,4,1,0,20,0,1
200815,-133.333333333333,4,1,0,20,0,1
200835,-105.263157894737,4,1,0,20,0,1
200915,-95.2380952380952,4,1,0,20,0,1
200995,-111.111111111111,4,1,0,20,0,1
201074,-90.9090909090909,4,1,0,20,0,1
201154,-100,4,1,0,20,0,1
201792,319.148936170213,4,1,0,20,1,1
201792,-76.9230769230769,4,1,0,20,0,1
201871,-117.647058823529,4,1,0,20,0,1
202031,-76.9230769230769,4,1,0,20,0,1
202111,-117.647058823529,4,1,0,20,0,1
202270,-100,4,1,0,20,0,1
202430,319.148936170213,4,1,0,20,1,1
202430,-76.9230769230769,4,1,0,20,0,1
202509,-117.647058823529,4,1,0,20,0,1
202669,-76.9230769230769,4,1,0,20,0,1
202749,-117.647058823529,4,1,0,20,0,1
202908,-100,4,1,0,20,0,1
203068,319.148936170213,4,1,0,20,1,1
203068,-100,4,1,0,20,0,1
203865,-50.251256281407,4,1,0,20,0,1
203905,-10000,4,1,0,20,0,1
203945,-50.251256281407,4,1,0,20,0,1
203985,-10000,4,1,0,20,0,1
204025,-50.251256281407,4,1,0,20,0,1
204065,-10000,4,1,0,20,0,1
204105,-50.251256281407,4,1,0,20,0,1
204145,-10000,4,1,0,20,0,1
204185,-50.251256281407,4,1,0,20,0,1
204224,-10000,4,1,0,20,0,1
204264,-50.251256281407,4,1,0,20,0,1
204304,-10000,4,1,0,20,0,1
204344,-100,4,1,0,20,0,1
204982,-142.857142857143,4,1,0,20,0,1
205142,-133.333333333333,4,1,0,20,0,1
205302,-125,4,1,0,20,0,1
205381,-117.647058823529,4,1,0,20,0,1
205461,-111.111111111111,4,1,0,20,0,1
205541,-105.263157894737,4,1,0,20,0,1
205621,-100,4,1,0,20,0,1
207536,-76.9230769230769,4,1,0,20,0,1
207615,-117.647058823529,4,1,0,20,0,1
207775,-86.9565217391304,4,1,0,20,0,1
207855,-117.647058823529,4,1,0,20,0,1
207935,-86.9565217391304,4,1,0,20,0,1
207974,-117.647058823529,4,1,0,20,0,1
208174,-100,4,1,0,20,0,1
208812,-95.2380952380952,4,1,0,20,0,1
208865,-90.9090909090909,4,1,0,20,0,1
208919,-86.9565217391304,4,1,0,20,0,1
208972,-83.3333333333333,4,1,0,20,0,1
209052,-80,4,1,0,20,0,1
209450,-100,4,1,0,20,0,1
210328,-125,4,1,0,20,0,1
210408,-131.578947368421,4,1,0,20,0,1
210488,-121.951219512195,4,1,0,20,0,1
210568,-113.636363636364,4,1,0,20,0,1
210647,-106.382978723404,4,1,0,20,0,1
210727,-100,4,1,0,20,0,1
211365,-57.1428571428571,4,1,0,20,0,1
211385,-86.9565217391304,4,1,0,20,0,1
211485,-100,4,1,0,20,0,1
211605,-57.1428571428571,4,1,0,20,0,1
211625,-86.9565217391304,4,1,0,20,0,1
211724,-100,4,1,0,20,0,1
211844,-117.647058823529,4,1,0,20,0,1
212004,-57.1428571428571,4,1,0,20,0,1
212024,-86.9565217391304,4,1,0,20,0,1
212123,-100,4,1,0,20,0,1
212243,-57.1428571428571,4,1,0,20,0,1
212263,-86.9565217391304,4,1,0,20,0,1
212363,-100,4,1,0,20,0,1
212482,-57.1428571428571,4,1,0,20,0,1
212502,-90.9090909090909,4,1,0,20,0,1
212602,-142.857142857143,4,1,0,20,0,1
212642,319.148936170213,4,1,0,20,1,1
212661,319.148936170213,4,1,0,20,1,1
212680,319.148936170213,4,1,0,20,1,1
212699,319.148936170213,4,1,0,20,1,1
212718,319.148936170213,4,1,0,20,1,1
212737,319.148936170213,4,1,0,20,1,1
212756,319.148936170213,4,1,0,20,1,1
212775,319.148936170213,4,1,0,20,1,1
212794,319.148936170213,4,1,0,20,1,1
212802,-90.9090909090909,4,1,0,20,0,1
212820,319.148936170213,4,1,0,20,1,1
212820,-90.9090909090909,4,1,0,20,0,1
212846,319.148936170213,4,1,0,20,1,1
212846,-90.9090909090909,4,1,0,20,0,1
212872,319.148936170213,4,1,0,20,1,1
212872,-90.9090909090909,4,1,0,20,0,1
212898,319.148936170213,4,1,0,20,1,1
212898,-90.9090909090909,4,1,0,20,0,1
212924,319.148936170213,4,1,0,20,1,1
212924,-90.9090909090909,4,1,0,20,0,1
212950,319.148936170213,4,1,0,20,1,1
212950,-90.9090909090909,4,1,0,20,0,1
212961,-83.3333333333333,4,1,0,20,0,1
212989,319.148936170213,4,1,0,20,1,1
212989,-83.3333333333333,4,1,0,20,0,1
213028,319.148936170213,4,1,0,20,1,1
213028,-83.3333333333333,4,1,0,20,0,1
213067,319.148936170213,4,1,0,20,1,1
213067,-83.3333333333333,4,1,0,20,0,1
213106,319.148936170213,4,1,0,20,1,1
213106,-83.3333333333333,4,1,0,20,0,1
213121,-76.9230769230769,4,1,0,20,0,1
213159,319.148936170213,4,1,0,20,1,1
213159,-76.9230769230769,4,1,0,20,0,1
213212,319.148936170213,4,1,0,20,1,1
213212,-76.9230769230769,4,1,0,20,0,1
213280,319.148936170213,4,1,0,20,1,0
213280,-166.666666666667,4,1,0,20,0,0
216671,-181.818181818182,4,1,0,20,0,0
216791,-153.846153846154,4,1,0,20,0,0
217110,-166.666666666667,4,1,0,20,0,0
217349,-161.290322580645,4,1,0,20,0,0
217429,-156.25,4,1,0,20,0,0
217482,-142.857142857143,4,1,0,20,0,0
217508,-161.290322580645,4,1,0,20,0,0
217536,-128.205128205128,4,1,0,20,0,0
217561,-172.413793103448,4,1,0,20,0,0
217589,-113.636363636364,4,1,0,20,0,0
217608,-192.307692307692,4,1,0,20,0,0
217629,-100,4,1,0,20,0,0
217648,-227.272727272727,4,1,0,20,0,0
217669,-87.719298245614,4,1,0,20,0,0
217688,-294.117647058824,4,1,0,20,0,0
217708,-76.9230769230769,4,1,0,20,0,0
217728,-454.545454545455,4,1,0,20,0,0
217748,-80,4,1,0,20,0,0
217774,-322.58064516129,4,1,0,20,0,0
217802,-86.9565217391304,4,1,0,20,0,0
217827,-222.222222222222,4,1,0,20,0,0
217855,-100,4,1,0,20,0,0
217881,-156.25,4,1,0,20,0,0
217908,-111.111111111111,4,1,0,20,0,0
217947,-128.205128205128,4,1,0,20,0,0
217988,-116.279069767442,4,1,0,20,0,0
218068,-113.636363636364,4,1,0,20,0,0
218174,-111.111111111111,4,1,0,20,0,0
218387,-86.9565217391304,4,1,0,20,0,0
219025,-100,4,1,0,20,0,0
219185,-117.647058823529,4,1,0,20,0,0
219344,-133.333333333333,4,1,0,20,0,0
219663,-117.647058823529,4,1,0,20,0,0
220302,-200,4,1,0,20,0,0
220341,-50,4,1,0,20,0,0
220361,-133.333333333333,4,1,0,20,0,0
220700,-111.111111111111,4,1,0,20,0,0
220940,-117.647058823529,4,1,0,20,0,0
221419,-133.333333333333,4,1,0,20,0,0
221578,-105.263157894737,4,1,0,20,0,0
221897,-133.333333333333,4,1,0,20,0,0
221977,-125,4,1,0,20,0,0
222057,-133.333333333333,4,1,0,20,0,0
222137,-125,4,1,0,20,0,0
222216,-114.942528735632,4,1,0,20,0,0
223254,-106.382978723404,4,1,0,20,0,0
223333,-99.009900990099,4,1,0,20,0,0
223413,-92.5925925925926,4,1,0,20,0,0
223493,-117.647058823529,4,1,0,20,0,0
224131,-100,4,1,0,20,0,0
224291,-117.647058823529,4,1,0,20,0,0
224450,-133.333333333333,4,1,0,20,0,0
224770,-117.647058823529,4,1,0,20,0,0
225408,-105.263157894737,4,1,0,20,0,0
225528,-1000,4,1,0,20,0,0
225568,-86.9565217391304,4,1,0,20,0,0
225607,-1000,4,1,0,20,0,0
225647,-80,4,1,0,20,0,0
225687,-1000,4,1,0,20,0,0
225727,-90.9090909090909,4,1,0,20,0,0
225767,-1000,4,1,0,20,0,0
225807,-68.9655172413793,4,1,0,20,0,0
225847,-1000,4,1,0,20,0,0
225887,-86.9565217391304,4,1,0,20,0,0
225927,-1000,4,1,0,20,0,0
225966,-80,4,1,0,20,0,0
226006,-100,4,1,0,20,0,0
226046,-117.647058823529,4,1,0,20,0,0
226206,-71.4285714285714,4,1,0,20,0,0
226246,-1000,4,1,0,20,0,0
226286,-117.647058823529,4,1,0,20,0,0
226365,-76.9230769230769,4,1,0,20,0,0
226405,-1000,4,1,0,20,0,0
226445,-66.6666666666667,4,1,0,20,0,0
226485,-1000,4,1,0,20,0,0
226525,-71.4285714285714,4,1,0,20,0,0
226565,-1000,4,1,0,20,0,0
226605,-83.3333333333333,4,1,0,20,0,0
226645,-1000,4,1,0,20,0,0
226685,-117.647058823529,4,1,0,20,0,0
226924,-80,4,1,0,20,0,0
227083,-117.647058823529,4,1,0,20,0,0
227163,-100,4,1,0,20,0,0
227323,-117.647058823529,4,1,0,20,0,0
227642,-100,4,1,0,20,0,0
227722,-80,4,1,0,20,0,0
227802,-100,4,1,0,20,0,0
227881,-80,4,1,0,20,0,0
227961,-100,4,1,0,20,0,0
228121,-117.647058823529,4,1,0,20,0,0
228200,-128.205128205128,4,1,0,20,0,0
228280,-117.647058823529,4,1,0,20,0,0
228360,-106.382978723404,4,1,0,20,0,0
228440,-99.009900990099,4,1,0,20,0,0
228520,-92.5925925925926,4,1,0,20,0,0
228599,-111.111111111111,4,1,0,20,0,0
229238,-100,4,1,0,20,0,0
229318,-111.111111111111,4,1,0,20,0,0
229397,-90.9090909090909,4,1,0,20,0,0
229477,-105.263157894737,4,1,0,20,0,0
229557,-83.3333333333333,4,1,0,20,0,0
229637,-100,4,1,0,20,0,0
229716,-76.9230769230769,4,1,0,20,0,0
229796,-95.2380952380952,4,1,0,20,0,0
229876,-117.647058823529,4,1,0,20,0,0
230514,-105.263157894737,4,1,0,20,0,0
230674,-111.111111111111,4,1,0,20,0,0
231871,-90.9090909090909,4,1,0,20,0,0
231911,-76.9230769230769,4,1,0,20,0,0
231950,-66.6666666666667,4,1,0,20,0,0
231977,-60.6060606060606,4,1,0,20,0,0
232004,-57.1428571428571,4,1,0,20,0,0
232030,-68.9655172413793,4,1,0,20,0,0
232070,-83.3333333333333,4,1,0,20,0,0
232110,-100,4,1,0,20,0,0
232150,-117.647058823529,4,1,0,20,0,0
232190,-133.333333333333,4,1,0,20,0,0
232230,-100,4,1,0,20,0,0
232250,-250,4,1,0,20,0,0
232270,-100,4,1,0,20,0,0
232290,-285.714285714286,4,1,0,20,0,0
232310,-100,4,1,0,20,0,0
232329,-333.333333333333,4,1,0,20,0,0
232349,-166.666666666667,4,1,0,20,0,0
232429,-111.111111111111,4,1,0,20,0,0
233068,-200,4,1,0,20,0,0
233107,-50,4,1,0,20,0,0
233127,-133.333333333333,4,1,0,20,0,0
233706,-111.111111111111,4,1,0,20,0,0
234344,-100,4,1,0,20,0,0
234504,-125,4,1,0,20,0,0
234583,-100,4,1,0,20,0,0
234743,-125,4,1,0,20,0,0
234823,-100,4,1,0,20,0,0
234982,-10,4,1,0,20,0,0
235002,-57.1428571428571,4,1,0,20,0,0
235062,-60.6060606060606,4,1,0,20,0,0
235142,-66.6666666666667,4,1,0,20,0,0
235222,-80,4,1,0,20,0,0
235302,-105.263157894737,4,1,0,20,0,0
235381,-166.666666666667,4,1,0,20,0,0
235408,-83.3333333333333,4,1,0,20,0,0
235435,-166.666666666667,4,1,0,20,0,0
235514,-83.3333333333333,4,1,0,20,0,0
235541,-166.666666666667,4,1,0,20,0,0
235621,-90.9090909090909,4,1,0,20,0,0
236060,-94.3396226415094,4,1,0,20,0,0
236099,-98.0392156862745,4,1,0,20,0,0
236153,-102.040816326531,4,1,0,20,0,0
236206,-106.382978723404,4,1,0,20,0,0
236259,-111.111111111111,4,1,0,20,0,0
236897,-100,4,1,0,20,0,0
237057,-117.647058823529,4,1,0,20,0,0
237137,-166.666666666667,4,1,0,20,0,0
237323,-133.333333333333,4,1,0,20,0,0
237536,-111.111111111111,4,1,0,20,0,0
238174,-105.263157894737,4,1,0,20,0,0
238333,-111.111111111111,4,1,0,20,0,0
239450,-100,4,1,0,20,0,0
239530,-111.111111111111,4,1,0,20,0,0
240089,319.148936170213,3,1,0,20,1,0
240089,-111.111111111111,3,1,0,20,0,0
241046,-117.647058823529,3,1,0,20,0,0
241152,-125,3,1,0,20,0,0
241259,-133.333333333333,3,1,0,20,0,0
241365,-142.857142857143,3,1,0,20,0,0
241578,-135.135135135135,3,1,0,20,0,0
241684,-128.205128205128,3,1,0,20,0,0
241737,-121.951219512195,3,1,0,20,0,0
241791,-111.111111111111,3,1,0,20,0,0
241870,-116.279069767442,3,1,0,20,0,0
242003,-100,3,1,0,20,0,0
242043,-102.040816326531,3,1,0,20,0,0
242083,-104.166666666667,3,1,0,20,0,0
242123,-106.382978723404,3,1,0,20,0,0
242163,-108.695652173913,3,1,0,20,0,0
242243,-111.111111111111,3,1,0,20,0,0
242323,-113.636363636364,3,1,0,20,0,0
242429,-116.279069767442,3,1,0,20,0,0
242535,-119.047619047619,3,1,0,20,0,0
242642,-121.951219512195,3,1,0,20,0,0
242961,-111.111111111111,3,1,0,20,0,0
243280,-114.942528735632,3,1,0,20,0,0
243599,-119.047619047619,3,1,0,20,0,0
243918,-123.456790123457,3,1,0,20,0,0
259078,-121.951219512195,3,1,0,20,0,0
259158,-120.481927710843,3,1,0,20,0,0
259237,-119.047619047619,3,1,0,20,0,0
276471,-131.578947368421,3,1,0,20,0,0
276631,-119.047619047619,3,1,0,20,0,0
276791,-147.058823529412,3,1,0,20,0,0
276950,-138.888888888889,3,1,0,20,0,0

[HitObjects]
64,192,14761,5,0,0:0:0:0:
192,192,15080,1,0,0:0:0:0:
320,192,15400,1,0,0:0:0:0:
64,192,15719,1,0,0:0:0:0:
192,192,16038,1,0,0:0:0:0:
320,192,16357,1,0,0:0:0:0:
64,192,16676,1,0,0:0:0:0:
192,192,16995,1,0,0:0:0:0:
320,192,17314,1,0,0:0:0:0:
192,192,17634,1,0,0:0:0:0:
64,192,17953,1,0,0:0:0:0:
448,192,18272,128,0,18431:0:0:0:0:
192,192,18591,1,0,0:0:0:0:
320,192,18910,1,0,0:0:0:0:
448,192,19229,1,0,0:0:0:0:
64,192,19548,1,0,0:0:0:0:
320,192,19868,1,0,0:0:0:0:
448,192,20187,1,0,0:0:0:0:
64,192,20506,1,0,0:0:0:0:
320,192,20825,1,0,0:0:0:0:
448,192,21144,1,0,0:0:0:0:
64,192,21463,1,0,0:0:0:0:
320,192,21782,128,0,21942:0:0:0:0:
192,192,22102,128,0,22261:0:0:0:0:
64,192,22421,1,0,0:0:0:0:
192,192,22740,1,0,0:0:0:0:
448,192,23059,1,0,0:0:0:0:
64,192,23378,1,0,0:0:0:0:
192,192,23697,128,0,23857:0:0:0:0:
320,192,24017,128,0,24176:0:0:0:0:
64,192,24336,1,0,0:0:0:0:
192,192,24655,1,0,0:0:0:0:
320,192,24974,1,0,0:0:0:0:
192,192,25293,1,0,0:0:0:0:
320,192,25612,1,0,0:0:0:0:
448,192,25931,128,0,26091:0:0:0:0:
64,192,26251,1,0,0:0:0:0:
320,192,26570,1,0,0:0:0:0:
448,192,26889,1,0,0:0:0:0:
192,192,27208,1,0,0:0:0:0:
320,192,27527,1,0,0:0:0:0:
64,192,27846,128,0,28006:0:0:0:0:
192,192,28165,1,0,0:0:0:0:
320,192,28485,1,0,0:0:0:0:
448,192,28804,1,0,0:0:0:0:
64,192,29123,1,0,0:0:0:0:
320,192,29442,1,0,0:0:0:0:
448,192,29761,1,0,0:0:0:0:
64,192,30080,1,0,0:0:0:0:
192,192,30400,1,0,0:0:0:0:
320,192,30719,1,0,0:0:0:0:
64,192,31038,1,0,0:0:0:0:
192,192,31357,1,0,0:0:0:0:
320,192,31676,1,0,0:0:0:0:
64,192,31995,1,0,0:0:0:0:
192,192,32314,1,0,0:0:0:0:
320,192,32634,1,0,0:0:0:0:
192,192,32953,1,0,0:0:0:0:
64,192,33272,1,0,0:0:0:0:
448,192,33591,128,0,33751:0:0:0:0:
192,192,33910,1,0,0:0:0:0:
320,192,34229,1,0,0:0:0:0:
448,192,34548,1,0,0:0:0:0:
64,192,34868,1,0,0:0:0:0:
320,192,35187,1,0,0:0:0:0:
448,192,35506,1,0,0:0:0:0:
64,192,35825,1,0,0:0:0:0:
320,192,36144,1,0,0:0:0:0:
448,192,36463,1,0,0:0:0:0:
64,192,36782,1,0,0:0:0:0:
320,192,37102,128,0,37261:0:0:0:0:
192,192,37421,1,0,0:0:0:0:
64,192,37740,1,0,0:0:0:0:
192,192,38059,1,0,0:0:0:0:
448,192,38378,1,0,0:0:0:0:
64,192,38697,1,0,0:0:0:0:
192,192,39017,128,0,39176:0:0:0:0:
320,192,39336,128,0,39495:0:0:0:0:
64,192,39655,1,0,0:0:0:0:
192,192,39974,1,0,0:0:0:0:
320,192,40293,1,0,0:0:0:0:
192,192,40612,1,0,0:0:0:0:
320,192,40931,1,0,0:0:0:0:
448,192,41251,128,0,41410:0:0:0:0:
64,192,41570,1,0,0:0:0:0:
320,192,41889,1,0,0:0:0:0:
448,192,42208,1,0,0:0:0:0:
192,192,42527,1,0,0:0:0:0:
320,192,42846,1,0,0:0:0:0:
64,192,43165,1,0,0:0:0:0:
192,192,43485,1,0,0:0:0:0:
320,192,43804,1,0,0:0:0:0:
448,192,44123,1,0,0:0:0:0:
64,192,44442,1,0,0:0:0:0:
320,192,44761,1,0,0:0:0:0:
448,192,45080,1,0,0:0:0:0:
320,192,45400,1,0,0:0:0:0:
448,192,45400,128,0,47314:0:0:0:0:
64,192,45400,128,0,46038:0:0:0:0:
192,192,45719,1,0,0:0:0:0:
192,192,46038,1,0,0:0:0:0:
320,192,46038,1,0,0:0:0:0:
64,192,46357,1,0,0:0:0:0:
192,192,46676,1,0,0:0:0:0:
320,192,46995,1,0,0:0:0:0:
64,192,47314,1,0,0:0:0:0:
192,192,47634,1,0,0:0:0:0:
448,192,47634,128,0,48591:0:0:0:0:
320,192,47953,1,0,0:0:0:0:
192,192,48272,1,0,0:0:0:0:
64,192,48591,128,0,48751:0:0:0:0:
448,192,48910,128,0,49070:0:0:0:0:
192,192,49229,128,0,53059:0:0:0:0:
320,192,49229,1,0,0:0:0:0:
320,192,49548,1,0,0:0:0:0:
448,192,49868,1,0,0:0:0:0:
64,192,49868,1,0,0:0:0:0:
64,192,50187,1,0,0:0:0:0:
320,192,50187,1,0,0:0:0:0:
448,192,50506,1,0,0:0:0:0:
448,192,50825,1,0,0:0:0:0:
320,192,50825,1,0,0:0:0:0:
64,192,51144,1,0,0:0:0:0:
448,192,51144,128,0,51463:0:0:0:0:
320,192,51463,1,0,0:0:0:0:
448,192,51782,1,0,0:0:0:0:
64,192,52102,128,0,52261:0:0:0:0:
320,192,52421,128,0,52580:0:0:0:0:
64,192,52740,128,0,52900:0:0:0:0:
448,192,52740,128,0,52900:0:0:0:0:
320,192,53059,128,0,53378:0:0:0:0:
64,192,53378,1,0,0:0:0:0:
320,192,53697,1,0,0:0:0:0:
64,192,54017,1,0,0:0:0:0:
448,192,54017,128,0,54655:0:0:0:0:
192,192,54336,1,0,0:0:0:0:
320,192,54655,1,0,0:0:0:0:
192,192,54814,128,0,54974:0:0:0:0:
64,192,54974,1,0,0:0:0:0:
320,192,55134,128,0,55453:0:0:0:0:
192,192,55293,1,0,0:0:0:0:
448,192,55453,128,0,58804:0:0:0:0:
320,192,55612,1,0,0:0:0:0:
64,192,55931,1,0,0:0:0:0:
192,192,56251,128,0,56809:0:0:0:0:
320,192,56570,1,0,0:0:0:0:
64,192,56889,128,0,57846:0:0:0:0:
320,192,56889,128,0,57527:0:0:0:0:
192,192,57527,1,0,0:0:0:0:
320,192,57846,1,0,0:0:0:0:
192,192,58165,1,0,0:0:0:0:
64,192,58485,128,0,58644:0:0:0:0:
192,192,58804,128,0,59602:0:0:0:0:
320,192,59123,1,0,0:0:0:0:
448,192,59442,128,0,59761:0:0:0:0:
64,192,59761,1,0,0:0:0:0:
192,192,59761,128,0,60559:0:0:0:0:
320,192,60080,1,0,0:0:0:0:
64,192,60080,1,0,0:0:0:0:
64,192,60400,1,0,0:0:0:0:
448,192,60400,128,0,60559:0:0:0:0:
64,192,60719,1,0,0:0:0:0:
320,192,60719,1,0,0:0:0:0:
448,192,60719,1,0,0:0:0:0:
192,192,61038,1,0,0:0:0:0:
448,192,61357,1,0,0:0:0:0:
64,192,61676,1,0,0:0:0:0:
320,192,61676,1,0,0:0:0:0:
192,192,61995,1,0,0:0:0:0:
448,192,61995,128,0,62634:0:0:0:0:
320,192,62314,1,0,0:0:0:0:
64,192,62634,1,0,0:0:0:0:
448,192,62953,128,0,63272:0:0:0:0:
192,192,62953,1,0,0:0:0:0:
320,192,63271,128,0,63590:0:0:0:0:
192,192,63590,128,0,64175:0:0:0:0:
64,192,63963,1,0,0:0:0:0:
320,192,64069,128,0,64548:0:0:0:0:
448,192,64282,1,0,0:0:0:0:
192,192,64548,1,0,0:0:0:0:
64,192,64548,1,0,0:0:0:0:
320,192,64868,128,0,65187:0:0:0:0:
448,192,65187,128,0,65825:0:0:0:0:
192,192,65187,128,0,65506:0:0:0:0:
64,192,65506,1,0,0:0:0:0:
320,192,65506,128,0,68378:0:0:0:0:
192,192,65825,1,0,0:0:0:0:
448,192,66144,1,0,0:0:0:0:
64,192,66463,1,0,0:0:0:0:
192,192,66782,1,0,0:0:0:0:
448,192,67102,1,0,0:0:0:0:
64,192,67421,1,0,0:0:0:0:
448,192,67740,1,0,0:0:0:0:
64,192,68058,128,0,68165:0:0:0:0:
448,192,68165,1,0,0:0:0:0:
64,192,68271,1,0,0:0:0:0:
448,192,68378,1,0,0:0:0:0:
192,192,68378,128,0,69974:0:0:0:0:
320,192,68697,1,0,0:0:0:0:
448,192,69017,128,0,69336:0:0:0:0:
64,192,69336,1,0,0:0:0:0:
320,192,69655,1,0,0:0:0:0:
448,192,69974,1,0,0:0:0:0:
64,192,70253,1,0,0:0:0:0:
320,192,70293,1,0,0:0:0:0:
448,192,70333,1,0,0:0:0:0:
192,192,70612,1,0,0:0:0:0:
448,192,70931,1,0,0:0:0:0:
320,192,71251,1,0,0:0:0:0:
64,192,71570,1,0,0:0:0:0:
192,192,71570,128,0,72128:0:0:0:0:
448,192,71889,1,0,0:0:0:0:
64,192,72208,128,0,72846:0:0:0:0:
320,192,72208,1,0,0:0:0:0:
448,192,72527,128,0,75240:0:0:0:0:
192,192,72846,1,0,0:0:0:0:
320,192,73485,1,0,0:0:0:0:
192,192,73804,1,0,0:0:0:0:
64,192,74123,128,0,74921:0:0:0:0:
320,192,74123,1,0,0:0:0:0:
192,192,74442,1,0,0:0:0:0:
320,192,74761,1,0,0:0:0:0:
320,192,75080,1,0,0:0:0:0:
64,192,75080,128,0,75719:0:0:0:0:
192,192,75400,1,0,0:0:0:0:
448,192,75400,128,0,75719:0:0:0:0:
192,192,75719,128,0,75878:0:0:0:0:
320,192,75719,128,0,76038:0:0:0:0:
448,192,76038,1,0,0:0:0:0:
192,192,76038,1,0,0:0:0:0:
64,192,76038,1,0,0:0:0:0:
320,192,76357,1,0,0:0:0:0:
448,192,76676,1,0,0:0:0:0:
64,192,76995,1,0,0:0:0:0:
320,192,76995,1,0,0:0:0:0:
192,192,77314,128,0,80506:0:0:0:0:
448,192,77634,128,0,77873:0:0:0:0:
64,192,77953,1,0,0:0:0:0:
320,192,77993,1,0,0:0:0:0:
448,192,78032,128,0,78431:0:0:0:0:
64,192,78272,1,0,0:0:0:0:
448,192,78591,1,0,0:0:0:0:
320,192,78910,1,0,0:0:0:0:
64,192,79229,1,0,0:0:0:0:
320,192,79548,128,0,79708:0:0:0:0:
64,192,79868,128,0,80187:0:0:0:0:
448,192,79868,1,0,0:0:0:0:
320,192,80187,1,0,0:0:0:0:
448,192,80506,128,0,81463:0:0:0:0:
64,192,80506,1,0,0:0:0:0:
192,192,80825,1,0,0:0:0:0:
320,192,80825,1,0,0:0:0:0:
64,192,81144,1,0,0:0:0:0:
192,192,81463,1,0,0:0:0:0:
320,192,81782,128,0,83378:0:0:0:0:
64,192,81782,128,0,82580:0:0:0:0:
192,192,82102,1,0,0:0:0:0:
448,192,82421,1,0,0:0:0:0:
64,192,82740,1,0,0:0:0:0:
448,192,83059,1,0,0:0:0:0:
64,192,83378,128,0,83538:0:0:0:0:
448,192,83378,128,0,83697:0:0:0:0:
192,192,83697,128,0,84655:0:0:0:0:
320,192,83697,128,0,84974:0:0:0:0:
64,192,84017,1,0,0:0:0:0:
448,192,84336,1,0,0:0:0:0:
64,192,84655,1,0,0:0:0:0:
192,192,84974,128,0,85134:0:0:0:0:
320,192,85293,128,0,85453:0:0:0:0:
64,192,85612,1,0,0:0:0:0:
448,192,85612,128,0,85931:0:0:0:0:
320,192,85931,1,0,0:0:0:0:
448,192,86251,1,0,0:0:0:0:
64,192,86570,128,0,87527:0:0:0:0:
320,192,86889,128,0,87447:0:0:0:0:
448,192,87208,1,0,0:0:0:0:
192,192,87527,128,0,88165:0:0:0:0:
448,192,87527,128,0,89123:0:0:0:0:
64,192,87846,1,0,0:0:0:0:
320,192,88165,1,0,0:0:0:0:
192,192,88485,1,0,0:0:0:0:
64,192,88804,1,0,0:0:0:0:
320,192,89123,128,0,89282:0:0:0:0:
64,192,89282,128,0,89442:0:0:0:0:
192,192,89442,128,0,91038:0:0:0:0:
448,192,89442,1,0,0:0:0:0:
64,192,89761,1,0,0:0:0:0:
448,192,90080,128,0,90400:0:0:0:0:
320,192,90400,1,0,0:0:0:0:
64,192,90400,1,0,0:0:0:0:
320,192,90719,1,0,0:0:0:0:
448,192,90719,1,0,0:0:0:0:
64,192,91038,1,0,0:0:0:0:
448,192,91038,1,0,0:0:0:0:
320,192,91197,128,0,91357:0:0:0:0:
64,192,91357,5,0,0:0:0:0:
192,192,91357,1,0,0:0:0:0:
448,192,91357,1,0,0:0:0:0:
192,192,91676,1,0,0:0:0:0:
320,192,91995,1,0,0:0:0:0:
64,192,92314,1,0,0:0:0:0:
448,192,92314,128,0,92953:0:0:0:0:
192,192,92634,1,0,0:0:0:0:
320,192,92953,1,0,0:0:0:0:
64,192,93272,1,0,0:0:0:0:
448,192,93272,128,0,94548:0:0:0:0:
192,192,93591,1,0,0:0:0:0:
320,192,93910,1,0,0:0:0:0:
192,192,94229,1,0,0:0:0:0:
64,192,94548,128,0,94868:0:0:0:0:
448,192,94868,128,0,94974:0:0:0:0:
192,192,95067,1,0,0:0:0:0:
320,192,95187,128,0,96676:0:0:0:0:
64,192,95187,1,0,0:0:0:0:
448,192,95187,1,0,0:0:0:0:
192,192,95506,1,0,0:0:0:0:
64,192,95825,1,0,0:0:0:0:
448,192,95825,128,0,96144:0:0:0:0:
64,192,96144,1,0,0:0:0:0:
192,192,96144,1,0,0:0:0:0:
192,192,96463,1,0,0:0:0:0:
448,192,96782,128,0,97102:0:0:0:0:
320,192,97102,128,0,100772:0:0:0:0:
64,192,97102,128,0,97421:0:0:0:0:
192,192,97421,1,0,0:0:0:0:
448,192,97740,1,0,0:0:0:0:
448,192,98059,128,0,98538:0:0:0:0:
64,192,98059,128,0,98378:0:0:0:0:
192,192,98378,1,0,0:0:0:0:
192,192,98697,128,0,98857:0:0:0:0:
64,192,99017,128,0,99814:0:0:0:0:
192,192,99336,1,0,0:0:0:0:
448,192,99655,128,0,99974:0:0:0:0:
64,192,99974,128,0,100453:0:0:0:0:
192,192,100293,1,0,0:0:0:0:
192,192,100612,128,0,100772:0:0:0:0:
64,192,100931,1,0,0:0:0:0:
320,192,100931,128,0,101729:0:0:0:0:
192,192,101251,1,0,0:0:0:0:
448,192,101570,128,0,101889:0:0:0:0:
192,192,101889,1,0,0:0:0:0:
320,192,101889,128,0,102527:0:0:0:0:
64,192,102208,128,0,102846:0:0:0:0:
448,192,102208,1,0,0:0:0:0:
192,192,102527,1,0,0:0:0:0:
192,192,102846,1,0,0:0:0:0:
448,192,102846,128,0,103724:0:0:0:0:
320,192,102846,1,0,0:0:0:0:
64,192,103086,128,0,103804:0:0:0:0:
320,192,103325,128,0,103884:0:0:0:0:
192,192,103485,128,0,104203:0:0:0:0:
448,192,104043,1,0,0:0:0:0:
448,192,104123,1,0,0:0:0:0:
64,192,104362,1,0,0:0:0:0:
64,192,104442,1,0,0:0:0:0:
448,192,104681,1,0,0:0:0:0:
64,192,104761,1,0,0:0:0:0:
192,192,104761,1,0,0:0:0:0:
320,192,104841,1,0,0:0:0:0:
192,192,104921,1,0,0:0:0:0:
320,192,105001,1,0,0:0:0:0:
192,192,105080,1,0,0:0:0:0:
64,192,105080,1,0,0:0:0:0:
320,192,105160,1,0,0:0:0:0:
64,192,105240,1,0,0:0:0:0:
448,192,105320,1,0,0:0:0:0:
192,192,105400,1,0,0:0:0:0:
64,192,105400,1,0,0:0:0:0:
448,192,105479,1,0,0:0:0:0:
192,192,105559,1,0,0:0:0:0:
320,192,105639,1,0,0:0:0:0:
448,192,105719,1,0,0:0:0:0:
64,192,105719,1,0,0:0:0:0:
320,192,105798,1,0,0:0:0:0:
192,192,105878,1,0,0:0:0:0:
64,192,105878,1,0,0:0:0:0:
448,192,105958,1,0,0:0:0:0:
320,192,106038,1,0,0:0:0:0:
192,192,106038,1,0,0:0:0:0:
64,192,106118,1,0,0:0:0:0:
448,192,106197,1,0,0:0:0:0:
320,192,106197,1,0,0:0:0:0:
192,192,106277,1,0,0:0:0:0:
64,192,106357,1,0,0:0:0:0:
320,192,106357,1,0,0:0:0:0:
448,192,106357,1,0,0:0:0:0:
192,192,106596,1,0,0:0:0:0:
448,192,106596,1,0,0:0:0:0:
192,192,106676,1,0,0:0:0:0:
320,192,106676,1,0,0:0:0:0:
64,192,106676,1,0,0:0:0:0:
320,192,109229,128,0,109388:0:0:0:0:
64,192,109229,1,0,0:0:0:0:
448,192,109229,1,0,0:0:0:0:
192,192,109469,1,0,0:0:0:0:
448,192,109469,1,0,0:0:0:0:
64,192,109469,1,0,0:0:0:0:
64,192,109708,1,0,0:0:0:0:
320,192,109708,1,0,0:0:0:0:
448,192,109708,1,0,0:0:0:0:
192,192,109868,1,0,0:0:0:0:
64,192,109868,1,0,0:0:0:0:
320,192,109868,1,0,0:0:0:0:
448,192,110187,128,0,110347:0:0:0:0:
448,192,110426,128,0,110505:0:0:0:0:
320,192,110506,1,0,0:0:0:0:
64,192,110506,1,0,0:0:0:0:
192,192,110586,1,0,0:0:0:0:
64,192,110665,1,0,0:0:0:0:
192,192,110745,1,0,0:0:0:0:
320,192,110825,1,0,0:0:0:0:
448,192,110905,1,0,0:0:0:0:
64,192,110985,1,0,0:0:0:0:
320,192,111064,1,0,0:0:0:0:
192,192,111144,1,0,0:0:0:0:
64,192,111144,1,0,0:0:0:0:
448,192,111224,1,0,0:0:0:0:
320,192,111304,1,0,0:0:0:0:
192,192,111384,1,0,0:0:0:0:
64,192,111463,128,0,111782:0:0:0:0:
448,192,111463,128,0,111782:0:0:0:0:
320,192,111463,1,0,0:0:0:0:
320,192,111782,1,0,0:0:0:0:
192,192,111782,1,0,0:0:0:0:
320,192,111942,1,0,0:0:0:0:
448,192,112022,1,0,0:0:0:0:
192,192,112102,1,0,0:0:0:0:
64,192,112102,1,0,0:0:0:0:
64,192,112261,1,0,0:0:0:0:
192,192,112341,1,0,0:0:0:0:
320,192,112421,128,0,112461:0:0:0:0:
448,192,112501,128,0,112541:0:0:0:0:
192,192,112580,128,0,112620:0:0:0:0:
320,192,112660,128,0,112699:0:0:0:0:
64,192,112740,128,0,112900:0:0:0:0:
448,192,112740,1,0,0:0:0:0:
448,192,112900,1,0,0:0:0:0:
320,192,112979,1,0,0:0:0:0:
192,192,113059,1,0,0:0:0:0:
64,192,113059,1,0,0:0:0:0:
448,192,113059,1,0,0:0:0:0:
320,192,113219,1,0,0:0:0:0:
320,192,113298,1,0,0:0:0:0:
192,192,113458,128,0,113538:0:0:0:0:
448,192,113458,1,0,0:0:0:0:
320,192,113538,1,0,0:0:0:0:
64,192,113538,1,0,0:0:0:0:
64,192,113697,1,0,0:0:0:0:
192,192,113697,1,0,0:0:0:0:
448,192,113697,1,0,0:0:0:0:
320,192,113777,1,0,0:0:0:0:
192,192,113857,1,0,0:0:0:0:
64,192,113937,1,0,0:0:0:0:
320,192,114017,1,0,0:0:0:0:
448,192,114017,1,0,0:0:0:0:
192,192,114096,1,0,0:0:0:0:
64,192,114096,1,0,0:0:0:0:
320,192,114176,1,0,0:0:0:0:
448,192,114176,1,0,0:0:0:0:
192,192,114256,1,0,0:0:0:0:
448,192,114336,128,0,114974:0:0:0:0:
320,192,114336,1,0,0:0:0:0:
64,192,114336,1,0,0:0:0:0:
192,192,114495,1,0,0:0:0:0:
320,192,114575,1,0,0:0:0:0:
320,192,114974,1,0,0:0:0:0:
64,192,115054,1,0,0:0:0:0:
320,192,115134,1,0,0:0:0:0:
448,192,115213,1,0,0:0:0:0:
192,192,115293,128,0,115452:0:0:0:0:
64,192,115293,1,0,0:0:0:0:
320,192,115373,128,0,115453:0:0:0:0:
64,192,115453,128,0,115533:0:0:0:0:
448,192,115453,128,0,115533:0:0:0:0:
320,192,115532,128,0,115612:0:0:0:0:
448,192,115612,1,0,0:0:0:0:
64,192,115612,1,0,0:0:0:0:
192,192,115612,1,0,0:0:0:0:
320,192,115772,128,0,115932:0:0:0:0:
192,192,115931,1,0,0:0:0:0:
448,192,115931,1,0,0:0:0:0:
320,192,116011,1,0,0:0:0:0:
64,192,116011,1,0,0:0:0:0:
192,192,116091,1,0,0:0:0:0:
320,192,116171,1,0,0:0:0:0:
64,192,116251,1,0,0:0:0:0:
192,192,116251,1,0,0:0:0:0:
320,192,116330,1,0,0:0:0:0:
448,192,116330,1,0,0:0:0:0:
64,192,116410,1,0,0:0:0:0:
320,192,116490,1,0,0:0:0:0:
192,192,116490,1,0,0:0:0:0:
64,192,116570,128,0,116889:0:0:0:0:
448,192,116570,128,0,116889:0:0:0:0:
320,192,116889,1,0,0:0:0:0:
192,192,116889,1,0,0:0:0:0:
64,192,117048,1,0,0:0:0:0:
448,192,117048,1,0,0:0:0:0:
192,192,117128,1,0,0:0:0:0:
320,192,117128,1,0,0:0:0:0:
64,192,117288,1,0,0:0:0:0:
448,192,117288,1,0,0:0:0:0:
192,192,117368,1,0,0:0:0:0:
320,192,117368,1,0,0:0:0:0:
320,192,117527,1,0,0:0:0:0:
192,192,117527,1,0,0:0:0:0:
192,192,117687,128,0,117767:0:0:0:0:
448,192,117687,128,0,117767:0:0:0:0:
320,192,117767,1,0,0:0:0:0:
192,192,117846,1,0,0:0:0:0:
448,192,117846,1,0,0:0:0:0:
64,192,117926,128,0,118005:0:0:0:0:
192,192,118006,1,0,0:0:0:0:
320,192,118006,1,0,0:0:0:0:
448,192,118006,1,0,0:0:0:0:
64,192,118165,128,0,118378:0:0:0:0:
320,192,118165,1,0,0:0:0:0:
448,192,118271,1,0,0:0:0:0:
192,192,118271,128,0,118484:0:0:0:0:
320,192,118378,128,0,118590:0:0:0:0:
448,192,118485,128,0,118698:0:0:0:0:
64,192,118590,1,0,0:0:0:0:
192,192,118724,1,0,0:0:0:0:
64,192,118804,1,0,0:0:0:0:
448,192,118804,1,0,0:0:0:0:
320,192,118804,1,0,0:0:0:0:
192,192,118884,1,0,0:0:0:0:
64,192,118963,1,0,0:0:0:0:
448,192,118963,1,0,0:0:0:0:
320,192,119043,1,0,0:0:0:0:
64,192,119123,1,0,0:0:0:0:
192,192,119123,1,0,0:0:0:0:
448,192,119123,1,0,0:0:0:0:
192,192,119442,1,0,0:0:0:0:
448,192,119442,1,0,0:0:0:0:
64,192,119442,1,0,0:0:0:0:
448,192,120400,128,0,120440:0:0:0:0:
320,192,120479,128,0,120519:0:0:0:0:
192,192,120559,1,0,0:0:0:0:
64,192,120559,1,0,0:0:0:0:
448,192,120559,1,0,0:0:0:0:
320,192,120639,1,0,0:0:0:0:
448,192,120719,1,0,0:0:0:0:
64,192,120719,1,0,0:0:0:0:
320,192,120798,1,0,0:0:0:0:
192,192,120798,1,0,0:0:0:0:
448,192,120878,1,0,0:0:0:0:
64,192,120878,1,0,0:0:0:0:
320,192,120958,1,0,0:0:0:0:
192,192,121038,1,0,0:0:0:0:
192,192,121118,1,0,0:0:0:0:
320,192,121197,1,0,0:0:0:0:
320,192,121277,1,0,0:0:0:0:
64,192,121357,1,0,0:0:0:0:
192,192,121357,1,0,0:0:0:0:
320,192,121437,1,0,0:0:0:0:
448,192,121517,1,0,0:0:0:0:
192,192,121517,1,0,0:0:0:0:
64,192,121596,1,0,0:0:0:0:
320,192,121596,1,0,0:0:0:0:
448,192,121676,1,0,0:0:0:0:
192,192,121676,1,0,0:0:0:0:
64,192,121756,1,0,0:0:0:0:
192,192,121836,1,0,0:0:0:0:
320,192,121836,1,0,0:0:0:0:
448,192,121915,1,0,0:0:0:0:
192,192,121995,1,0,0:0:0:0:
320,192,121995,1,0,0:0:0:0:
64,192,122075,1,0,0:0:0:0:
448,192,122155,1,0,0:0:0:0:
320,192,122155,128,0,122315:0:0:0:0:
448,192,122235,1,0,0:0:0:0:
64,192,122314,1,0,0:0:0:0:
192,192,122314,128,0,122473:0:0:0:0:
64,192,122394,1,0,0:0:0:0:
448,192,122474,1,0,0:0:0:0:
320,192,122554,1,0,0:0:0:0:
192,192,122634,1,0,0:0:0:0:
64,192,122634,1,0,0:0:0:0:
448,192,122713,1,0,0:0:0:0:
320,192,122793,1,0,0:0:0:0:
64,192,122793,1,0,0:0:0:0:
192,192,122873,1,0,0:0:0:0:
448,192,122873,128,0,123113:0:0:0:0:
64,192,122953,128,0,123192:0:0:0:0:
192,192,123112,1,0,0:0:0:0:
320,192,123192,1,0,0:0:0:0:
448,192,123272,1,0,0:0:0:0:
192,192,123312,1,0,0:0:0:0:
64,192,123352,1,0,0:0:0:0:
320,192,123431,1,0,0:0:0:0:
64,192,123511,1,0,0:0:0:0:
448,192,123591,1,0,0:0:0:0:
192,192,123671,1,0,0:0:0:0:
320,192,123751,1,0,0:0:0:0:
64,192,123830,1,0,0:0:0:0:
192,192,123910,1,0,0:0:0:0:
448,192,123910,1,0,0:0:0:0:
320,192,123990,1,0,0:0:0:0:
64,192,123990,1,0,0:0:0:0:
192,192,124070,1,0,0:0:0:0:
448,192,124070,1,0,0:0:0:0:
320,192,124150,1,0,0:0:0:0:
64,192,124229,1,0,0:0:0:0:
192,192,124269,1,0,0:0:0:0:
448,192,124309,1,0,0:0:0:0:
320,192,124349,1,0,0:0:0:0:
64,192,124389,1,0,0:0:0:0:
192,192,124429,1,0,0:0:0:0:
448,192,124469,1,0,0:0:0:0:
320,192,124509,1,0,0:0:0:0:
192,192,124548,1,0,0:0:0:0:
64,192,124548,128,0,127101:0:0:0:0:
320,192,124708,1,0,0:0:0:0:
192,192,124788,1,0,0:0:0:0:
448,192,124868,1,0,0:0:0:0:
320,192,124947,1,0,0:0:0:0:
448,192,125027,1,0,0:0:0:0:
192,192,125107,1,0,0:0:0:0:
320,192,125187,1,0,0:0:0:0:
448,192,125187,1,0,0:0:0:0:
192,192,125346,1,0,0:0:0:0:
320,192,125426,1,0,0:0:0:0:
448,192,125506,1,0,0:0:0:0:
448,192,125586,1,0,0:0:0:0:
320,192,125665,128,0,125745:0:0:0:0:
192,192,125745,128,0,125824:0:0:0:0:
448,192,125825,1,0,0:0:0:0:
320,192,125825,128,0,125985:0:0:0:0:
192,192,125985,1,0,0:0:0:0:
320,192,126064,1,0,0:0:0:0:
192,192,126144,1,0,0:0:0:0:
448,192,126144,1,0,0:0:0:0:
320,192,126224,1,0,0:0:0:0:
448,192,126304,128,0,126464:0:0:0:0:
320,192,126463,1,0,0:0:0:0:
192,192,126543,1,0,0:0:0:0:
448,192,126623,1,0,0:0:0:0:
320,192,126703,1,0,0:0:0:0:
192,192,126782,128,0,127101:0:0:0:0:
320,192,127102,1,0,0:0:0:0:
448,192,127102,1,0,0:0:0:0:
448,192,127501,1,0,0:0:0:0:
320,192,127501,1,0,0:0:0:0:
192,192,127501,1,0,0:0:0:0:
64,192,127979,1,0,0:0:0:0:
192,192,127979,1,0,0:0:0:0:
320,192,127979,1,0,0:0:0:0:
64,192,128378,128,0,128617:0:0:0:0:
192,192,128378,1,0,0:0:0:0:
192,192,128538,128,0,128618:0:0:0:0:
448,192,128618,128,0,132061:0:0:0:0:
320,192,128618,1,0,0:0:0:0:
320,192,128777,128,0,128856:0:0:0:0:
192,192,128857,1,0,0:0:0:0:
64,192,128857,1,0,0:0:0:0:
192,192,129017,1,0,0:0:0:0:
64,192,129017,1,0,0:0:0:0:
320,192,129176,1,0,0:0:0:0:
64,192,129176,1,0,0:0:0:0:
320,192,129336,128,0,129416:0:0:0:0:
64,192,129336,128,0,129416:0:0:0:0:
64,192,129495,1,0,0:0:0:0:
320,192,129495,1,0,0:0:0:0:
192,192,129575,1,0,0:0:0:0:
320,192,129655,1,0,0:0:0:0:
64,192,129735,1,0,0:0:0:0:
192,192,129814,1,0,0:0:0:0:
64,192,129894,1,0,0:0:0:0:
320,192,129974,1,0,0:0:0:0:
192,192,130054,1,0,0:0:0:0:
320,192,130134,1,0,0:0:0:0:
64,192,130213,1,0,0:0:0:0:
192,192,130293,128,0,130612:0:0:0:0:
64,192,130612,1,0,0:0:0:0:
192,192,130692,1,0,0:0:0:0:
320,192,130772,1,0,0:0:0:0:
192,192,130852,1,0,0:0:0:0:
64,192,130931,1,0,0:0:0:0:
320,192,130931,1,0,0:0:0:0:
192,192,131011,1,0,0:0:0:0:
320,192,131091,1,0,0:0:0:0:
64,192,131091,1,0,0:0:0:0:
192,192,131171,1,0,0:0:0:0:
192,192,131251,1,0,0:0:0:0:
64,192,131330,1,0,0:0:0:0:
320,192,131410,1,0,0:0:0:0:
320,192,131490,1,0,0:0:0:0:
64,192,131570,1,0,0:0:0:0:
64,192,131650,1,0,0:0:0:0:
192,192,131729,1,0,0:0:0:0:
320,192,131791,1,0,0:0:0:0:
64,192,131844,1,0,0:0:0:0:
192,192,131898,1,0,0:0:0:0:
64,192,131952,1,0,0:0:0:0:
320,192,132006,1,0,0:0:0:0:
192,192,132048,1,0,0:0:0:0:
64,192,132088,1,0,0:0:0:0:
320,192,132128,1,0,0:0:0:0:
192,192,132168,1,0,0:0:0:0:
448,192,132208,1,0,0:0:0:0:
320,192,132248,1,0,0:0:0:0:
192,192,132288,1,0,0:0:0:0:
64,192,132328,1,0,0:0:0:0:
320,192,132368,1,0,0:0:0:0:
448,192,132407,1,0,0:0:0:0:
192,192,132447,1,0,0:0:0:0:
320,192,132487,1,0,0:0:0:0:
64,192,132527,1,0,0:0:0:0:
448,192,132527,1,0,0:0:0:0:
192,192,133819,1,0,0:0:0:0:
320,192,133819,1,0,0:0:0:0:
64,192,133819,1,0,0:0:0:0:
192,192,135096,1,0,0:0:0:0:
64,192,135096,1,0,0:0:0:0:
448,192,135415,128,0,135734:0:0:0:0:
320,192,135734,1,0,0:0:0:0:
192,192,135734,1,0,0:0:0:0:
448,192,136053,1,0,0:0:0:0:
64,192,136053,1,0,0:0:0:0:
192,192,136372,1,0,0:0:0:0:
64,192,136452,1,0,0:0:0:0:
320,192,136532,1,0,0:0:0:0:
192,192,136611,1,0,0:0:0:0:
448,192,136611,1,0,0:0:0:0:
320,192,137967,128,0,138566:0:0:0:0:
448,192,138605,1,0,0:0:0:0:
320,192,138605,1,0,0:0:0:0:
64,192,139882,1,0,0:0:0:0:
192,192,140042,1,0,0:0:0:0:
64,192,140121,1,0,0:0:0:0:
192,192,140281,1,0,0:0:0:0:
64,192,140361,1,0,0:0:0:0:
192,192,140520,1,0,0:0:0:0:
320,192,140600,1,0,0:0:0:0:
448,192,140760,1,0,0:0:0:0:
192,192,140839,1,0,0:0:0:0:
64,192,140839,1,0,0:0:0:0:
192,192,141159,1,0,0:0:0:0:
320,192,141159,1,0,0:0:0:0:
64,192,141318,1,0,0:0:0:0:
320,192,141398,1,0,0:0:0:0:
448,192,141398,1,0,0:0:0:0:
192,192,141558,1,0,0:0:0:0:
320,192,141637,1,0,0:0:0:0:
448,192,141637,1,0,0:0:0:0:
320,192,141797,1,0,0:0:0:0:
448,192,141797,1,0,0:0:0:0:
448,192,141956,1,0,0:0:0:0:
64,192,141956,1,0,0:0:0:0:
64,192,142116,1,0,0:0:0:0:
448,192,142116,1,0,0:0:0:0:
320,192,142196,1,0,0:0:0:0:
64,192,142276,1,0,0:0:0:0:
448,192,142276,1,0,0:0:0:0:
320,192,142355,1,0,0:0:0:0:
192,192,142435,1,0,0:0:0:0:
64,192,142435,1,0,0:0:0:0:
320,192,142754,1,0,0:0:0:0:
192,192,143073,1,0,0:0:0:0:
448,192,143393,128,0,143472:0:0:0:0:
192,192,143712,1,0,0:0:0:0:
64,192,144031,1,0,0:0:0:0:
320,192,144350,128,0,144430:0:0:0:0:
192,192,144669,1,0,0:0:0:0:
64,192,144988,1,0,0:0:0:0:
192,192,145308,1,0,0:0:0:0:
320,192,145627,128,0,145706:0:0:0:0:
64,192,145946,1,0,0:0:0:0:
192,192,146265,128,0,146345:0:0:0:0:
320,192,146345,128,0,146425:0:0:0:0:
448,192,146584,1,0,0:0:0:0:
320,192,146903,1,0,0:0:0:0:
64,192,147222,128,0,147302:0:0:0:0:
192,192,147542,128,0,147621:0:0:0:0:
448,192,147861,128,0,147941:0:0:0:0:
192,192,148180,1,0,0:0:0:0:
448,192,148499,1,0,0:0:0:0:
64,192,148818,1,0,0:0:0:0:
320,192,149137,128,0,149217:0:0:0:0:
64,192,149456,128,0,149536:0:0:0:0:
448,192,149776,128,0,149855:0:0:0:0:
64,192,150095,1,0,0:0:0:0:
320,192,150095,128,0,152010:0:0:0:0:
192,192,150175,128,0,150254:0:0:0:0:
448,192,150733,128,0,150813:0:0:0:0:
64,192,151052,128,0,151132:0:0:0:0:
192,192,151371,128,0,151451:0:0:0:0:
64,192,151691,128,0,151770:0:0:0:0:
448,192,152010,128,0,153286:0:0:0:0:
192,192,152329,128,0,152409:0:0:0:0:
64,192,152648,128,0,152728:0:0:0:0:
320,192,153286,128,0,153605:0:0:0:0:
64,192,153286,1,0,0:0:0:0:
192,192,153366,128,0,153446:0:0:0:0:
64,192,153605,128,0,153925:0:0:0:0:
192,192,153845,1,0,0:0:0:0:
448,192,153925,128,0,154004:0:0:0:0:
320,192,154004,128,0,154084:0:0:0:0:
192,192,154084,128,0,155839:0:0:0:0:
64,192,154244,1,0,0:0:0:0:
320,192,154563,128,0,154643:0:0:0:0:
448,192,154882,128,0,154962:0:0:0:0:
320,192,155201,128,0,155281:0:0:0:0:
64,192,155520,128,0,155600:0:0:0:0:
64,192,155839,128,0,156398:0:0:0:0:
320,192,156119,128,0,156198:0:0:0:0:
192,192,156198,128,0,156278:0:0:0:0:
448,192,156278,128,0,156358:0:0:0:0:
320,192,156478,128,0,156558:0:0:0:0:
448,192,156797,5,0,0:0:0:0:
320,192,157116,1,0,0:0:0:0:
192,192,157435,1,0,0:0:0:0:
192,192,157754,5,0,0:0:0:0:
64,192,157754,128,0,158712:0:0:0:0:
320,192,157754,1,0,0:0:0:0:
448,192,158712,128,0,159669:0:0:0:0:
192,192,159669,1,0,0:0:0:0:
64,192,159669,1,0,0:0:0:0:
64,192,159908,1,0,0:0:0:0:
192,192,159908,1,0,0:0:0:0:
192,192,160147,1,0,0:0:0:0:
64,192,160147,1,0,0:0:0:0:
64,192,160307,1,0,0:0:0:0:
320,192,160307,128,0,160546:0:0:0:0:
320,192,160626,128,0,160706:0:0:0:0:
320,192,160786,128,0,160865:0:0:0:0:
448,192,160945,1,0,0:0:0:0:
192,192,160945,128,0,161105:0:0:0:0:
320,192,161105,1,0,0:0:0:0:
64,192,161184,1,0,0:0:0:0:
448,192,161264,1,0,0:0:0:0:
192,192,161264,1,0,0:0:0:0:
64,192,161344,1,0,0:0:0:0:
448,192,161424,1,0,0:0:0:0:
192,192,161424,1,0,0:0:0:0:
320,192,161690,1,0,0:0:0:0:
192,192,161796,1,0,0:0:0:0:
448,192,161903,1,0,0:0:0:0:
64,192,162009,1,0,0:0:0:0:
320,192,162115,1,0,0:0:0:0:
192,192,162222,1,0,0:0:0:0:
64,192,162222,1,0,0:0:0:0:
448,192,162222,1,0,0:0:0:0:
320,192,162860,128,0,165413:0:0:0:0:
192,192,162860,128,0,164475:0:0:0:0:
64,192,164668,1,0,0:0:0:0:
192,192,164774,1,0,0:0:0:0:
448,192,164881,1,0,0:0:0:0:
192,192,164987,1,0,0:0:0:0:
64,192,165094,1,0,0:0:0:0:
192,192,165200,1,0,0:0:0:0:
448,192,165306,1,0,0:0:0:0:
64,192,165413,1,0,0:0:0:0:
192,192,165413,1,0,0:0:0:0:
192,192,165732,1,0,0:0:0:0:
448,192,165812,1,0,0:0:0:0:
320,192,165891,1,0,0:0:0:0:
64,192,165971,1,0,0:0:0:0:
192,192,166051,128,0,166211:0:0:0:0:
320,192,166051,128,0,166211:0:0:0:0:
320,192,166290,128,0,166450:0:0:0:0:
192,192,166290,128,0,166450:0:0:0:0:
192,192,166530,128,0,166689:0:0:0:0:
320,192,166530,128,0,166689:0:0:0:0:
192,192,166769,128,0,166929:0:0:0:0:
320,192,166769,128,0,166929:0:0:0:0:
448,192,167008,1,0,0:0:0:0:
192,192,167168,1,0,0:0:0:0:
320,192,167248,1,0,0:0:0:0:
64,192,167328,1,0,0:0:0:0:
192,192,167407,1,0,0:0:0:0:
320,192,167487,1,0,0:0:0:0:
64,192,167487,1,0,0:0:0:0:
192,192,167567,1,0,0:0:0:0:
448,192,167567,1,0,0:0:0:0:
320,192,167647,1,0,0:0:0:0:
192,192,167727,1,0,0:0:0:0:
64,192,167806,1,0,0:0:0:0:
448,192,167806,1,0,0:0:0:0:
192,192,167966,1,0,0:0:0:0:
320,192,167966,128,0,168285:0:0:0:0:
64,192,168285,128,0,168604:0:0:0:0:
192,192,168285,1,0,0:0:0:0:
448,192,168604,128,0,169562:0:0:0:0:
320,192,168604,1,0,0:0:0:0:
192,192,168684,1,0,0:0:0:0:
64,192,168764,1,0,0:0:0:0:
192,192,168844,1,0,0:0:0:0:
320,192,168923,1,0,0:0:0:0:
64,192,168923,1,0,0:0:0:0:
192,192,169003,1,0,0:0:0:0:
320,192,169083,1,0,0:0:0:0:
192,192,169163,1,0,0:0:0:0:
64,192,169242,1,0,0:0:0:0:
320,192,169242,1,0,0:0:0:0:
192,192,169322,1,0,0:0:0:0:
320,192,169442,1,0,0:0:0:0:
64,192,169442,1,0,0:0:0:0:
192,192,169562,128,0,169881:0:0:0:0:
320,192,169881,1,0,0:0:0:0:
448,192,169881,1,0,0:0:0:0:
64,192,171796,128,0,173072:0:0:0:0:
320,192,173072,128,0,173498:0:0:0:0:
448,192,173072,128,0,173365:0:0:0:0:
448,192,173498,128,0,173870:0:0:0:0:
320,192,173711,128,0,174050:0:0:0:0:
64,192,174050,1,0,0:0:0:0:
192,192,174129,1,0,0:0:0:0:
448,192,174209,1,0,0:0:0:0:
320,192,174369,1,0,0:0:0:0:
192,192,175007,1,0,0:0:0:0:
64,192,175326,1,0,0:0:0:0:
448,192,175519,1,0,0:0:0:0:
320,192,175519,1,0,0:0:0:0:
192,192,175572,1,0,0:0:0:0:
64,192,175625,1,0,0:0:0:0:
320,192,175625,1,0,0:0:0:0:
448,192,175625,1,0,0:0:0:0:
64,192,175838,1,0,0:0:0:0:
192,192,175838,1,0,0:0:0:0:
448,192,175838,1,0,0:0:0:0:
448,192,176051,1,0,0:0:0:0:
320,192,176051,1,0,0:0:0:0:
64,192,176051,1,0,0:0:0:0:
320,192,176264,1,0,0:0:0:0:
192,192,176264,1,0,0:0:0:0:
64,192,176264,1,0,0:0:0:0:
448,192,176264,1,0,0:0:0:0:
448,192,181369,5,0,0:0:0:0:
192,192,181369,1,0,0:0:0:0:
64,192,181369,1,0,0:0:0:0:
448,192,181688,1,0,0:0:0:0:
448,192,182007,1,0,0:0:0:0:
448,192,182326,1,0,0:0:0:0:
448,192,182645,1,0,0:0:0:0:
64,192,182645,128,0,183284:0:0:0:0:
448,192,182964,1,0,0:0:0:0:
448,192,183284,1,0,0:0:0:0:
320,192,183284,1,0,0:0:0:0:
192,192,183284,128,0,183603:0:0:0:0:
448,192,183603,1,0,0:0:0:0:
320,192,183603,128,0,183922:0:0:0:0:
64,192,183603,1,0,0:0:0:0:
448,192,183922,1,0,0:0:0:0:
64,192,183922,1,0,0:0:0:0:
320,192,184028,1,0,0:0:0:0:
64,192,184028,1,0,0:0:0:0:
192,192,184135,1,0,0:0:0:0:
448,192,184135,1,0,0:0:0:0:
320,192,184241,1,0,0:0:0:0:
64,192,184241,1,0,0:0:0:0:
192,192,184347,1,0,0:0:0:0:
320,192,184347,1,0,0:0:0:0:
448,192,184454,1,0,0:0:0:0:
64,192,184454,1,0,0:0:0:0:
192,192,184560,1,0,0:0:0:0:
320,192,184560,1,0,0:0:0:0:
192,192,184667,1,0,0:0:0:0:
448,192,184667,1,0,0:0:0:0:
320,192,184773,1,0,0:0:0:0:
64,192,184773,1,0,0:0:0:0:
448,192,184879,1,0,0:0:0:0:
192,192,184879,1,0,0:0:0:0:
64,192,184986,1,0,0:0:0:0:
448,192,184986,1,0,0:0:0:0:
192,192,185092,1,0,0:0:0:0:
320,192,185092,1,0,0:0:0:0:
64,192,185198,1,0,0:0:0:0:
448,192,185198,1,0,0:0:0:0:
192,192,185305,1,0,0:0:0:0:
64,192,185305,1,0,0:0:0:0:
320,192,185411,1,0,0:0:0:0:
448,192,185411,1,0,0:0:0:0:
192,192,185518,1,0,0:0:0:0:
64,192,185518,1,0,0:0:0:0:
192,192,185624,1,0,0:0:0:0:
448,192,185624,1,0,0:0:0:0:
64,192,185730,1,0,0:0:0:0:
320,192,185730,1,0,0:0:0:0:
448,192,185837,1,0,0:0:0:0:
192,192,185837,1,0,0:0:0:0:
448,192,185943,1,0,0:0:0:0:
320,192,185943,1,0,0:0:0:0:
64,192,186050,1,0,0:0:0:0:
192,192,186050,1,0,0:0:0:0:
320,192,186156,1,0,0:0:0:0:
448,192,186156,1,0,0:0:0:0:
320,192,186262,1,0,0:0:0:0:
192,192,186262,1,0,0:0:0:0:
448,192,186369,1,0,0:0:0:0:
64,192,186369,1,0,0:0:0:0:
192,192,186475,1,0,0:0:0:0:
320,192,186475,1,0,0:0:0:0:
192,192,186581,1,0,0:0:0:0:
448,192,186581,1,0,0:0:0:0:
320,192,186688,1,0,0:0:0:0:
192,192,186688,1,0,0:0:0:0:
448,192,186794,1,0,0:0:0:0:
64,192,186794,1,0,0:0:0:0:
448,192,186901,1,0,0:0:0:0:
192,192,186901,1,0,0:0:0:0:
320,192,187007,1,0,0:0:0:0:
448,192,187007,1,0,0:0:0:0:
64,192,187113,1,0,0:0:0:0:
192,192,187113,1,0,0:0:0:0:
64,192,187220,1,0,0:0:0:0:
448,192,187220,1,0,0:0:0:0:
192,192,187326,1,0,0:0:0:0:
64,192,187326,1,0,0:0:0:0:
320,192,187433,1,0,0:0:0:0:
448,192,187433,1,0,0:0:0:0:
192,192,187539,1,0,0:0:0:0:
320,192,187539,1,0,0:0:0:0:
320,192,187645,1,0,0:0:0:0:
192,192,187645,1,0,0:0:0:0:
192,192,187752,1,0,0:0:0:0:
64,192,187752,1,0,0:0:0:0:
448,192,187752,1,0,0:0:0:0:
320,192,187911,128,0,187991:0:0:0:0:
64,192,187991,1,0,0:0:0:0:
192,192,187991,1,0,0:0:0:0:
448,192,187991,1,0,0:0:0:0:
320,192,188151,128,0,188230:0:0:0:0:
448,192,188230,1,0,0:0:0:0:
192,192,188230,1,0,0:0:0:0:
64,192,188230,1,0,0:0:0:0:
192,192,188390,1,0,0:0:0:0:
64,192,188390,1,0,0:0:0:0:
448,192,188390,1,0,0:0:0:0:
320,192,188550,128,0,188709:0:0:0:0:
448,192,188709,128,0,188869:0:0:0:0:
64,192,188869,1,0,0:0:0:0:
192,192,188869,1,0,0:0:0:0:
320,192,188948,1,0,0:0:0:0:
192,192,188948,1,0,0:0:0:0:
64,192,189028,1,0,0:0:0:0:
448,192,189028,1,0,0:0:0:0:
320,192,189028,128,0,189188:0:0:0:0:
192,192,189188,1,0,0:0:0:0:
448,192,189268,1,0,0:0:0:0:
64,192,189268,1,0,0:0:0:0:
320,192,189268,128,0,189427:0:0:0:0:
192,192,189427,1,0,0:0:0:0:
64,192,189507,1,0,0:0:0:0:
448,192,189507,1,0,0:0:0:0:
320,192,189507,128,0,189587:0:0:0:0:
448,192,189667,1,0,0:0:0:0:
320,192,189667,1,0,0:0:0:0:
64,192,189667,1,0,0:0:0:0:
192,192,189826,1,0,0:0:0:0:
64,192,189906,1,0,0:0:0:0:
320,192,189986,1,0,0:0:0:0:
448,192,190066,1,0,0:0:0:0:
64,192,190145,1,0,0:0:0:0:
192,192,190145,1,0,0:0:0:0:
320,192,190225,1,0,0:0:0:0:
448,192,190225,1,0,0:0:0:0:
192,192,190305,1,0,0:0:0:0:
64,192,190305,128,0,190544:0:0:0:0:
192,192,190464,1,0,0:0:0:0:
448,192,190544,128,0,190784:0:0:0:0:
320,192,190544,1,0,0:0:0:0:
64,192,190704,1,0,0:0:0:0:
320,192,190784,128,0,190943:0:0:0:0:
192,192,190784,1,0,0:0:0:0:
192,192,190943,128,0,191581:0:0:0:0:
64,192,190943,1,0,0:0:0:0:
448,192,191103,128,0,191262:0:0:0:0:
320,192,191262,128,0,191422:0:0:0:0:
448,192,191422,1,0,0:0:0:0:
64,192,191502,1,0,0:0:0:0:
320,192,191581,1,0,0:0:0:0:
448,192,191581,1,0,0:0:0:0:
448,192,193495,1,0,0:0:0:0:
192,192,193495,1,0,0:0:0:0:
64,192,193495,1,0,0:0:0:0:
320,192,193574,1,0,0:0:0:0:
192,192,193654,1,0,0:0:0:0:
320,192,193734,1,0,0:0:0:0:
64,192,193734,1,0,0:0:0:0:
448,192,193814,1,0,0:0:0:0:
64,192,193893,1,0,0:0:0:0:
192,192,193973,1,0,0:0:0:0:
448,192,193973,1,0,0:0:0:0:
320,192,194053,1,0,0:0:0:0:
64,192,194133,1,0,0:0:0:0:
448,192,194133,1,0,0:0:0:0:
192,192,194133,128,0,194292:0:0:0:0:
448,192,194292,1,0,0:0:0:0:
320,192,194292,1,0,0:0:0:0:
192,192,194372,1,0,0:0:0:0:
64,192,194372,1,0,0:0:0:0:
320,192,194452,1,0,0:0:0:0:
448,192,194452,1,0,0:0:0:0:
192,192,194532,1,0,0:0:0:0:
64,192,194532,1,0,0:0:0:0:
320,192,194612,1,0,0:0:0:0:
448,192,194612,1,0,0:0:0:0:
64,192,194691,1,0,0:0:0:0:
192,192,194771,1,0,0:0:0:0:
320,192,194771,1,0,0:0:0:0:
448,192,194771,1,0,0:0:0:0:
64,192,194851,1,0,0:0:0:0:
448,192,194931,1,0,0:0:0:0:
320,192,195010,1,0,0:0:0:0:
64,192,195010,1,0,0:0:0:0:
192,192,195090,1,0,0:0:0:0:
320,192,195170,1,0,0:0:0:0:
64,192,195250,1,0,0:0:0:0:
448,192,195250,1,0,0:0:0:0:
192,192,195330,1,0,0:0:0:0:
64,192,195409,1,0,0:0:0:0:
448,192,195409,1,0,0:0:0:0:
320,192,195489,1,0,0:0:0:0:
192,192,195529,1,0,0:0:0:0:
64,192,195569,1,0,0:0:0:0:
320,192,195609,1,0,0:0:0:0:
192,192,195649,1,0,0:0:0:0:
64,192,195729,128,0,195768:0:0:0:0:
320,192,195808,128,0,195848:0:0:0:0:
448,192,195888,128,0,195928:0:0:0:0:
192,192,195968,128,0,196008:0:0:0:0:
320,192,196048,1,0,0:0:0:0:
448,192,196048,1,0,0:0:0:0:
64,192,196048,1,0,0:0:0:0:
192,192,196127,1,0,0:0:0:0:
448,192,196207,1,0,0:0:0:0:
64,192,196287,1,0,0:0:0:0:
320,192,196287,1,0,0:0:0:0:
448,192,196367,1,0,0:0:0:0:
192,192,196447,1,0,0:0:0:0:
64,192,196526,1,0,0:0:0:0:
320,192,196526,1,0,0:0:0:0:
192,192,196606,1,0,0:0:0:0:
320,192,196686,1,0,0:0:0:0:
448,192,196686,1,0,0:0:0:0:
64,192,196686,1,0,0:0:0:0:
64,192,196846,1,0,0:0:0:0:
192,192,196925,1,0,0:0:0:0:
448,192,196925,1,0,0:0:0:0:
320,192,196925,128,0,197085:0:0:0:0:
448,192,197085,1,0,0:0:0:0:
320,192,197165,1,0,0:0:0:0:
64,192,197165,1,0,0:0:0:0:
192,192,197165,128,0,197324:0:0:0:0:
320,192,197324,1,0,0:0:0:0:
448,192,197324,1,0,0:0:0:0:
64,192,197324,1,0,0:0:0:0:
192,192,197404,1,0,0:0:0:0:
320,192,197484,1,0,0:0:0:0:
192,192,197564,1,0,0:0:0:0:
448,192,197564,1,0,0:0:0:0:
64,192,197643,1,0,0:0:0:0:
320,192,197723,1,0,0:0:0:0:
448,192,197803,1,0,0:0:0:0:
192,192,197803,1,0,0:0:0:0:
320,192,197883,1,0,0:0:0:0:
448,192,197963,1,0,0:0:0:0:
192,192,197963,1,0,0:0:0:0:
64,192,197963,1,0,0:0:0:0:
320,192,198122,1,0,0:0:0:0:
192,192,198202,1,0,0:0:0:0:
320,192,198282,1,0,0:0:0:0:
448,192,198282,1,0,0:0:0:0:
192,192,198362,1,0,0:0:0:0:
64,192,198362,1,0,0:0:0:0:
448,192,198441,1,0,0:0:0:0:
64,192,198521,1,0,0:0:0:0:
192,192,198601,1,0,0:0:0:0:
320,192,198601,1,0,0:0:0:0:
448,192,198601,1,0,0:0:0:0:
64,192,198681,1,0,0:0:0:0:
320,192,198760,1,0,0:0:0:0:
448,192,198840,1,0,0:0:0:0:
64,192,198840,1,0,0:0:0:0:
320,192,198920,1,0,0:0:0:0:
192,192,199000,1,0,0:0:0:0:
64,192,199080,1,0,0:0:0:0:
448,192,199080,1,0,0:0:0:0:
320,192,199159,1,0,0:0:0:0:
448,192,199239,1,0,0:0:0:0:
192,192,199239,1,0,0:0:0:0:
64,192,199239,1,0,0:0:0:0:
320,192,199479,1,0,0:0:0:0:
192,192,199558,1,0,0:0:0:0:
448,192,199638,1,0,0:0:0:0:
64,192,199718,1,0,0:0:0:0:
320,192,199798,1,0,0:0:0:0:
192,192,199877,1,0,0:0:0:0:
64,192,199877,1,0,0:0:0:0:
448,192,199877,1,0,0:0:0:0:
320,192,199957,1,0,0:0:0:0:
64,192,200037,1,0,0:0:0:0:
192,192,200117,1,0,0:0:0:0:
448,192,200117,1,0,0:0:0:0:
320,192,200197,1,0,0:0:0:0:
64,192,200276,1,0,0:0:0:0:
192,192,200356,1,0,0:0:0:0:
448,192,200356,1,0,0:0:0:0:
64,192,200436,1,0,0:0:0:0:
320,192,200516,1,0,0:0:0:0:
448,192,200516,1,0,0:0:0:0:
64,192,200556,1,0,0:0:0:0:
192,192,200596,1,0,0:0:0:0:
448,192,200635,1,0,0:0:0:0:
320,192,200675,1,0,0:0:0:0:
64,192,200715,1,0,0:0:0:0:
192,192,200755,1,0,0:0:0:0:
448,192,200795,1,0,0:0:0:0:
320,192,200835,1,0,0:0:0:0:
64,192,200835,1,0,0:0:0:0:
192,192,200915,1,0,0:0:0:0:
448,192,200915,1,0,0:0:0:0:
64,192,200995,1,0,0:0:0:0:
448,192,201074,1,0,0:0:0:0:
320,192,201154,1,0,0:0:0:0:
192,192,201154,1,0,0:0:0:0:
64,192,201154,1,0,0:0:0:0:
448,192,201234,1,0,0:0:0:0:
64,192,201314,1,0,0:0:0:0:
192,192,201393,1,0,0:0:0:0:
448,192,201393,1,0,0:0:0:0:
320,192,201473,1,0,0:0:0:0:
192,192,201553,1,0,0:0:0:0:
64,192,201633,1,0,0:0:0:0:
320,192,201633,1,0,0:0:0:0:
448,192,201792,1,0,0:0:0:0:
192,192,201792,1,0,0:0:0:0:
64,192,201792,1,0,0:0:0:0:
320,192,201911,1,0,0:0:0:0:
448,192,201911,1,0,0:0:0:0:
448,192,202031,1,0,0:0:0:0:
192,192,202031,1,0,0:0:0:0:
64,192,202031,1,0,0:0:0:0:
320,192,202151,1,0,0:0:0:0:
192,192,202151,1,0,0:0:0:0:
448,192,202270,1,0,0:0:0:0:
64,192,202270,1,0,0:0:0:0:
64,192,202430,1,0,0:0:0:0:
448,192,202430,1,0,0:0:0:0:
320,192,202430,1,0,0:0:0:0:
192,192,202549,1,0,0:0:0:0:
64,192,202549,1,0,0:0:0:0:
64,192,202669,1,0,0:0:0:0:
320,192,202669,1,0,0:0:0:0:
448,192,202669,1,0,0:0:0:0:
192,192,202789,1,0,0:0:0:0:
320,192,202789,1,0,0:0:0:0:
448,192,202908,1,0,0:0:0:0:
64,192,202908,1,0,0:0:0:0:
448,192,203068,1,0,0:0:0:0:
320,192,203068,1,0,0:0:0:0:
192,192,203068,1,0,0:0:0:0:
64,192,203147,1,0,0:0:0:0:
448,192,203227,1,0,0:0:0:0:
320,192,203307,1,0,0:0:0:0:
192,192,203307,1,0,0:0:0:0:
64,192,203387,1,0,0:0:0:0:
448,192,203387,1,0,0:0:0:0:
192,192,203466,1,0,0:0:0:0:
448,192,203546,1,0,0:0:0:0:
64,192,203546,1,0,0:0:0:0:
320,192,203626,1,0,0:0:0:0:
192,192,203706,1,0,0:0:0:0:
448,192,203706,1,0,0:0:0:0:
64,192,203706,1,0,0:0:0:0:
320,192,203865,128,0,204344:0:0:0:0:
448,192,204025,128,0,204344:0:0:0:0:
192,192,204344,1,0,0:0:0:0:
64,192,204344,1,0,0:0:0:0:
448,192,204424,1,0,0:0:0:0:
192,192,204504,1,0,0:0:0:0:
64,192,204583,1,0,0:0:0:0:
448,192,204583,1,0,0:0:0:0:
192,192,204663,1,0,0:0:0:0:
320,192,204743,1,0,0:0:0:0:
64,192,204823,1,0,0:0:0:0:
448,192,204823,1,0,0:0:0:0:
320,192,204903,1,0,0:0:0:0:
192,192,204982,128,0,205302:0:0:0:0:
64,192,204982,128,0,205461:0:0:0:0:
320,192,205302,1,0,0:0:0:0:
448,192,205381,1,0,0:0:0:0:
192,192,205461,1,0,0:0:0:0:
320,192,205541,1,0,0:0:0:0:
64,192,205621,1,0,0:0:0:0:
192,192,205621,1,0,0:0:0:0:
448,192,205700,1,0,0:0:0:0:
320,192,205780,1,0,0:0:0:0:
192,192,205860,1,0,0:0:0:0:
448,192,205860,1,0,0:0:0:0:
64,192,205940,1,0,0:0:0:0:
448,192,206020,1,0,0:0:0:0:
192,192,206099,1,0,0:0:0:0:
64,192,206099,1,0,0:0:0:0:
320,192,206179,1,0,0:0:0:0:
192,192,206259,1,0,0:0:0:0:
448,192,206259,1,0,0:0:0:0:
64,192,206339,1,0,0:0:0:0:
192,192,206419,1,0,0:0:0:0:
448,192,206419,1,0,0:0:0:0:
64,192,206498,1,0,0:0:0:0:
320,192,206498,1,0,0:0:0:0:
192,192,206578,1,0,0:0:0:0:
64,192,206658,1,0,0:0:0:0:
192,192,206738,1,0,0:0:0:0:
448,192,206738,1,0,0:0:0:0:
64,192,206818,1,0,0:0:0:0:
448,192,206897,1,0,0:0:0:0:
320,192,206897,1,0,0:0:0:0:
192,192,206897,1,0,0:0:0:0:
64,192,206977,1,0,0:0:0:0:
448,192,207057,1,0,0:0:0:0:
320,192,207137,1,0,0:0:0:0:
192,192,207137,1,0,0:0:0:0:
448,192,207216,1,0,0:0:0:0:
64,192,207296,1,0,0:0:0:0:
320,192,207296,1,0,0:0:0:0:
192,192,207376,1,0,0:0:0:0:
448,192,207376,1,0,0:0:0:0:
64,192,207536,1,0,0:0:0:0:
320,192,207536,1,0,0:0:0:0:
448,192,207536,1,0,0:0:0:0:
64,192,207775,1,0,0:0:0:0:
320,192,207775,1,0,0:0:0:0:
448,192,207775,1,0,0:0:0:0:
448,192,207935,1,0,0:0:0:0:
192,192,207935,1,0,0:0:0:0:
320,192,208014,1,0,0:0:0:0:
64,192,208014,1,0,0:0:0:0:
320,192,208174,1,0,0:0:0:0:
192,192,208174,1,0,0:0:0:0:
64,192,208174,1,0,0:0:0:0:
448,192,208333,1,0,0:0:0:0:
64,192,208413,1,0,0:0:0:0:
320,192,208413,1,0,0:0:0:0:
192,192,208493,1,0,0:0:0:0:
448,192,208493,1,0,0:0:0:0:
448,192,208653,1,0,0:0:0:0:
64,192,208653,1,0,0:0:0:0:
64,192,208812,1,0,0:0:0:0:
192,192,208812,1,0,0:0:0:0:
448,192,208812,1,0,0:0:0:0:
448,192,208972,1,0,0:0:0:0:
64,192,209052,1,0,0:0:0:0:
192,192,209131,1,0,0:0:0:0:
448,192,209211,1,0,0:0:0:0:
64,192,209291,1,0,0:0:0:0:
320,192,209371,1,0,0:0:0:0:
192,192,209450,1,0,0:0:0:0:
64,192,209450,1,0,0:0:0:0:
448,192,209450,1,0,0:0:0:0:
320,192,209530,1,0,0:0:0:0:
192,192,209610,1,0,0:0:0:0:
64,192,209690,1,0,0:0:0:0:
448,192,209690,1,0,0:0:0:0:
192,192,209770,1,0,0:0:0:0:
448,192,209849,1,0,0:0:0:0:
320,192,209849,1,0,0:0:0:0:
192,192,209929,1,0,0:0:0:0:
64,192,209929,1,0,0:0:0:0:
192,192,210089,1,0,0:0:0:0:
448,192,210089,1,0,0:0:0:0:
64,192,210129,1,0,0:0:0:0:
320,192,210208,1,0,0:0:0:0:
192,192,210248,1,0,0:0:0:0:
64,192,210288,1,0,0:0:0:0:
320,192,210408,128,0,210488:0:0:0:0:
448,192,210488,128,0,210568:0:0:0:0:
192,192,210568,128,0,210647:0:0:0:0:
64,192,210647,128,0,210727:0:0:0:0:
192,192,210727,1,0,0:0:0:0:
320,192,210727,1,0,0:0:0:0:
448,192,210727,1,0,0:0:0:0:
64,192,210807,1,0,0:0:0:0:
320,192,210887,1,0,0:0:0:0:
448,192,210966,1,0,0:0:0:0:
192,192,210966,1,0,0:0:0:0:
64,192,211046,1,0,0:0:0:0:
320,192,211126,1,0,0:0:0:0:
448,192,211206,1,0,0:0:0:0:
192,192,211206,1,0,0:0:0:0:
320,192,211286,1,0,0:0:0:0:
64,192,211365,1,0,0:0:0:0:
448,192,211365,1,0,0:0:0:0:
192,192,211365,1,0,0:0:0:0:
64,192,211485,1,0,0:0:0:0:
192,192,211485,1,0,0:0:0:0:
320,192,211545,1,0,0:0:0:0:
448,192,211545,1,0,0:0:0:0:
192,192,211605,1,0,0:0:0:0:
64,192,211605,1,0,0:0:0:0:
448,192,211724,1,0,0:0:0:0:
64,192,211724,1,0,0:0:0:0:
320,192,211784,1,0,0:0:0:0:
192,192,211784,1,0,0:0:0:0:
64,192,211844,1,0,0:0:0:0:
448,192,211844,1,0,0:0:0:0:
320,192,212004,1,0,0:0:0:0:
448,192,212004,1,0,0:0:0:0:
64,192,212004,1,0,0:0:0:0:
320,192,212123,1,0,0:0:0:0:
448,192,212123,1,0,0:0:0:0:
192,192,212183,1,0,0:0:0:0:
64,192,212183,1,0,0:0:0:0:
320,192,212243,1,0,0:0:0:0:
448,192,212243,1,0,0:0:0:0:
320,192,212363,1,0,0:0:0:0:
192,192,212363,1,0,0:0:0:0:
448,192,212423,1,0,0:0:0:0:
64,192,212423,1,0,0:0:0:0:
320,192,212482,1,0,0:0:0:0:
192,192,212482,1,0,0:0:0:0:
64,192,212642,128,0,213280:0:0:0:0:
448,192,212642,128,0,213280:0:0:0:0:
320,192,213280,1,0,0:0:0:0:
192,192,213280,1,0,0:0:0:0:
448,192,213599,1,0,0:0:0:0:
64,192,213919,1,0,0:0:0:0:
448,192,214229,1,0,0:0:0:0:
320,192,214557,1,0,0:0:0:0:
64,192,214876,1,0,0:0:0:0:
448,192,215195,1,0,0:0:0:0:
320,192,215514,1,0,0:0:0:0:
64,192,215833,1,0,0:0:0:0:
448,192,216153,1,0,0:0:0:0:
320,192,216472,1,0,0:0:0:0:
192,192,216671,1,0,0:0:0:0:
64,192,216791,1,0,0:0:0:0:
320,192,217110,1,0,0:0:0:0:
64,192,217269,1,0,0:0:0:0:
192,192,217349,1,0,0:0:0:0:
320,192,217428,1,0,0:0:0:0:
448,192,217482,1,0,0:0:0:0:
64,192,217535,1,0,0:0:0:0:
192,192,217588,1,0,0:0:0:0:
320,192,217628,1,0,0:0:0:0:
448,192,217668,1,0,0:0:0:0:
64,192,217708,1,0,0:0:0:0:
192,192,217748,1,0,0:0:0:0:
320,192,217801,1,0,0:0:0:0:
448,192,217854,1,0,0:0:0:0:
64,192,217907,1,0,0:0:0:0:
192,192,217987,1,0,0:0:0:0:
320,192,218067,1,0,0:0:0:0:
448,192,218173,1,0,0:0:0:0:
64,192,218280,1,0,0:0:0:0:
320,192,218386,1,0,0:0:0:0:
448,192,218386,1,0,0:0:0:0:
192,192,218386,1,0,0:0:0:0:
64,192,219025,1,0,0:0:0:0:
192,192,219025,1,0,0:0:0:0:
448,192,219025,1,0,0:0:0:0:
448,192,219185,1,0,0:0:0:0:
320,192,219185,1,0,0:0:0:0:
192,192,219264,1,0,0:0:0:0:
64,192,219264,1,0,0:0:0:0:
448,192,219344,1,0,0:0:0:0:
320,192,219344,1,0,0:0:0:0:
192,192,219450,1,0,0:0:0:0:
64,192,219450,1,0,0:0:0:0:
448,192,219557,1,0,0:0:0:0:
320,192,219557,1,0,0:0:0:0:
64,192,219663,1,0,0:0:0:0:
448,192,219743,1,0,0:0:0:0:
192,192,219823,1,0,0:0:0:0:
320,192,219903,1,0,0:0:0:0:
64,192,219982,1,0,0:0:0:0:
448,192,220062,1,0,0:0:0:0:
448,192,220142,1,0,0:0:0:0:
320,192,220222,1,0,0:0:0:0:
192,192,220302,1,0,0:0:0:0:
64,192,220302,1,0,0:0:0:0:
448,192,220341,1,0,0:0:0:0:
320,192,220341,1,0,0:0:0:0:
192,192,220541,1,0,0:0:0:0:
320,192,220621,1,0,0:0:0:0:
64,192,220621,1,0,0:0:0:0:
448,192,220700,1,0,0:0:0:0:
192,192,220700,1,0,0:0:0:0:
64,192,220780,128,0,220820:0:0:0:0:
448,192,220860,128,0,220900:0:0:0:0:
320,192,220940,1,0,0:0:0:0:
192,192,220940,1,0,0:0:0:0:
64,192,221020,1,0,0:0:0:0:
448,192,221099,1,0,0:0:0:0:
64,192,221179,1,0,0:0:0:0:
192,192,221259,1,0,0:0:0:0:
448,192,221339,1,0,0:0:0:0:
320,192,221419,1,0,0:0:0:0:
192,192,221419,1,0,0:0:0:0:
320,192,221578,1,0,0:0:0:0:
448,192,221578,1,0,0:0:0:0:
64,192,221578,1,0,0:0:0:0:
192,192,221897,1,0,0:0:0:0:
320,192,221977,1,0,0:0:0:0:
192,192,222057,1,0,0:0:0:0:
448,192,222057,1,0,0:0:0:0:
320,192,222137,1,0,0:0:0:0:
64,192,222137,1,0,0:0:0:0:
192,192,222216,1,0,0:0:0:0:
320,192,222216,1,0,0:0:0:0:
192,192,222456,1,0,0:0:0:0:
320,192,222456,1,0,0:0:0:0:
192,192,222536,1,0,0:0:0:0:
448,192,222615,1,0,0:0:0:0:
64,192,222695,1,0,0:0:0:0:
320,192,222855,1,0,0:0:0:0:
192,192,222855,1,0,0:0:0:0:
448,192,222935,1,0,0:0:0:0:
320,192,223014,1,0,0:0:0:0:
64,192,223014,1,0,0:0:0:0:
192,192,223094,1,0,0:0:0:0:
448,192,223094,1,0,0:0:0:0:
64,192,223174,1,0,0:0:0:0:
192,192,223254,1,0,0:0:0:0:
320,192,223333,1,0,0:0:0:0:
448,192,223413,1,0,0:0:0:0:
192,192,223493,1,0,0:0:0:0:
64,192,223493,1,0,0:0:0:0:
448,192,223653,1,0,0:0:0:0:
192,192,223732,1,0,0:0:0:0:
64,192,223812,128,0,223892:0:0:0:0:
320,192,223812,1,0,0:0:0:0:
448,192,223892,128,0,223972:0:0:0:0:
192,192,223972,1,0,0:0:0:0:
320,192,224131,1,0,0:0:0:0:
448,192,224131,1,0,0:0:0:0:
64,192,224131,1,0,0:0:0:0:
192,192,224291,1,0,0:0:0:0:
64,192,224291,1,0,0:0:0:0:
320,192,224371,1,0,0:0:0:0:
448,192,224371,1,0,0:0:0:0:
192,192,224450,1,0,0:0:0:0:
64,192,224450,1,0,0:0:0:0:
320,192,224557,1,0,0:0:0:0:
448,192,224557,1,0,0:0:0:0:
64,192,224663,1,0,0:0:0:0:
192,192,224663,1,0,0:0:0:0:
448,192,224770,1,0,0:0:0:0:
320,192,224849,1,0,0:0:0:0:
64,192,224929,1,0,0:0:0:0:
192,192,225009,1,0,0:0:0:0:
320,192,225049,1,0,0:0:0:0:
448,192,225089,1,0,0:0:0:0:
192,192,225169,1,0,0:0:0:0:
64,192,225248,1,0,0:0:0:0:
320,192,225328,1,0,0:0:0:0:
192,192,225408,1,0,0:0:0:0:
448,192,225408,1,0,0:0:0:0:
320,192,225568,1,0,0:0:0:0:
192,192,225647,1,0,0:0:0:0:
448,192,225727,1,0,0:0:0:0:
64,192,225807,1,0,0:0:0:0:
320,192,225887,1,0,0:0:0:0:
192,192,225966,1,0,0:0:0:0:
320,192,226046,1,0,0:0:0:0:
448,192,226046,1,0,0:0:0:0:
64,192,226126,1,0,0:0:0:0:
448,192,226206,1,0,0:0:0:0:
64,192,226286,1,0,0:0:0:0:
320,192,226286,1,0,0:0:0:0:
192,192,226365,1,0,0:0:0:0:
448,192,226445,1,0,0:0:0:0:
192,192,226525,1,0,0:0:0:0:
320,192,226525,1,0,0:0:0:0:
64,192,226605,1,0,0:0:0:0:
192,192,226685,1,0,0:0:0:0:
448,192,226685,1,0,0:0:0:0:
320,192,226844,1,0,0:0:0:0:
64,192,226884,1,0,0:0:0:0:
192,192,226924,1,0,0:0:0:0:
448,192,226924,128,0,227083:0:0:0:0:
320,192,227083,1,0,0:0:0:0:
448,192,227163,1,0,0:0:0:0:
64,192,227163,128,0,227323:0:0:0:0:
192,192,227323,1,0,0:0:0:0:
64,192,227403,1,0,0:0:0:0:
320,192,227482,1,0,0:0:0:0:
448,192,227562,1,0,0:0:0:0:
64,192,227642,128,0,227722:0:0:0:0:
448,192,227722,128,0,227802:0:0:0:0:
64,192,227802,128,0,227881:0:0:0:0:
448,192,227881,128,0,227961:0:0:0:0:
64,192,227961,128,0,228121:0:0:0:0:
320,192,227961,1,0,0:0:0:0:
320,192,228121,1,0,0:0:0:0:
448,192,228121,1,0,0:0:0:0:
192,192,228200,1,0,0:0:0:0:
64,192,228280,1,0,0:0:0:0:
192,192,228360,1,0,0:0:0:0:
320,192,228440,1,0,0:0:0:0:
448,192,228520,1,0,0:0:0:0:
192,192,228599,1,0,0:0:0:0:
64,192,228599,1,0,0:0:0:0:
192,192,228759,1,0,0:0:0:0:
64,192,228839,1,0,0:0:0:0:
320,192,228919,128,0,228998:0:0:0:0:
448,192,228998,128,0,229078:0:0:0:0:
64,192,229078,1,0,0:0:0:0:
192,192,229118,1,0,0:0:0:0:
320,192,229158,1,0,0:0:0:0:
448,192,229238,1,0,0:0:0:0:
64,192,229238,128,0,229397:0:0:0:0:
192,192,229397,128,0,229557:0:0:0:0:
320,192,229557,128,0,229716:0:0:0:0:
448,192,229716,128,0,229876:0:0:0:0:
192,192,229876,1,0,0:0:0:0:
64,192,229876,1,0,0:0:0:0:
320,192,230275,1,0,0:0:0:0:
192,192,230355,1,0,0:0:0:0:
448,192,230435,1,0,0:0:0:0:
320,192,230514,1,0,0:0:0:0:
64,192,230514,1,0,0:0:0:0:
192,192,230674,1,0,0:0:0:0:
320,192,230754,1,0,0:0:0:0:
64,192,230833,1,0,0:0:0:0:
192,192,230913,1,0,0:0:0:0:
320,192,230993,1,0,0:0:0:0:
448,192,231073,1,0,0:0:0:0:
64,192,231153,1,0,0:0:0:0:
320,192,231232,1,0,0:0:0:0:
192,192,231312,1,0,0:0:0:0:
64,192,231392,1,0,0:0:0:0:
320,192,231472,1,0,0:0:0:0:
448,192,231552,1,0,0:0:0:0:
192,192,231631,1,0,0:0:0:0:
320,192,231671,1,0,0:0:0:0:
192,192,231711,1,0,0:0:0:0:
64,192,231791,1,0,0:0:0:0:
448,192,231791,128,0,231950:0:0:0:0:
64,192,231950,128,0,232429:0:0:0:0:
192,192,232429,1,0,0:0:0:0:
320,192,232429,1,0,0:0:0:0:
64,192,232509,1,0,0:0:0:0:
448,192,232589,1,0,0:0:0:0:
192,192,232669,1,0,0:0:0:0:
320,192,232748,1,0,0:0:0:0:
448,192,232828,1,0,0:0:0:0:
192,192,232908,1,0,0:0:0:0:
64,192,232988,1,0,0:0:0:0:
320,192,233068,1,0,0:0:0:0:
448,192,233068,1,0,0:0:0:0:
64,192,233107,1,0,0:0:0:0:
192,192,233107,1,0,0:0:0:0:
448,192,233347,1,0,0:0:0:0:
64,192,233427,1,0,0:0:0:0:
192,192,233506,1,0,0:0:0:0:
320,192,233586,1,0,0:0:0:0:
448,192,233666,1,0,0:0:0:0:
192,192,233706,1,0,0:0:0:0:
64,192,233706,1,0,0:0:0:0:
320,192,233865,1,0,0:0:0:0:
64,192,233945,1,0,0:0:0:0:
192,192,234025,128,0,234105:0:0:0:0:
448,192,234105,128,0,234185:0:0:0:0:
320,192,234185,1,0,0:0:0:0:
64,192,234344,1,0,0:0:0:0:
320,192,234344,1,0,0:0:0:0:
448,192,234504,1,0,0:0:0:0:
320,192,234583,1,0,0:0:0:0:
64,192,234583,1,0,0:0:0:0:
192,192,234743,1,0,0:0:0:0:
64,192,234823,1,0,0:0:0:0:
320,192,234823,1,0,0:0:0:0:
320,192,234982,1,0,0:0:0:0:
448,192,234982,128,0,235408:0:0:0:0:
192,192,235408,1,0,0:0:0:0:
64,192,235408,1,0,0:0:0:0:
192,192,235514,1,0,0:0:0:0:
320,192,235514,1,0,0:0:0:0:
64,192,235621,1,0,0:0:0:0:
448,192,235621,1,0,0:0:0:0:
320,192,236020,1,0,0:0:0:0:
192,192,236060,1,0,0:0:0:0:
448,192,236099,1,0,0:0:0:0:
320,192,236153,1,0,0:0:0:0:
192,192,236206,1,0,0:0:0:0:
64,192,236259,1,0,0:0:0:0:
320,192,236339,1,0,0:0:0:0:
192,192,236419,1,0,0:0:0:0:
448,192,236498,1,0,0:0:0:0:
192,192,236578,128,0,236658:0:0:0:0:
320,192,236658,128,0,236738:0:0:0:0:
64,192,236738,1,0,0:0:0:0:
192,192,236738,1,0,0:0:0:0:
192,192,236897,1,0,0:0:0:0:
448,192,236897,1,0,0:0:0:0:
320,192,237057,1,0,0:0:0:0:
64,192,237137,1,0,0:0:0:0:
192,192,237137,1,0,0:0:0:0:
320,192,237536,1,0,0:0:0:0:
64,192,237775,1,0,0:0:0:0:
192,192,237855,1,0,0:0:0:0:
448,192,237935,1,0,0:0:0:0:
64,192,238014,1,0,0:0:0:0:
320,192,238094,1,0,0:0:0:0:
448,192,238174,1,0,0:0:0:0:
192,192,238174,1,0,0:0:0:0:
192,192,238333,1,0,0:0:0:0:
64,192,238413,1,0,0:0:0:0:
320,192,238493,128,0,238573:0:0:0:0:
448,192,238573,128,0,238653:0:0:0:0:
192,192,238653,1,0,0:0:0:0:
320,192,238732,1,0,0:0:0:0:
64,192,238812,1,0,0:0:0:0:
448,192,238892,1,0,0:0:0:0:
192,192,238972,1,0,0:0:0:0:
448,192,239052,1,0,0:0:0:0:
320,192,239131,1,0,0:0:0:0:
64,192,239211,1,0,0:0:0:0:
320,192,239291,1,0,0:0:0:0:
64,192,239371,1,0,0:0:0:0:
448,192,239450,1,0,0:0:0:0:
192,192,239450,1,0,0:0:0:0:
320,192,239530,1,0,0:0:0:0:
64,192,239610,1,0,0:0:0:0:
448,192,239690,1,0,0:0:0:0:
192,192,239770,1,0,0:0:0:0:
320,192,239849,1,0,0:0:0:0:
192,192,239929,1,0,0:0:0:0:
448,192,240009,1,0,0:0:0:0:
64,192,240089,1,0,0:0:0:0:
320,192,240168,1,0,0:0:0:0:
64,192,240248,1,0,0:0:0:0:
320,192,240328,1,0,0:0:0:0:
192,192,240408,1,0,0:0:0:0:
448,192,240487,1,0,0:0:0:0:
192,192,240567,1,0,0:0:0:0:
448,192,240647,1,0,0:0:0:0:
320,192,240727,1,0,0:0:0:0:
448,192,240807,1,0,0:0:0:0:
64,192,240886,1,0,0:0:0:0:
192,192,240966,1,0,0:0:0:0:
64,192,241046,1,0,0:0:0:0:
448,192,241152,1,0,0:0:0:0:
64,192,241259,1,0,0:0:0:0:
448,192,241365,1,0,0:0:0:0:
320,192,241525,1,0,0:0:0:0:
192,192,241578,1,0,0:0:0:0:
448,192,241684,1,0,0:0:0:0:
64,192,241737,1,0,0:0:0:0:
320,192,241791,1,0,0:0:0:0:
192,192,241870,1,0,0:0:0:0:
448,192,242003,1,0,0:0:0:0:
320,192,242003,1,0,0:0:0:0:
192,192,242043,1,0,0:0:0:0:
64,192,242083,1,0,0:0:0:0:
448,192,242123,1,0,0:0:0:0:
320,192,242163,1,0,0:0:0:0:
192,192,242243,1,0,0:0:0:0:
64,192,242323,1,0,0:0:0:0:
448,192,242429,1,0,0:0:0:0:
320,192,242535,1,0,0:0:0:0:
192,192,242642,1,0,0:0:0:0:
64,192,242961,1,0,0:0:0:0:
320,192,242961,1,0,0:0:0:0:
448,192,242961,1,0,0:0:0:0:
192,192,243300,1,0,0:0:0:0:
192,192,243639,1,0,0:0:0:0:
448,192,243918,1,0,0:0:0:0:
192,192,243978,128,0,245514:0:0:0:0:
64,192,245514,1,0,0:0:0:0:
448,192,245833,128,0,247748:0:0:0:0:
320,192,245833,1,0,0:0:0:0:
192,192,247748,128,0,248546:0:0:0:0:
320,192,247748,1,0,0:0:0:0:
64,192,248386,1,0,0:0:0:0:
448,192,248706,128,0,249663:0:0:0:0:
320,192,248706,1,0,0:0:0:0:
192,192,249344,1,0,0:0:0:0:
192,192,249663,128,0,251099:0:0:0:0:
320,192,249663,1,0,0:0:0:0:
64,192,251259,128,0,251418:0:0:0:0:
192,192,251259,1,0,0:0:0:0:
320,192,251418,128,0,251578:0:0:0:0:
64,192,251578,128,0,252296:0:0:0:0:
448,192,251578,1,0,0:0:0:0:
320,192,252216,1,0,0:0:0:0:
448,192,252323,1,0,0:0:0:0:
192,192,252429,1,0,0:0:0:0:
64,192,252535,1,0,0:0:0:0:
192,192,252615,1,0,0:0:0:0:
448,192,252695,1,0,0:0:0:0:
320,192,252775,1,0,0:0:0:0:
64,192,252854,1,0,0:0:0:0:
320,192,252934,1,0,0:0:0:0:
448,192,253014,1,0,0:0:0:0:
192,192,253094,1,0,0:0:0:0:
64,192,253174,1,0,0:0:0:0:
320,192,253280,1,0,0:0:0:0:
64,192,253386,1,0,0:0:0:0:
192,192,253493,1,0,0:0:0:0:
320,192,253493,128,0,254291:0:0:0:0:
448,192,254450,128,0,255408:0:0:0:0:
320,192,254769,1,0,0:0:0:0:
192,192,255089,1,0,0:0:0:0:
320,192,255408,1,0,0:0:0:0:
64,192,255487,1,0,0:0:0:0:
192,192,255567,1,0,0:0:0:0:
64,192,255647,1,0,0:0:0:0:
448,192,255727,1,0,0:0:0:0:
192,192,255807,1,0,0:0:0:0:
320,192,255886,1,0,0:0:0:0:
192,192,255966,1,0,0:0:0:0:
448,192,256046,1,0,0:0:0:0:
64,192,256126,1,0,0:0:0:0:
320,192,256206,1,0,0:0:0:0:
64,192,256285,1,0,0:0:0:0:
192,192,256365,1,0,0:0:0:0:
320,192,256445,1,0,0:0:0:0:
64,192,256525,1,0,0:0:0:0:
320,192,256604,1,0,0:0:0:0:
192,192,256684,1,0,0:0:0:0:
448,192,256764,1,0,0:0:0:0:
64,192,256844,1,0,0:0:0:0:
448,192,256924,1,0,0:0:0:0:
192,192,257003,1,0,0:0:0:0:
320,192,257083,1,0,0:0:0:0:
192,192,257163,1,0,0:0:0:0:
320,192,257243,1,0,0:0:0:0:
64,192,257323,1,0,0:0:0:0:
448,192,257402,1,0,0:0:0:0:
64,192,257482,128,0,257961:0:0:0:0:
320,192,257961,128,0,258280:0:0:0:0:
448,192,258280,1,0,0:0:0:0:
192,192,258386,1,0,0:0:0:0:
448,192,258440,1,0,0:0:0:0:
64,192,258519,1,0,0:0:0:0:
320,192,258599,1,0,0:0:0:0:
192,192,258706,1,0,0:0:0:0:
64,192,258759,1,0,0:0:0:0:
320,192,258839,1,0,0:0:0:0:
448,192,258918,1,0,0:0:0:0:
64,192,259025,1,0,0:0:0:0:
192,192,259078,1,0,0:0:0:0:
320,192,259158,1,0,0:0:0:0:
448,192,259237,1,0,0:0:0:0:
64,192,259237,128,0,260035:0:0:0:0:
320,192,259557,1,0,0:0:0:0:
192,192,259876,1,0,0:0:0:0:
320,192,260195,1,0,0:0:0:0:
448,192,260514,1,0,0:0:0:0:
192,192,260594,128,0,261631:0:0:0:0:
64,192,260833,1,0,0:0:0:0:
448,192,261152,1,0,0:0:0:0:
64,192,261471,1,0,0:0:0:0:
320,192,261791,128,0,261950:0:0:0:0:
448,192,262110,128,0,263067:0:0:0:0:
192,192,262110,1,0,0:0:0:0:
320,192,262429,1,0,0:0:0:0:
64,192,262748,1,0,0:0:0:0:
320,192,263067,128,0,263706:0:0:0:0:
448,192,263386,1,0,0:0:0:0:
192,192,263706,128,0,264025:0:0:0:0:
64,192,264025,1,0,0:0:0:0:
448,192,264104,1,0,0:0:0:0:
64,192,264184,1,0,0:0:0:0:
320,192,264264,1,0,0:0:0:0:
64,192,264344,1,0,0:0:0:0:
448,192,264424,1,0,0:0:0:0:
192,192,264503,1,0,0:0:0:0:
448,192,264583,1,0,0:0:0:0:
64,192,264663,128,0,264982:0:0:0:0:
448,192,264982,128,0,266578:0:0:0:0:
192,192,264982,1,0,0:0:0:0:
320,192,265301,1,0,0:0:0:0:
64,192,265620,1,0,0:0:0:0:
320,192,265940,1,0,0:0:0:0:
192,192,266259,1,0,0:0:0:0:
320,192,266578,128,0,266897:0:0:0:0:
192,192,266897,128,0,268493:0:0:0:0:
64,192,266897,1,0,0:0:0:0:
320,192,267216,1,0,0:0:0:0:
448,192,267535,1,0,0:0:0:0:
64,192,267854,1,0,0:0:0:0:
320,192,268174,1,0,0:0:0:0:
448,192,268493,128,0,268759:0:0:0:0:
192,192,268812,128,0,269769:0:0:0:0:
64,192,268812,1,0,0:0:0:0:
320,192,269131,1,0,0:0:0:0:
448,192,269450,1,0,0:0:0:0:
320,192,269769,1,0,0:0:0:0:
64,192,269849,1,0,0:0:0:0:
448,192,269929,1,0,0:0:0:0:
192,192,270009,1,0,0:0:0:0:
320,192,270089,128,0,270228:0:0:0:0:
448,192,270228,128,0,270368:0:0:0:0:
320,192,270368,128,0,270527:0:0:0:0:
192,192,270527,128,0,270727:0:0:0:0:
64,192,270727,1,0,0:0:0:0:
192,192,270886,128,0,271166:0:0:0:0:
320,192,271046,1,0,0:0:0:0:
64,192,271166,128,0,271325:0:0:0:0:
448,192,271325,128,0,271445:0:0:0:0:
192,192,271365,1,0,0:0:0:0:
320,192,271445,128,0,271545:0:0:0:0:
448,192,271545,1,0,0:0:0:0:
192,192,271644,128,0,271744:0:0:0:0:
64,192,271744,128,0,271844:0:0:0:0:
448,192,271844,1,0,0:0:0:0:
320,192,271897,1,0,0:0:0:0:
192,192,271950,1,0,0:0:0:0:
320,192,272043,1,0,0:0:0:0:
192,192,272143,1,0,0:0:0:0:
64,192,272243,1,0,0:0:0:0:
448,192,272323,1,0,0:0:0:0:
320,192,272376,1,0,0:0:0:0:
192,192,272429,1,0,0:0:0:0:
64,192,272482,128,0,272602:0:0:0:0:
192,192,272662,1,0,0:0:0:0:
320,192,272721,1,0,0:0:0:0:
448,192,272781,128,0,274995:0:0:0:0:
64,192,272961,1,0,0:0:0:0:
192,192,273280,1,0,0:0:0:0:
320,192,273599,1,0,0:0:0:0:
192,192,273918,1,0,0:0:0:0:
64,192,274237,1,0,0:0:0:0:
320,192,274557,128,0,274995:0:0:0:0:
192,192,274995,128,0,276791:0:0:0:0:
