osu file format v14

[General]
AudioFilename: audio.mp3
AudioLeadIn: 0
PreviewTime: 31782
Countdown: 0
SampleSet: Soft
StackLeniency: 0.2
Mode: 0
LetterboxInBreaks: 0
WidescreenStoryboard: 0

[Editor]
Bookmarks: 31782,47115,47248,83082,146382,175182,198582
DistanceSpacing: 0.4
BeatDivisor: 3
GridSize: 32
TimelineZoom: 4.499997

[Metadata]
Title:Barbecue
TitleUnicode:Barbecue
Artist:Igorrr & Ruby My Dear
ArtistUnicode:Igorrr & Ruby My Dear
Creator:-PC
Version:Barbevu
Source:
Tags:sebu breakcore baroquecore Maigre Ad Noiseam Gautier Serre Julien Chastagnol electronic instrumental
BeatmapID:1106034
BeatmapSetID:520617

[Difficulty]
HPDrainRate:7.5
CircleSize:4
OverallDifficulty:8
ApproachRate:9.4
SliderMultiplier:1.7
SliderTickRate:1

[Events]
//Background and Video events
0,0,"bg.png",0,0
//Break Periods
2,118032,122082
2,130382,133228
//Storyboard Layer 0 (Background)
//Storyboard Layer 1 (Fail)
//Storyboard Layer 2 (Pass)
//Storyboard Layer 3 (Foreground)
//Storyboard Layer 4 (Overlay)
//Storyboard Sound Samples

[TimingPoints]
582,400,3,2,1,55,1,0
582,-142.857142857143,3,2,1,55,0,0
26882,-142.857142857143,3,2,1,5,0,0
26982,-142.857142857143,3,2,1,55,0,0
30182,-108.695652173913,3,2,1,55,0,0
30482,-108.695652173913,3,2,1,5,0,0
30582,-67.5675675675676,3,2,1,55,0,0
31382,-67.5675675675676,3,2,1,25,0,0
31782,-80.6451612903226,3,2,1,55,0,1
32082,-80.6451612903226,3,2,1,5,0,1
32182,-62.5,3,2,1,55,0,1
32482,-62.5,3,2,1,5,0,1
32582,-62.5,3,2,1,55,0,1
32882,-62.5,3,2,1,5,0,1
32982,-450,3,2,1,55,0,1
34182,-62.5,3,2,1,55,0,1
34482,-62.5,3,2,1,5,0,1
34582,-62.5,3,2,1,55,0,1
34882,-62.5,3,2,1,5,0,1
34982,-62.5,3,2,1,55,0,1
35282,-62.5,3,2,1,5,0,1
35382,-62.5,3,2,1,55,0,1
36582,-80.6451612903226,3,2,1,55,0,1
36882,-80.6451612903226,3,2,1,5,0,1
36982,-62.5,3,2,1,55,0,1
37282,-62.5,3,2,1,5,0,1
37382,-50,3,2,1,55,0,1
37782,-80.6451612903226,3,2,1,55,0,1
38848,-55.5555555555556,3,2,1,55,0,1
38982,-52.6315789473684,3,2,1,55,0,1
39282,-52.6315789473684,3,2,1,5,0,1
39382,-80.6451612903226,3,2,1,55,0,1
41682,-80.6451612903226,3,2,1,5,0,1
41782,-62.5,3,2,1,55,0,1
42082,-62.5,3,2,1,5,0,1
42182,-52.6315789473684,3,2,1,55,0,1
42482,-52.6315789473684,3,2,1,5,0,1
42582,-450,3,2,1,55,0,1
43782,-62.5,3,2,1,55,0,1
44082,-62.5,3,2,1,5,0,1
44182,-62.5,3,2,1,55,0,1
44482,-62.5,3,2,1,5,0,1
44582,-62.5,3,2,1,55,0,1
44882,-62.5,3,2,1,5,0,1
44982,-450,3,2,1,55,0,1
46182,-80.6451612903226,3,2,1,55,0,1
46482,-80.6451612903226,3,2,1,5,0,1
46582,-62.5,3,2,1,55,0,1
46882,-62.5,3,2,1,5,0,1
46982,-50,3,2,1,55,0,1
47782,-80.6451612903226,3,2,1,55,0,1
48582,-52.6315789473684,3,2,1,55,0,1
48882,-52.6315789473684,3,2,1,5,0,1
48982,-80.6451612903226,3,2,1,55,0,1
49782,-80.6451612903226,3,2,1,55,0,0
50982,300,4,1,1,60,1,0
51582,-76.9230769230769,4,1,1,60,0,0
51807,-76.9230769230769,4,1,1,5,0,0
51882,-76.9230769230769,4,1,1,60,0,0
58782,-350,4,1,1,55,0,0
59307,-350,4,1,1,5,0,0
59382,-76.9230769230769,4,1,1,55,0,0
60357,-76.9230769230769,4,1,1,40,0,0
60882,-450,4,1,1,55,0,0
61107,-450,4,1,1,5,0,0
61182,-71.4285714285714,4,1,1,55,0,0
61707,-71.4285714285714,4,1,1,5,0,0
61782,-71.4285714285714,4,1,1,65,0,0
61857,-71.4285714285714,4,1,1,5,0,0
62082,-71.4285714285714,4,1,1,10,0,0
62232,-71.4285714285714,4,1,1,15,0,0
62382,-71.4285714285714,4,1,1,45,0,0
62400,-71.4285714285714,4,1,1,25,0,0
62532,-71.4285714285714,4,1,1,35,0,0
62682,-71.4285714285714,4,1,1,60,0,0
62700,-71.4285714285714,4,1,1,45,0,0
62832,-71.4285714285714,4,1,1,55,0,0
62907,-71.4285714285714,4,1,1,5,0,0
62982,-225,4,1,1,55,0,0
64782,-76.9230769230769,4,1,1,55,0,0
65982,-90.9090909090909,4,1,1,55,0,0
66882,-125,4,1,1,55,0,0
68682,-76.9230769230769,4,1,1,55,0,0
69582,-62.5,4,1,1,55,0,0
70482,-90.9090909090909,4,1,1,55,0,0
78807,-450,3,1,1,55,0,0
79407,-450,3,1,1,5,0,0
79482,-90.9090909090909,3,1,1,55,0,0
81057,-450,3,1,1,5,0,0
81432,-450,3,1,1,10,0,0
81732,-450,3,1,1,15,0,0
82032,-450,3,1,1,20,0,0
82332,-450,3,1,1,30,0,0
82632,-450,3,1,1,40,0,0
82932,-450,3,1,1,50,0,0
83007,-450,3,1,1,5,0,0
83082,300,4,1,1,55,1,0
83082,-90.9090909090909,4,2,1,55,0,0
96282,-125,4,2,1,30,0,0
96657,-200,4,2,1,30,0,0
97782,-125,4,2,1,30,0,0
98382,-166.666666666667,4,2,1,30,0,0
98682,-62.5,4,2,1,30,0,0
99582,400,3,2,1,60,1,0
99582,-80.6451612903226,3,2,1,60,0,1
99882,-80.6451612903226,3,2,1,5,0,1
99982,-62.5,3,2,1,60,0,1
100282,-62.5,3,2,1,5,0,1
100382,-62.5,3,2,1,60,0,1
100682,-62.5,3,2,1,5,0,1
100782,-450,3,2,1,60,0,1
101982,-62.5,3,2,1,60,0,1
102282,-62.5,3,2,1,5,0,1
102382,-62.5,3,2,1,60,0,1
102682,-62.5,3,2,1,5,0,1
102782,-62.5,3,2,1,60,0,1
103082,-62.5,3,2,1,5,0,1
103182,-62.5,3,2,1,60,0,1
104382,-80.6451612903226,3,2,1,60,0,1
104682,-80.6451612903226,3,2,1,5,0,1
104782,-62.5,3,2,1,60,0,1
105082,-62.5,3,2,1,5,0,1
105182,-50,3,2,1,60,0,1
105582,-80.6451612903226,3,2,1,60,0,1
106648,-55.5555555555556,3,2,1,60,0,1
106782,-52.6315789473684,3,2,1,60,0,1
107082,-52.6315789473684,3,2,1,5,0,1
107182,-80.6451612903226,3,2,1,60,0,1
109482,-80.6451612903226,3,2,1,5,0,1
109582,-62.5,3,2,1,60,0,1
109882,-62.5,3,2,1,5,0,1
109982,-52.6315789473684,3,2,1,60,0,1
110282,-52.6315789473684,3,2,1,5,0,1
110382,-450,3,2,1,60,0,1
111482,-450,3,2,1,5,0,1
111582,-62.5,3,2,1,60,0,1
111882,-62.5,3,2,1,5,0,1
111982,-62.5,3,2,1,60,0,1
112282,-62.5,3,2,1,5,0,1
112382,-62.5,3,2,1,60,0,1
112682,-62.5,3,2,1,5,0,1
112782,-225,4,2,1,60,0,1
113082,-225,4,2,1,5,0,1
113182,-225,4,2,1,60,0,1
113982,-80.6451612903226,4,2,1,60,0,1
114282,-80.6451612903226,4,2,1,5,0,1
114382,-62.5,4,2,1,60,0,1
114682,-62.5,4,2,1,5,0,1
114782,-50,4,2,1,60,0,1
115582,-80.6451612903226,4,2,1,60,0,1
116382,-52.6315789473684,4,2,1,60,0,1
116682,-52.6315789473684,4,2,1,5,0,1
116782,-80.6451612903226,4,2,1,60,0,1
117582,300,3,2,1,40,1,0
122982,-225,4,2,1,40,0,0
123882,-166.666666666667,4,2,1,40,0,0
124707,-166.666666666667,4,2,1,5,0,0
124782,-166.666666666667,4,2,1,40,0,0
125607,-166.666666666667,4,2,1,5,0,0
125682,-166.666666666667,4,2,1,40,0,0
128307,-166.666666666667,4,2,1,5,0,0
128382,-166.666666666667,4,2,1,40,0,0
128982,-83.3333333333333,4,2,1,40,0,0
129282,-83.3333333333333,4,2,1,30,0,0
130182,-83.3333333333333,4,2,1,40,0,0
133782,-166.666666666667,4,2,1,40,0,0
135507,-166.666666666667,4,2,1,5,0,0
135582,-166.666666666667,4,2,1,40,0,0
136407,-166.666666666667,4,2,1,5,0,0
136482,-125,4,2,1,30,0,0
137307,-125,4,2,1,5,0,0
137382,-181.818181818182,4,2,1,30,0,0
144582,-142.857142857143,4,2,1,30,0,0
145482,-125,4,2,1,30,0,0
146007,-125,4,2,1,5,0,0
146082,-166.666666666667,4,2,1,40,0,0
146307,-225,4,2,1,5,0,0
146382,-66.6666666666667,4,2,1,60,0,1
146682,-80.6451612903226,4,2,1,60,0,1
150882,-125,4,2,1,60,0,1
151482,-80.6451612903226,4,2,1,60,0,1
151707,-80.6451612903226,4,2,1,5,0,1
151782,-80.6451612903226,4,2,1,60,0,1
152682,-66.6666666666667,4,2,1,60,0,1
153807,-66.6666666666667,4,2,1,5,0,1
153882,-80.6451612903226,4,2,1,60,0,1
154482,-66.6666666666667,4,2,1,60,0,1
155082,-80.6451612903226,4,2,1,60,0,1
156282,-66.6666666666667,4,2,1,60,0,1
157182,-80.6451612903226,4,2,1,55,0,0
160782,-450,3,2,1,45,0,0
166182,-90.9090909090909,3,2,1,50,0,0
167982,-80.6451612903226,3,2,1,60,0,0
174282,-80.6451612903226,3,2,1,60,0,1
175182,-66.6666666666667,3,2,1,60,0,1
175482,-80.6451612903226,3,2,1,60,0,1
179682,-125,3,2,1,60,0,1
180282,-80.6451612903226,3,2,1,60,0,1
181482,-80.6451612903226,3,2,1,40,0,1
182382,-125,3,2,1,50,0,1
182382,-125,3,2,1,50,0,0
188082,-125,3,2,1,10,0,0
188232,-125,3,2,1,20,0,0
188382,-125,3,2,1,30,0,0
188532,-125,3,2,1,40,0,0
188607,-125,3,2,1,45,0,0
188682,-225,4,2,1,50,0,0
188832,-225,4,2,1,5,0,0
188982,-225,4,2,1,25,0,0
189132,-225,4,2,1,30,0,0
189282,-225,4,2,1,35,0,0
189432,-225,4,2,1,40,0,0
189582,-125,4,2,1,35,0,0
191382,-125,4,2,1,30,0,0
191682,-142.857142857143,4,2,1,30,0,0
191982,-200,4,2,1,25,0,0
192282,-450,3,2,1,20,0,0
192582,-450,3,2,1,15,0,0
192807,-450,3,2,1,10,0,0
193182,-450,3,2,1,5,0,0
198582,-60.6060606060606,3,1,1,60,0,1
201732,-52.6315789473684,3,1,1,60,0,1
202032,-40,3,1,1,60,0,1
202182,-60.6060606060606,3,1,1,60,0,1
204882,-125,3,1,1,60,0,1
205182,-60.6060606060606,3,1,1,60,0,1
205332,-125,3,1,1,60,0,1
205782,-60.6060606060606,3,1,1,60,0,1
211182,-40,3,1,1,60,0,1
212082,-80.6451612903226,3,1,1,60,0,0
212982,-60.6060606060606,3,1,1,60,0,1
213057,-83.3333333333333,3,1,1,40,0,1
220107,-83.3333333333333,3,1,1,40,0,0

[Colours]
Combo1 : 249,202,43
Combo2 : 117,237,247
Combo3 : 138,237,5
Combo4 : 186,1,29

[HitObjects]
49,54,582,6,0,L|168:63,1,118.999996368408
308,199,1382,1,2,0:0:0:0:
201,188,1782,2,0,L|82:179,1,118.999996368408
24,356,2582,1,2,0:0:0:0:
209,312,2982,5,2,0:0:0:0:
394,268,3382,1,2,0:0:0:0:
371,164,3782,1,0,0:0:0:0:
314,357,4182,2,0,L|432:347,1,118.999996368408,2|0,0:0|0:0,0:0:0:0:
475,141,4982,1,0,0:0:0:0:
290,40,5382,6,0,L|162:35,1,118.999996368408,2|0,0:0|0:0,0:0:0:0:
108,99,5982,2,0,L|105:167,1,59.4999981842042,2|0,0:0|0:0,0:0:0:0:
190,293,6382,1,2,0:0:0:0:
268,250,6582,6,0,L|273:127,1,118.999996368408,2|0,0:0|0:0,0:0:0:0:
330,62,7182,2,0,L|398:65,1,59.4999981842042,2|0,0:0|0:0,0:0:0:0:
446,213,7582,1,2,0:0:0:0:
387,280,7782,6,0,L|268:284,1,118.999996368408,2|0,0:0|0:0,0:0:0:0:
179,290,8382,1,2,0:0:0:0:
179,290,8582,1,0,0:0:0:0:
62,153,8982,6,0,L|55:34,2,118.999996368408
429,63,10182,6,0,L|311:69,1,118.999996368408
103,202,10982,1,2,0:0:0:0:
210,192,11382,2,0,L|328:186,1,118.999996368408
465,350,12182,1,2,0:0:0:0:
437,162,12582,5,2,0:0:0:0:
359,336,12982,1,2,0:0:0:0:
427,253,13382,1,0,0:0:0:0:
251,315,13782,2,0,L|131:323,1,118.999996368408,2|0,0:0|0:0,0:0:0:0:
40,133,14582,1,0,0:0:0:0:
231,44,14982,6,0,L|359:53,1,118.999996368408,2|0,0:0|0:0,0:0:0:0:
428,95,15582,2,0,L|489:99,1,59.4999981842042,2|0,0:0|0:0,0:0:0:0:
500,256,15982,1,2,0:0:0:0:
430,311,16182,6,0,L|311:302,1,118.999996368408,2|0,0:0|0:0,0:0:0:0:
233,260,16782,2,0,L|172:256,1,59.4999981842042,2|0,0:0|0:0,0:0:0:0:
32,328,17182,1,2,0:0:0:0:
113,365,17382,6,0,L|123:238,1,118.999996368408,2|0,0:0|0:0,0:0:0:0:
132,158,17982,1,2,0:0:0:0:
132,158,18182,1,0,0:0:0:0:
307,237,18582,6,0,L|316:355,2,118.999996368408
400,83,19782,6,0,B|408:51|391:26|391:26|360:38|344:61,1,118.999996368408,2|2,0:0|0:0,0:0:0:0:
335,156,20582,1,0,0:0:0:0:
177,156,20982,1,0,0:0:0:0:
167,61,21383,2,0,B|151:38|120:26|120:26|103:51|112:83,1,118.999996368408,2|0,0:0|0:0,0:0:0:0:
304,270,22182,6,0,B|329:286|335:319|335:319|349:287|374:276,1,118.999996368408,2|2,0:0|0:0,0:0:0:0:
347,185,22982,1,0,0:0:0:0:
165,185,23382,1,0,0:0:0:0:
137,276,23782,2,0,B|163:287|177:319|177:319|183:286|208:270,1,118.999996368408,2|0,0:0|0:0,0:0:0:0:
396,150,24582,6,0,P|438:107|446:41,1,118.999996368408,2|2,0:0|0:0,0:0:0:0:
353,64,25382,1,0,0:0:0:0:
396,249,25782,1,0,0:0:0:0:
317,301,26182,2,0,L|254:293,1,59.4999981842042,0|2,0:0|0:0,0:0:0:0:
169,320,26582,2,0,P|117:303|72:312,1,89.2499972763062
84,307,26982,6,0,B|77:267|77:267|89:238|89:238|82:190,1,118.999996368408,2|0,0:0|0:0,0:0:0:0:
64,98,27782,1,0,0:0:0:0:
428,307,28182,2,0,B|436:267|436:267|424:238|424:238|431:190,1,118.999996368408
448,98,28982,1,2,0:0:0:0:
178,30,29382,6,0,B|130:65|130:65|187:85,1,118.999996368408,2|0,0:0|0:0,0:0:0:0:
321,85,30182,6,0,B|378:65|378:65|329:31,1,117.299996062317
331,33,30582,6,2,B|320:85|320:85|363:143|363:143|352:226|352:226|333:279|277:302|215:286|195:240|196:192|220:167|263:158|283:206,1,503.200012285157,0|2,0:0|0:0,0:0:0:0:
283,204,31782,6,0,L|285:362,1,158.099993727722,4|0,3:0|0:0,0:0:0:0:
285,362,32182,6,0,P|226:282|256:188,1,204
225,15,32582,2,0,P|283:94|255:188,1,204,4|0,3:0|0:0,0:0:0:0:
99,115,32982,6,0,L|175:112,1,75.5555555555556,0|0,1:0|0:0,0:0:0:0:
180,112,34082,5,0,1:0:0:0:
255,188,34182,6,0,P|333:244|433:199,1,204,4|0,3:0|0:0,0:0:0:0:
427,78,34582,2,0,P|335:42|255:98,1,204,4|0,3:0|0:0,0:0:0:0:
223,283,34982,2,0,P|142:339|51:303,1,204,4|0,3:0|0:0,0:0:0:0:
48,176,35382,5,0,3:0:0:0:
49,172,36182,5,0,3:0:0:0:
47,41,36582,6,0,L|207:32,1,158.099993727722,4|0,3:0|0:0,0:0:0:0:
205,32,36982,6,0,P|241:123|193:210,1,204,4|0,3:0|0:0,0:0:0:0:
193,210,37382,6,0,B|250:190|250:190|293:205|293:205|355:180,1,170,4|0,3:0|3:0,0:0:0:0:
462,131,37682,1,0,3:0:0:0:
401,57,37782,6,0,L|398:37,12,13.1749994773102,0|0|0|0|0|0|0|0|0|0|0|0|0,1:0|0:0|0:0|0:0|0:0|0:0|0:0|0:0|0:0|0:0|0:0|0:0|0:0,0:0:0:0:
474,231,38182,6,0,L|475:217,12,13.1749994773102,0|0|0|0|0|0|0|0|0|0|0|0|0,1:0|0:0|0:0|0:0|0:0|0:0|0:0|0:0|0:0|0:0|0:0|0:0|0:0,0:0:0:0:
385,318,38582,2,0,L|386:304,8,13.1749994773102,0|0|0|0|0|0|0|0|0,1:0|0:0|0:0|0:0|0:0|0:0|0:0|0:0|0:0,0:0:0:0:
253,331,38848,6,0,L|304:330,1,50.9999984436036,0|0,3:0|3:0,0:0:0:0:
304,330,38982,6,0,B|212:253|212:253|121:336,1,242.249993531227,4|0,3:0|0:0,0:0:0:0:
121,335,39382,2,0,L|120:225,1,105.399995818482,0|0,3:0|0:0,0:0:0:0:
306,182,39782,5,0,3:0:0:0:
305,256,39915,1,0,3:0:0:0:
304,330,40048,1,0,3:0:0:0:
452,363,40182,5,4,3:3:0:0:
461,44,41382,6,0,P|391:71|381:146,1,158.099993727722,4|0,3:0|0:0,0:0:0:0:
417,221,41782,6,0,B|396:178|396:178|295:173|295:173|262:225,1,204
175,236,42182,2,0,L|417:221,1,242.249993531227,4|0,3:0|0:0,0:0:0:0:
243,83,42582,6,0,P|205:86|175:108,1,75.5555555555556,0|0,1:0|0:0,0:0:0:0:
173,112,43682,5,4,3:0:0:0:
151,211,43782,6,0,P|60:218|6:124,1,204,4|0,3:0|0:0,0:0:0:0:
5,291,44182,2,0,P|54:207|151:211,1,204,4|0,3:0|0:0,0:0:0:0:
258,328,44582,2,0,P|354:331|403:247,1,204,4|0,3:0|0:0,0:0:0:0:
379,100,44982,6,0,L|382:95,22,4.72222222222222,2|0|0|0|0|0|0|0|0|0|0|0|0|0|0|0|0|0|0|0|0|0|0,0:0|0:0|0:0|0:0|0:0|0:0|0:0|0:0|0:0|0:0|0:0|0:0|0:0|0:0|0:0|0:0|0:0|0:0|0:0|0:0|0:0|0:0|0:0,0:0:0:0:
379,100,46182,6,0,B|388:78|416:90|416:113|396:142|363:160|323:151|292:104,1,158.099993727722,4|0,3:0|0:0,0:0:0:0:
307,122,46582,6,0,P|214:154|140:84,1,204,4|0,3:0|0:0,0:0:0:0:
235,52,46982,6,0,L|226:177,1,113.333333333333,4|0,3:0|3:0,0:0:0:0:
215,295,47248,1,0,3:0:0:0:
462,191,47382,6,0,B|462:152|475:124|475:124|464:93|464:93|477:64|470:25,1,170,0|4,1:0|3:0,0:0:0:0:
354,200,47682,1,4,3:0:0:0:
422,278,47782,6,0,L|441:280,12,13.1749994773102,0|0|0|0|0|0|0|0|0|0|0|0|0,1:0|0:0|0:0|0:0|0:0|0:0|0:0|0:0|0:0|0:0|0:0|0:0|0:0,0:0:0:0:
213,336,48182,2,0,L|194:338,12,13.1749994773102,0|0|0|0|0|0|0|0|0|0|0|0|0,1:0|0:0|0:0|0:0|0:0|0:0|0:0|0:0|0:0|0:0|0:0|0:0|0:0,0:0:0:0:
331,322,48582,6,0,P|443:314|465:200,1,242.249993531227,4|0,3:0|0:0,0:0:0:0:
466,203,48982,2,0,L|358:195,1,105.399995818482,0|0,1:0|0:0,0:0:0:0:
110,243,49382,5,0,3:0:0:0:
182,262,49515,1,0,3:0:0:0:
237,212,49648,1,0,3:0:0:0:
173,173,49782,5,4,3:0:0:0:
256,192,49882,12,2,50982,0:2:0:0:
251,29,51582,6,0,B|255:32|255:32|251:187|251:187|255:191,1,165.749992412568,0|0,2:0|2:0,0:0:0:0:
255,191,51882,5,0,3:0:0:0:
255,191,52182,5,0,3:0:0:0:
295,206,52257,1,0,3:0:0:0:
337,196,52332,1,2,0:2:0:0:
364,162,52407,1,0,0:0:0:0:
366,118,52482,1,0,3:0:0:0:
393,85,52557,1,0,0:0:0:0:
435,74,52632,1,2,0:2:0:0:
475,90,52707,1,0,0:0:0:0:
496,125,52782,5,0,3:0:0:0:
327,52,53982,6,0,P|293:42|271:40,1,55.2499974708558,0|0,0:0|2:0,0:0:0:0:
212,138,54132,1,0,3:0:0:0:
213,141,54207,1,2,2:0:0:0:
214,144,54282,1,0,3:0:0:0:
215,147,54357,1,2,2:0:0:0:
216,150,54432,2,0,P|189:158|162:161,1,55.2499974708558,0|0,0:0|2:0,0:0:0:0:
45,112,54582,6,0,L|39:57,2,55.2499974708558,0|0|0,0:0|2:0|0:0,0:0:0:0:
16,145,54807,1,0,0:0:0:0:
7,188,54882,1,0,3:0:0:0:
21,229,54957,1,0,0:0:0:0:
52,259,55032,1,0,3:0:0:0:
66,300,55107,1,0,3:0:0:0:
57,343,55182,6,0,L|1:336,2,55.2499974708558,0|0|0,0:0|2:0|0:0,0:0:0:0:
147,355,55407,1,0,3:0:0:0:
147,355,55482,1,0,3:0:0:0:
341,305,56982,5,0,1:0:0:0:
348,318,57057,1,0,2:0:0:0:
362,325,57132,1,0,2:0:0:0:
376,327,57207,1,0,2:0:0:0:
391,321,57282,5,2,2:0:0:0:
401,310,57357,1,2,2:0:0:0:
406,296,57432,1,2,2:0:0:0:
403,281,57507,1,2,2:0:0:0:
395,268,57582,1,2,2:0:0:0:
382,261,57657,1,2,2:0:0:0:
367,259,57732,1,2,2:0:0:0:
352,265,57807,1,2,2:0:0:0:
343,277,57882,6,0,L|344:221,1,55.2499974708558,0|0,0:0|2:0,0:0:0:0:
258,259,58032,2,0,L|259:203,1,55.2499974708558,0|0,3:0|2:0,0:0:0:0:
293,95,58182,5,0,0:0:0:0:
293,95,58257,1,0,2:0:0:0:
293,95,58332,2,0,B|356:82|343:116|404:103,1,110.499994941712
479,71,58557,1,0,0:0:0:0:
447,62,58632,1,0,3:0:0:0:
417,75,58707,1,0,3:0:0:0:
401,103,58782,6,0,P|437:125|478:122,1,85,0|0,1:0|2:0,0:0:0:0:
353,31,59382,5,0,1:0:0:0:
319,28,59457,1,0,2:0:0:0:
286,26,59532,1,0,2:0:0:0:
253,24,59607,1,0,2:0:0:0:
220,22,59682,5,0,1:0:0:0:
204,62,59757,1,0,1:0:0:0:
188,103,59832,1,0,3:0:0:0:
216,137,59907,1,0,1:0:0:0:
244,171,59982,1,0,3:0:0:0:
200,178,60057,1,0,1:0:0:0:
157,186,60132,1,0,3:0:0:0:
142,226,60207,1,0,1:0:0:0:
126,267,60282,5,0,1:0:0:0:
127,270,60357,1,0,3:0:0:0:
128,273,60432,1,0,3:0:0:0:
129,276,60507,1,0,3:0:0:0:
130,279,60582,1,0,3:0:0:0:
131,282,60657,1,0,3:0:0:0:
132,285,60732,1,0,3:0:0:0:
133,288,60807,1,0,3:0:0:0:
134,291,60882,6,0,L|166:287,1,28.3333333333333,0|0,0:0|2:0,0:0:0:0:
166,286,61182,6,0,B|227:318|227:318|269:310|307:285|307:285|383:313|383:313|306:328|306:328|267:325|254:285|274:244,1,416.499987289429,0|0,2:0|2:0,0:0:0:0:
299,201,61782,5,0,3:0:0:0:
256,192,61857,12,0,62907,2:0:0:0:
280,205,62982,6,0,B|202:244|152:172|89:186|135:227|212:215,1,226.666666666667,0|0,1:0|3:0,0:0:0:0:
468,140,64182,5,0,0:0:0:0:
210,214,64332,1,0,0:0:0:0:
470,139,64782,5,0,0:0:0:0:
424,236,64932,5,2,2:0:0:0:
415,238,65007,1,2,2:0:0:0:
409,231,65082,1,2,2:0:0:0:
411,223,65157,1,2,2:0:0:0:
420,221,65232,1,2,2:0:0:0:
426,227,65307,1,2,2:0:0:0:
417,229,65382,6,0,P|433:295|413:344,1,110.499994941712,0|0,0:0|3:0,0:0:0:0:
386,361,65607,1,0,3:0:0:0:
344,373,65682,1,0,3:0:0:0:
300,368,65757,1,0,0:0:0:0:
262,345,65832,1,0,3:0:0:0:
204,351,65907,1,0,3:0:0:0:
145,356,65982,6,0,L|127:358,12,11.6875003566742,0|0|0|0|0|0|0|0|0|0|0|0|0,1:0|2:0|2:0|2:0|2:0|2:0|2:0|2:0|2:0|2:0|2:0|2:0|2:0,2:0:0:0:
72,294,66282,6,0,B|30:279|30:279|73:253,1,93.5000028533936
112,224,66507,1,0,3:0:0:0:
157,203,66582,2,0,L|203:207,1,46.7500014266968,0|0,0:0|2:0,0:0:0:0:
285,214,66732,1,0,3:0:0:0:
285,214,66807,1,0,3:0:0:0:
285,214,66882,5,0,0:0:0:0:
211,40,67032,2,0,L|105:30,2,102,0|0|0,2:0|2:0|0:0,0:0:0:0:
311,69,67632,2,0,L|380:60,1,68,0|0,2:0|1:0,0:0:0:0:
378,60,67857,1,0,3:0:0:0:
378,60,67932,1,0,3:0:0:0:
378,60,68007,1,0,3:0:0:0:
378,60,68082,5,2,0:2:0:0:
192,145,68682,5,0,0:0:0:0:
156,171,68757,1,0,3:0:0:0:
114,180,68832,1,0,1:0:0:0:
71,172,68907,1,0,1:0:0:0:
35,146,68982,1,2,0:2:0:0:
47,78,69057,1,2,3:2:0:0:
59,10,69132,1,2,3:2:0:0:
54,249,69282,5,0,3:0:0:0:
56,271,69357,1,0,3:0:0:0:
58,293,69432,1,0,3:0:0:0:
60,315,69507,1,0,3:0:0:0:
62,338,69582,6,0,B|44:316|44:316|71:207,1,136
138,279,69807,1,0,0:0:0:0:
206,346,69882,2,0,P|243:348|281:335,1,68,0|0,0:0|2:0,0:0:0:0:
365,281,70032,2,0,P|398:278|431:287,1,68,0|0,0:0|2:0,0:0:0:0:
482,374,70182,5,0,0:0:0:0:
429,364,70257,1,0,3:0:0:0:
386,330,70332,1,0,1:0:0:0:
365,281,70407,1,0,3:0:0:0:
370,227,70482,6,0,L|372:211,4,11.6875003566742,0|0|0|0|0,1:0|2:0|2:0|2:0|2:0,2:0:0:0:
345,138,70632,2,0,L|343:122,4,11.6875003566742,0|0|0|0|0,1:0|2:0|2:0|2:0|2:0,2:0:0:0:
227,257,70782,6,0,L|229:274,8,11.6875003566742,0|0|0|0|0|0|0|0|0,1:0|2:0|2:0|2:0|2:0|2:0|2:0|2:0|2:0,2:0:0:0:
163,206,71007,1,0,3:0:0:0:
119,223,71082,5,0,3:0:0:0:
75,240,71157,1,0,3:0:0:0:
63,288,71232,6,0,L|62:306,4,11.6875003566742,0|0|0|0|0,1:0|2:0|2:0|2:0|2:0,2:0:0:0:
49,135,71382,2,0,L|48:123,12,11.6875003566742,0|0|0|0|0|0|0|0|0|0|0|0|0,1:0|2:0|2:0|2:0|2:0|2:0|2:0|2:0|2:0|2:0|2:0|2:0|2:0,2:0:0:0:
224,118,71682,6,0,L|226:106,112,11.6875003566742,0|0|0|0|0|0|0|0|0|0|0|0|0|0|0|0|0|0|0|0|0|0|0|0|0|0|0|0|0|0|0|0|0|0|0|0|0|0|0|0|0|0|0|0|0|0|0|0|0|0|0|0|0|0|0|0|0|0|0|0|0|0|0|0|0|0|0|0|0|0|0|0|0|0|0|0|0|0|0|0|0|0|0|0|0|0|0|0|0|0|0|0|0|0|0|0|0|0|0|0|0|0|0|0|0|0|0|0|0|0|0|0|0,1:0|2:0|2:0|2:0|2:0|2:0|2:0|2:0|2:0|2:0|2:0|2:0|2:0|2:0|2:0|2:0|2:0|2:0|2:0|2:0|2:0|2:0|2:0|2:0|2:0|2:0|2:0|2:0|2:0|2:0|2:0|2:0|2:0|2:0|2:0|2:0|2:0|2:0|2:0|2:0|2:0|2:0|2:0|2:0|2:0|2:0|2:0|2:0|2:0|2:0|2:0|2:0|2:0|2:0|2:0|2:0|2:0|2:0|2:0|2:0|2:0|2:0|2:0|2:0|2:0|2:0|2:0|2:0|2:0|2:0|2:0|2:0|2:0|2:0|2:0|2:0|2:0|2:0|2:0|2:0|2:0|2:0|2:0|2:0|2:0|2:0|2:0|2:0|2:0|2:0|2:0|2:0|2:0|2:0|2:0|2:0|2:0|2:0|2:0|2:0|2:0|2:0|2:0|2:0|2:0|2:0|2:0|2:0|2:0|2:0|2:0|2:0|2:0,2:0:0:0:
457,344,74382,5,2,2:0:0:0:
450,39,74682,5,2,2:0:0:0:
462,352,74982,5,0,3:0:0:0:
381,90,75582,5,0,3:0:0:0:
385,291,75882,5,0,3:0:0:0:
453,47,76107,1,0,3:0:0:0:
457,344,77682,5,0,3:0:0:0:
432,225,78657,5,0,3:0:0:0:
432,225,78732,1,0,3:0:0:0:
432,225,78807,2,2,L|433:147,1,75.5555555555556,2|0,2:0|2:0,2:0:0:0:
62,38,79482,5,0,3:0:0:0:
55,343,79782,5,0,3:0:0:0:
67,44,79932,5,0,3:0:0:0:
60,349,80082,1,0,3:0:0:0:
131,90,80419,5,0,3:0:0:0:
127,291,80569,1,0,3:0:0:0:
62,39,80719,5,0,3:0:0:0:
55,344,80982,5,0,2:0:0:0:
256,192,81057,12,0,83007,2:0:0:0:
263,225,83082,6,0,P|308:232|362:234,1,93.5000028533936,0|0,1:0|2:0,0:0:0:0:
494,207,83382,1,2,3:0:0:0:
292,138,83532,1,0,3:0:0:0:
263,130,83607,1,0,0:0:0:0:
233,133,83682,1,0,3:0:0:0:
207,148,83757,1,0,0:0:0:0:
182,166,83832,1,0,3:0:0:0:
153,173,83907,1,0,0:0:0:0:
123,170,83982,1,2,3:0:0:0:
150,82,84132,1,0,0:0:0:0:
156,268,84282,6,0,P|162:320|173:362,1,93.5000028533936,0|0,3:0|0:0,0:0:0:0:
350,232,84582,2,0,P|304:220|258:215,1,93.5000028533936,2|0,3:0|0:0,0:0:0:0:
258,215,84807,1,0,0:0:0:0:
258,215,84882,1,0,3:0:0:0:
346,334,85032,1,2,3:0:0:0:
464,246,85182,1,2,3:0:0:0:
376,128,85332,1,0,0:0:0:0:
211,136,85482,6,0,L|105:139,1,93.5000028533936,0|0,3:0|0:0,0:0:0:0:
26,247,85782,1,2,3:0:0:0:
252,337,85932,1,0,3:0:0:0:
253,306,86007,1,0,0:0:0:0:
255,276,86082,1,0,3:0:0:0:
256,245,86157,1,0,0:0:0:0:
258,215,86232,1,2,3:0:0:0:
343,255,86382,1,2,3:0:0:0:
165,309,86532,1,0,0:0:0:0:
401,332,86682,6,0,L|502:337,1,93.5000028533936,0|0,3:0|0:0,0:0:0:0:
419,123,86982,2,0,L|318:128,1,93.5000028533936,2|0,3:0|3:0,0:0:0:0:
297,129,87207,1,0,0:0:0:0:
266,130,87282,1,0,3:0:0:0:
236,132,87357,1,0,0:0:0:0:
205,134,87432,1,0,3:0:0:0:
58,147,87582,1,0,0:0:0:0:
58,147,87732,1,0,0:0:0:0:
246,303,87882,6,0,P|243:258|231:207,1,93.5000028533936,0|0,3:0|0:0,0:0:0:0:
147,72,88182,1,2,3:0:0:0:
13,252,88332,1,0,3:0:0:0:
32,276,88407,1,0,0:0:0:0:
58,293,88482,1,0,3:0:0:0:
87,299,88557,1,0,0:0:0:0:
117,296,88632,1,0,3:0:0:0:
144,283,88707,1,0,0:0:0:0:
165,261,88782,1,2,3:0:0:0:
92,206,88932,1,0,0:0:0:0:
191,357,89082,6,0,P|240:357|288:346,1,93.5000028533936,0|0,3:0|0:0,0:0:0:0:
445,264,89382,2,0,P|419:303|386:335,1,93.5000028533936,2|0,3:0|0:0,0:0:0:0:
387,336,89607,1,0,0:0:0:0:
387,336,89682,1,0,3:0:0:0:
394,193,89832,1,2,3:0:0:0:
401,50,89982,1,2,3:0:0:0:
445,264,90132,1,0,0:0:0:0:
349,121,90282,6,0,L|253:117,1,93.5000028533936,0|0,3:0|0:0,0:0:0:0:
115,108,90582,1,2,3:0:0:0:
113,315,90732,1,0,3:0:0:0:
142,309,90807,1,0,0:0:0:0:
167,292,90882,1,0,3:0:0:0:
185,267,90957,1,0,0:0:0:0:
191,238,91032,1,0,3:0:0:0:
186,208,91107,1,0,0:0:0:0:
170,183,91182,1,2,3:0:0:0:
78,193,91332,1,0,0:0:0:0:
262,305,91482,6,0,L|357:300,1,93.5000028533936,0|0,3:0|0:0,0:0:0:0:
495,290,91782,1,2,3:0:0:0:
324,123,91932,2,0,L|328:216,1,93.5000028533936,0|0,3:0|0:0,0:0:0:0:
432,368,92232,1,2,3:0:0:0:
419,226,92382,1,0,0:0:0:0:
262,305,92532,1,0,0:0:0:0:
120,237,92682,6,0,P|78:202|52:157,1,93.5000028533936,0|0,3:0|0:0,0:0:0:0:
27,27,92982,1,2,3:0:0:0:
129,145,93132,2,0,P|131:191|120:237,1,93.5000028533936,0|0,3:0|0:0,0:0:0:0:
32,352,93432,1,2,3:0:0:0:
224,344,93582,1,2,3:0:0:0:
32,352,93732,1,0,0:0:0:0:
296,266,93882,6,0,P|342:265|389:270,1,93.5000028533936,0|0,3:0|0:0,0:0:0:0:
498,362,94182,1,2,3:0:0:0:
224,344,94332,1,0,3:0:0:0:
221,312,94407,1,0,0:0:0:0:
219,282,94482,1,0,3:0:0:0:
217,252,94557,1,0,0:0:0:0:
215,222,94632,1,2,3:0:0:0:
135,345,94782,1,2,3:0:0:0:
296,162,94932,1,0,0:0:0:0:
51,38,95082,5,2,0:0:0:0:
357,63,96282,6,0,P|381:77|425:74,2,68
285,18,96732,2,0,B|279:6|259:5|251:22|262:55|262:55|267:58|267:58|264:64|264:64|269:66|269:66|267:72|267:72|272:76|272:76|270:82|270:82|275:85|275:85|273:91|273:91|278:94|278:94|276:100|276:100|281:103|281:103|279:109|279:109|284:112|284:112|281:117|281:117|286:118|286:118|282:124|282:124|286:126|286:126|284:131|284:131|290:133|290:133|287:139|287:139|293:142|293:142|289:147|289:147|295:150|295:150|291:156|291:156|296:157|296:157|304:187|288:207|262:190|266:177,1,276.25
194,99,97857,6,0,B|171:47|173:12|173:12|171:47|144:92,1,170
122,171,98382,2,0,L|129:252,1,76.4999976654053
128,247,98682,6,0,P|130:224|129:200,17,45.3333333333333
66,156,99582,6,0,B|38:203|31:226|31:226|34:256|77:306,1,158.099993727722,4|0,3:0|0:0,0:0:0:0:
68,295,99982,6,0,B|106:328|106:328|272:308,1,204
449,325,100382,2,0,B|411:292|411:292|258:310,1,204,4|0,3:0|0:0,0:0:0:0:
35,264,100782,6,0,B|24:243|21:229|21:229|23:214|33:194,1,75.5555555555556,0|0,1:0|0:0,0:0:0:0:
36,190,101882,5,0,1:0:0:0:
133,180,101982,6,0,B|243:227|237:146|331:191,1,204,4|0,3:0|0:0,0:0:0:0:
429,180,102383,2,0,P|390:270|293:283,1,204,4|0,3:0|0:0,0:0:0:0:
172,87,102782,2,0,P|76:100|36:190,1,204,4|0,3:0|0:0,0:0:0:0:
47,337,103182,5,0,3:0:0:0:
48,339,103982,5,0,3:0:0:0:
180,244,104382,6,0,L|172:87,1,158.099993727722,4|0,3:0|0:0,0:0:0:0:
172,87,104782,6,0,B|127:197|229:173|180:288,1,204,4|0,3:0|0:0,0:0:0:0:
183,280,105182,6,0,P|99:281|56:206,1,170,4|0,3:0|0:0,0:0:0:0:
66,95,105482,1,0,3:0:0:0:
19,12,105582,6,0,L|1:9,12,13.1749994773102,0|0|0|0|0|0|0|0|0|0|0|0|0,1:0|0:0|0:0|0:0|0:0|0:0|0:0|0:0|0:0|0:0|0:0|0:0|0:0,0:0:0:0:
141,207,105982,6,0,L|127:205,12,13.1749994773102,0|0|0|0|0|0|0|0|0|0|0|0|0,1:0|0:0|0:0|0:0|0:0|0:0|0:0|0:0|0:0|0:0|0:0|0:0|0:0,0:0:0:0:
257,138,106382,2,0,L|243:137,8,13.1749994773102,0|0|0|0|0|0|0|0|0,1:0|0:0|0:0|0:0|0:0|0:0|0:0|0:0|0:0,0:0:0:0:
269,275,106648,6,0,L|256:225,1,50.9999984436036,0|0,3:0|3:0,0:0:0:0:
256,225,106782,6,0,B|415:192|415:192|436:274,1,242.249993531227,4|0,3:0|0:0,0:0:0:0:
434,269,107182,2,0,P|457:222|452:161,1,105.399995818482,0|0,3:0|0:0,0:0:0:0:
207,51,107582,5,0,3:0:0:0:
195,124,107715,1,0,3:0:0:0:
256,166,107848,1,0,3:0:0:0:
231,314,107982,6,0,B|233:332|227:357|227:357|201:348|176:352|176:352|171:327|179:303,1,140.533327757975,4|0,3:0|0:0,0:0:0:0:
230,305,108382,6,0,B|235:323|233:348|233:348|206:343|182:351|182:351|174:327|177:307,1,140.533327757975,4|0,3:0|0:0,0:0:0:0:
228,297,108782,6,0,B|236:313|238:339|238:339|210:338|188:350|188:350|176:327|176:307,1,140.533327757975,4|0,3:0|0:0,0:0:0:0:
289,222,109182,6,0,P|365:227|409:303,1,158.099993727722,4|0,3:0|0:0,0:0:0:0:
422,373,109582,6,0,B|408:290|408:290|432:252|432:252|420:179,1,204,0|0,0:1|0:1,0:1:0:0:
397,90,109982,2,0,B|382:48|382:48|330:24|248:22|191:71,1,242.249993531227,4|0,3:0|0:0,0:0:0:0:
115,261,110382,6,0,P|140:258|120:257,1,103.888888888889,0|0,1:0|0:0,0:0:0:0:
38,294,111582,6,0,P|92:360|208:324,1,204,4|0,3:0|0:0,0:0:0:0:
194,160,111982,2,0,P|101:132|35:203,1,204,4|0,3:0|0:0,0:0:0:0:
251,228,112382,2,0,P|343:256|409:185,1,204,4|0,3:0|0:0,0:0:0:0:
407,94,112782,6,0,L|401:30,1,56.6666666666667,4|0,3:0|0:0,0:0:0:0:
413,183,113182,5,4,1:2:0:0:
413,183,113982,6,0,P|395:273|432:334,1,158.099993727722,4|0,3:0|0:0,0:0:0:0:
425,327,114382,6,0,P|378:251|416:142,1,204,4|0,3:0|0:0,0:0:0:0:
478,70,114782,6,0,L|359:66,1,113.333333333333,4|0,3:0|3:0,0:0:0:0:
235,61,115048,1,0,3:0:0:0:
43,192,115182,6,0,B|47:272|47:272|41:283|41:283|46:360,1,170,0|4,1:0|3:0,0:0:0:0:
143,233,115482,1,4,3:0:0:0:
111,136,115582,6,0,L|110:111,12,13.1749994773102,0|0|0|0|0|0|0|0|0|0|0|0|0,1:0|0:0|0:0|0:0|0:0|0:0|0:0|0:0|0:0|0:0|0:0|0:0|0:0,0:0:0:0:
15,54,115982,2,0,L|14:67,12,13.1749994773102,0|0|0|0|0|0|0|0|0|0|0|0|0,1:0|0:0|0:0|0:0|0:0|0:0|0:0|0:0|0:0|0:0|0:0|0:0|0:0,0:0:0:0:
104,29,116382,6,0,B|239:2|212:84|339:44,1,242.249993531227,4|0,3:0|0:0,0:0:0:0:
339,44,116782,2,0,L|451:70,1,105.399995818482,0|0,1:0|0:0,0:0:0:0:
482,272,117182,5,0,3:0:0:0:
409,288,117315,1,0,3:0:0:0:
336,304,117448,1,0,3:0:0:0:
273,255,117582,5,0,3:0:0:0:
300,211,122982,6,0,P|356:229|404:208,1,113.333333333333,0|2,0:0|0:0,0:0:0:0:
472,121,123657,1,0,0:0:0:0:
274,71,123919,6,0,B|218:64|218:64|177:85,1,101.999996887207,0|2,0:0|0:0,0:0:0:0:
53,184,124519,2,0,P|45:225|47:252,1,63.7499980545045,2|0,0:0|0:0,0:0:0:0:
46,246,124782,6,0,L|148:257,1,101.999996887207,0|2,0:0|0:0,0:0:0:0:
295,268,125382,2,0,P|302:306|299:350,1,76.4999976654053,2|0,0:0|0:0,0:0:0:0:
300,343,125682,2,0,L|409:333,2,101.999996887207,0|2|2,0:0|0:0|0:0,0:0:0:0:
67,337,126582,6,0,P|40:295|46:246,1,101.999996887207,0|2,0:0|0:0,0:0:0:0:
87,162,127032,2,0,P|94:136|92:109,1,50.9999984436036,0|2,0:0|0:0,0:0:0:0:
49,30,127332,1,0,0:0:0:0:
175,165,127482,6,0,B|282:157,1,101.999996887207,0|2,0:0|0:0,0:0:0:0:
276,157,127857,1,0,0:0:0:0:
276,157,127932,1,0,0:0:0:0:
426,208,128082,2,0,P|431:233|428:291,1,76.4999976654053,2|0,0:0|0:0,0:0:0:0:
430,283,128382,6,0,L|325:293,1,101.999996887207,0|2,0:0|0:0,0:0:0:0:
96,314,128982,6,0,L|46:319,3,50.9999984436036,4|0|4|0,3:0|3:0|3:0|3:0,3:0:0:0:
178,253,129282,2,0,L|228:248,3,50.9999984436036,0|0|0|0,1:0|1:0|1:0|1:0,1:0:0:0:
75,191,129582,6,0,L|25:186,3,50.9999984436036,2|0|0|0,1:2|1:0|1:0|1:0,1:0:0:0:
178,127,129882,2,0,L|228:132,3,50.9999984436036,2|0|0|0,1:2|1:0|1:0|1:0,1:0:0:0:
64,55,130182,5,4,0:0:0:0:
142,104,133782,6,0,P|192:109|236:84,1,101.999996887207,0|2,0:0|0:0,0:0:0:0:
323,110,134232,2,0,B|366:82|366:82|417:108,1,101.999996887207
431,347,134682,6,0,L|329:339,1,101.999996887207,0|2,0:0|0:0,0:0:0:0:
329,339,135057,1,0,0:0:0:0:
329,339,135132,1,0,0:0:0:0:
248,209,135282,2,0,P|238:238|235:285,1,76.4999976654053,2|0,0:0|0:0,0:0:0:0:
234,283,135582,6,0,P|178:178|304:158,1,280.49999143982
299,153,136482,6,2,B|321:174|304:206|279:220|236:221|182:207|153:151|153:151|133:201|96:221|96:221|69:211|60:164,1,374,2|2,2:0|2:0,1:0:0:0:
54,49,137382,6,0,P|140:64|153:151,1,187.000005706787,0|2,0:0|0:0,0:0:0:0:
48,338,138282,2,0,B|68:303|68:303|217:294,1,187.000005706787,0|2,0:0|0:0,0:0:0:0:
362,339,139182,6,0,P|448:326|475:238,1,187.000005706787,0|2,0:0|0:0,0:0:0:0:
375,85,140082,2,0,B|340:105|340:105|331:251,1,187.000005706787,0|2,0:0|0:0,0:0:0:0:
237,344,140982,6,0,L|251:158,1,187.000005706787,0|2,0:0|0:0,0:0:0:0:
126,51,141882,2,0,B|93:75|93:75|102:221,1,187.000005706787,0|2,0:0|0:0,0:0:0:0:
329,136,142782,6,0,P|254:77|181:120,1,187.000005706787,0|2,0:0|0:0,0:0:0:0:
181,232,143682,2,0,P|260:271|326:213,1,187.000005706787,0|2,0:0|0:0,0:0:0:0:
327,98,144582,6,0,P|225:49|141:124,1,237.999992736817,0|2,0:0|0:0,0:0:0:0:
145,225,145482,2,2,P|230:297|330:245,1,238,0|0,0:0|0:0,0:0:0:0:
330,246,146082,6,2,L|377:308,1,76.4999976654053,0|0,0:1|0:0,0:1:0:0:
446,349,146382,6,0,B|464:298|464:298|416:231|416:231|439:164,1,191.250007295609,4|0,3:0|0:0,0:0:0:0:
434,179,146682,1,2,3:0:0:0:
473,85,146832,1,0,3:0:0:0:
471,65,146907,1,0,0:0:0:0:
463,46,146982,1,0,3:0:0:0:
257,115,147132,1,0,3:0:0:0:
263,187,147207,1,0,0:0:0:0:
269,259,147282,5,0,1:0:0:0:
269,259,147582,5,2,3:0:0:0:
172,217,147732,1,0,3:0:0:0:
152,210,147807,1,0,0:0:0:0:
132,210,147882,1,0,3:0:0:0:
42,356,148032,1,0,3:0:0:0:
62,356,148107,1,0,0:0:0:0:
81,349,148182,5,4,3:0:0:0:
257,115,148332,1,0,0:0:0:0:
277,115,148407,1,0,0:0:0:0:
296,122,148482,1,2,3:0:0:0:
366,200,148632,1,0,3:0:0:0:
427,114,148782,2,0,P|435:60|462:13,1,105.399995818482,0|0,3:0|0:0,0:0:0:0:
139,131,149082,6,0,L|298:121,1,158.099993727722,0|0,1:0|0:0,0:0:0:0:
297,121,149382,1,0,3:0:0:0:
288,244,149532,1,0,0:0:0:0:
35,133,149682,1,0,3:0:0:0:
44,10,149832,1,0,3:0:0:0:
26,256,149982,5,4,3:0:0:0:
108,321,150132,1,0,3:0:0:0:
128,321,150207,1,0,0:0:0:0:
148,314,150282,2,0,P|184:267|183:219,1,105.399995818482,4|0,3:0|0:0,0:0:0:0:
136,32,150582,2,0,P|121:82|139:131,1,105.399995818482,4|0,3:0|0:0,0:0:0:0:
301,316,150882,6,0,B|363:282|363:282|426:320,1,136,0|0,1:0|0:0,0:0:0:0:
506,362,151332,1,0,0:0:0:0:
301,316,151482,6,0,P|250:252|183:277,1,158.099993727722,0|0,1:0|0:0,0:0:0:0:
132,352,151782,6,0,P|60:370|17:309,1,158.099993727722,0|0,1:0|0:0,0:0:0:0:
17,309,152082,1,2,3:0:0:0:
33,72,152232,1,0,3:0:0:0:
165,113,152382,1,0,3:0:0:0:
168,112,152457,1,2,0:0:0:0:
171,111,152532,1,0,3:0:0:0:
174,110,152607,1,2,0:0:0:0:
177,109,152682,6,0,L|270:111,1,85.0000032424928,0|0,1:0|3:0,0:0:0:0:
365,114,152882,1,0,3:0:0:0:
280,251,152982,6,0,P|231:186|262:111,1,170.000006484986,0|0,1:0|0:0,0:0:0:0:
415,192,153282,5,0,1:0:0:0:
504,175,153382,1,0,3:0:0:0:
504,290,153482,1,0,3:0:0:0:
415,273,153582,6,0,B|359:268|359:268|312:330|312:330|251:325,1,191.250007295609,4|0,3:0|0:0,0:0:0:0:
181,351,153882,2,0,L|41:334,1,140.533327757975,0|0,3:0|0:0,0:0:0:0:
41,108,154182,5,0,3:0:0:0:
125,100,154282,1,0,3:0:0:0:
209,92,154382,1,0,3:0:0:0:
323,150,154482,6,0,B|419:168|419:168|450:74,1,191.250007295609,0|0,1:0|0:0,0:0:0:0:
266,36,154782,1,0,3:0:0:0:
209,92,154882,1,0,3:0:0:0:
245,163,154982,1,0,3:0:0:0:
323,150,155082,6,0,L|426:131,1,105.399995818482,4|2,3:0|3:0,0:0:0:0:
464,340,155382,1,0,3:0:0:0:
444,340,155457,1,0,0:0:0:0:
424,333,155532,1,0,3:0:0:0:
331,281,155682,1,0,3:0:0:0:
161,317,155832,1,0,3:0:0:0:
89,311,155907,1,0,0:0:0:0:
17,305,155982,5,0,1:0:0:0:
99,252,156082,1,0,1:0:0:0:
133,339,156182,1,4,3:0:0:0:
18,309,156282,6,0,B|22:257|22:257|41:228|41:228|29:196|29:196|34:147,1,170.000006484986,0|0,1:0|0:0,0:0:0:0:
104,46,156582,6,0,L|107:22,8,15.9375006079674,0|0|0|0|0|0|0|0|0,1:0|0:0|0:0|0:0|0:0|0:0|0:0|0:0|0:0,0:0:0:0:
30,179,156882,6,0,L|34:148,1,31.8750012159348,0|0,3:0|0:0,0:0:0:0:
30,179,157182,5,2,0:0:0:0:
132,202,157332,1,0,0:0:0:0:
152,202,157407,1,0,0:0:0:0:
172,195,157482,1,2,3:2:0:0:
269,154,157632,1,0,3:0:0:0:
289,154,157707,1,0,0:0:0:0:
309,161,157782,1,2,0:0:0:0:
399,214,157932,2,0,L|402:276,1,52.6999979092408,0|0,3:0|0:0,0:0:0:0:
401,266,158082,5,2,3:2:0:0:
392,125,158232,1,0,0:0:0:0:
270,247,158382,1,2,3:2:0:0:
286,63,158532,1,0,0:0:0:0:
281,44,158607,1,0,0:0:0:0:
269,27,158682,1,2,3:2:0:0:
165,7,158832,1,0,3:0:0:0:
137,152,158982,6,0,P|139:181|148:212,1,52.6999979092408,2|0,3:0|0:0,0:0:0:0:
97,168,159132,2,0,P|113:191|137:213,1,52.6999979092408
230,231,159282,6,0,P|228:260|219:291,1,52.6999979092408,0|0,3:0|0:0,0:0:0:0:
270,247,159432,2,0,P|253:270|229:292,1,52.6999979092408,2|0,3:0|0:0,0:0:0:0:
387,351,159582,6,0,P|368:332|353:310,1,52.6999979092408
401,346,159733,2,0,P|394:320|393:294,1,52.6999979092408,2|0,3:0|0:0,0:0:0:0:
403,195,159882,5,0,0:0:0:0:
406,179,159957,1,0,3:0:0:0:
417,161,160032,1,0,0:0:0:0:
440,139,160107,1,0,3:0:0:0:
455,111,160182,1,0,0:0:0:0:
449,79,160257,1,0,3:0:0:0:
415,53,160332,1,0,0:0:0:0:
372,53,160407,1,0,3:0:0:0:
337,77,160482,1,0,0:0:0:0:
297,90,160557,1,0,3:0:0:0:
244,88,160632,1,0,0:0:0:0:
183,68,160707,1,0,3:0:0:0:
121,19,160782,6,0,B|95:-5|95:-5|62:22,1,75.5555555555556,2|0,0:0|0:0,0:0:0:0:
38,102,161682,2,0,B|43:182,1,75.5555555555556
143,337,162582,6,0,P|173:313|216:316,1,75.5555555555556,2|0,0:0|0:0,0:0:0:0:
314,350,163482,2,0,L|396:346,1,75.5555555555556
469,167,164382,6,0,P|480:131|475:91,1,75.5555555555556,2|0,0:0|0:0,0:0:0:0:
326,80,165282,2,0,P|321:117|332:153,1,75.5555555555556
392,243,166182,6,0,L|454:260,2,62.3333352355958,2|2|2,0:0|0:0|0:0,0:0:0:0:
304,237,166482,1,0,0:0:0:0:
218,253,166582,2,0,P|187:265|165:284,1,62.3333352355958,0|0,1:0|0:0,0:0:0:0:
40,350,166782,2,0,P|60:326|71:297,1,62.3333352355958,0|2,1:0|0:0,0:0:0:0:
71,210,166982,1,0,1:0:0:0:
37,129,167082,5,0,1:0:0:0:
78,52,167182,1,2,0:0:0:0:
81,51,167282,1,2,0:0:0:0:
84,50,167382,1,2,0:0:0:0:
87,51,167482,1,2,0:0:0:0:
90,52,167582,1,2,3:2:0:0:
101,50,167682,1,2,0:0:0:0:
113,46,167782,1,2,0:0:0:0:
122,39,167882,1,2,3:2:0:0:
130,29,167982,6,0,B|203:7|191:57|274:33,1,140.533327757975,4|0,3:0|3:0,0:0:0:0:
351,5,168282,2,0,P|397:1|447:28,1,105.399995818482,2|0,0:0|0:0,0:0:0:0:
163,99,168582,2,0,P|117:95|49:163,1,140.533327757975,2|0,3:0|3:0,0:0:0:0:
55,244,168882,6,0,B|103:265|103:265|154:245,1,105.399995818482,4|0,3:2|0:0,0:0:0:0:
365,135,169182,2,0,B|363:188|363:188|378:216|378:216|376:278,1,140.533327757975,2|0,0:0|3:0,0:0:0:0:
367,357,169482,2,0,P|329:368|262:346,1,105.399995818482,2|0,3:0|0:0,0:0:0:0:
213,97,169782,6,0,L|285:91,1,70.2666638789877,2|0,1:2|0:0,0:0:0:0:
365,135,169982,1,0,3:0:0:0:
283,185,170082,2,0,L|212:179,1,70.2666638789877,2|0,3:0|0:0,0:0:0:0:
128,140,170282,5,2,1:3:0:0:
60,214,170382,2,0,P|51:251|56:294,1,70.2666638789877,0|0,3:0|0:0,0:0:0:0:
120,131,170582,1,2,1:3:0:0:
146,249,170682,6,0,P|171:290|228:303,1,105.399995818482,2|0,1:3|0:0,0:0:0:0:
481,207,170982,2,0,P|421:196|372:254,1,140.533327757975,2|0,3:2|3:0,0:0:0:0:
395,336,171282,2,0,L|513:328,1,105.399995818482,2|0,3:0|0:0,0:0:0:0:
464,63,171582,6,0,B|393:43|393:43|335:88,1,140.533327757975,4|0,3:0|3:0,0:0:0:0:
276,143,171882,2,0,P|207:164|156:126,1,140.533327757975,2|0,3:0|3:0,0:0:0:0:
122,45,172182,2,0,P|57:23|2:61,1,140.533327757975,2|0,3:2|3:0,0:0:0:0:
6,149,172482,6,0,L|15:292,1,140.533327757975,4|0,3:2|3:0,0:0:0:0:
23,377,172782,1,0,3:0:0:0:
255,361,172982,1,2,3:2:0:0:
255,361,173082,2,0,B|330:327|326:380|401:342,1,140.533327757975,2|0,3:2|3:0,0:0:0:0:
445,274,173382,6,0,P|428:239|331:228,1,140.533327757975,4|2,3:0|3:2,0:0:0:0:
260,270,173682,1,0,3:0:0:0:
236,285,173782,1,0,3:0:0:0:
209,288,173882,1,0,3:0:0:0:
183,278,173982,1,0,3:0:0:0:
157,267,174082,1,0,3:0:0:0:
129,270,174182,1,0,3:0:0:0:
85,346,174282,5,4,3:0:0:0:
41,281,174382,1,0,3:0:0:0:
66,207,174482,1,0,3:0:0:0:
140,182,174582,1,4,3:0:0:0:
205,226,174682,1,0,3:0:0:0:
270,270,174782,1,0,3:0:0:0:
344,245,174882,1,4,3:0:0:0:
369,171,174982,1,0,3:0:0:0:
326,107,175082,1,2,3:2:0:0:
249,99,175182,6,0,B|166:145|166:145|91:77,1,191.250007295609,4|0,3:0|0:0,0:0:0:0:
94,80,175482,1,2,3:0:0:0:
174,11,175632,1,0,3:0:0:0:
194,6,175707,1,0,0:0:0:0:
215,7,175782,1,0,3:0:0:0:
376,93,175932,1,0,3:0:0:0:
369,171,176007,1,0,0:0:0:0:
362,249,176082,5,0,1:0:0:0:
362,249,176382,5,0,3:0:0:0:
449,190,176532,1,0,3:0:0:0:
454,170,176607,1,0,0:0:0:0:
453,149,176682,1,0,3:0:0:0:
284,66,176832,1,0,0:0:0:0:
283,87,176907,1,0,3:0:0:0:
288,107,176982,5,4,3:0:0:0:
467,311,177132,1,0,3:0:0:0:
468,332,177207,1,0,0:0:0:0:
463,352,177282,1,0,3:0:0:0:
362,319,177432,1,0,3:0:0:0:
256,326,177582,2,0,P|196:347|172:394,1,105.399995818482,0|0,3:0|0:0,0:0:0:0:
6,233,177882,6,0,L|169:226,1,158.099993727722,0|0,1:0|0:0,0:0:0:0:
163,226,178182,1,0,3:0:0:0:
140,106,178332,1,0,0:0:0:0:
312,85,178482,1,0,3:0:0:0:
287,237,178632,1,0,3:0:0:0:
69,154,178782,5,0,0:0:0:0:
72,50,178932,1,0,3:0:0:0:
87,35,179007,1,0,0:0:0:0:
108,30,179082,2,0,P|162:27|205:58,1,105.399995818482,4|0,3:0|0:0,0:0:0:0:
406,60,179382,2,0,P|355:56|312:85,1,105.399995818482,4|0,3:0|0:0,0:0:0:0:
223,287,179682,6,0,B|275:332|275:332|344:301,1,136,0|0,1:0|3:0,0:0:0:0:
424,259,180132,1,0,0:0:0:0:
223,287,180282,6,0,P|178:348|97:336,1,158.099993727722,0|0,1:0|0:0,0:0:0:0:
39,266,180582,6,0,P|31:190|92:145,1,158.099993727722,0|0,1:0|0:0,0:0:0:0:
91,145,180882,1,2,3:0:0:0:
303,232,181032,1,0,3:0:0:0:
395,181,181182,1,4,3:0:0:0:
398,144,181257,1,0,3:0:0:0:
402,107,181332,1,4,3:0:0:0:
406,70,181407,1,0,3:0:0:0:
410,33,181482,5,0,1:0:0:0:
424,60,181557,1,0,1:0:0:0:
426,92,181632,1,0,1:0:0:0:
415,121,181707,1,0,1:0:0:0:
392,143,181782,1,2,1:2:0:0:
363,154,181857,1,0,1:0:0:0:
332,152,181932,1,0,1:0:0:0:
304,137,182007,1,0,1:0:0:0:
285,112,182082,1,2,1:2:0:0:
266,86,182157,1,0,1:0:0:0:
238,72,182232,1,0,1:0:0:0:
207,69,182307,1,0,1:0:0:0:
176,77,182382,6,0,B|146:101|146:101|141:199,1,136,4|0,3:1|0:0,0:0:0:0:
135,334,182982,2,0,P|183:348|232:336,1,102
240,201,183282,6,0,L|232:336,1,136,4|4,1:2|3:0,0:0:0:0:
409,296,183882,2,0,L|406:207,1,68,0|4,0:0|3:0,0:0:0:0:
406,228,184107,1,0,3:0:0:0:
406,228,184182,5,4,1:0:0:0:
400,142,184482,1,0,0:0:0:0:
393,55,184782,1,0,0:0:0:0:
489,260,185082,5,4,1:2:0:0:
240,201,185382,1,4,3:0:0:0:
232,337,185682,1,0,0:0:0:0:
309,309,185982,5,4,1:0:0:0:
177,276,186282,1,0,0:0:0:0:
141,23,186582,1,4,3:0:0:0:
177,276,186882,5,4,1:2:0:0:
95,166,187182,1,0,0:0:0:0:
309,309,187482,1,4,3:0:0:0:
345,56,187782,6,0,B|397:62|397:62|414:46|414:46|475:52,1,136,4|0,3:1|1:0,0:0:0:0:
476,64,188157,1,0,1:0:0:0:
477,80,188232,1,0,1:0:0:0:
470,95,188307,1,0,1:0:0:0:
456,110,188382,1,0,1:0:0:0:
426,122,188457,1,0,1:0:0:0:
394,117,188532,1,0,1:0:0:0:
361,96,188607,1,0,1:0:0:0:
345,56,188682,6,0,L|349:9,1,37.7777777777778,4|0,1:2|0:0,0:0:0:0:
367,197,188982,5,0,1:0:0:0:
372,233,189057,1,0,1:0:0:0:
362,269,189132,1,0,1:0:0:0:
338,297,189207,1,0,1:0:0:0:
304,313,189282,1,0,1:0:0:0:
267,313,189357,1,0,1:0:0:0:
233,298,189432,1,0,1:0:0:0:
208,270,189507,1,0,1:0:0:0:
195,235,189582,5,0,0:0:0:0:
195,210,189657,1,0,0:0:0:0:
201,191,189732,1,0,0:0:0:0:
211,176,189807,1,0,0:0:0:0:
222,168,189882,1,0,0:0:0:0:
227,162,189957,1,0,0:0:0:0:
232,154,190032,1,0,0:0:0:0:
234,147,190107,1,0,0:0:0:0:
234,139,190182,1,0,0:0:0:0:
232,132,190257,1,0,0:0:0:0:
229,125,190332,1,0,0:0:0:0:
224,120,190407,1,0,0:0:0:0:
219,115,190482,1,0,0:0:0:0:
212,112,190557,1,0,0:0:0:0:
204,110,190632,1,0,0:0:0:0:
197,110,190707,1,0,0:0:0:0:
190,112,190782,1,0,0:0:0:0:
183,116,190857,1,0,0:0:0:0:
178,120,190932,1,0,0:0:0:0:
173,127,191007,1,0,0:0:0:0:
171,134,191082,1,0,0:0:0:0:
170,141,191157,1,0,0:0:0:0:
171,149,191232,1,0,0:0:0:0:
173,155,191307,1,0,0:0:0:0:
177,162,191382,6,0,P|191:173|208:180,3,34
181,247,191682,2,0,P|200:251|222:248,3,29.7499990921021
220,323,191982,2,0,P|231:321|243:317,3,21.25
277,381,192282,2,0,P|283:378|285:375,78,9.44444444444444
277,381,198582,6,0,P|242:320|175:322,1,140.250001337528,4|2,0:3|2:0,0:0:0:0:
105,362,198807,1,0,3:0:0:0:
105,362,198882,2,0,L|28:359,1,70.1250006687641,0|0,0:0|3:0,0:0:0:0:
15,161,199032,2,0,L|85:163,1,70.1250006687641,0|0,3:0|3:0,0:0:0:0:
159,222,199182,5,4,0:3:0:0:
211,237,199257,1,0,3:0:0:0:
262,214,199332,1,0,3:0:0:0:
285,165,199407,1,0,3:0:0:0:
275,113,199482,5,0,0:0:0:0:
256,186,199557,1,0,3:0:0:0:
288,254,199632,1,0,3:0:0:0:
356,286,199707,1,0,3:0:0:0:
429,268,199782,1,4,0:3:0:0:
474,208,199857,1,0,3:0:0:0:
471,133,199932,2,0,P|461:88|439:64,1,70.1250006687641,0|0,3:0|3:0,0:0:0:0:
217,49,200082,6,0,P|197:77|192:112,1,70.1250006687641,4|0,1:3|3:0,0:0:0:0:
281,248,200232,2,0,P|276:213|255:185,1,70.1250006687641,4|0,1:2|3:0,0:0:0:0:
69,111,200382,5,0,0:0:0:0:
66,185,200457,1,0,0:0:0:0:
63,259,200532,2,0,L|61:331,1,70.1250006687641,0|0,1:0|3:0,0:0:0:0:
279,318,200682,2,0,L|281:248,1,70.1250006687641,2|0,3:2|3:0,0:0:0:0:
482,295,200832,2,0,L|480:365,1,70.1250006687641,0|0,1:0|3:0,0:0:0:0:
281,248,200982,5,2,3:0:0:0:
282,240,201057,1,0,3:0:0:0:
352,166,201132,5,2,3:0:0:0:
351,158,201207,1,0,3:0:0:0:
267,94,201282,6,0,L|198:88,1,70.1250006687641,0|0,0:0|3:0,0:0:0:0:
106,80,201432,1,0,1:0:0:0:
95,79,201507,1,0,3:0:0:0:
84,78,201582,1,0,3:0:0:0:
73,77,201657,1,0,3:0:0:0:
62,76,201732,6,0,P|50:116|60:164,1,80.7499978437424,0|0,0:0|3:0,0:0:0:0:
273,172,201882,2,0,P|278:132|267:94,1,80.7499978437424,0|0,0:0|3:0,0:0:0:0:
163,155,202032,6,0,B|137:248|196:218|167:312,1,159.375,4|0,0:2|2:0,0:0:0:0:
168,310,202182,6,0,P|136:303|91:310,1,70.1250006687641,0|0,0:0|3:0,0:0:0:0:
245,351,202332,2,0,P|279:343|313:347,1,70.1250006687641,2|0,3:2|3:0,0:0:0:0:
434,355,202482,6,0,B|468:342|468:342|430:319,1,70.1250006687641,0|0,0:0|3:0,0:0:0:0:
352,265,202632,2,0,B|318:252|318:252|356:229,1,70.1250006687641,0|0,3:0|0:0,0:0:0:0:
445,178,202782,5,0,0:0:0:0:
477,133,202857,1,0,3:0:0:0:
473,78,202932,1,0,3:0:0:0:
434,39,203007,1,0,1:0:0:0:
379,34,203082,6,0,L|376:116,1,70.1250006687641,0|0,0:0|3:0,0:0:0:0:
282,163,203232,2,0,L|279:233,1,70.1250006687641,0|0,3:0|0:0,0:0:0:0:
206,275,203382,6,0,L|208:204,1,70.1250006687641,0|0,0:0|3:0,0:0:0:0:
87,131,203532,2,0,L|89:60,1,70.1250006687641,0|0,3:0|0:0,0:0:0:0:
22,11,203682,6,0,L|19:87,1,70.1250006687641,0|0,0:0|3:0,0:0:0:0:
14,218,203832,2,0,L|11:288,1,70.1250006687641,4|0,0:2|0:0,0:0:0:0:
145,349,203982,5,0,0:0:0:0:
196,369,204057,1,0,3:0:0:0:
250,358,204132,1,2,3:2:0:0:
289,318,204207,1,0,3:0:0:0:
299,264,204282,1,0,0:0:0:0:
277,213,204357,1,0,3:0:0:0:
231,183,204432,2,0,P|194:179|161:189,1,70.1250006687641,0|0,0:0|2:0,0:0:0:0:
206,275,204582,5,0,0:0:0:0:
208,282,204657,1,0,3:0:0:0:
365,199,204732,5,2,3:0:0:0:
363,206,204807,1,0,3:0:0:0:
412,336,204882,5,2,1:2:0:0:
412,336,204957,2,0,B|433:311|433:311|466:323,1,68,2|2,2:0|2:0,0:0:0:0:
463,255,205182,6,0,L|466:323,1,68,2|2,2:0|2:0,0:0:0:0:
479,173,205332,6,0,P|493:142|492:108,1,68,2|2,2:0|2:0,0:0:0:0:
492,108,205557,1,2,2:0:0:0:
492,108,205632,1,2,2:0:0:0:
234,59,205782,6,0,B|199:120|199:120|231:183,1,140.250001337528,4|0,1:3|2:0,2:0:0:0:
282,246,206007,1,0,2:0:0:0:
282,246,206082,2,0,L|361:242,1,70.1250006687641,0|0,0:0|3:0,0:0:0:0:
383,44,206232,2,0,L|304:40,1,70.1250006687641,0|0,3:0|3:0,0:0:0:0:
199,119,206382,5,4,0:3:0:0:
144,129,206457,1,0,3:0:0:0:
93,108,206532,1,0,3:0:0:0:
63,61,206607,1,0,3:0:0:0:
66,8,206682,5,0,0:0:0:0:
132,40,206757,1,0,3:0:0:0:
166,105,206832,1,0,3:0:0:0:
157,179,206907,1,0,3:0:0:0:
107,233,206982,1,4,0:3:0:0:
98,307,207057,1,0,3:0:0:0:
132,372,207132,2,0,P|166:373|208:356,1,70.1250006687641,0|0,3:0|3:0,0:0:0:0:
309,175,207282,6,0,P|276:163|241:164,1,70.1250006687641,0|0,0:0|3:0,0:0:0:0:
7,138,207432,2,0,P|40:127|75:128,1,70.1250006687641,4|0,3:2|3:0,0:0:0:0:
217,277,207582,5,0,0:0:0:0:
288,302,207657,1,0,0:0:0:0:
359,327,207732,2,0,L|435:354,1,70.1250006687641,0|0,0:0|3:0,0:0:0:0:
493,205,207882,2,0,L|416:232,1,70.1250006687641,0|0,1:0|3:0,0:0:0:0:
344,94,208032,2,0,L|420:121,1,70.1250006687641,0|0,3:0|3:0,0:0:0:0:
452,26,208182,5,0,0:0:0:0:
445,27,208257,1,0,3:0:0:0:
344,94,208332,5,2,3:0:0:0:
337,93,208407,1,0,3:0:0:0:
228,41,208482,5,0,0:0:0:0:
201,32,208557,1,0,0:0:0:0:
173,28,208632,1,0,0:0:0:0:
145,30,208707,1,0,0:0:0:0:
118,38,208782,5,8,3:0:0:0:
138,36,208857,1,0,3:0:0:0:
159,37,208932,1,0,3:0:0:0:
180,42,209007,1,0,3:0:0:0:
200,53,209082,5,4,3:0:0:0:
186,50,209157,1,0,3:0:0:0:
172,50,209232,1,4,3:2:0:0:
158,52,209307,1,0,3:0:0:0:
142,59,209382,6,0,B|141:106|141:106|158:130|158:130|152:193,1,140.250001337528,4|0,0:3|3:0,0:0:0:0:
179,270,209607,1,0,2:0:0:0:
179,270,209682,2,0,P|218:264|248:241,1,70.1250006687641,0|0,0:0|3:0,0:0:0:0:
116,316,209832,2,0,P|81:311|52:292,1,70.1250006687641,0|0,3:0|0:0,0:0:0:0:
63,134,209982,5,0,1:0:0:0:
64,125,210057,1,0,3:0:0:0:
65,115,210132,2,0,L|69:43,1,70.1250006687641,2|0,3:0|3:0,0:0:0:0:
282,98,210282,6,0,L|278:168,1,70.1250006687641,0|0,0:0|3:0,0:0:0:0:
302,309,210432,1,0,3:0:0:0:
350,336,210507,1,0,0:0:0:0:
405,330,210582,5,0,3:0:0:0:
408,295,210657,1,0,3:0:0:0:
411,260,210732,1,0,3:0:0:0:
414,225,210807,1,0,3:0:0:0:
396,190,210882,1,0,3:0:0:0:
399,155,210957,1,0,3:0:0:0:
402,120,211032,2,0,P|438:121|478:142,1,70.1250006687641,4|0,0:2|3:0,0:0:0:0:
413,35,211182,6,0,B|369:29|336:50|336:50|292:17|292:17|255:36|216:27,1,212.5,0|2,0:0|1:2,0:0:0:0:
62,85,211407,1,0,3:0:0:0:
62,85,211482,2,0,P|39:144|57:189,1,106.25,2|0,1:2|3:0,0:0:0:0:
246,251,211632,6,0,P|269:192|217:115,1,159.375,2|0,1:2|1:0,0:0:0:0:
220,116,211782,6,0,B|206:180|206:180|246:249|246:249|230:321,1,212.5,2|2,1:2|1:2,0:0:0:0:
480,32,212082,6,0,L|486:6,1,26.3499989546204,4|0,1:2|2:0,0:0:0:0:
480,32,212982,5,4,0:2:0:0:
495,55,213057,1,0,1:0:0:0:
504,81,213132,1,4,3:0:0:0:
504,109,213207,1,0,0:0:0:0:
498,136,213282,1,4,3:0:0:0:
483,161,213357,1,0,0:0:0:0:
463,180,213432,1,4,3:0:0:0:
438,193,213507,1,0,0:0:0:0:
411,199,213582,1,4,3:0:0:0:
383,196,213657,1,0,0:0:0:0:
357,187,213732,1,6,3:0:0:0:
334,170,213807,1,0,0:0:0:0:
317,148,213882,5,6,3:0:0:0:
294,131,213957,1,0,0:0:0:0:
268,122,214032,1,4,3:0:0:0:
240,119,214107,1,0,0:0:0:0:
213,125,214182,1,4,3:0:0:0:
188,138,214257,1,0,0:0:0:0:
168,157,214332,1,4,3:0:0:0:
153,182,214407,1,0,0:0:0:0:
147,209,214482,1,4,3:0:0:0:
147,237,214557,1,0,0:0:0:0:
156,263,214632,1,4,3:0:0:0:
172,287,214707,1,0,0:0:0:0:
191,304,214782,5,4,0:2:0:0:
206,281,214857,1,0,1:0:0:0:
215,255,214932,1,4,3:0:0:0:
215,227,215007,1,0,0:0:0:0:
209,200,215082,1,4,3:0:0:0:
194,175,215157,1,0,0:0:0:0:
174,156,215232,1,4,3:0:0:0:
149,143,215307,1,0,0:0:0:0:
122,137,215382,1,4,3:0:0:0:
94,140,215457,1,0,0:0:0:0:
68,149,215532,1,6,3:0:0:0:
45,166,215607,1,0,0:0:0:0:
29,190,215682,5,6,3:0:0:0:
20,216,215757,1,0,0:0:0:0:
20,244,215832,1,4,3:0:0:0:
26,271,215907,1,0,0:0:0:0:
41,296,215982,1,4,3:0:0:0:
61,315,216057,1,0,0:0:0:0:
86,328,216132,1,4,3:0:0:0:
113,334,216207,1,0,0:0:0:0:
141,331,216282,1,4,3:0:0:0:
167,322,216357,1,0,0:0:0:0:
189,304,216432,1,4,3:0:0:0:
205,281,216507,1,0,0:0:0:0:
215,254,216582,6,0,L|219:200,3,50.9999984436036,4|0|4|0,0:0|0:0|3:0|0:0,0:0:0:0:
305,300,216882,2,0,L|308:249,3,50.9999984436036,4|0|4|0,3:0|0:0|3:0|0:0,0:0:0:0:
399,258,217182,2,0,L|402:207,3,50.9999984436036,4|0|6|0,3:0|0:0|3:0|0:0,0:0:0:0:
462,311,217482,5,6,3:0:0:0:
472,293,217557,1,0,0:0:0:0:
479,274,217632,1,4,3:0:0:0:
483,254,217707,1,0,0:0:0:0:
485,234,217782,1,4,3:0:0:0:
483,213,217857,1,0,0:0:0:0:
478,193,217932,1,4,3:0:0:0:
473,173,218007,1,0,0:0:0:0:
471,152,218082,1,4,3:0:0:0:
473,132,218157,1,0,0:0:0:0:
477,112,218232,1,4,3:0:0:0:
484,93,218307,1,0,0:0:0:0:
494,77,218382,5,4,0:2:0:0:
477,64,218457,1,0,0:0:0:0:
459,54,218532,1,4,3:0:0:0:
440,47,218607,1,0,0:0:0:0:
421,42,218682,1,4,3:0:0:0:
400,40,218757,1,0,0:0:0:0:
380,40,218832,1,4,3:0:0:0:
360,43,218907,1,0,0:0:0:0:
340,49,218982,1,4,3:0:0:0:
321,57,219057,1,0,0:0:0:0:
304,67,219132,1,6,3:0:0:0:
288,80,219207,1,0,0:0:0:0:
274,94,219282,1,6,3:0:0:0:
262,111,219357,1,0,0:0:0:0:
252,129,219432,1,4,3:0:0:0:
244,147,219507,1,0,0:0:0:0:
239,167,219582,1,4,3:0:0:0:
237,187,219657,1,0,0:0:0:0:
237,208,219732,1,4,3:0:0:0:
240,228,219807,1,0,0:0:0:0:
245,248,219882,1,4,3:0:0:0:
253,266,219957,1,0,0:0:0:0:
264,284,220032,1,4,3:0:0:0:
276,300,220107,1,0,0:0:0:0:
