osu file format v14

[General]
AudioFilename: audio.mp3
AudioLeadIn: 0
PreviewTime: 35433
Countdown: 0
SampleSet: Normal
StackLeniency: 0.7
Mode: 1
LetterboxInBreaks: 0
WidescreenStoryboard: 0

[Editor]
Bookmarks: 34811,171824,174350
DistanceSpacing: 0.8
BeatDivisor: 2
GridSize: 32
TimelineZoom: 5.199996

[Metadata]
Title:Alain
TitleUnicode:Alain
Artist:Igorrr & Ruby My Dear
ArtistUnicode:Igorrr & Ruby My Dear
Creator:Raiden
Version:Inner Oni
Source:
Tags:breakcore baroquecore maigre
BeatmapID:1931300
BeatmapSetID:924643

[Difficulty]
HPDrainRate:6
CircleSize:2
OverallDifficulty:7
ApproachRate:10
SliderMultiplier:1.4
SliderTickRate:1

[Events]
//Background and Video events
0,0,"thumb-1920-72270.jpg",0,0
//Break Periods
//Storyboard Layer 0 (Background)
//Storyboard Layer 1 (Fail)
//Storyboard Layer 2 (Pass)
//Storyboard Layer 3 (Foreground)
//Storyboard Sound Samples

[TimingPoints]
65,315.789473684211,4,1,0,50,1,0
65,-200,4,1,0,50,0,0
17749,-76.9230769230769,4,1,0,90,0,0
17907,-79.2079207920792,4,1,0,90,0,0
18065,-81.6326530612245,4,1,0,90,0,0
18143,-82.9015544041451,4,1,0,90,0,0
18222,-84.2105263157895,4,1,0,90,0,0
18301,-85.5614973262032,4,1,0,90,0,0
18380,-86.9565217391304,4,1,0,90,0,0
18459,-88.3977900552486,4,1,0,90,0,0
18538,-89.8876404494382,4,1,0,90,0,0
18617,-91.4285714285714,4,1,0,90,0,0
18696,-93.0232558139535,4,1,0,90,0,0
18775,-94.6745562130178,4,1,0,90,0,0
18854,-96.3855421686747,4,1,0,90,0,0
18933,-98.159509202454,4,1,0,90,0,0
19012,-100,4,1,0,90,0,0
19328,-98.0392156862745,4,1,0,90,0,0
19407,-96.1538461538461,4,1,0,90,0,0
19486,-94.3396226415094,4,1,0,90,0,0
19643,-92.5925925925926,4,1,0,90,0,0
19696,-90.6735868748169,4,1,0,90,0,0
19749,-88.832509855967,4,1,0,90,0,0
19801,-87.0647091037472,4,1,0,90,0,0
19854,-85.3658224271381,4,1,0,90,0,0
19907,-83.7320373846801,4,1,0,90,0,0
19959,-82.1596147699983,4,1,0,90,0,0
20117,-84.7457627118644,4,1,0,90,0,0
20196,-86.2068965517241,4,1,0,90,0,0
20275,-87.719298245614,4,1,0,90,0,0
20354,-50,4,1,0,20,0,0
20907,-100,4,1,0,90,0,0
20986,-97.9112591094188,4,1,0,90,0,0
21065,-95.9078977276542,4,1,0,90,0,0
21143,-93.984962406015,4,1,0,90,0,0
21222,-92.1376204353871,4,1,0,90,0,0
21301,-90.3614185658378,4,1,0,90,0,0
21380,-88.6524822695036,4,1,0,90,0,0
21459,-87.0069857908892,4,1,0,90,0,0
21538,-85.4213879779647,4,1,0,90,0,0
21617,-83.8926174496644,4,1,0,90,0,0
21696,-82.4176050597816,4,1,0,90,0,0
21775,-80.9934986518632,4,1,0,90,0,0
21854,-79.6178343949045,4,1,0,90,0,0
21933,-78.2881206388624,4,1,0,90,0,0
22012,-77.002033623708,4,1,0,90,0,0
22091,-75.7575757575758,4,1,0,90,0,0
22486,-76.9230769230769,4,1,0,90,0,0
22565,-78.125,4,1,0,90,0,0
22643,-79.3650793650794,4,1,0,90,0,0
22801,-80.6451612903226,4,1,0,90,0,0
22880,-82.1414607380246,4,1,0,90,0,0
22959,-83.6943348978594,4,1,0,90,0,0
23038,-85.3071269839239,4,1,0,90,0,0
23117,-86.9832218063458,4,1,0,90,0,0
23196,-88.7264996774792,4,1,0,90,0,0
23275,-90.5410825635078,4,1,0,90,0,0
23354,-92.4315221068471,4,1,0,90,0,0
25328,-90.9090909090909,4,1,0,90,0,0
25433,-89.1507941106985,4,1,0,90,0,0
25538,-87.4592221376783,4,1,0,90,0,0
25643,-85.8306475493204,4,1,0,90,0,0
25749,-84.2616154636917,4,1,0,90,0,0
25854,-82.7489190922444,4,1,0,90,0,0
25959,-81.2896439432306,4,1,0,90,0,0
26065,-79.8808816293144,4,1,0,90,0,0
26170,-78.5201156758344,4,1,0,90,0,0
26275,-77.2049343217624,4,1,0,90,0,0
26380,-75.9330847284139,4,1,0,90,0,0
26486,-74.7024601014161,4,1,0,90,0,0
27643,-75.7575757575758,4,1,0,90,0,0
27749,-76.9230769230769,4,1,0,90,0,0
27854,-78.125,4,1,0,90,0,0
28486,-79.3650793650794,4,1,0,90,0,0
28591,-80.6451612903226,4,1,0,90,0,0
28696,-81.9672131147541,4,1,0,90,0,0
29749,-81.3008130081301,4,1,0,90,0,0
29801,-80.5910223212954,4,1,0,90,0,0
29854,-79.8934540896261,4,1,0,90,0,0
29907,-79.2079207920792,4,1,0,90,0,0
29959,-78.5340519722649,4,1,0,90,0,0
30012,-77.8714917919554,4,1,0,90,0,0
30065,-77.2200772200772,4,1,0,90,0,0
30117,-76.579470728646,4,1,0,90,0,0
30170,-75.9493478609246,4,1,0,90,0,0
30222,-75.3295668549906,4,1,0,90,0,0
30275,-74.7198193573647,4,1,0,90,0,0
30328,-74.1198087412455,4,1,0,90,0,0
30380,-73.5294117647059,4,1,0,90,0,0
30538,-74.6268656716418,4,1,0,90,0,0
30696,-76.503894430746,4,1,0,90,0,0
30775,-77.4782382998175,4,1,0,90,0,0
30854,-78.4777205675195,4,1,0,90,0,0
31012,-80.5561597267535,4,1,0,90,0,0
31091,-50,4,1,0,90,0,0
31565,-100,4,1,0,90,0,0
32275,-100,4,1,0,90,0,0
32354,-97.7503729176727,4,1,0,90,0,0
32433,-95.5998267731139,4,1,0,90,0,0
32512,-93.5417818399856,4,1,0,90,0,0
32591,-91.570479508816,4,1,0,90,0,0
32670,-89.6806293427845,4,1,0,90,0,0
32749,-87.8671308394298,4,1,0,90,0,0
32907,-83.3333333333333,4,1,0,90,0,0
33065,-66.6666666666667,4,1,0,90,0,0
33222,-100,4,1,0,90,0,0
33380,-66.6666666666667,4,1,0,90,0,0
33538,-83.3333333333333,4,1,0,90,0,0
33893,-50,4,1,0,90,0,0
34170,-83.3333333333333,4,1,0,90,0,0
37880,-66.6666666666667,4,1,0,90,0,0
37959,-66.6666666666667,4,1,0,90,0,1
38038,-50,4,1,0,90,0,1
38512,-90.9090909090909,4,1,0,90,0,1
40407,-66.6666666666667,4,1,0,90,0,1
40565,-90.9090909090909,4,1,0,90,0,1
41038,-66.6666666666667,4,1,0,90,0,1
41196,-90.9090909090909,4,1,0,90,0,1
43643,-90.9090909090909,4,1,0,90,0,1
43749,-91.8734278159665,4,1,0,90,0,1
43854,-92.8585291023273,4,1,0,90,0,1
43959,-93.8648964998719,4,1,0,90,0,1
44065,-94.8934062367742,4,1,0,90,0,1
44170,-95.9446130937532,4,1,0,90,0,1
44275,-97.0193708875914,4,1,0,90,0,1
44591,-95.2380952380952,4,1,0,90,0,1
44670,-94.1402407165955,4,1,0,90,0,1
44749,-93.0674087241389,4,1,0,90,0,1
44828,-92.0187534219474,4,1,0,90,0,1
44907,-90.9934666690932,4,1,0,90,0,1
45538,-89.2857142857143,4,1,0,90,0,1
45617,-87.9260014771568,4,1,0,90,0,1
45696,-86.6071560028719,4,1,0,90,0,1
45775,-85.3272170784132,4,1,0,90,0,1
45854,-84.084629497897,4,1,0,90,0,1
46065,-80.9412496033879,4,1,0,90,0,1
46170,-79.4560754896282,4,1,0,90,0,1
46249,-50,4,1,0,90,0,1
46643,-90.9090909090909,4,1,0,90,0,1
47749,-89.2857142857143,4,1,0,90,0,1
47801,-87.5000109375014,4,1,0,90,0,1
47854,-85.7843347510624,4,1,0,90,0,1
47907,-84.1346457216271,4,1,0,90,0,1
47959,-82.5471406083229,4,1,0,90,0,1
48012,-81.0184997642362,4,1,0,90,0,1
48065,-79.5454455061994,4,1,0,90,0,1
48222,-90.9090909090909,4,1,0,90,0,1
49328,-66.6666666666667,4,1,0,90,0,1
49565,-90.9090909090909,4,1,0,90,0,1
50749,-50,4,1,0,90,0,1
51143,-90.9090909090909,4,1,0,90,0,1
51696,-50,4,1,0,90,0,1
51854,-90.9090909090909,4,1,0,90,0,1
52249,-83.3333333333333,4,1,0,90,0,1
52801,-83.3333333333333,4,1,0,90,0,1
52854,-84.4827921224865,4,1,0,90,0,1
52907,-85.6643311714512,4,1,0,90,0,1
52959,-86.8794634324339,4,1,0,90,0,1
53012,-88.1294868925014,4,1,0,90,0,1
53065,-89.4160861327274,4,1,0,90,0,1
53117,-90.9090909090909,4,1,0,90,0,0
54380,-133.333333333333,4,1,0,60,0,0
69538,-100,4,1,0,90,0,0
69591,-98.2179338089701,4,1,0,90,0,0
69643,-96.4981776319154,4,1,0,90,0,0
69696,-94.8376995029556,4,1,0,90,0,0
69854,-90.1822221981736,4,1,0,90,0,0
69907,-88.7303573171489,4,1,0,90,0,0
69959,-87.3244233313394,4,1,0,90,0,0
70012,-85.9624223866779,4,1,0,90,0,0
70065,-84.6422552759634,4,1,0,90,0,0
70117,-83.3619542709664,4,1,0,90,0,0
70170,-82.1198753091813,4,1,0,90,0,0
70486,-83.3333333333333,4,1,0,90,0,0
70538,-84.9858116187503,4,1,0,90,0,0
70591,-86.705227371453,4,1,0,90,0,0
70643,-88.495575221239,4,1,0,90,0,0
70696,-90.3614185658378,4,1,0,90,0,0
70749,-92.3077207100679,4,1,0,90,0,0
70801,-94.3396226415094,4,1,0,90,0,0
72065,-100,4,1,0,90,0,0
73249,-66.6666666666667,4,1,0,60,0,0
73407,-100,4,1,0,90,0,0
74551,-66.6666666666667,4,1,0,60,0,0
74630,-100,4,1,0,90,0,0
77038,-66.6666666666667,4,1,0,60,0,0
77196,-100,4,1,0,90,0,0
81459,-66.6666666666667,4,1,0,90,0,0
81696,-80,4,1,0,90,0,0
81854,-100,4,1,0,90,0,0
82249,-50,4,1,0,90,0,0
82722,-100,4,1,0,90,0,0
83512,-50,4,1,0,90,0,0
83907,-100,4,1,0,90,0,0
86038,-50,4,1,0,90,0,0
86433,-100,4,1,0,90,0,0
88486,-111.111111111111,4,1,0,75,0,0
105749,-108.695652173913,4,1,0,75,0,0
105854,-106.382978723404,4,1,0,75,0,0
105959,-104.166666666667,4,1,0,80,0,0
106065,-102.040816326531,4,1,0,85,0,0
106170,-100,4,1,0,90,0,0
107433,-100,4,1,0,90,0,0
107643,-97.7199015374272,4,1,0,90,0,0
107854,-95.5413708466972,4,1,0,90,0,0
108065,-93.4579439252336,4,1,0,90,0,0
108275,-91.4634425193422,4,1,0,90,0,0
108486,-89.5522120739665,4,1,0,90,0,0
108696,-87.719298245614,4,1,0,90,0,0
109012,-100,4,1,0,90,0,0
109328,-100,4,1,0,90,0,0
109380,-97.7199015374272,4,1,0,90,0,0
109433,-95.5413708466972,4,1,0,90,0,0
109486,-93.4579439252336,4,1,0,90,0,0
109538,-91.4634425193422,4,1,0,90,0,0
109591,-89.5522120739665,4,1,0,90,0,0
109643,-87.719298245614,4,1,0,90,0,0
109959,-100,4,1,0,90,0,0
110749,-100,4,1,0,90,0,0
110828,-97.7199015374272,4,1,0,90,0,0
110907,-95.5413708466972,4,1,0,90,0,0
110986,-93.4579439252336,4,1,0,90,0,0
111065,-91.4634425193422,4,1,0,90,0,0
111143,-89.5522120739665,4,1,0,90,0,0
111222,-87.719298245614,4,1,0,90,0,0
111301,-89.2857142857143,4,1,0,90,0,0
111380,-90.8819915516101,4,1,0,90,0,0
111459,-92.5363853067026,4,1,0,90,0,0
111538,-94.2521282130551,4,1,0,90,0,0
111617,-96.0327894356249,4,1,0,90,0,0
111696,-97.8819328549517,4,1,0,90,0,0
111854,-100,4,1,0,90,0,0
113117,-100,4,1,0,90,0,0
113170,-97.7653767828739,4,1,0,90,0,0
113222,-95.6284414285359,4,1,0,90,0,0
113275,-93.5829252337935,4,1,0,90,0,0
113328,-91.6230006715966,4,1,0,90,0,0
113380,-89.7435667324188,4,1,0,90,0,0
113433,-87.9396874447629,4,1,0,90,0,0
113907,-93.4579439252336,4,1,0,90,0,0
114065,-92.5925925925926,4,1,0,90,0,0
114117,-90.6344684696279,4,1,0,90,0,0
114170,-88.7573701901272,4,1,0,90,0,0
114222,-86.9565217391304,4,1,0,90,0,0
114275,-85.227296939573,4,1,0,90,0,0
114328,-83.5654363327475,4,1,0,90,0,0
114380,-81.9672131147541,4,1,0,90,0,0
115012,-83.3333333333333,4,1,0,90,0,0
115091,-84.7457627118644,4,1,0,90,0,0
115170,-86.2068965517241,4,1,0,90,0,0
115249,-87.719298245614,4,1,0,90,0,0
115328,-89.2857142857143,4,1,0,90,0,0
115407,-90.9090909090909,4,1,0,90,0,0
115486,-92.5925925925926,4,1,0,90,0,0
115565,-94.3396226415094,4,1,0,90,0,0
115643,-96.1538461538461,4,1,0,90,0,0
115801,-98.0392156862745,4,1,0,90,0,0
115959,-100,4,1,0,90,0,0
117538,-98.0392156862745,4,1,0,90,0,0
117617,-96.0011673741953,4,1,0,90,0,0
117696,-94.0461277447362,4,1,0,90,0,0
117775,-92.1691266606572,4,1,0,90,0,0
117854,-90.3655013432832,4,1,0,90,0,0
117933,-88.6311887835458,4,1,0,90,0,0
118012,-86.9621931865122,4,1,0,90,0,0
118091,-85.3548928411998,4,1,0,90,0,0
118170,-83.8059289342484,4,1,0,90,0,0
118249,-82.3121821206417,4,1,0,90,0,0
118328,-80.8707515561554,4,1,0,90,0,0
118407,-79.4789360949614,4,1,0,90,0,0
119117,-83.3333333333333,4,1,0,90,0,0
119433,-87.719298245614,4,1,0,90,0,0
119591,-89.2857142857143,4,1,0,90,0,0
119670,-90.8864519201581,4,1,0,90,0,0
119749,-92.5456342522498,4,1,0,90,0,0
119828,-94.2665216219121,4,1,0,90,0,0
119907,-96.0526214681451,4,1,0,90,0,0
119986,-97.9077121904892,4,1,0,90,0,0
120065,-99.8358698299995,4,1,0,90,0,0
120380,-100,4,1,0,90,0,0
120433,-97.7653767828739,4,1,0,90,0,0
120486,-95.6284414285359,4,1,0,90,0,0
120538,-93.5829252337935,4,1,0,90,0,0
120591,-91.6230006715966,4,1,0,90,0,0
120643,-89.7435667324188,4,1,0,90,0,0
120696,-87.9396874447629,4,1,0,90,0,0
120854,-88.495575221239,4,1,0,90,0,0
120933,-89.4060132696405,4,1,0,90,0,0
121012,-90.3353791285527,4,1,0,90,0,0
121091,-91.284269255732,4,1,0,90,0,0
121170,-92.2532203292886,4,1,0,90,0,0
121249,-93.2430491968976,4,1,0,90,0,0
121328,-94.2543491313048,4,1,0,90,0,0
121486,-92.5925925925926,4,1,0,90,0,0
121565,-90.9090909090909,4,1,0,90,0,0
121643,-89.2857142857143,4,1,0,90,0,0
121801,-86.2068965517241,4,1,0,90,0,0
121880,-84.7457627118644,4,1,0,90,0,0
121959,-83.3333333333333,4,1,0,90,0,0
122117,-80.6451612903226,4,1,0,90,0,0
122170,-79.7872552625679,4,1,0,90,0,0
122222,-78.9473476454348,4,1,0,90,0,0
122275,-78.125,4,1,0,90,0,0
122433,-75.7575757575758,4,1,0,90,0,0
122486,-75.0000187500047,4,1,0,90,0,0
122538,-74.2574073620279,4,1,0,90,0,0
122591,-73.5294117647059,4,1,0,90,0,0
124170,-75.7575757575758,4,1,0,90,0,0
124486,-80.6451612903226,4,1,0,90,0,0
124801,-86.2068965517241,4,1,0,90,0,0
125117,-92.5925925925926,4,1,0,90,0,0
125828,-50,4,1,0,90,0,0
126301,-100,4,1,0,90,0,0
127170,-96.1538461538461,4,1,0,90,0,0
127222,-92.7299703264095,4,1,0,90,0,0
127275,-89.541547277937,4,1,0,90,0,0
127328,-86.5650969529086,4,1,0,90,0,0
127643,-100,4,1,0,90,0,0
128907,-98.0392156862745,4,1,0,90,0,0
128986,-96.3855421686747,4,1,0,90,0,0
129065,-94.7867298578199,4,1,0,90,0,0
129143,-93.2400932400932,4,1,0,90,0,0
129222,-91.743119266055,4,1,0,90,0,0
129301,-90.293453724605,4,1,0,90,0,0
129380,-88.8888888888889,4,1,0,90,0,0
129538,-86.2068965517241,4,1,0,90,0,0
130012,-100,4,1,0,90,0,0
131749,-100,4,1,0,90,0,0
131801,-97.7653767828739,4,1,0,90,0,0
131854,-95.6284414285359,4,1,0,90,0,0
131907,-93.5829252337935,4,1,0,90,0,0
131959,-91.6230006715966,4,1,0,90,0,0
132012,-89.7435667324188,4,1,0,90,0,0
132065,-87.9396874447629,4,1,0,90,0,0
132275,-93.4579439252336,4,1,0,90,0,0
132486,-100,4,1,0,90,0,0
133407,-50,4,1,0,90,0,0
133880,-100,4,1,0,90,0,0
135222,-100,4,1,0,90,0,0
135301,-98.9540556319701,4,1,0,90,0,0
135380,-97.929764772705,4,1,0,90,0,0
135459,-96.9264618933615,4,1,0,90,0,0
135538,-95.9435084622174,4,1,0,90,0,0
135617,-94.9802915894952,4,1,0,90,0,0
135696,-94.0362227530045,4,1,0,90,0,0
135775,-93.1107365990372,4,1,0,90,0,0
135854,-92.2032898133806,4,1,0,90,0,0
135933,-91.31336005771,4,1,0,90,0,0
136012,-90.4405267618041,4,1,0,90,0,0
136091,-89.5841414569427,4,1,0,90,0,0
136170,-88.7438223206687,4,1,0,90,0,0
136249,-87.9191214418033,4,1,0,90,0,0
136328,-87.1096074057104,4,1,0,90,0,0
136407,-86.3148645417673,4,1,0,90,0,0
136486,-85.5344922116568,4,1,0,90,0,0
136801,-87.719298245614,4,1,0,90,0,0
137117,-90.9090909090909,4,1,0,90,0,0
137275,-91.743119266055,4,1,0,90,0,0
137354,-92.7219740879171,4,1,0,90,0,0
137433,-93.7219419936157,4,1,0,90,0,0
137512,-94.7437135177488,4,1,0,90,0,0
137591,-95.7879178867653,4,1,0,90,0,0
137670,-96.8554896722991,4,1,0,90,0,0
137749,-97.9471261823442,4,1,0,90,0,0
138065,-96.1538461538461,4,1,0,90,0,0
138117,-94.3396226415094,4,1,0,90,0,0
138170,-92.5925925925926,4,1,0,90,0,0
138222,-90.9090909090909,4,1,0,90,0,0
138275,-89.2857142857143,4,1,0,90,0,0
138328,-87.719298245614,4,1,0,90,0,0
138380,-86.2068965517241,4,1,0,90,0,0
138538,-86.2068965517241,4,1,0,90,0,0
138617,-87.6982199015324,4,1,0,90,0,0
138696,-89.2420494258166,4,1,0,90,0,0
138775,-90.8412077520253,4,1,0,90,0,0
138854,-92.4987235176154,4,1,0,90,0,0
138933,-94.2178505139584,4,1,0,90,0,0
139012,-96.0020890054568,4,1,0,90,0,0
139170,-94.3396226415094,4,1,0,90,0,0
139249,-92.7357319121273,4,1,0,90,0,0
139328,-91.1853826184247,4,1,0,90,0,0
139486,-88.2353200692118,4,1,0,90,0,0
139565,-86.8306550417786,4,1,0,90,0,0
139643,-85.4700854700855,4,1,0,90,0,0
139801,-82.8729052837278,4,1,0,90,0,0
139854,-82.0419250645465,4,1,0,90,0,0
139907,-81.2274441541014,4,1,0,90,0,0
139959,-80.4289759863206,4,1,0,90,0,0
140117,-78.125,4,1,0,90,0,0
142801,-125,4,1,0,60,0,0
146591,-125,4,1,0,90,0,0
147854,-121.951219512195,4,1,0,90,0,0
148065,-118.577121967242,4,1,0,90,0,0
148275,-115.384571005934,4,1,0,90,0,0
148486,-112.359550561798,4,1,0,90,0,0
148696,-109.489091054413,4,1,0,90,0,0
148907,-106.761527842873,4,1,0,90,0,0
149117,-104.166666666667,4,1,0,90,0,0
150380,315.789473684211,4,1,0,60,1,8
150380,-125,4,1,0,60,0,0
150406,315.789473684211,4,1,0,60,1,0
150406,-125,4,1,0,60,0,0
151643,315.789473684211,4,1,0,60,1,0
151643,-125,4,1,0,60,0,0
152906,315.789473684211,4,1,0,60,1,8
152906,-125,4,1,0,60,0,0
152932,315.789473684211,4,1,0,60,1,0
152932,-125,4,1,0,60,0,0
154169,315.789473684211,4,1,0,60,1,0
154169,-125,4,1,0,60,0,0
156695,315.789473684211,4,1,0,60,1,8
156695,-125,4,1,0,60,0,0
156747,315.789473684211,4,1,0,60,1,0
156747,-125,4,1,0,60,0,0
159221,315.789473684211,4,1,0,75,1,8
159221,-117.647058823529,4,1,0,75,0,0
159222,315.789473684211,4,1,0,75,1,0
159222,-117.647058823529,4,1,0,75,0,0
173116,315.789473684211,4,1,0,75,1,8
173116,-133.333333333333,4,1,0,75,0,0
173169,315.789473684211,4,1,0,75,1,0
173169,-133.333333333333,4,1,0,75,0,0
174379,315.789473684211,4,1,0,75,1,0
174379,-111.111111111111,4,1,0,75,0,0
176354,-50,4,1,0,75,0,0
176905,-111.111111111111,4,1,0,55,0,0
177222,-111.111111111111,4,1,0,45,0,0
177538,-111.111111111111,4,1,0,35,0,0
177854,-111.111111111111,4,1,0,25,0,0
178168,315.789473684211,4,1,0,90,1,8
178168,-100,4,1,0,90,0,0
178494,315.789473684211,4,1,0,90,1,0
178494,-100,4,1,0,90,0,0
178651,-98.4009840098401,4,1,0,90,0,0
178809,-96.8523002421308,4,1,0,90,0,0
178967,-95.3516090584029,4,1,0,90,0,0
179125,-93.8967136150235,4,1,0,90,0,0
179204,-93.185789167152,4,1,0,90,0,0
179283,-92.485549132948,4,1,0,90,0,0
179362,-91.7957544463569,4,1,0,90,0,0
179441,-91.1161731207289,4,1,0,90,0,0
179520,-90.4465799886942,4,1,0,90,0,0
179599,-89.7867564534231,4,1,0,90,0,0
179678,-89.1364902506964,4,1,0,90,0,0
179757,-88.495575221239,4,1,0,90,0,0
180072,-125,4,1,0,70,0,0
196178,-121.212121212121,4,1,0,70,0,0
196283,-117.073125044634,4,1,0,70,0,0
196388,-113.207589889657,4,1,0,70,0,0
196494,-109.58904109589,4,1,0,70,0,0
196599,-106.194652674459,4,1,0,70,0,0
196704,-103.004327211786,4,1,0,70,0,0
196809,-100,4,1,0,70,0,0
197441,-100,4,1,0,95,0,0
198704,-100,4,1,0,95,0,0
198783,-98.9345735771477,4,1,0,95,0,0
198862,-97.8916104931975,4,1,0,95,0,0
198941,-96.8703138985652,4,1,0,95,0,0
199020,-95.8701994196018,4,1,0,95,0,0
199099,-94.8905248015365,4,1,0,95,0,0
199178,-93.9306697726408,4,1,0,95,0,0
199257,-92.9899524356393,4,1,0,95,0,0
199336,-92.0679756277655,4,1,0,95,0,0
199415,-91.1641017646635,4,1,0,95,0,0
199494,-90.2778028549453,4,1,0,95,0,0
199572,-89.408491303236,4,1,0,95,0,0
199651,-88.5558402133841,4,1,0,95,0,0
199730,-87.719298245614,4,1,0,95,0,0
200757,-100,4,1,0,95,0,0
202494,-100,4,1,0,95,0,0
202572,-98.9486703772418,4,1,0,95,0,0
202651,-97.9192166462668,4,1,0,95,0,0
202730,-96.9109630526953,4,1,0,95,0,0
202809,-95.9232613908873,4,1,0,95,0,0
202888,-94.9554896142433,4,1,0,95,0,0
202967,-94.0070505287897,4,1,0,95,0,0
203046,-93.0773705642816,4,1,0,95,0,0
203125,-92.1658986175115,4,1,0,95,0,0
203204,-91.2721049629207,4,1,0,95,0,0
203283,-90.3954802259887,4,1,0,95,0,0
203362,-89.535534415221,4,1,0,95,0,0
203441,-88.6917960088692,4,1,0,95,0,0
203520,-87.8638110928061,4,1,0,95,0,0
203599,-87.0511425462459,4,1,0,95,0,0
203678,-86.2533692722372,4,1,0,95,0,0
203757,-85.4700854700855,4,1,0,95,0,0
203915,-88.1057268722467,4,1,0,95,0,0
204072,-90.9090909090909,4,1,0,95,0,0
204388,-91.743119266055,4,1,0,95,0,0
204467,-92.6899170054483,4,1,0,95,0,0
204546,-93.6564606099658,4,1,0,95,0,0
204625,-94.6433743012953,4,1,0,95,0,0
204704,-95.6513088925109,4,1,0,95,0,0
204783,-96.6809432192821,4,1,0,95,0,0
204862,-97.7329856645257,4,1,0,95,0,0
204941,-98.808175783697,4,1,0,95,0,0
205020,-99.9072860385562,4,1,0,95,0,0
205336,-100,4,1,0,95,0,0
205415,-98.9653176044455,4,1,0,95,0,0
205494,-97.9519232370368,4,1,0,95,0,0
205572,-96.9589785953359,4,1,0,95,0,0
205651,-95.9860551459084,4,1,0,95,0,0
205730,-95.0323727777867,4,1,0,95,0,0
205809,-94.0975433954346,4,1,0,95,0,0
205888,-93.1808397830005,4,1,0,95,0,0
205967,-92.2819101617148,4,1,0,95,0,0
206046,-91.4000754964624,4,1,0,95,0,0
206125,-90.5350166810768,4,1,0,95,0,0
206204,-89.6860986547085,4,1,0,95,0,0
206283,-88.8529528057541,4,1,0,95,0,0
206362,-88.0352211312702,4,1,0,95,0,0
206441,-87.232327602751,4,1,0,95,0,0
206520,-86.4440214450328,4,1,0,95,0,0
206599,-85.6697619151647,4,1,0,95,0,0
206678,-84.9093210905414,4,1,0,95,0,0
206757,-84.1621906408277,4,1,0,95,0,0
206836,-83.4281633456696,4,1,0,95,0,0
206915,-82.7067606987398,4,1,0,95,0,0
206994,-81.9977942593344,4,1,0,95,0,0
207072,-81.3008130081301,4,1,0,95,0,0
207230,-81.3008130081301,4,1,0,95,0,0
207309,-82.57870163159,4,1,0,95,0,0
207388,-83.8974739309574,4,1,0,95,0,0
207467,-85.2589784098689,4,1,0,95,0,0
207546,-86.6654764607899,4,1,0,95,0,0
207704,-89.6223582689621,4,1,0,95,0,0
207783,-91.1777336680164,4,1,0,95,0,0
207862,-92.7881349956019,4,1,0,95,0,0
208020,-96.1857539279857,4,1,0,95,0,0
208099,-97.9795634226613,4,1,0,95,0,0
208178,-99.8416511412899,4,1,0,95,0,0
211651,-99.009900990099,4,1,0,95,0,0
211730,-98.0420992774297,4,1,0,95,0,0
211809,-97.0929402752196,4,1,0,95,0,0
211888,-96.1620754083763,4,1,0,95,0,0
211967,-95.248890112308,4,1,0,95,0,0
212046,-94.3527964281805,4,1,0,95,0,0
212125,-93.4734937213854,4,1,0,95,0,0
212204,-92.6104286751522,4,1,0,95,0,0
212283,-91.7630714201161,4,1,0,95,0,0
212362,-90.9311623821418,4,1,0,95,0,0
212441,-90.1142017278497,4,1,0,95,0,0
212520,-89.3117103728407,4,1,0,95,0,0
212599,-88.5234640293756,4,1,0,95,0,0
212678,-87.749009752425,4,1,0,95,0,0
212757,-86.9879130294845,4,1,0,95,0,0
212836,-86.2399799923246,4,1,0,95,0,0
212915,-85.5047989568415,4,1,0,95,0,0
212994,-84.7819746739285,4,1,0,95,0,0
213072,-84.0713395759105,4,1,0,95,0,0
213151,-83.3725184169893,4,1,0,95,0,0
213230,-82.6851506564788,4,1,0,95,0,0
213309,-82.0090915278868,4,1,0,95,0,0
213388,-81.3439980737741,4,1,0,95,0,0
213467,-80.6895405376183,4,1,0,95,0,0
213546,-80.0455939703255,4,1,0,95,0,0
213625,-79.4118441177265,4,1,0,95,0,0
213704,-78.7880506890803,4,1,0,95,0,0
213783,-78.1739197732331,4,1,0,95,0,0
213862,-77.5693489371836,4,1,0,95,0,0
213941,-66.6666666666667,4,1,0,95,0,0
215125,-100,4,1,0,75,0,0

[HitObjects]
192,128,65,5,0,0:0:0:0:
192,128,222,5,0,0:0:0:0:
320,256,380,5,8,0:0:0:0:
192,128,538,5,0,0:0:0:0:
320,256,696,5,8,0:0:0:0:
320,256,854,5,8,0:0:0:0:
320,256,1012,5,8,0:0:0:0:
192,128,1170,5,0,0:0:0:0:
320,256,1328,5,8,0:0:0:0:
192,128,1486,5,0,0:0:0:0:
320,256,1565,5,8,0:0:0:0:
192,128,1643,5,0,0:0:0:0:
192,128,1722,5,0,0:0:0:0:
320,256,1801,5,8,0:0:0:0:
192,128,1880,5,0,0:0:0:0:
320,256,1959,5,8,0:0:0:0:
192,128,2117,5,0,0:0:0:0:
320,256,2275,5,8,0:0:0:0:
192,128,2433,5,0,0:0:0:0:
320,256,2591,5,8,0:0:0:0:
320,256,2749,5,8,0:0:0:0:
320,256,2907,5,8,0:0:0:0:
192,128,3065,5,0,0:0:0:0:
320,256,3222,5,8,0:0:0:0:
192,128,3380,5,0,0:0:0:0:
192,128,3538,5,0,0:0:0:0:
320,256,3696,5,8,0:0:0:0:
192,128,3775,5,0,0:0:0:0:
320,256,3854,5,8,0:0:0:0:
192,128,3933,5,0,0:0:0:0:
320,256,4012,5,8,0:0:0:0:
320,256,4091,5,8,0:0:0:0:
192,128,4170,5,0,0:0:0:0:
192,128,4328,5,0,0:0:0:0:
320,256,4486,5,8,0:0:0:0:
192,128,4643,5,0,0:0:0:0:
320,256,4801,5,8,0:0:0:0:
320,256,4959,5,8,0:0:0:0:
320,256,5117,5,8,0:0:0:0:
192,128,5275,5,0,0:0:0:0:
192,128,5433,5,0,0:0:0:0:
192,128,5591,5,0,0:0:0:0:
320,256,5749,5,8,0:0:0:0:
192,128,5907,5,0,0:0:0:0:
192,128,5986,5,0,0:0:0:0:
320,256,6065,5,8,0:0:0:0:
192,128,6143,5,0,0:0:0:0:
320,256,6222,5,8,0:0:0:0:
192,128,6301,5,0,0:0:0:0:
320,256,6380,5,8,0:0:0:0:
320,256,6538,5,8,0:0:0:0:
192,128,6696,5,0,0:0:0:0:
192,128,6854,5,0,0:0:0:0:
320,256,7012,5,8,0:0:0:0:
192,128,7170,5,0,0:0:0:0:
320,256,7328,5,8,0:0:0:0:
192,128,7486,5,0,0:0:0:0:
192,128,7643,5,0,0:0:0:0:
320,256,7801,5,8,0:0:0:0:
192,128,7959,5,0,0:0:0:0:
320,256,8117,5,8,0:0:0:0:
320,256,8196,5,8,0:0:0:0:
320,256,8275,5,8,0:0:0:0:
192,128,8354,5,0,0:0:0:0:
320,256,8433,5,8,0:0:0:0:
192,128,8512,5,0,0:0:0:0:
320,256,8591,5,8,0:0:0:0:
192,128,8749,5,0,0:0:0:0:
320,256,8907,5,8,0:0:0:0:
192,128,9065,5,0,0:0:0:0:
192,128,9222,5,0,0:0:0:0:
320,256,9380,5,8,0:0:0:0:
192,128,9538,5,0,0:0:0:0:
320,256,9696,5,8,0:0:0:0:
320,256,9854,5,8,0:0:0:0:
192,128,10012,5,0,0:0:0:0:
320,256,10170,5,8,0:0:0:0:
192,128,10328,5,0,0:0:0:0:
320,256,10407,5,8,0:0:0:0:
320,256,10486,5,8,0:0:0:0:
192,128,10565,5,0,0:0:0:0:
320,256,10643,5,8,0:0:0:0:
192,128,10722,5,0,0:0:0:0:
320,256,10801,5,8,0:0:0:0:
192,128,10959,5,0,0:0:0:0:
192,128,11117,5,0,0:0:0:0:
320,256,11275,5,8,0:0:0:0:
192,128,11433,5,0,0:0:0:0:
320,256,11591,5,8,0:0:0:0:
192,128,11749,5,0,0:0:0:0:
320,256,11907,5,8,0:0:0:0:
320,256,12065,5,8,0:0:0:0:
320,256,12222,5,8,0:0:0:0:
192,128,12380,5,0,0:0:0:0:
320,256,12538,5,8,0:0:0:0:
192,128,12696,5,0,0:0:0:0:
256,192,12775,12,0,17433,0:0:0:0:
192,128,17749,5,4,0:0:0:0:
320,256,17907,1,8,0:0:0:0:
192,128,18065,1,0,0:0:0:0:
192,128,18143,1,0,0:0:0:0:
320,256,18222,1,8,0:0:0:0:
192,128,18301,1,0,0:0:0:0:
320,256,18380,1,8,0:0:0:0:
320,256,18459,1,8,0:0:0:0:
192,128,18538,1,0,0:0:0:0:
192,128,18617,1,0,0:0:0:0:
192,128,18696,1,0,0:0:0:0:
320,256,18775,1,8,0:0:0:0:
320,256,18854,1,8,0:0:0:0:
320,256,18933,1,8,0:0:0:0:
192,128,19012,1,4,0:0:0:0:
192,128,19328,5,0,0:0:0:0:
320,256,19407,5,8,0:0:0:0:
192,128,19486,5,0,0:0:0:0:
320,256,19643,5,8,0:0:0:0:
320,256,19696,1,8,0:0:0:0:
320,256,19749,1,8,0:0:0:0:
320,256,19801,1,8,0:0:0:0:
320,256,19854,1,8,0:0:0:0:
320,256,19907,1,8,0:0:0:0:
192,128,19959,1,0,0:0:0:0:
192,128,20117,5,0,0:0:0:0:
320,256,20196,5,8,0:0:0:0:
192,128,20275,5,4,0:0:0:0:
256,192,20354,12,8,20749,0:0:0:0:
320,256,20907,5,8,0:0:0:0:
320,256,20986,1,8,0:0:0:0:
192,128,21065,1,0,0:0:0:0:
192,128,21143,1,0,0:0:0:0:
320,256,21222,1,8,0:0:0:0:
192,128,21301,1,0,0:0:0:0:
320,256,21380,1,8,0:0:0:0:
320,256,21459,1,8,0:0:0:0:
192,128,21538,1,0,0:0:0:0:
320,256,21617,1,8,0:0:0:0:
192,128,21696,1,0,0:0:0:0:
320,256,21775,1,8,0:0:0:0:
192,128,21854,1,0,0:0:0:0:
320,256,21933,1,8,0:0:0:0:
192,128,22012,1,0,0:0:0:0:
320,256,22091,1,8,0:0:0:0:
320,256,22170,5,8,0:0:0:0:
320,256,22222,5,8,0:0:0:0:
320,256,22275,5,8,0:0:0:0:
320,256,22328,5,8,0:0:0:0:
320,256,22380,5,8,0:0:0:0:
320,256,22433,5,8,0:0:0:0:
192,128,22486,5,0,0:0:0:0:
320,256,22565,5,8,0:0:0:0:
320,256,22643,5,8,0:0:0:0:
192,128,22801,5,0,0:0:0:0:
320,256,22880,5,8,0:0:0:0:
192,128,22959,5,0,0:0:0:0:
320,256,23038,5,8,0:0:0:0:
192,128,23117,5,0,0:0:0:0:
320,256,23196,5,8,0:0:0:0:
192,128,23275,5,0,0:0:0:0:
192,128,23354,5,0,0:0:0:0:
320,256,23433,5,8,0:0:0:0:
320,256,23486,5,8,0:0:0:0:
320,256,23538,5,8,0:0:0:0:
192,128,23591,5,0,0:0:0:0:
192,128,23643,5,0,0:0:0:0:
192,128,23696,5,0,0:0:0:0:
320,256,23749,5,8,0:0:0:0:
320,256,23959,5,8,0:0:0:0:
192,128,24065,5,0,0:0:0:0:
192,128,24380,5,0,0:0:0:0:
192,128,24591,5,0,0:0:0:0:
320,256,24696,5,8,0:0:0:0:
320,256,25012,5,8,0:0:0:0:
192,128,25117,5,0,0:0:0:0:
192,128,25222,5,0,0:0:0:0:
192,128,25328,5,0,0:0:0:0:
320,256,25433,1,8,0:0:0:0:
192,128,25538,1,0,0:0:0:0:
320,256,25643,1,8,0:0:0:0:
320,256,25749,1,8,0:0:0:0:
320,256,25854,1,8,0:0:0:0:
320,256,25959,1,8,0:0:0:0:
192,128,26065,1,0,0:0:0:0:
320,256,26170,1,8,0:0:0:0:
192,128,26275,1,0,0:0:0:0:
320,256,26380,1,8,0:0:0:0:
320,256,26486,1,8,0:0:0:0:
192,128,26591,5,0,0:0:0:0:
192,128,26643,5,0,0:0:0:0:
192,128,26696,5,0,0:0:0:0:
192,128,26749,5,0,0:0:0:0:
192,128,26801,5,0,0:0:0:0:
192,128,26854,5,0,0:0:0:0:
192,128,26907,5,0,0:0:0:0:
320,256,27012,5,8,0:0:0:0:
192,128,27117,5,0,0:0:0:0:
320,256,27222,5,8,0:0:0:0:
320,256,27275,5,8,0:0:0:0:
320,256,27328,5,8,0:0:0:0:
320,256,27380,5,8,0:0:0:0:
320,256,27433,5,8,0:0:0:0:
320,256,27486,5,8,0:0:0:0:
320,256,27538,5,8,0:0:0:0:
192,128,27643,5,0,0:0:0:0:
192,128,27749,5,0,0:0:0:0:
192,128,27854,5,4,0:0:0:0:
320,256,28012,5,8,0:0:0:0:
320,256,28065,5,8,0:0:0:0:
320,256,28117,5,8,0:0:0:0:
192,128,28170,5,0,0:0:0:0:
320,256,28249,5,8,0:0:0:0:
192,128,28328,5,0,0:0:0:0:
320,256,28486,5,8,0:0:0:0:
192,128,28591,5,0,0:0:0:0:
320,256,28696,5,8,0:0:0:0:
192,128,28907,5,0,0:0:0:0:
320,256,29012,5,8,0:0:0:0:
192,128,29117,5,0,0:0:0:0:
320,256,29196,5,8,0:0:0:0:
192,128,29275,5,0,0:0:0:0:
192,128,29354,5,0,0:0:0:0:
320,256,29433,5,8,0:0:0:0:
320,256,29512,5,8,0:0:0:0:
192,128,29591,5,0,0:0:0:0:
320,256,29670,5,8,0:0:0:0:
192,128,29749,5,0,0:0:0:0:
192,128,29801,1,0,0:0:0:0:
192,128,29854,1,0,0:0:0:0:
192,128,29907,1,0,0:0:0:0:
192,128,29959,1,0,0:0:0:0:
192,128,30012,1,0,0:0:0:0:
320,256,30065,1,8,0:0:0:0:
320,256,30117,1,8,0:0:0:0:
320,256,30170,1,8,0:0:0:0:
320,256,30222,1,8,0:0:0:0:
320,256,30275,1,8,0:0:0:0:
320,256,30328,1,8,0:0:0:0:
192,128,30380,1,0,0:0:0:0:
192,128,30538,5,0,0:0:0:0:
320,256,30696,5,8,0:0:0:0:
320,256,30775,5,8,0:0:0:0:
192,128,30854,5,0,0:0:0:0:
320,256,31012,5,8,0:0:0:0:
256,192,31091,12,8,31486,0:0:0:0:
320,256,31643,5,8,0:0:0:0:
320,256,31801,5,8,0:0:0:0:
192,128,31959,5,0,0:0:0:0:
192,128,32012,5,0,0:0:0:0:
192,128,32065,5,0,0:0:0:0:
320,256,32117,5,8,0:0:0:0:
320,256,32170,5,8,0:0:0:0:
320,256,32222,5,8,0:0:0:0:
192,128,32275,5,0,0:0:0:0:
320,256,32354,1,8,0:0:0:0:
192,128,32433,1,0,0:0:0:0:
192,128,32512,1,0,0:0:0:0:
320,256,32591,1,8,0:0:0:0:
192,128,32670,1,0,0:0:0:0:
320,256,32749,1,8,0:0:0:0:
320,256,32907,5,8,0:0:0:0:
192,128,33065,5,4,0:0:0:0:
320,256,33222,5,8,0:0:0:0:
192,128,33380,5,4,0:0:0:0:
320,256,33538,5,8,0:0:0:0:
320,256,33591,5,8,0:0:0:0:
320,256,33643,5,8,0:0:0:0:
320,256,33775,5,8,0:0:0:0:
320,256,33815,5,8,0:0:0:0:
320,256,33854,5,8,0:0:0:0:
256,192,33933,12,0,34486,0:0:0:0:
192,128,34643,5,0,0:0:0:0:
192,128,34722,5,0,0:0:0:0:
192,128,34761,5,0,0:0:0:0:
320,256,34801,5,8,0:0:0:0:
320,256,35117,5,8,0:0:0:0:
320,256,35170,5,8,0:0:0:0:
320,256,35222,5,8,0:0:0:0:
192,128,35275,5,0,0:0:0:0:
192,128,35328,5,0,0:0:0:0:
192,128,35380,5,0,0:0:0:0:
192,128,35433,5,0,0:0:0:0:
192,128,37959,5,4,0:0:0:0:
256,192,38038,12,0,38433,0:0:0:0:
320,256,38591,5,8,0:0:0:0:
192,128,38670,5,0,0:0:0:0:
192,128,38749,5,0,0:0:0:0:
320,256,38828,5,8,0:0:0:0:
320,256,38907,5,8,0:0:0:0:
320,256,38986,5,8,0:0:0:0:
192,128,39065,5,0,0:0:0:0:
320,256,39143,5,8,0:0:0:0:
192,128,39222,5,0,0:0:0:0:
192,128,39275,5,0,0:0:0:0:
192,128,39328,5,0,0:0:0:0:
192,128,39380,5,0,0:0:0:0:
192,128,39538,5,0,0:0:0:0:
192,128,39696,5,0,0:0:0:0:
320,256,39775,5,8,0:0:0:0:
320,256,39854,5,8,0:0:0:0:
192,128,40012,5,0,0:0:0:0:
320,256,40170,5,8,0:0:0:0:
192,128,40328,5,0,0:0:0:0:
192,128,40486,5,4,0:0:0:0:
320,256,40801,5,8,0:0:0:0:
192,128,40959,5,0,0:0:0:0:
320,256,41117,5,12,0:0:0:0:
192,128,41433,5,0,0:0:0:0:
192,128,41591,5,0,0:0:0:0:
320,256,41749,5,8,0:0:0:0:
192,128,41907,5,0,0:0:0:0:
192,128,41986,5,0,0:0:0:0:
192,128,42065,5,0,0:0:0:0:
320,256,42143,5,8,0:0:0:0:
192,128,42222,5,0,0:0:0:0:
320,256,42380,5,8,0:0:0:0:
320,256,42433,5,8,0:0:0:0:
320,256,42486,5,8,0:0:0:0:
320,256,42538,5,8,0:0:0:0:
320,256,42617,5,8,0:0:0:0:
320,256,42696,5,8,0:0:0:0:
320,256,42775,5,8,0:0:0:0:
320,256,42854,5,8,0:0:0:0:
320,256,42933,5,8,0:0:0:0:
192,128,43012,5,4,0:0:0:0:
320,256,43170,5,8,0:0:0:0:
320,256,43328,5,8,0:0:0:0:
192,128,43486,5,0,0:0:0:0:
192,128,43565,5,0,0:0:0:0:
320,256,43643,5,8,0:0:0:0:
320,256,43749,5,8,0:0:0:0:
320,256,43854,5,8,0:0:0:0:
192,128,43959,5,0,0:0:0:0:
320,256,44065,5,8,0:0:0:0:
320,256,44170,5,8,0:0:0:0:
192,128,44275,5,0,0:0:0:0:
192,128,44591,5,0,0:0:0:0:
320,256,44670,5,8,0:0:0:0:
192,128,44749,5,0,0:0:0:0:
192,128,44828,5,0,0:0:0:0:
320,256,44907,5,8,0:0:0:0:
320,256,44959,5,8,0:0:0:0:
320,256,45012,5,8,0:0:0:0:
192,128,45065,5,0,0:0:0:0:
192,128,45143,5,0,0:0:0:0:
320,256,45222,5,8,0:0:0:0:
192,128,45538,5,0,0:0:0:0:
256,192,45617,5,8,0:0:0:0:
256,192,45696,5,0,0:0:0:0:
256,192,45775,5,0,0:0:0:0:
256,192,45854,5,8,0:0:0:0:
256,192,46065,5,0,0:0:0:0:
320,256,46170,5,8,0:0:0:0:
256,192,46249,12,0,46643,0:0:0:0:
192,128,46801,5,0,0:0:0:0:
320,256,46880,5,8,0:0:0:0:
192,128,46959,5,0,0:0:0:0:
192,128,47038,5,0,0:0:0:0:
320,256,47117,5,8,0:0:0:0:
320,256,47196,5,8,0:0:0:0:
192,128,47275,5,0,0:0:0:0:
320,256,47354,5,8,0:0:0:0:
192,128,47433,5,0,0:0:0:0:
192,128,47512,5,0,0:0:0:0:
192,128,47591,5,0,0:0:0:0:
320,256,47670,5,8,0:0:0:0:
192,128,47749,5,0,0:0:0:0:
192,128,47801,1,0,0:0:0:0:
192,128,47854,1,0,0:0:0:0:
320,256,47907,1,8,0:0:0:0:
320,256,47959,1,8,0:0:0:0:
320,256,48012,1,8,0:0:0:0:
192,128,48065,1,0,0:0:0:0:
192,128,48222,5,0,0:0:0:0:
320,256,48380,5,8,0:0:0:0:
320,256,48459,5,8,0:0:0:0:
192,128,48538,5,0,0:0:0:0:
320,256,48617,5,8,0:0:0:0:
320,256,48696,5,8,0:0:0:0:
320,256,48749,5,8,0:0:0:0:
320,256,48801,5,8,0:0:0:0:
192,128,48854,5,0,0:0:0:0:
320,256,48933,5,8,0:0:0:0:
192,128,49012,5,0,0:0:0:0:
320,256,49091,5,8,0:0:0:0:
192,128,49170,5,0,0:0:0:0:
192,128,49249,5,0,0:0:0:0:
320,256,49328,5,12,0:0:0:0:
320,256,49486,5,12,0:0:0:0:
192,128,49643,5,0,0:0:0:0:
192,128,49722,5,0,0:0:0:0:
192,128,49801,5,0,0:0:0:0:
320,256,49880,5,8,0:0:0:0:
320,256,49959,5,8,0:0:0:0:
192,128,50117,5,0,0:0:0:0:
320,256,50275,5,8,0:0:0:0:
320,256,50354,5,8,0:0:0:0:
320,256,50433,5,8,0:0:0:0:
320,256,50512,5,8,0:0:0:0:
192,128,50591,5,0,0:0:0:0:
192,128,50630,5,0,0:0:0:0:
192,128,50670,5,0,0:0:0:0:
256,192,50749,12,0,51065,0:0:0:0:
320,256,51222,5,8,0:0:0:0:
320,256,51301,5,8,0:0:0:0:
192,128,51380,5,0,0:0:0:0:
192,128,51459,5,0,0:0:0:0:
320,256,51538,5,8,0:0:0:0:
320,256,51578,5,8,0:0:0:0:
320,256,51617,5,8,0:0:0:0:
256,192,51696,12,8,52170,0:0:0:0:
192,128,52328,5,0,0:0:0:0:
192,128,52407,5,0,0:0:0:0:
192,128,52446,5,0,0:0:0:0:
320,256,52486,5,8,0:0:0:0:
320,256,52801,5,8,0:0:0:0:
320,256,52854,5,8,0:0:0:0:
320,256,52907,5,8,0:0:0:0:
192,128,52959,5,0,0:0:0:0:
192,128,53012,5,0,0:0:0:0:
192,128,53065,5,0,0:0:0:0:
192,128,53117,5,0,0:0:0:0:
320,256,55012,5,8,0:0:0:0:
320,256,55643,5,8,0:0:0:0:
320,256,57538,5,8,0:0:0:0:
320,256,58170,5,8,0:0:0:0:
320,256,61328,5,8,0:0:0:0:
320,256,61749,5,8,0:0:0:0:
320,256,61959,5,8,0:0:0:0:
320,256,65117,5,8,0:0:0:0:
320,256,65749,5,8,0:0:0:0:
320,256,67012,5,8,0:0:0:0:
320,256,68275,5,8,0:0:0:0:
320,256,69538,5,8,0:0:0:0:
320,256,69591,1,8,0:0:0:0:
320,256,69643,1,8,0:0:0:0:
320,256,69696,1,8,0:0:0:0:
320,256,69854,1,8,0:0:0:0:
320,256,69907,1,8,0:0:0:0:
320,256,69959,1,8,0:0:0:0:
192,128,70012,1,0,0:0:0:0:
192,128,70065,1,0,0:0:0:0:
192,128,70117,1,0,0:0:0:0:
320,256,70170,1,8,0:0:0:0:
320,256,70486,5,8,0:0:0:0:
320,256,70538,5,8,0:0:0:0:
320,256,70591,1,8,0:0:0:0:
320,256,70643,5,8,0:0:0:0:
320,256,70696,5,8,0:0:0:0:
320,256,70749,5,8,0:0:0:0:
192,128,70801,5,0,0:0:0:0:
320,256,72696,5,8,0:0:0:0:
192,128,73328,5,4,0:0:0:0:
320,256,73959,5,12,0:0:0:0:
192,128,74117,5,0,0:0:0:0:
192,128,74196,5,0,0:0:0:0:
320,256,74275,5,8,0:0:0:0:
192,128,74354,5,0,0:0:0:0:
320,256,74433,5,8,0:0:0:0:
320,256,74512,5,8,0:0:0:0:
192,128,74591,5,4,0:0:0:0:
320,256,75143,5,8,0:0:0:0:
320,256,75222,5,12,0:0:0:0:
320,256,75380,5,8,0:0:0:0:
192,128,75459,5,0,0:0:0:0:
192,128,75538,5,0,0:0:0:0:
320,256,75617,5,8,0:0:0:0:
320,256,75696,5,8,0:0:0:0:
320,256,75775,5,8,0:0:0:0:
192,128,75854,5,0,0:0:0:0:
192,128,75933,5,0,0:0:0:0:
320,256,76012,5,8,0:0:0:0:
192,128,76091,5,0,0:0:0:0:
192,128,76170,5,0,0:0:0:0:
320,256,76249,5,8,0:0:0:0:
192,128,76328,5,0,0:0:0:0:
192,128,76407,5,0,0:0:0:0:
320,256,76486,5,8,0:0:0:0:
320,256,76565,5,8,0:0:0:0:
192,128,76643,5,0,0:0:0:0:
192,128,76722,5,0,0:0:0:0:
320,256,76801,5,0,0:0:0:0:
320,256,76880,5,8,0:0:0:0:
320,256,76959,5,8,0:0:0:0:
192,128,77117,5,4,0:0:0:0:
320,256,77749,5,8,0:0:0:0:
320,256,77801,5,8,0:0:0:0:
320,256,77854,5,8,0:0:0:0:
192,128,77907,5,0,0:0:0:0:
192,128,77986,5,0,0:0:0:0:
320,256,78065,5,8,0:0:0:0:
320,256,78117,5,8,0:0:0:0:
320,256,78170,5,8,0:0:0:0:
192,128,78222,5,0,0:0:0:0:
192,128,78380,5,4,0:0:0:0:
192,128,78538,5,0,0:0:0:0:
320,256,78696,5,8,0:0:0:0:
320,256,79012,5,8,0:0:0:0:
192,128,79222,5,0,0:0:0:0:
192,128,79328,5,0,0:0:0:0:
320,256,79433,5,8,0:0:0:0:
192,128,79538,5,0,0:0:0:0:
192,128,79643,5,0,0:0:0:0:
320,256,79854,5,12,0:0:0:0:
320,256,80275,5,12,0:0:0:0:
192,128,80433,5,0,0:0:0:0:
320,256,80512,5,8,0:0:0:0:
320,256,80591,5,8,0:0:0:0:
192,128,80907,5,0,0:0:0:0:
192,128,80986,5,0,0:0:0:0:
320,256,81065,5,8,0:0:0:0:
192,128,81143,5,0,0:0:0:0:
192,128,81222,5,0,0:0:0:0:
320,256,81301,5,8,0:0:0:0:
192,128,81380,5,0,0:0:0:0:
320,256,81538,5,12,0:0:0:0:
192,128,81749,5,4,0:0:0:0:
192,128,82170,5,4,0:0:0:0:
256,192,82249,12,0,82643,0:0:0:0:
192,128,82801,5,0,0:0:0:0:
192,128,82880,5,0,0:0:0:0:
192,128,82959,5,0,0:0:0:0:
192,128,83038,5,0,0:0:0:0:
320,256,83117,5,8,0:0:0:0:
320,256,83170,5,8,0:0:0:0:
320,256,83222,5,8,0:0:0:0:
320,256,83275,5,8,0:0:0:0:
320,256,83328,5,8,0:0:0:0:
320,256,83380,5,8,0:0:0:0:
192,128,83433,5,0,0:0:0:0:
256,192,83512,12,0,83907,0:0:0:0:
320,256,84065,5,8,0:0:0:0:
320,256,84117,5,8,0:0:0:0:
320,256,84170,5,8,0:0:0:0:
192,128,84222,5,0,0:0:0:0:
320,256,84301,5,8,0:0:0:0:
192,128,84380,5,0,0:0:0:0:
320,256,84459,5,8,0:0:0:0:
192,128,84538,5,0,0:0:0:0:
320,256,84617,5,8,0:0:0:0:
320,256,84696,5,8,0:0:0:0:
320,256,84854,5,8,0:0:0:0:
192,128,85012,5,0,0:0:0:0:
320,256,85117,5,8,0:0:0:0:
192,128,85222,5,0,0:0:0:0:
320,256,85328,5,8,0:0:0:0:
320,256,85486,5,8,0:0:0:0:
192,128,85565,5,0,0:0:0:0:
192,128,85643,5,0,0:0:0:0:
320,256,85722,5,8,0:0:0:0:
192,128,85801,5,0,0:0:0:0:
192,128,85959,5,4,0:0:0:0:
256,192,86038,12,0,86433,0:0:0:0:
320,256,86591,5,8,0:0:0:0:
320,256,86670,5,8,0:0:0:0:
192,128,86749,5,0,0:0:0:0:
192,128,86907,5,0,0:0:0:0:
192,128,86986,5,0,0:0:0:0:
320,256,87065,5,8,0:0:0:0:
192,128,87222,5,0,0:0:0:0:
192,128,87380,5,0,0:0:0:0:
320,256,87538,5,8,0:0:0:0:
320,256,87591,5,8,0:0:0:0:
320,256,87643,5,8,0:0:0:0:
192,128,87696,5,0,0:0:0:0:
192,128,87854,5,0,0:0:0:0:
192,128,88012,5,0,0:0:0:0:
320,256,88170,5,8,0:0:0:0:
320,256,88209,5,8,0:0:0:0:
320,256,88249,5,8,0:0:0:0:
192,128,88486,5,0,0:0:0:0:
192,128,88696,5,0,0:0:0:0:
192,128,88907,5,0,0:0:0:0:
320,256,89117,5,8,0:0:0:0:
320,256,89328,5,8,0:0:0:0:
320,256,89538,5,8,0:0:0:0:
192,128,89749,5,0,0:0:0:0:
192,128,89959,5,0,0:0:0:0:
320,256,90170,5,8,0:0:0:0:
320,256,90380,5,8,0:0:0:0:
320,256,90591,5,8,0:0:0:0:
320,256,90801,5,8,0:0:0:0:
192,128,91012,5,0,0:0:0:0:
192,128,91222,5,0,0:0:0:0:
320,256,91433,5,8,0:0:0:0:
192,128,91643,5,0,0:0:0:0:
320,256,91854,5,8,0:0:0:0:
320,256,92065,5,8,0:0:0:0:
192,128,92275,5,0,0:0:0:0:
192,128,92486,5,0,0:0:0:0:
192,128,92696,5,0,0:0:0:0:
320,256,92907,5,8,0:0:0:0:
320,256,93117,5,8,0:0:0:0:
320,256,93328,5,8,0:0:0:0:
192,128,93538,5,0,0:0:0:0:
192,128,93749,5,0,0:0:0:0:
320,256,93959,5,8,0:0:0:0:
320,256,94170,5,8,0:0:0:0:
320,256,94380,5,8,0:0:0:0:
320,256,94591,5,8,0:0:0:0:
192,128,94801,5,0,0:0:0:0:
192,128,95012,5,0,0:0:0:0:
192,128,95222,5,0,0:0:0:0:
320,256,95433,5,8,0:0:0:0:
320,256,95643,5,8,0:0:0:0:
192,128,95854,5,0,0:0:0:0:
320,256,96065,5,8,0:0:0:0:
192,128,96275,5,0,0:0:0:0:
192,128,96486,5,0,0:0:0:0:
320,256,96696,5,8,0:0:0:0:
320,256,96907,5,8,0:0:0:0:
192,128,97117,5,0,0:0:0:0:
320,256,97328,5,8,0:0:0:0:
192,128,97538,5,0,0:0:0:0:
192,128,97749,5,0,0:0:0:0:
320,256,97959,5,8,0:0:0:0:
320,256,98170,5,8,0:0:0:0:
320,256,98380,5,8,0:0:0:0:
192,128,98591,5,0,0:0:0:0:
192,128,98801,5,0,0:0:0:0:
192,128,99012,5,0,0:0:0:0:
320,256,99222,5,8,0:0:0:0:
320,256,99433,5,8,0:0:0:0:
320,256,99643,5,8,0:0:0:0:
192,128,99854,5,4,0:0:0:0:
192,128,100065,5,0,0:0:0:0:
192,128,100275,5,0,0:0:0:0:
320,256,100486,5,8,0:0:0:0:
320,256,100591,5,8,0:0:0:0:
320,256,100696,5,8,0:0:0:0:
320,256,100801,5,8,0:0:0:0:
320,256,100907,5,8,0:0:0:0:
320,256,101012,5,8,0:0:0:0:
192,128,101117,5,0,0:0:0:0:
192,128,101328,5,0,0:0:0:0:
192,128,101538,5,0,0:0:0:0:
320,256,101749,5,8,0:0:0:0:
192,128,101854,5,0,0:0:0:0:
320,256,101959,5,8,0:0:0:0:
320,256,102065,5,8,0:0:0:0:
320,256,102170,5,8,0:0:0:0:
320,256,102275,5,8,0:0:0:0:
192,128,102380,5,0,0:0:0:0:
320,256,102696,5,8,0:0:0:0:
192,128,102801,5,0,0:0:0:0:
320,256,102907,5,8,0:0:0:0:
320,256,103012,5,8,0:0:0:0:
192,128,103117,5,0,0:0:0:0:
320,256,103222,5,8,0:0:0:0:
192,128,103328,5,0,0:0:0:0:
320,256,103433,5,8,0:0:0:0:
320,256,103538,5,8,0:0:0:0:
192,128,103643,5,0,0:0:0:0:
192,128,103959,5,0,0:0:0:0:
192,128,104065,5,0,0:0:0:0:
192,128,104170,5,0,0:0:0:0:
320,256,104275,5,8,0:0:0:0:
320,256,104328,5,8,0:0:0:0:
320,256,104380,5,8,0:0:0:0:
320,256,104433,5,8,0:0:0:0:
320,256,104486,5,8,0:0:0:0:
192,128,104591,5,0,0:0:0:0:
320,256,104670,5,8,0:0:0:0:
320,256,104749,5,8,0:0:0:0:
320,256,104828,5,8,0:0:0:0:
192,128,104907,5,0,0:0:0:0:
192,128,105065,5,0,0:0:0:0:
320,256,105222,5,8,0:0:0:0:
192,128,105328,5,0,0:0:0:0:
192,128,105433,5,0,0:0:0:0:
320,256,105538,5,8,0:0:0:0:
320,256,105643,5,8,0:0:0:0:
320,256,105749,5,8,0:0:0:0:
192,128,105854,5,0,0:0:0:0:
320,256,105959,5,8,0:0:0:0:
320,256,106065,5,8,0:0:0:0:
192,128,106170,5,4,0:0:0:0:
192,128,106486,5,0,0:0:0:0:
320,256,106801,5,8,0:0:0:0:
192,128,107117,5,0,0:0:0:0:
192,128,107433,5,0,0:0:0:0:
192,128,107643,1,0,0:0:0:0:
192,128,107854,1,0,0:0:0:0:
192,128,108065,1,0,0:0:0:0:
320,256,108275,1,8,0:0:0:0:
192,128,108486,1,0,0:0:0:0:
192,128,108696,1,0,0:0:0:0:
192,128,109012,5,0,0:0:0:0:
320,256,109091,5,8,0:0:0:0:
192,128,109170,5,0,0:0:0:0:
192,128,109249,5,0,0:0:0:0:
320,256,109328,5,8,0:0:0:0:
320,256,109380,1,8,0:0:0:0:
320,256,109433,1,8,0:0:0:0:
320,256,109486,1,8,0:0:0:0:
320,256,109538,1,8,0:0:0:0:
320,256,109591,1,8,0:0:0:0:
192,128,109643,1,0,0:0:0:0:
192,128,109959,5,0,0:0:0:0:
192,128,110275,5,0,0:0:0:0:
192,128,110354,5,0,0:0:0:0:
192,128,110433,5,0,0:0:0:0:
192,128,110512,5,0,0:0:0:0:
320,256,110591,5,8,0:0:0:0:
320,256,110643,5,8,0:0:0:0:
320,256,110696,5,8,0:0:0:0:
320,256,110749,5,8,0:0:0:0:
320,256,110828,1,8,0:0:0:0:
320,256,110907,1,8,0:0:0:0:
320,256,110986,1,8,0:0:0:0:
320,256,111065,1,8,0:0:0:0:
320,256,111143,1,8,0:0:0:0:
192,128,111222,1,0,0:0:0:0:
320,256,111301,5,8,0:0:0:0:
192,128,111380,1,0,0:0:0:0:
192,128,111459,1,0,0:0:0:0:
320,256,111538,1,8,0:0:0:0:
192,128,111617,1,0,0:0:0:0:
320,256,111696,1,8,0:0:0:0:
320,256,111854,5,8,0:0:0:0:
192,128,112012,5,0,0:0:0:0:
192,128,112170,5,0,0:0:0:0:
192,128,112249,5,0,0:0:0:0:
320,256,112328,5,8,0:0:0:0:
192,128,112486,5,0,0:0:0:0:
192,128,112643,5,0,0:0:0:0:
320,256,112801,5,8,0:0:0:0:
320,256,112880,5,8,0:0:0:0:
192,128,112959,5,0,0:0:0:0:
320,256,113038,5,8,0:0:0:0:
192,128,113117,5,0,0:0:0:0:
192,128,113170,1,0,0:0:0:0:
192,128,113222,1,0,0:0:0:0:
192,128,113275,1,0,0:0:0:0:
192,128,113328,1,0,0:0:0:0:
192,128,113380,1,0,0:0:0:0:
320,256,113433,1,8,0:0:0:0:
320,256,113512,5,8,0:0:0:0:
320,256,113591,5,8,0:0:0:0:
320,256,113670,5,8,0:0:0:0:
320,256,113749,5,8,0:0:0:0:
320,256,113907,5,8,0:0:0:0:
192,128,114065,5,0,0:0:0:0:
192,128,114117,1,0,0:0:0:0:
192,128,114170,1,0,0:0:0:0:
320,256,114222,1,8,0:0:0:0:
320,256,114275,1,8,0:0:0:0:
320,256,114328,1,8,0:0:0:0:
192,128,114380,1,0,0:0:0:0:
256,192,114459,5,8,0:0:0:0:
256,192,114538,5,0,0:0:0:0:
256,192,114617,5,0,0:0:0:0:
256,192,114696,5,8,0:0:0:0:
256,192,114775,5,0,0:0:0:0:
256,192,114854,5,8,0:0:0:0:
256,192,114933,5,8,0:0:0:0:
256,192,115012,5,0,0:0:0:0:
256,192,115091,1,8,0:0:0:0:
256,192,115170,1,0,0:0:0:0:
256,192,115249,1,0,0:0:0:0:
256,192,115328,1,8,0:0:0:0:
256,192,115407,1,0,0:0:0:0:
256,192,115486,1,0,0:0:0:0:
256,192,115565,1,0,0:0:0:0:
256,192,115643,1,8,0:0:0:0:
256,192,115801,5,0,0:0:0:0:
256,192,115959,5,0,0:0:0:0:
256,192,116117,5,8,0:0:0:0:
256,192,116275,5,8,0:0:0:0:
256,192,116315,5,8,0:0:0:0:
256,192,116354,5,8,0:0:0:0:
256,192,116433,5,0,0:0:0:0:
256,192,116591,5,0,0:0:0:0:
256,192,116749,5,0,0:0:0:0:
256,192,116828,5,8,0:0:0:0:
256,192,116867,5,8,0:0:0:0:
256,192,116907,5,8,0:0:0:0:
256,192,117065,5,0,0:0:0:0:
256,192,117222,5,8,0:0:0:0:
256,192,117380,5,0,0:0:0:0:
256,192,117433,5,0,0:0:0:0:
256,192,117486,5,0,0:0:0:0:
256,192,117538,5,8,0:0:0:0:
256,192,117617,1,8,0:0:0:0:
256,192,117696,1,0,0:0:0:0:
256,192,117775,1,0,0:0:0:0:
256,192,117854,1,8,0:0:0:0:
256,192,117933,1,8,0:0:0:0:
256,192,118012,1,0,0:0:0:0:
256,192,118091,1,8,0:0:0:0:
256,192,118170,1,0,0:0:0:0:
256,192,118249,1,0,0:0:0:0:
256,192,118328,1,8,0:0:0:0:
256,192,118407,1,8,0:0:0:0:
256,192,118486,5,0,0:0:0:0:
256,192,118538,5,0,0:0:0:0:
256,192,118591,5,0,0:0:0:0:
256,192,118643,5,8,0:0:0:0:
256,192,118696,5,8,0:0:0:0:
256,192,118749,5,8,0:0:0:0:
256,192,118801,5,0,0:0:0:0:
256,192,119117,5,0,0:0:0:0:
256,192,119433,5,8,0:0:0:0:
256,192,119591,5,0,0:0:0:0:
256,192,119670,1,8,0:0:0:0:
256,192,119749,1,0,0:0:0:0:
256,192,119828,1,0,0:0:0:0:
256,192,119907,1,0,0:0:0:0:
256,192,119986,1,0,0:0:0:0:
256,192,120065,1,8,0:0:0:0:
256,192,120222,5,8,0:0:0:0:
256,192,120380,5,0,0:0:0:0:
256,192,120433,5,8,0:0:0:0:
256,192,120486,5,8,0:0:0:0:
256,192,120538,5,0,0:0:0:0:
256,192,120591,5,0,0:0:0:0:
256,192,120643,5,0,0:0:0:0:
256,192,120696,5,8,0:0:0:0:
256,192,120854,5,8,0:0:0:0:
256,192,120933,1,0,0:0:0:0:
256,192,121012,1,0,0:0:0:0:
256,192,121091,1,8,0:0:0:0:
256,192,121170,1,0,0:0:0:0:
256,192,121249,1,0,0:0:0:0:
256,192,121328,1,8,0:0:0:0:
256,192,121486,5,0,0:0:0:0:
256,192,121565,1,0,0:0:0:0:
256,192,121643,1,8,0:0:0:0:
256,192,121801,1,0,0:0:0:0:
256,192,121880,1,0,0:0:0:0:
256,192,121959,1,8,0:0:0:0:
256,192,122117,1,0,0:0:0:0:
256,192,122170,1,0,0:0:0:0:
256,192,122222,1,0,0:0:0:0:
256,192,122275,1,8,0:0:0:0:
256,192,122433,1,0,0:0:0:0:
256,192,122486,1,0,0:0:0:0:
256,192,122538,1,0,0:0:0:0:
256,192,122591,1,8,0:0:0:0:
256,192,122749,5,0,0:0:0:0:
256,192,122907,5,0,0:0:0:0:
256,192,123065,5,0,0:0:0:0:
256,192,123143,5,8,0:0:0:0:
256,192,123183,5,8,0:0:0:0:
256,192,123222,5,8,0:0:0:0:
256,192,123380,5,0,0:0:0:0:
256,192,123538,5,8,0:0:0:0:
256,192,123696,5,0,0:0:0:0:
256,192,123749,5,8,0:0:0:0:
256,192,123801,5,8,0:0:0:0:
256,192,123854,5,0,0:0:0:0:
256,192,124170,5,0,0:0:0:0:
256,192,124486,5,8,0:0:0:0:
256,192,124801,5,0,0:0:0:0:
256,192,125117,5,0,0:0:0:0:
256,192,125275,5,0,0:0:0:0:
256,192,125354,5,8,0:0:0:0:
256,192,125433,5,8,0:0:0:0:
256,192,125512,5,8,0:0:0:0:
256,192,125591,5,0,0:0:0:0:
256,192,125749,5,12,0:0:0:0:
256,192,125828,12,0,126222,0:0:0:0:
256,192,126380,5,0,0:0:0:0:
256,192,126696,5,0,0:0:0:0:
256,192,126775,5,8,0:0:0:0:
256,192,126854,5,0,0:0:0:0:
256,192,126933,5,0,0:0:0:0:
256,192,127012,5,8,0:0:0:0:
256,192,127170,5,8,0:0:0:0:
256,192,127222,5,8,0:0:0:0:
256,192,127275,5,8,0:0:0:0:
256,192,127328,5,0,0:0:0:0:
256,192,127643,5,0,0:0:0:0:
256,192,127801,5,0,0:0:0:0:
256,192,127880,5,8,0:0:0:0:
256,192,127959,5,0,0:0:0:0:
256,192,128038,5,8,0:0:0:0:
256,192,128117,5,0,0:0:0:0:
256,192,128275,5,8,0:0:0:0:
256,192,128328,5,8,0:0:0:0:
256,192,128380,5,8,0:0:0:0:
256,192,128433,5,8,0:0:0:0:
256,192,128512,5,8,0:0:0:0:
256,192,128591,5,8,0:0:0:0:
256,192,128670,5,8,0:0:0:0:
256,192,128749,5,8,0:0:0:0:
256,192,128828,5,8,0:0:0:0:
256,192,128907,5,0,0:0:0:0:
256,192,128986,1,8,0:0:0:0:
256,192,129065,1,0,0:0:0:0:
256,192,129143,1,0,0:0:0:0:
256,192,129222,1,8,0:0:0:0:
256,192,129301,1,8,0:0:0:0:
256,192,129380,1,0,0:0:0:0:
256,192,129538,5,8,0:0:0:0:
256,192,130012,5,0,0:0:0:0:
256,192,130065,5,8,0:0:0:0:
256,192,130117,5,8,0:0:0:0:
256,192,130170,5,0,0:0:0:0:
256,192,130328,5,0,0:0:0:0:
256,192,130486,5,8,0:0:0:0:
256,192,130565,5,8,0:0:0:0:
256,192,130643,5,0,0:0:0:0:
256,192,130722,5,8,0:0:0:0:
256,192,130801,5,0,0:0:0:0:
256,192,130959,5,8,0:0:0:0:
256,192,131196,5,0,0:0:0:0:
256,192,131433,5,8,0:0:0:0:
256,192,131512,5,8,0:0:0:0:
256,192,131591,5,8,0:0:0:0:
256,192,131670,5,8,0:0:0:0:
256,192,131749,5,0,0:0:0:0:
256,192,131801,1,0,0:0:0:0:
256,192,131854,1,0,0:0:0:0:
256,192,131907,1,0,0:0:0:0:
256,192,131959,1,8,0:0:0:0:
256,192,132012,1,8,0:0:0:0:
256,192,132065,1,0,0:0:0:0:
256,192,132275,5,0,0:0:0:0:
256,192,132486,5,8,0:0:0:0:
256,192,132696,5,0,0:0:0:0:
256,192,132775,5,8,0:0:0:0:
256,192,132854,5,0,0:0:0:0:
256,192,132933,5,8,0:0:0:0:
256,192,133012,5,8,0:0:0:0:
256,192,133091,5,0,0:0:0:0:
256,192,133170,5,8,0:0:0:0:
256,192,133249,5,0,0:0:0:0:
256,192,133328,5,12,0:0:0:0:
256,192,133407,12,0,133801,0:0:0:0:
256,192,133959,5,12,0:0:0:0:
256,192,134512,5,8,0:0:0:0:
256,192,134551,5,8,0:0:0:0:
256,192,134591,5,8,0:0:0:0:
256,192,134907,5,8,0:0:0:0:
256,192,135065,5,0,0:0:0:0:
256,192,135117,5,0,0:0:0:0:
256,192,135170,5,0,0:0:0:0:
256,192,135222,5,0,0:0:0:0:
256,192,135301,1,8,0:0:0:0:
256,192,135380,1,0,0:0:0:0:
256,192,135459,1,0,0:0:0:0:
256,192,135538,1,8,0:0:0:0:
256,192,135617,1,8,0:0:0:0:
256,192,135696,1,0,0:0:0:0:
256,192,135775,1,8,0:0:0:0:
256,192,135854,1,8,0:0:0:0:
256,192,135933,1,0,0:0:0:0:
256,192,136012,1,0,0:0:0:0:
256,192,136091,1,8,0:0:0:0:
256,192,136170,1,0,0:0:0:0:
256,192,136249,1,8,0:0:0:0:
256,192,136328,1,8,0:0:0:0:
256,192,136407,1,8,0:0:0:0:
256,192,136486,1,0,0:0:0:0:
256,192,136801,5,0,0:0:0:0:
256,192,137117,5,8,0:0:0:0:
256,192,137275,5,8,0:0:0:0:
256,192,137354,1,8,0:0:0:0:
256,192,137433,1,0,0:0:0:0:
256,192,137512,1,8,0:0:0:0:
256,192,137591,1,0,0:0:0:0:
256,192,137670,1,0,0:0:0:0:
256,192,137749,1,8,0:0:0:0:
256,192,137907,5,8,0:0:0:0:
256,192,138065,5,0,0:0:0:0:
256,192,138117,5,0,0:0:0:0:
256,192,138170,5,0,0:0:0:0:
256,192,138222,5,8,0:0:0:0:
256,192,138275,5,0,0:0:0:0:
256,192,138328,5,0,0:0:0:0:
256,192,138380,5,8,0:0:0:0:
256,192,138538,5,8,0:0:0:0:
256,192,138617,5,0,0:0:0:0:
256,192,138696,5,8,0:0:0:0:
256,192,138775,5,8,0:0:0:0:
256,192,138854,5,0,0:0:0:0:
256,192,138933,5,0,0:0:0:0:
256,192,139012,5,8,0:0:0:0:
256,192,139170,5,0,0:0:0:0:
256,192,139249,1,0,0:0:0:0:
256,192,139328,1,8,0:0:0:0:
256,192,139486,1,0,0:0:0:0:
256,192,139565,1,0,0:0:0:0:
256,192,139643,1,8,0:0:0:0:
256,192,139801,1,0,0:0:0:0:
256,192,139854,1,0,0:0:0:0:
256,192,139907,1,0,0:0:0:0:
256,192,139959,1,8,0:0:0:0:
256,192,140117,1,4,0:0:0:0:
256,192,140275,5,8,0:0:0:0:
256,192,140354,5,0,0:0:0:0:
256,192,140433,5,8,0:0:0:0:
256,192,140486,5,8,0:0:0:0:
256,192,140538,5,8,0:0:0:0:
256,192,140591,5,0,0:0:0:0:
256,192,140749,5,0,0:0:0:0:
256,192,140907,5,8,0:0:0:0:
256,192,140959,5,8,0:0:0:0:
256,192,141012,5,8,0:0:0:0:
256,192,141065,5,8,0:0:0:0:
256,192,141143,5,8,0:0:0:0:
256,192,141222,5,0,0:0:0:0:
256,192,141380,5,0,0:0:0:0:
256,192,141433,5,8,0:0:0:0:
256,192,141486,5,8,0:0:0:0:
256,192,141538,5,0,0:0:0:0:
256,192,142801,5,8,0:0:0:0:
256,192,142841,5,8,0:0:0:0:
256,192,144065,5,8,0:0:0:0:
256,192,144104,5,8,0:0:0:0:
256,192,145328,5,8,0:0:0:0:
256,192,145367,5,8,0:0:0:0:
256,192,146038,5,8,0:0:0:0:
256,192,146591,5,4,0:0:0:0:
256,192,146907,5,4,0:0:0:0:
256,192,147222,5,4,0:0:0:0:
256,192,147538,5,4,0:0:0:0:
256,192,147854,5,4,0:0:0:0:
256,192,148065,5,4,0:0:0:0:
256,192,148275,5,4,0:0:0:0:
256,192,148486,5,12,0:0:0:0:
256,192,148696,5,12,0:0:0:0:
256,192,148907,5,12,0:0:0:0:
256,192,149117,5,4,0:0:0:0:
256,192,150406,5,0,0:0:0:0:
256,192,151643,5,8,0:0:0:0:
256,192,151682,5,8,0:0:0:0:
256,192,152275,5,0,0:0:0:0:
256,192,152933,5,8,0:0:0:0:
256,192,153038,5,0,0:0:0:0:
256,192,153143,5,8,0:0:0:0:
256,192,153563,5,0,0:0:0:0:
256,192,154170,5,0,0:0:0:0:
256,192,154247,5,0,0:0:0:0:
256,192,154326,5,0,0:0:0:0:
256,192,154405,5,8,0:0:0:0:
256,192,155433,5,0,0:0:0:0:
256,192,155512,5,0,0:0:0:0:
256,192,155591,5,8,0:0:0:0:
256,192,155670,5,8,0:0:0:0:
256,192,156747,5,0,0:0:0:0:
256,192,156799,5,8,0:0:0:0:
256,192,156852,5,0,0:0:0:0:
256,192,158010,5,0,0:0:0:0:
256,192,158062,5,8,0:0:0:0:
256,192,158115,5,8,0:0:0:0:
256,192,158168,5,0,0:0:0:0:
256,192,159222,5,8,0:0:0:0:
256,192,159433,5,0,0:0:0:0:
256,192,159643,5,0,0:0:0:0:
256,192,159854,5,8,0:0:0:0:
256,192,160065,5,8,0:0:0:0:
256,192,160275,5,0,0:0:0:0:
256,192,160486,5,0,0:0:0:0:
256,192,160643,5,0,0:0:0:0:
256,192,160722,5,8,0:0:0:0:
256,192,160801,5,0,0:0:0:0:
256,192,160880,5,0,0:0:0:0:
256,192,160959,5,0,0:0:0:0:
256,192,161038,5,0,0:0:0:0:
256,192,161117,5,8,0:0:0:0:
256,192,161196,12,0,161591,0:0:0:0:
256,192,161749,5,0,0:0:0:0:
256,192,162065,5,0,0:0:0:0:
256,192,162222,5,8,0:0:0:0:
256,192,162380,5,8,0:0:0:0:
256,192,162538,5,0,0:0:0:0:
256,192,162696,5,0,0:0:0:0:
256,192,162854,5,8,0:0:0:0:
256,192,162933,5,8,0:0:0:0:
256,192,163012,5,0,0:0:0:0:
256,192,163091,5,8,0:0:0:0:
256,192,163170,5,0,0:0:0:0:
256,192,163249,5,0,0:0:0:0:
256,192,163328,5,8,0:0:0:0:
256,192,163486,5,0,0:0:0:0:
256,192,163643,5,8,0:0:0:0:
256,192,163801,5,0,0:0:0:0:
256,192,163959,5,0,0:0:0:0:
256,192,164117,5,8,0:0:0:0:
256,192,164275,5,0,0:0:0:0:
256,192,164486,5,0,0:0:0:0:
256,192,164696,5,0,0:0:0:0:
256,192,164907,5,8,0:0:0:0:
256,192,165117,5,8,0:0:0:0:
256,192,165222,5,8,0:0:0:0:
256,192,165301,5,8,0:0:0:0:
256,192,165380,5,0,0:0:0:0:
256,192,165459,5,8,0:0:0:0:
256,192,165538,5,0,0:0:0:0:
256,192,165749,5,0,0:0:0:0:
256,192,165959,5,8,0:0:0:0:
256,192,166170,5,8,0:0:0:0:
256,192,166380,5,8,0:0:0:0:
256,192,166591,5,0,0:0:0:0:
256,192,166696,5,0,0:0:0:0:
256,192,166801,5,8,0:0:0:0:
256,192,166959,5,8,0:0:0:0:
256,192,167117,5,0,0:0:0:0:
256,192,167275,5,8,0:0:0:0:
256,192,167354,5,8,0:0:0:0:
256,192,167433,5,0,0:0:0:0:
256,192,167512,5,8,0:0:0:0:
256,192,167591,5,0,0:0:0:0:
256,192,167670,5,0,0:0:0:0:
256,192,167749,5,0,0:0:0:0:
256,192,167907,5,0,0:0:0:0:
256,192,168065,5,8,0:0:0:0:
256,192,168222,5,0,0:0:0:0:
256,192,168380,5,0,0:0:0:0:
256,192,168538,5,8,0:0:0:0:
256,192,168696,5,8,0:0:0:0:
256,192,168854,5,0,0:0:0:0:
256,192,169012,5,0,0:0:0:0:
256,192,169170,5,0,0:0:0:0:
256,192,169328,5,8,0:0:0:0:
256,192,169486,5,0,0:0:0:0:
256,192,169565,5,8,0:0:0:0:
256,192,169643,5,0,0:0:0:0:
256,192,169722,5,0,0:0:0:0:
256,192,169801,5,8,0:0:0:0:
256,192,169880,5,8,0:0:0:0:
256,192,169959,5,8,0:0:0:0:
256,192,170117,5,8,0:0:0:0:
256,192,170275,5,0,0:0:0:0:
256,192,170433,5,8,0:0:0:0:
256,192,170591,5,0,0:0:0:0:
256,192,170749,5,0,0:0:0:0:
256,192,170828,5,0,0:0:0:0:
256,192,170907,5,0,0:0:0:0:
256,192,171065,5,8,0:0:0:0:
256,192,171222,5,8,0:0:0:0:
256,192,171380,5,0,0:0:0:0:
256,192,171538,5,8,0:0:0:0:
256,192,171696,5,8,0:0:0:0:
256,192,171854,5,0,0:0:0:0:
256,192,171933,5,0,0:0:0:0:
256,192,172012,5,8,0:0:0:0:
256,192,173169,5,0,0:0:0:0:
256,192,173221,5,8,0:0:0:0:
256,192,173274,5,8,0:0:0:0:
256,192,173326,5,0,0:0:0:0:
256,192,174379,5,0,0:0:0:0:
256,192,174693,5,0,0:0:0:0:
256,192,174851,5,0,0:0:0:0:
256,192,175011,5,8,0:0:0:0:
256,192,175169,5,0,0:0:0:0:
256,192,175327,5,0,0:0:0:0:
256,192,175406,5,0,0:0:0:0:
256,192,175485,5,8,0:0:0:0:
256,192,175564,5,0,0:0:0:0:
256,192,175642,5,0,0:0:0:0:
256,192,175801,5,0,0:0:0:0:
256,192,175957,5,8,0:0:0:0:
256,192,176036,5,0,0:0:0:0:
256,192,176115,5,0,0:0:0:0:
256,192,176168,5,0,0:0:0:0:
256,192,176220,5,0,0:0:0:0:
256,192,176273,5,8,0:0:0:0:
256,192,176352,12,0,178168,0:0:0:0:
256,192,178494,5,0,0:0:0:0:
256,192,178651,1,0,0:0:0:0:
256,192,178809,1,8,0:0:0:0:
256,192,178967,1,8,0:0:0:0:
256,192,179125,1,0,0:0:0:0:
256,192,179204,1,8,0:0:0:0:
256,192,179283,1,0,0:0:0:0:
256,192,179362,1,0,0:0:0:0:
256,192,179441,1,8,0:0:0:0:
256,192,179520,1,0,0:0:0:0:
256,192,179599,1,8,0:0:0:0:
256,192,179678,1,8,0:0:0:0:
256,192,179757,1,4,0:0:0:0:
256,192,180072,5,8,0:0:0:0:
256,192,180230,5,0,0:0:0:0:
256,192,180388,5,8,0:0:0:0:
256,192,180704,5,8,0:0:0:0:
256,192,181020,5,0,0:0:0:0:
256,192,181178,5,0,0:0:0:0:
256,192,181336,5,8,0:0:0:0:
256,192,181494,5,0,0:0:0:0:
256,192,181651,5,8,0:0:0:0:
256,192,181967,5,8,0:0:0:0:
256,192,182283,5,0,0:0:0:0:
256,192,182441,5,8,0:0:0:0:
256,192,182599,5,0,0:0:0:0:
256,192,182757,5,0,0:0:0:0:
256,192,182915,5,8,0:0:0:0:
256,192,183072,5,0,0:0:0:0:
256,192,183230,5,8,0:0:0:0:
256,192,183546,5,8,0:0:0:0:
256,192,183862,5,0,0:0:0:0:
256,192,184020,5,8,0:0:0:0:
256,192,184178,5,0,0:0:0:0:
256,192,184494,5,8,0:0:0:0:
256,192,184809,5,0,0:0:0:0:
256,192,185125,5,0,0:0:0:0:
256,192,185283,5,8,0:0:0:0:
256,192,185441,5,8,0:0:0:0:
256,192,185757,5,8,0:0:0:0:
256,192,185915,5,8,0:0:0:0:
256,192,186072,5,0,0:0:0:0:
256,192,186388,5,0,0:0:0:0:
256,192,186546,5,0,0:0:0:0:
256,192,186704,5,8,0:0:0:0:
256,192,186862,1,0,0:0:0:0:
256,192,187020,5,8,0:0:0:0:
256,192,187336,5,8,0:0:0:0:
256,192,187494,5,0,0:0:0:0:
256,192,187651,5,0,0:0:0:0:
256,192,187809,5,8,0:0:0:0:
256,192,187967,5,8,0:0:0:0:
256,192,188283,5,8,0:0:0:0:
256,192,188599,5,0,0:0:0:0:
256,192,188757,5,0,0:0:0:0:
256,192,188915,5,8,0:0:0:0:
256,192,189072,5,0,0:0:0:0:
256,192,189230,5,8,0:0:0:0:
256,192,189546,5,8,0:0:0:0:
256,192,189704,5,0,0:0:0:0:
256,192,189862,5,0,0:0:0:0:
256,192,190178,5,8,0:0:0:0:
256,192,190336,5,0,0:0:0:0:
256,192,190494,5,8,0:0:0:0:
256,192,190651,5,0,0:0:0:0:
256,192,190809,5,8,0:0:0:0:
256,192,191125,5,8,0:0:0:0:
256,192,191441,5,0,0:0:0:0:
256,192,191599,5,0,0:0:0:0:
256,192,191757,5,8,0:0:0:0:
256,192,191915,5,0,0:0:0:0:
256,192,192072,5,8,0:0:0:0:
256,192,192388,5,0,0:0:0:0:
256,192,192704,5,0,0:0:0:0:
256,192,192862,5,0,0:0:0:0:
256,192,193020,5,8,0:0:0:0:
256,192,193178,5,0,0:0:0:0:
256,192,193336,5,8,0:0:0:0:
256,192,193651,5,0,0:0:0:0:
256,192,193967,5,0,0:0:0:0:
256,192,194125,5,0,0:0:0:0:
256,192,194283,5,8,0:0:0:0:
256,192,194599,5,8,0:0:0:0:
256,192,194757,5,8,0:0:0:0:
256,192,194915,5,0,0:0:0:0:
256,192,195230,5,0,0:0:0:0:
256,192,195388,5,8,0:0:0:0:
256,192,195546,5,0,0:0:0:0:
256,192,195862,5,8,0:0:0:0:
256,192,196178,5,0,0:0:0:0:
256,192,196283,5,8,0:0:0:0:
256,192,196388,5,0,0:0:0:0:
256,192,196494,5,8,0:0:0:0:
256,192,196599,5,0,0:0:0:0:
256,192,196704,5,8,0:0:0:0:
256,192,196809,5,8,0:0:0:0:
256,192,196888,12,0,197283,0:0:0:0:
256,192,197441,5,0,0:0:0:0:
256,192,197599,5,8,0:0:0:0:
256,192,197757,5,0,0:0:0:0:
256,192,197915,5,8,0:0:0:0:
256,192,198073,5,0,0:0:0:0:
256,192,198230,5,8,0:0:0:0:
256,192,198388,5,0,0:0:0:0:
256,192,198546,5,8,0:0:0:0:
256,192,198704,5,8,0:0:0:0:
256,192,198783,1,0,0:0:0:0:
256,192,198862,1,8,0:0:0:0:
256,192,198941,1,0,0:0:0:0:
256,192,199020,1,8,0:0:0:0:
256,192,199099,1,0,0:0:0:0:
256,192,199178,1,8,0:0:0:0:
256,192,199257,1,0,0:0:0:0:
256,192,199336,1,8,0:0:0:0:
256,192,199415,1,8,0:0:0:0:
256,192,199494,1,0,0:0:0:0:
256,192,199572,1,8,0:0:0:0:
256,192,199651,1,8,0:0:0:0:
256,192,199730,1,0,0:0:0:0:
256,192,199809,5,8,0:0:0:0:
256,192,199862,5,0,0:0:0:0:
256,192,199915,5,0,0:0:0:0:
256,192,199967,5,8,0:0:0:0:
256,192,200046,5,8,0:0:0:0:
256,192,200125,5,0,0:0:0:0:
256,192,200204,5,8,0:0:0:0:
256,192,200283,5,8,0:0:0:0:
256,192,200362,5,8,0:0:0:0:
256,192,200441,5,0,0:0:0:0:
256,192,200520,5,8,0:0:0:0:
256,192,200599,5,0,0:0:0:0:
256,192,200757,5,8,0:0:0:0:
256,192,200809,5,8,0:0:0:0:
256,192,200862,5,8,0:0:0:0:
256,192,200915,5,0,0:0:0:0:
256,192,200994,5,8,0:0:0:0:
256,192,201072,5,8,0:0:0:0:
256,192,201125,5,8,0:0:0:0:
256,192,201178,5,8,0:0:0:0:
256,192,201230,5,0,0:0:0:0:
256,192,201309,5,8,0:0:0:0:
256,192,201388,5,0,0:0:0:0:
256,192,201467,5,8,0:0:0:0:
256,192,201546,5,0,0:0:0:0:
256,192,201625,5,8,0:0:0:0:
256,192,201704,5,8,0:0:0:0:
256,192,201783,5,0,0:0:0:0:
256,192,201862,5,8,0:0:0:0:
256,192,201941,5,0,0:0:0:0:
256,192,202020,5,8,0:0:0:0:
256,192,202099,5,8,0:0:0:0:
256,192,202178,5,0,0:0:0:0:
256,192,202257,5,8,0:0:0:0:
256,192,202336,5,0,0:0:0:0:
256,192,202415,5,8,0:0:0:0:
256,192,202494,5,8,0:0:0:0:
256,192,202572,1,0,0:0:0:0:
256,192,202651,1,8,0:0:0:0:
256,192,202730,1,0,0:0:0:0:
256,192,202809,1,8,0:0:0:0:
256,192,202888,1,0,0:0:0:0:
256,192,202967,1,8,0:0:0:0:
256,192,203046,1,0,0:0:0:0:
256,192,203125,1,8,0:0:0:0:
256,192,203204,1,0,0:0:0:0:
256,192,203283,1,8,0:0:0:0:
256,192,203362,1,0,0:0:0:0:
256,192,203441,1,8,0:0:0:0:
256,192,203520,1,0,0:0:0:0:
256,192,203599,1,8,0:0:0:0:
256,192,203678,1,0,0:0:0:0:
256,192,203757,1,0,0:0:0:0:
256,192,203915,5,8,0:0:0:0:
256,192,204072,5,8,0:0:0:0:
256,192,204125,5,0,0:0:0:0:
256,192,204178,5,0,0:0:0:0:
256,192,204230,5,8,0:0:0:0:
256,192,204283,5,8,0:0:0:0:
256,192,204336,5,8,0:0:0:0:
256,192,204388,5,0,0:0:0:0:
256,192,204467,5,8,0:0:0:0:
256,192,204546,5,0,0:0:0:0:
256,192,204625,5,8,0:0:0:0:
256,192,204704,5,0,0:0:0:0:
256,192,204783,5,0,0:0:0:0:
256,192,204862,5,8,0:0:0:0:
256,192,204941,5,8,0:0:0:0:
256,192,205020,5,0,0:0:0:0:
256,192,205336,5,0,0:0:0:0:
256,192,205415,1,8,0:0:0:0:
256,192,205494,1,0,0:0:0:0:
256,192,205572,1,8,0:0:0:0:
256,192,205651,1,8,0:0:0:0:
256,192,205730,1,0,0:0:0:0:
256,192,205809,1,8,0:0:0:0:
256,192,205888,1,0,0:0:0:0:
256,192,205967,1,8,0:0:0:0:
256,192,206046,1,0,0:0:0:0:
256,192,206125,1,8,0:0:0:0:
256,192,206204,1,8,0:0:0:0:
256,192,206283,1,0,0:0:0:0:
256,192,206362,1,8,0:0:0:0:
256,192,206441,1,0,0:0:0:0:
256,192,206520,1,8,0:0:0:0:
256,192,206599,1,8,0:0:0:0:
256,192,206678,1,0,0:0:0:0:
256,192,206757,1,8,0:0:0:0:
256,192,206836,1,0,0:0:0:0:
256,192,206915,1,8,0:0:0:0:
256,192,206994,1,8,0:0:0:0:
256,192,207072,1,0,0:0:0:0:
256,192,207230,5,8,0:0:0:0:
256,192,207309,5,0,0:0:0:0:
256,192,207388,5,8,0:0:0:0:
256,192,207467,5,8,0:0:0:0:
256,192,207546,5,0,0:0:0:0:
256,192,207704,5,0,0:0:0:0:
256,192,207783,5,0,0:0:0:0:
256,192,207862,5,8,0:0:0:0:
256,192,208020,5,0,0:0:0:0:
256,192,208099,5,8,0:0:0:0:
256,192,208178,5,0,0:0:0:0:
256,192,208336,5,8,0:0:0:0:
256,192,208415,5,8,0:0:0:0:
256,192,208494,5,0,0:0:0:0:
256,192,208572,5,8,0:0:0:0:
256,192,208651,5,0,0:0:0:0:
256,192,208730,5,0,0:0:0:0:
256,192,208809,5,0,0:0:0:0:
256,192,208888,5,0,0:0:0:0:
256,192,208967,5,8,0:0:0:0:
256,192,209046,5,8,0:0:0:0:
256,192,209125,5,0,0:0:0:0:
256,192,209204,5,8,0:0:0:0:
256,192,209283,5,0,0:0:0:0:
256,192,209362,5,0,0:0:0:0:
256,192,209441,5,8,0:0:0:0:
256,192,209520,5,0,0:0:0:0:
256,192,209599,5,8,0:0:0:0:
256,192,209678,5,8,0:0:0:0:
256,192,209757,5,0,0:0:0:0:
256,192,209836,5,8,0:0:0:0:
256,192,209915,5,0,0:0:0:0:
256,192,209967,5,0,0:0:0:0:
256,192,210020,5,0,0:0:0:0:
256,192,210072,5,0,0:0:0:0:
256,192,210230,5,8,0:0:0:0:
256,192,210388,5,0,0:0:0:0:
256,192,210546,5,8,0:0:0:0:
256,192,210704,5,0,0:0:0:0:
256,192,210862,5,8,0:0:0:0:
256,192,211020,5,0,0:0:0:0:
256,192,211178,5,8,0:0:0:0:
256,192,211336,5,0,0:0:0:0:
256,192,211494,5,8,0:0:0:0:
256,192,211651,5,0,0:0:0:0:
256,192,211730,1,8,0:0:0:0:
256,192,211809,1,8,0:0:0:0:
256,192,211888,1,0,0:0:0:0:
256,192,211967,1,0,0:0:0:0:
256,192,212046,1,8,0:0:0:0:
256,192,212125,1,0,0:0:0:0:
256,192,212204,1,8,0:0:0:0:
256,192,212283,1,0,0:0:0:0:
256,192,212362,1,8,0:0:0:0:
256,192,212441,1,8,0:0:0:0:
256,192,212520,1,0,0:0:0:0:
256,192,212599,1,8,0:0:0:0:
256,192,212678,1,0,0:0:0:0:
256,192,212757,1,8,0:0:0:0:
256,192,212836,1,0,0:0:0:0:
256,192,212915,1,8,0:0:0:0:
256,192,212994,1,0,0:0:0:0:
256,192,213072,1,8,0:0:0:0:
256,192,213151,1,0,0:0:0:0:
256,192,213230,1,8,0:0:0:0:
256,192,213309,1,0,0:0:0:0:
256,192,213388,1,8,0:0:0:0:
256,192,213467,1,0,0:0:0:0:
256,192,213546,1,8,0:0:0:0:
256,192,213625,1,0,0:0:0:0:
256,192,213704,1,8,0:0:0:0:
256,192,213783,1,0,0:0:0:0:
256,192,213862,1,8,0:0:0:0:
256,192,213941,12,0,214967,0:0:0:0:
256,192,215125,5,0,0:0:0:0:
