osu file format v14

[General]
AudioFilename: 04. Alain.mp3
AudioLeadIn: 0
PreviewTime: 35393
Countdown: 0
SampleSet: None
StackLeniency: 0.7
Mode: 3
LetterboxInBreaks: 0
SpecialStyle: 0
WidescreenStoryboard: 1

[Editor]
Bookmarks: 176235,178445
DistanceSpacing: 1
BeatDivisor: 6
GridSize: 32
TimelineZoom: 3.999998

[Metadata]
Title:Alain
TitleUnicode:Alain
Artist:Igorrr & Ruby My Dear
ArtistUnicode:Igorrr & Ruby My Dear
Creator:JamesHappy
Version:Insane
Source:
Tags:Maigre Baroque Experimental
BeatmapID:1204114
BeatmapSetID:566748

[Difficulty]
HPDrainRate:7.7
CircleSize:5
OverallDifficulty:7.9
ApproachRate:9
SliderMultiplier:1.6
SliderTickRate:1

[Events]
//Background and Video events
0,0,"F5kvFpuINIk.jpg",0,0
//Break Periods
//Storyboard Layer 0 (Background)
//Storyboard Layer 1 (Fail)
//Storyboard Layer 2 (Pass)
//Storyboard Layer 3 (Foreground)
//Storyboard Sound Samples
Sample,8235,0,"drum-hitnormal.wav",35
Sample,8866,0,"drum-hitnormal.wav",35
Sample,11393,0,"drum-hitnormal.wav",35
Sample,16445,0,"drum-hitnormal.wav",35
Sample,18340,0,"drum-hitfinish.wav",70
Sample,18577,0,"drum-hitnormal.wav",35
Sample,18893,0,"drum-hitnormal.wav",35
Sample,19603,0,"drum-hitnormal.wav",35
Sample,22840,0,"drum-hitnormal.wav",35
Sample,25603,0,"drum-hitnormal.wav",35
Sample,34761,0,"drum-hitnormal.wav",35
Sample,37919,0,"drum-hitnormal.wav",35
Sample,41709,0,"drum-hitnormal.wav",35
Sample,42340,0,"drum-hitnormal.wav",35
Sample,44551,0,"drum-hitnormal.wav",35
Sample,46130,0,"drum-hitnormal.wav",35
Sample,47077,0,"drum-hitnormal.wav",35
Sample,47235,0,"drum-hitnormal.wav",35
Sample,73288,0,"drum-hitnormal.wav",35
Sample,74077,0,"drum-hitnormal.wav",35
Sample,74235,0,"drum-hitnormal.wav",35
Sample,81498,0,"drum-hitnormal.wav",35
Sample,81735,0,"drum-hitnormal.wav",35
Sample,82761,0,"drum-hitnormal.wav",35
Sample,83077,0,"drum-hitnormal.wav",35
Sample,84972,0,"drum-hitnormal.wav",35
Sample,85077,0,"drum-hitnormal.wav",35
Sample,85182,0,"drum-hitnormal.wav",35
Sample,86630,0,"drum-hitnormal.wav",35
Sample,86866,0,"drum-hitnormal.wav",35
Sample,88445,0,"drum-hitnormal.wav",35
Sample,100445,0,"drum-hitnormal.wav",35
Sample,101077,0,"drum-hitnormal.wav",35
Sample,101814,0,"drum-hitnormal.wav",35
Sample,102130,0,"drum-hitnormal.wav",35
Sample,102235,0,"drum-hitnormal.wav",35
Sample,104866,0,"drum-hitnormal.wav",35
Sample,105498,0,"drum-hitnormal.wav",35
Sample,106445,0,"drum-hitnormal.wav",35
Sample,108235,0,"drum-hitnormal.wav",35
Sample,112603,0,"drum-hitnormal.wav",35
Sample,114814,0,"drum-hitnormal.wav",35
Sample,114972,0,"drum-hitnormal.wav",35
Sample,115209,0,"drum-hitnormal.wav",35
Sample,115288,0,"drum-hitnormal.wav",35
Sample,115366,0,"drum-hitnormal.wav",35
Sample,115445,0,"drum-hitnormal.wav",35
Sample,115524,0,"drum-hitnormal.wav",35
Sample,116866,0,"drum-hitnormal.wav",35
Sample,119077,0,"drum-hitnormal.wav",35
Sample,119393,0,"drum-hitnormal.wav",35
Sample,121445,0,"drum-hitnormal.wav",35
Sample,121524,0,"drum-hitnormal.wav",35
Sample,121761,0,"drum-hitnormal.wav",35
Sample,121840,0,"drum-hitnormal.wav",35
Sample,122077,0,"drum-hitnormal.wav",35
Sample,122130,0,"drum-hitnormal.wav",35
Sample,122182,0,"drum-hitnormal.wav",35
Sample,122393,0,"drum-hitnormal.wav",35
Sample,122445,0,"drum-hitnormal.wav",35
Sample,122498,0,"drum-hitnormal.wav",35
Sample,124130,0,"drum-hitnormal.wav",35
Sample,124445,0,"drum-hitnormal.wav",35
Sample,124761,0,"drum-hitnormal.wav",35
Sample,125709,0,"drum-hitnormal.wav",35
Sample,126340,0,"drum-hitnormal.wav",35
Sample,126656,0,"drum-hitnormal.wav",35
Sample,126656,0,"drum-hitnormal.wav",35
Sample,128235,0,"drum-hitnormal.wav",35
Sample,128866,0,"drum-hitnormal.wav",35
Sample,130761,0,"drum-hitnormal.wav",35
Sample,132024,0,"drum-hitnormal.wav",35
Sample,132972,0,"drum-hitnormal.wav",35
Sample,139130,0,"drum-hitnormal.wav",35
Sample,139209,0,"drum-hitnormal.wav",35
Sample,139445,0,"drum-hitnormal.wav",35
Sample,139524,0,"drum-hitnormal.wav",35
Sample,139761,0,"drum-hitnormal.wav",35
Sample,139814,0,"drum-hitnormal.wav",35
Sample,139866,0,"drum-hitnormal.wav",35
Sample,140077,0,"drum-hitnormal.wav",35
Sample,148024,0,"drum-hitnormal.wav",35
Sample,148235,0,"drum-hitnormal.wav",35
Sample,148445,0,"drum-hitnormal.wav",35
Sample,148656,0,"drum-hitnormal.wav",35
Sample,148866,0,"drum-hitnormal.wav",35
Sample,149077,0,"drum-hitnormal.wav",35
Sample,149077,0,"drum-hitnormal.wav",35
Sample,150340,0,"drum-hitnormal.wav",35
Sample,155709,0,"drum-hitnormal.wav",35
Sample,164393,0,"drum-hitnormal.wav",35
Sample,167393,0,"drum-hitnormal.wav",35
Sample,169919,0,"drum-hitnormal.wav",35
Sample,170551,0,"drum-hitnormal.wav",35
Sample,174656,0,"drum-hitnormal.wav",35
Sample,175998,0,"drum-hitnormal.wav",35
Sample,176156,0,"drum-hitnormal.wav",35
Sample,179077,0,"drum-hitnormal.wav",35
Sample,179156,0,"drum-hitnormal.wav",35
Sample,179235,0,"drum-hitnormal.wav",35
Sample,179314,0,"drum-hitnormal.wav",35
Sample,179472,0,"drum-hitnormal.wav",35
Sample,179551,0,"drum-hitnormal.wav",35
Sample,179630,0,"drum-hitnormal.wav",35
Sample,196130,0,"drum-hitnormal.wav",35
Sample,196130,0,"drum-hitnormal.wav",35
Sample,196761,0,"drum-hitnormal.wav",35
Sample,198656,0,"drum-hitnormal.wav",35
Sample,198814,0,"drum-hitnormal.wav",35
Sample,198972,0,"drum-hitnormal.wav",35
Sample,199130,0,"drum-hitnormal.wav",35
Sample,199919,0,"drum-hitnormal.wav",35
Sample,201182,0,"drum-hitnormal.wav",35
Sample,201498,0,"drum-hitnormal.wav",35
Sample,202524,0,"drum-hitnormal.wav",35
Sample,202682,0,"drum-hitnormal.wav",35
Sample,202840,0,"drum-hitnormal.wav",35
Sample,202998,0,"drum-hitnormal.wav",35
Sample,203235,0,"drum-hitnormal.wav",35
Sample,203314,0,"drum-hitnormal.wav",35
Sample,203472,0,"drum-hitnormal.wav",35
Sample,203630,0,"drum-hitnormal.wav",35
Sample,203709,0,"drum-hitnormal.wav",35
Sample,204972,0,"drum-hitnormal.wav",35
Sample,205761,0,"drum-hitnormal.wav",35
Sample,206077,0,"drum-hitnormal.wav",35
Sample,206630,0,"drum-hitnormal.wav",35
Sample,206788,0,"drum-hitnormal.wav",35
Sample,207340,0,"drum-hitnormal.wav",35
Sample,209077,0,"drum-hitnormal.wav",35
Sample,209235,0,"drum-hitnormal.wav",35
Sample,209393,0,"drum-hitnormal.wav",35
Sample,209551,0,"drum-hitnormal.wav",35
Sample,209709,0,"drum-hitnormal.wav",35
Sample,210340,0,"drum-hitnormal.wav",35
Sample,210656,0,"drum-hitnormal.wav",35
Sample,210972,0,"drum-hitnormal.wav",35
Sample,211288,0,"drum-hitnormal.wav",35
Sample,212077,0,"drum-hitnormal.wav",35
Sample,212235,0,"drum-hitnormal.wav",35
Sample,212393,0,"drum-hitnormal.wav",35
Sample,212630,0,"drum-hitnormal.wav",35
Sample,212788,0,"drum-hitnormal.wav",35
Sample,212945,0,"drum-hitnormal.wav",35
Sample,213103,0,"drum-hitnormal.wav",35
Sample,213261,0,"drum-hitnormal.wav",35
Sample,213419,0,"drum-hitnormal.wav",35
Sample,213577,0,"drum-hitnormal.wav",35
Sample,213735,0,"drum-hitnormal.wav",35
Sample,213972,0,"drum-hitnormal.wav",35
Sample,214130,0,"drum-hitnormal.wav",35
Sample,214288,0,"drum-hitnormal.wav",35
Sample,214445,0,"drum-hitnormal.wav",35
Sample,214603,0,"drum-hitnormal.wav",35
Sample,214761,0,"drum-hitnormal.wav",35
Sample,214919,0,"drum-hitnormal.wav",35
Sample,215077,0,"drum-hitnormal.wav",35

[TimingPoints]
24,315.789473684211,4,3,1,35,1,0
16444,-111.111111111111,4,3,1,35,0,0
16602,-112.128146453089,4,3,1,35,0,0
16760,-115.294117647059,4,3,1,35,0,0
16918,-120.987654320988,4,3,1,35,0,0
17076,-129.973474801061,4,3,1,35,0,0
17234,-143.695014662757,4,3,1,35,0,0
17392,-164.983164983165,4,3,1,35,0,0
17550,-200,4,3,1,35,0,0
17708,-100,4,3,1,35,0,0
20865,-57.1428571428571,4,3,1,35,0,0
20905,-400,4,3,1,35,0,0
20944,-57.1428571428571,4,3,1,35,0,0
20983,-400,4,3,1,35,0,0
21023,-57.1428571428571,4,3,1,35,0,0
21062,-400,4,3,1,35,0,0
21102,-57.1428571428571,4,3,1,35,0,0
21141,-400,4,3,1,35,0,0
21181,-57.1428571428571,4,3,1,35,0,0
21220,-400,4,3,1,35,0,0
21260,-57.1428571428571,4,3,1,35,0,0
21299,-400,4,3,1,35,0,0
21339,-57.1428571428571,4,3,1,35,0,0
21378,-400,4,3,1,35,0,0
21418,-57.1428571428571,4,3,1,35,0,0
21457,-400,4,3,1,35,0,0
21497,-57.1428571428571,4,3,1,35,0,0
21536,-400,4,3,1,35,0,0
21576,-57.1428571428571,4,3,1,35,0,0
21615,-400,4,3,1,35,0,0
21655,-57.1428571428571,4,3,1,35,0,0
21694,-400,4,3,1,35,0,0
21734,-57.1428571428571,4,3,1,35,0,0
21773,-400,4,3,1,35,0,0
21813,-100,4,3,1,35,0,0
24023,-40,4,3,1,35,0,0
24063,-127.275041364388,4,3,1,35,0,0
24339,-40,4,3,1,35,0,0
24365,-127.275041364388,4,3,1,35,0,0
24550,-40,4,3,1,35,0,0
24576,-400,4,3,1,35,0,0
24655,-100,4,3,1,35,0,0
107392,-57.1428571428571,4,3,1,35,0,0
107471,-133.333333333333,4,3,1,35,0,0
107629,-57.1428571428571,4,3,1,35,0,0
107668,-133.333333333333,4,3,1,35,0,0
107813,-57.1428571428571,4,3,1,35,0,0
107865,-133.333333333333,4,3,1,35,0,0
108023,-57.1428571428571,4,3,1,35,0,0
108076,-133.333333333333,4,3,1,35,0,0
108234,-100,4,3,1,35,0,0
108444,-57.1428571428571,4,3,1,35,0,0
108497,-133.333333333333,4,3,1,35,0,0
108655,-100,4,3,1,35,0,0
146550,-57.1428571428571,4,3,1,35,0,0
146629,-133.333333333333,4,3,1,35,0,0
146786,-57.1428571428571,4,3,1,35,0,0
146865,-133.333333333333,4,3,1,35,0,0
147023,-57.1428571428571,4,3,1,35,0,0
147102,-133.333333333333,4,3,1,35,0,0
147260,-57.1428571428571,4,3,1,35,0,0
147339,-133.333333333333,4,3,1,35,0,0
147497,-57.1428571428571,4,3,1,35,0,0
147576,-133.333333333333,4,3,1,35,0,0
147813,-57.1428571428571,4,3,1,35,0,0
147865,-133.333333333333,4,3,1,35,0,0
148023,-57.1428571428571,4,3,1,35,0,0
148076,-133.333333333333,4,3,1,35,0,0
148234,-57.1428571428571,4,3,1,35,0,0
148287,-133.333333333333,4,3,1,35,0,0
148444,-57.1428571428571,4,3,1,35,0,0
148497,-133.333333333333,4,3,1,35,0,0
148655,-57.1428571428571,4,3,1,35,0,0
148708,-133.333333333333,4,3,1,35,0,0
148865,-57.1428571428571,4,3,1,35,0,0
148918,-133.333333333333,4,3,1,35,0,0
149076,-100,4,3,1,35,0,0

[HitObjects]
153,192,24,5,0,0:0:0:35:
51,192,24,1,0,0:0:0:35:
358,192,181,1,0,0:0:0:35:
153,192,339,1,0,0:0:0:35:
358,192,497,1,0,0:0:0:35:
153,192,655,1,0,0:0:0:35:
358,192,813,1,0,0:0:0:35:
153,192,971,1,0,0:0:0:35:
358,192,1129,1,0,0:0:0:35:
153,192,1287,1,0,0:0:0:35:
358,192,1445,1,0,0:0:0:35:
153,192,1524,1,0,0:0:0:35:
358,192,1602,1,0,0:0:0:35:
153,192,1681,1,0,0:0:0:35:
358,192,1760,1,0,0:0:0:35:
153,192,1839,1,0,0:0:0:35:
256,192,1918,1,0,0:0:0:35:
460,192,1918,1,0,0:0:0:35:
51,192,2076,1,0,0:0:0:35:
460,192,2234,1,0,0:0:0:35:
51,192,2392,1,0,0:0:0:35:
256,192,2550,1,4,0:0:0:35:
460,192,2550,1,0,0:0:0:35:
51,192,2708,1,0,0:0:0:35:
460,192,2866,1,0,0:0:0:35:
51,192,3024,1,0,0:0:0:35:
460,192,3181,1,0,0:0:0:35:
51,192,3339,1,0,0:0:0:35:
460,192,3497,1,0,0:0:0:35:
51,192,3655,1,0,0:0:0:35:
460,192,3734,1,0,0:0:0:35:
51,192,3813,1,0,0:0:0:35:
460,192,3892,1,0,0:0:0:35:
51,192,3971,1,0,0:0:0:35:
460,192,4050,1,0,0:0:0:35:
51,192,4129,1,0,0:0:0:35:
256,192,4287,1,0,0:0:0:35:
51,192,4445,1,0,0:0:0:35:
153,192,4445,1,0,0:0:0:35:
256,192,4602,1,0,0:0:0:35:
51,192,4760,1,0,0:0:0:35:
358,192,4918,1,0,0:0:0:35:
153,192,5076,1,0,0:0:0:35:
460,192,5076,1,0,0:0:0:35:
256,192,5234,1,0,0:0:0:35:
51,192,5392,1,0,0:0:0:35:
358,192,5550,1,0,0:0:0:35:
153,192,5708,1,0,0:0:0:35:
460,192,5866,1,0,0:0:0:35:
358,192,5945,1,0,0:0:0:35:
51,192,6024,1,0,0:0:0:35:
153,192,6102,1,0,0:0:0:35:
460,192,6181,1,0,0:0:0:35:
358,192,6260,1,0,0:0:0:35:
51,192,6339,1,0,0:0:0:35:
256,192,6339,1,0,0:0:0:35:
358,192,6497,1,0,0:0:0:35:
256,192,6655,1,0,0:0:0:35:
153,192,6813,1,0,0:0:0:35:
358,192,6971,1,0,0:0:0:35:
153,192,7129,1,0,0:0:0:35:
358,192,7287,1,0,0:0:0:35:
256,192,7445,1,0,0:0:0:35:
153,192,7602,1,0,0:0:0:35:
358,192,7760,1,0,0:0:0:35:
153,192,7918,1,0,0:0:0:35:
358,192,8076,1,0,0:0:0:35:
460,192,8155,1,0,0:0:0:35:
153,192,8234,1,0,0:0:0:35:
358,192,8254,1,0,0:0:0:0:
51,192,8313,1,0,0:0:0:35:
358,192,8392,1,0,0:0:0:35:
460,192,8471,1,0,0:0:0:35:
153,192,8550,1,0,0:0:0:0:
358,192,8708,1,0,0:0:0:35:
153,192,8866,1,0,0:0:0:35:
51,192,8885,1,0,0:0:0:0:
358,192,9024,1,0,0:0:0:35:
153,192,9181,1,0,0:0:0:35:
51,192,9339,1,0,0:0:0:35:
358,192,9497,1,0,0:0:0:35:
460,192,9655,1,0,0:0:0:35:
153,192,9813,1,0,0:0:0:35:
256,192,9971,1,0,0:0:0:35:
358,192,10129,1,0,0:0:0:35:
256,192,10287,1,0,0:0:0:35:
358,192,10366,1,0,0:0:0:35:
153,192,10445,1,0,0:0:0:35:
51,192,10524,1,0,0:0:0:35:
358,192,10602,1,0,0:0:0:35:
460,192,10681,1,0,0:0:0:35:
256,192,10760,1,0,0:0:0:35:
51,192,10918,1,0,0:0:0:35:
358,192,11076,1,0,0:0:0:35:
153,192,11234,1,0,0:0:0:35:
358,192,11392,1,0,0:0:0:35:
460,192,11392,1,0,0:0:0:0:
153,192,11550,1,0,0:0:0:35:
358,192,11708,1,0,0:0:0:35:
51,192,11866,1,0,0:0:0:35:
256,192,12024,1,0,0:0:0:35:
460,192,12024,1,0,0:0:0:35:
153,192,12339,1,0,0:0:0:35:
358,192,12497,1,0,0:0:0:35:
51,192,12655,1,0,0:0:0:35:
256,192,12655,1,0,0:0:0:35:
51,192,15234,1,0,0:0:0:35:
256,192,16445,1,0,0:0:0:35:
460,192,17076,1,0,0:0:0:35:
51,192,17708,1,8,0:0:0:35:
153,192,17708,1,0,0:0:0:35:
460,192,17708,1,0,0:0:0:35:
358,192,17866,1,0,0:0:0:35:
153,192,17945,1,0,0:0:0:35:
256,192,18024,1,0,0:0:0:35:
358,192,18102,1,0,0:0:0:35:
153,192,18181,1,0,0:0:0:35:
256,192,18260,1,0,0:0:0:35:
358,192,18339,1,8,0:0:0:35:
51,192,18339,1,4,0:0:0:35:
460,192,18339,1,0,0:0:0:35:
256,192,18418,1,0,0:0:0:0:
358,192,18497,1,0,0:0:0:70:drum-hitfinish.wav
153,192,18497,1,0,0:0:0:35:
460,192,18576,1,0,0:0:0:70:drum-hitfinish.wav
153,192,18655,1,0,0:0:0:70:drum-hitfinish.wav
51,192,18655,1,0,0:0:0:35:
358,192,18734,1,0,0:0:0:70:drum-hitfinish.wav
460,192,18734,1,0,0:0:0:35:
256,192,18813,1,0,0:0:0:70:drum-hitfinish.wav
51,192,18813,1,0,0:0:0:35:
153,192,18892,1,0,0:0:0:70:drum-hitfinish.wav
358,192,18971,1,0,0:0:0:70:drum-hitfinish.wav
460,192,18971,1,0,0:0:0:35:
256,192,18971,1,0,0:0:0:35:
153,192,19287,1,0,0:0:0:35:
358,192,19366,1,0,0:0:0:35:
256,192,19445,1,4,0:0:0:35:
51,192,19445,1,0,0:0:0:35:
460,192,19445,1,0,0:0:0:35:
153,192,19602,128,0,19918:0:0:0:35:
358,192,19918,1,0,0:0:0:35:
51,192,19918,1,0,0:0:0:35:
153,192,20076,1,0,0:0:0:35:
358,192,20155,1,0,0:0:0:35:
51,192,20234,1,0,0:0:0:35:
256,192,20234,128,0,20866:0:0:0:35:
460,192,20234,1,0,0:0:0:35:
358,192,20866,1,0,0:0:0:35:
358,192,20945,1,0,0:0:0:35:
153,192,21024,1,0,0:0:0:35:
153,192,21102,1,0,0:0:0:35:
460,192,21181,1,0,0:0:0:35:
460,192,21260,1,0,0:0:0:35:
51,192,21339,1,0,0:0:0:35:
51,192,21418,1,0,0:0:0:35:
358,192,21497,1,0,0:0:0:35:
358,192,21576,1,0,0:0:0:35:
153,192,21655,1,0,0:0:0:35:
153,192,21734,1,0,0:0:0:35:
256,192,21813,1,4,0:0:0:35:
51,192,21813,1,0,0:0:0:35:
460,192,21892,1,4,0:0:0:35:
358,192,21892,1,0,0:0:0:35:
51,192,21971,1,4,0:0:0:35:
153,192,21971,1,0,0:0:0:35:
460,192,22050,1,4,0:0:0:35:
256,192,22050,1,0,0:0:0:35:
256,192,22129,128,0,22445:0:0:0:35:
460,192,22129,128,0,22445:0:0:0:35:
153,192,22445,1,0,0:0:0:35:
358,192,22524,1,0,0:0:0:35:
153,192,22602,1,0,0:0:0:35:
51,192,22602,1,0,0:0:0:35:
256,192,22760,1,0,0:0:0:35:
460,192,22760,1,0,0:0:0:35:
51,192,22839,1,0,0:0:0:35:
153,192,22918,1,0,0:0:0:35:
358,192,23076,1,0,0:0:0:35:
256,192,23155,1,0,0:0:0:35:
153,192,23234,1,0,0:0:0:35:
358,192,23313,1,0,0:0:0:35:
256,192,23392,128,0,23708:0:0:0:35:
51,192,23708,128,0,23918:0:0:0:35:
153,192,23918,1,0,0:0:0:35:
256,192,24024,1,4,0:0:0:35:
460,192,24024,1,0,0:0:0:35:
256,192,24339,1,4,0:0:0:35:
460,192,24339,1,0,0:0:0:35:
51,192,24550,1,4,0:0:0:35:
153,192,24550,1,0,0:0:0:35:
358,192,24655,128,4,24971:0:0:0:35:
460,192,24655,1,0,0:0:0:35:
256,192,24655,1,0,0:0:0:35:
153,192,24971,1,0,0:0:0:35:
256,192,25076,1,0,0:0:0:35:
358,192,25181,1,0,0:0:0:35:
51,192,25287,128,0,25445:0:0:0:35:
153,192,25287,128,0,25445:0:0:0:35:
153,192,25497,128,0,25602:0:0:0:35:
51,192,25497,128,0,25602:0:0:0:35:
358,192,25602,1,0,0:0:0:35:
460,192,25602,1,0,0:0:0:35:
358,192,25708,1,0,0:0:0:35:
358,192,25813,1,0,0:0:0:35:
51,192,25918,1,0,0:0:0:35:
153,192,25918,1,0,0:0:0:35:
358,192,25918,1,0,0:0:0:35:
460,192,26024,1,0,0:0:0:35:
51,192,26129,1,0,0:0:0:35:
460,192,26234,1,0,0:0:0:35:
153,192,26339,1,0,0:0:0:35:
358,192,26339,1,0,0:0:0:0:
51,192,26445,1,0,0:0:0:35:
256,192,26550,1,4,0:0:0:35:
460,192,26550,128,0,26866:0:0:0:35:
358,192,26550,1,0,0:0:0:35:
153,192,26866,1,0,0:0:0:35:
358,192,26971,1,0,0:0:0:35:
153,192,27076,1,0,0:0:0:35:
51,192,27181,128,0,27497:0:0:0:35:
256,192,27181,1,0,0:0:0:35:
358,192,27497,1,0,0:0:0:35:
153,192,27602,1,0,0:0:0:35:
358,192,27708,1,0,0:0:0:35:
51,192,27813,1,4,0:0:0:35:
256,192,27813,1,0,0:0:0:35:
153,192,27813,1,0,0:0:0:35:
358,192,27971,1,0,0:0:0:35:
460,192,27971,1,0,0:0:0:35:
51,192,28129,1,0,0:0:0:35:
256,192,28234,1,0,0:0:0:35:
51,192,28287,1,0,0:0:0:35:
358,192,28445,1,0,0:0:0:35:
460,192,28445,1,0,0:0:0:35:
153,192,28550,1,0,0:0:0:35:
256,192,28655,1,8,0:0:0:35:
460,192,28655,1,0,0:0:0:35:
358,192,28655,1,0,0:0:0:35:
153,192,28866,1,0,0:0:0:35:
358,192,28971,1,0,0:0:0:35:
256,192,29076,1,4,0:0:0:35:
51,192,29076,1,0,0:0:0:35:
460,192,29076,1,0,0:0:0:35:
153,192,29155,1,4,0:0:0:35:
358,192,29234,1,4,0:0:0:35:
153,192,29313,1,4,0:0:0:35:
256,192,29392,1,4,0:0:0:35:
460,192,29392,1,0,0:0:0:35:
358,192,29471,1,4,0:0:0:35:
153,192,29550,1,4,0:0:0:35:
51,192,29629,1,4,0:0:0:35:
460,192,29708,128,0,30024:0:0:0:35:
256,192,29708,128,0,30024:0:0:0:35:
153,192,30024,128,0,30339:0:0:0:35:
358,192,30024,128,0,30339:0:0:0:35:
51,192,30339,1,0,0:0:0:35:
256,192,30339,1,0,0:0:0:35:
460,192,30497,1,0,0:0:0:35:
153,192,30655,1,0,0:0:0:35:
51,192,30655,1,0,0:0:0:35:
358,192,30734,1,0,0:0:0:35:
51,192,30813,1,8,0:0:0:35:
460,192,30813,1,0,0:0:0:35:
153,192,30971,1,8,0:0:0:35:
358,192,30971,1,0,0:0:0:35:
256,192,30971,128,0,31602:0:0:0:35:
153,192,31602,128,0,31681:0:0:0:35:
358,192,31602,1,0,0:0:0:35:
358,192,31760,128,0,31918:0:0:0:35:
153,192,31760,1,0,0:0:0:35:
51,192,31918,1,4,0:0:0:35:
460,192,31918,1,0,0:0:0:35:
153,192,31971,1,4,0:0:0:35:
358,192,32024,1,4,0:0:0:35:
256,192,32076,1,4,0:0:0:35:
153,192,32129,1,4,0:0:0:35:
358,192,32181,1,4,0:0:0:35:
460,192,32234,1,0,0:0:0:35:
51,192,32234,1,0,0:0:0:35:
256,192,32313,1,0,0:0:0:35:
51,192,32392,1,0,0:0:0:35:
460,192,32471,1,0,0:0:0:35:
256,192,32550,1,0,0:0:0:35:
460,192,32629,1,0,0:0:0:35:
153,192,32708,128,0,32866:0:0:0:35:
358,192,32866,128,0,33024:0:0:0:35:
460,192,32866,128,0,33024:0:0:0:35:
51,192,33024,1,4,0:0:0:35:
256,192,33024,1,0,0:0:0:35:
153,192,33024,1,0,0:0:0:35:
51,192,33181,128,0,33339:0:0:0:35:
153,192,33181,128,0,33339:0:0:0:35:
256,192,33339,1,4,0:0:0:35:
460,192,33339,1,0,0:0:0:35:
358,192,33339,1,0,0:0:0:35:
256,192,33497,128,0,33655:0:0:0:35:
460,192,33497,128,0,33655:0:0:0:35:
51,192,33734,128,0,33971:0:0:0:35:
153,192,33813,128,0,34050:0:0:0:35:
256,192,33813,128,0,34129:0:0:0:35:
460,192,34129,128,0,35392:0:0:0:35:
358,192,34129,128,0,34760:0:0:0:0:
153,192,34681,1,0,0:0:0:35:
256,192,34721,1,0,0:0:0:35:
51,192,34760,128,0,35076:0:0:0:35:
358,192,35234,1,4,0:0:0:35:
256,192,35287,1,4,0:0:0:35:
153,192,35339,1,4,0:0:0:35:
358,192,35392,1,4,0:0:0:35:
51,192,35392,128,0,36655:0:0:0:35:
460,192,36971,128,0,37918:0:0:0:35:
153,192,37918,128,4,38550:0:0:0:35:
358,192,37918,128,0,38550:0:0:0:35:
256,192,37918,1,0,0:0:0:35:
51,192,38550,1,4,0:0:0:35:
460,192,38550,1,0,0:0:0:35:
256,192,38629,1,4,0:0:0:35:
153,192,38708,1,4,0:0:0:35:
358,192,38708,1,0,0:0:0:35:
256,192,38787,1,4,0:0:0:35:
51,192,38866,1,0,0:0:0:35:
460,192,38866,1,0,0:0:0:0:
358,192,38945,1,0,0:0:0:35:
153,192,39024,1,0,0:0:0:35:
358,192,39102,1,0,0:0:0:35:
256,192,39181,128,0,39813:0:0:0:35:
51,192,39339,1,0,0:0:0:35:
460,192,39497,1,0,0:0:0:35:
153,192,39655,1,0,0:0:0:35:
358,192,39734,1,0,0:0:0:35:
153,192,39813,1,8,0:0:0:35:
51,192,39813,1,0,0:0:0:35:
460,192,39813,1,0,0:0:0:0:
358,192,39971,1,4,0:0:0:35:
256,192,39971,1,0,0:0:0:35:
51,192,40129,1,8,0:0:0:35:
153,192,40129,1,0,0:0:0:35:
358,192,40129,1,0,0:0:0:35:
153,192,40287,1,4,0:0:0:35:
256,192,40287,1,0,0:0:0:35:
51,192,40445,1,4,0:0:0:35:
358,192,40445,1,0,0:0:0:35:
460,192,40445,1,0,0:0:0:35:
51,192,40760,1,8,0:0:0:35:
358,192,40760,1,0,0:0:0:35:
460,192,40760,1,0,0:0:0:35:
153,192,40918,1,0,0:0:0:35:
358,192,40918,1,0,0:0:0:35:
256,192,41076,128,0,41392:0:0:0:35:
153,192,41392,128,0,41708:0:0:0:35:
358,192,41392,128,0,41708:0:0:0:35:
256,192,41708,128,0,41866:0:0:0:35:
153,192,41866,1,0,0:0:0:35:
358,192,41945,1,0,0:0:0:35:
153,192,42024,1,0,0:0:0:35:
358,192,42102,1,0,0:0:0:35:
153,192,42181,128,0,42260:0:0:0:35:
51,192,42181,1,0,0:0:0:35:
256,192,42339,1,12,0:0:0:35:
358,192,42339,128,0,42971:0:0:0:35:
153,192,42497,1,0,0:0:0:35:
460,192,42655,1,0,0:0:0:35:
153,192,42813,1,0,0:0:0:35:
256,192,42971,1,12,0:0:0:35:
51,192,42971,1,0,0:0:0:35:
460,192,42971,1,0,0:0:0:35:
153,192,43129,1,0,0:0:0:35:
358,192,43287,128,0,43524:0:0:0:35:
256,192,43287,1,0,0:0:0:35:
51,192,43287,1,0,0:0:0:35:
153,192,43602,1,0,0:0:0:35:
51,192,43602,1,0,0:0:0:35:
460,192,43602,1,0,0:0:0:35:
460,192,43760,1,0,0:0:0:0:
256,192,43813,1,0,0:0:0:0:
51,192,43918,1,0,0:0:0:35:
358,192,43918,1,0,0:0:0:0:
256,192,44024,1,0,0:0:0:0:
153,192,44076,1,0,0:0:0:0:
358,192,44129,1,0,0:0:0:0:
256,192,44234,1,4,0:0:0:35:
51,192,44234,128,0,44471:0:0:0:35:
460,192,44234,1,0,0:0:0:35:
153,192,44550,1,0,0:0:0:35:
460,192,44629,1,0,0:0:0:35:
153,192,44708,1,0,0:0:0:35:
460,192,44787,1,0,0:0:0:35:
51,192,44866,128,0,45129:0:0:0:35:
358,192,44866,128,0,45129:0:0:0:35:
51,192,45181,128,0,45497:0:0:0:35:
358,192,45181,128,0,45497:0:0:0:35:
153,192,45497,1,4,0:0:0:35:
460,192,45497,1,0,0:0:0:35:
256,192,45497,1,0,0:0:0:35:
153,192,45576,1,0,0:0:0:35:
358,192,45655,1,0,0:0:0:35:
358,192,45734,1,0,0:0:0:35:
51,192,45813,1,4,0:0:0:35:
256,192,45813,1,0,0:0:0:35:
153,192,45813,1,0,0:0:0:35:
153,192,46050,1,0,0:0:0:35:
256,192,46129,1,8,0:0:0:35:
358,192,46129,128,0,46208:0:0:0:35:
153,192,46208,128,0,46287:0:0:0:35:
358,192,46287,128,0,46366:0:0:0:35:
153,192,46366,128,0,46445:0:0:0:35:
358,192,46445,128,0,46550:0:0:0:35:
153,192,46550,128,0,46655:0:0:0:35:
358,192,46655,128,0,46760:0:0:0:35:
256,192,46760,1,0,0:0:0:35:
51,192,46760,1,0,0:0:0:35:
460,192,46760,1,0,0:0:0:35:
153,192,46839,1,0,0:0:0:35:
256,192,46918,1,0,0:0:0:35:
153,192,46997,1,0,0:0:0:35:
460,192,47076,1,0,0:0:0:35:
358,192,47155,1,0,0:0:0:35:
460,192,47234,1,0,0:0:0:35:
358,192,47313,1,0,0:0:0:35:
51,192,47392,1,0,0:0:0:35:
256,192,47392,1,0,0:0:0:35:
51,192,47471,1,0,0:0:0:35:
460,192,47550,1,0,0:0:0:35:
460,192,47629,1,0,0:0:0:35:
256,192,47708,128,0,48024:0:0:0:35:
153,192,47708,128,0,48024:0:0:0:35:
358,192,47708,1,0,0:0:0:35:
358,192,47866,1,0,0:0:0:35:
358,192,48024,1,0,0:0:0:35:
51,192,48024,1,0,0:0:0:35:
460,192,48024,1,0,0:0:0:0:
153,192,48181,1,0,0:0:0:35:
358,192,48339,1,0,0:0:0:35:
153,192,48339,1,0,0:0:0:35:
460,192,48418,1,0,0:0:0:35:
256,192,48497,1,0,0:0:0:35:
51,192,48576,1,0,0:0:0:35:
358,192,48655,1,0,0:0:0:35:
153,192,48655,1,0,0:0:0:35:
153,192,48813,1,0,0:0:0:35:
358,192,48813,1,0,0:0:0:35:
460,192,48892,1,0,0:0:0:35:
256,192,48971,1,0,0:0:0:35:
51,192,49050,1,0,0:0:0:35:
460,192,49129,1,0,0:0:0:35:
256,192,49208,1,0,0:0:0:35:
51,192,49287,128,0,49366:0:0:0:35:
358,192,49287,128,0,49366:0:0:0:35:
153,192,49445,128,0,49602:0:0:0:35:
460,192,49445,128,0,49602:0:0:0:35:
358,192,49602,1,0,0:0:0:35:
51,192,49602,1,0,0:0:0:35:
256,192,49681,1,0,0:0:0:35:
153,192,49760,1,0,0:0:0:35:
51,192,49760,1,0,0:0:0:35:
358,192,49839,1,0,0:0:0:35:
460,192,49839,1,0,0:0:0:35:
256,192,49918,1,0,0:0:0:35:
51,192,49918,1,0,0:0:0:35:
256,192,50076,1,0,0:0:0:35:
460,192,50076,1,0,0:0:0:0:
256,192,50234,1,0,0:0:0:35:
51,192,50234,1,0,0:0:0:35:
358,192,50313,1,0,0:0:0:35:
460,192,50313,1,0,0:0:0:35:
153,192,50392,1,0,0:0:0:35:
51,192,50392,1,0,0:0:0:35:
256,192,50471,1,0,0:0:0:35:
460,192,50471,1,0,0:0:0:35:
358,192,50550,128,0,51181:0:0:0:35:
51,192,50550,1,0,0:0:0:35:
460,192,51024,128,0,52918:0:0:0:35:
51,192,51181,1,0,0:0:0:35:
256,192,51260,1,0,0:0:0:35:
51,192,51339,1,0,0:0:0:35:
256,192,51418,1,0,0:0:0:35:
51,192,51497,128,0,51813:0:0:0:35:
153,192,51813,1,0,0:0:0:35:
51,192,52366,1,0,0:0:0:35:
153,192,52405,1,0,0:0:0:35:
358,192,52445,128,0,52602:0:0:0:35:
256,192,52445,128,0,52524:0:0:0:0:
51,192,52760,128,0,53076:0:0:0:35:
153,192,52918,1,0,0:0:0:35:
256,192,52971,1,0,0:0:0:35:
358,192,53024,1,0,0:0:0:35:
460,192,53076,1,4,0:0:0:35:
153,192,53076,1,0,0:0:0:35:
358,192,53234,1,0,0:0:0:35:
51,192,53392,1,0,0:0:0:35:
256,192,53550,1,0,0:0:0:35:
460,192,53708,1,0,0:0:0:35:
51,192,53866,1,0,0:0:0:35:
256,192,54024,1,0,0:0:0:35:
460,192,54181,1,0,0:0:0:35:
358,192,54339,1,0,0:0:0:35:
153,192,54497,1,0,0:0:0:35:
51,192,54655,1,0,0:0:0:35:
256,192,54813,1,0,0:0:0:35:
153,192,54971,1,0,0:0:0:35:
51,192,54971,1,0,0:0:0:35:
358,192,55129,1,0,0:0:0:35:
153,192,55287,1,0,0:0:0:35:
256,192,55445,1,0,0:0:0:35:
460,192,55602,1,0,0:0:0:35:
358,192,55602,1,0,0:0:0:35:
153,192,55760,1,0,0:0:0:35:
358,192,55918,1,0,0:0:0:35:
51,192,56076,1,0,0:0:0:35:
256,192,56234,1,0,0:0:0:35:
460,192,56392,1,0,0:0:0:35:
256,192,56550,1,0,0:0:0:35:
153,192,56708,1,0,0:0:0:35:
51,192,56866,1,0,0:0:0:35:
256,192,57024,1,0,0:0:0:35:
460,192,57181,1,0,0:0:0:35:
51,192,57339,1,0,0:0:0:35:
153,192,57497,1,0,0:0:0:35:
358,192,57497,1,0,0:0:0:35:
460,192,57655,1,0,0:0:0:35:
256,192,57813,1,0,0:0:0:35:
51,192,57971,1,0,0:0:0:35:
358,192,58129,1,0,0:0:0:35:
460,192,58129,1,0,0:0:0:35:
256,192,58287,1,0,0:0:0:35:
153,192,58445,1,0,0:0:0:35:
358,192,58602,1,0,0:0:0:35:
460,192,58760,1,0,0:0:0:35:
256,192,58918,1,0,0:0:0:35:
51,192,59076,1,0,0:0:0:35:
358,192,59234,1,0,0:0:0:35:
153,192,59392,1,0,0:0:0:35:
256,192,59550,1,0,0:0:0:35:
358,192,59708,1,0,0:0:0:35:
51,192,59866,1,0,0:0:0:35:
256,192,60024,1,0,0:0:0:35:
460,192,60181,1,0,0:0:0:35:
256,192,60339,1,0,0:0:0:35:
51,192,60497,1,0,0:0:0:35:
358,192,60655,1,0,0:0:0:35:
153,192,60813,1,0,0:0:0:35:
358,192,60971,1,0,0:0:0:35:
256,192,61129,1,0,0:0:0:35:
153,192,61287,1,0,0:0:0:35:
51,192,61287,1,0,0:0:0:35:
358,192,61445,1,0,0:0:0:35:
51,192,61602,1,0,0:0:0:35:
256,192,61760,1,0,0:0:0:35:
460,192,61760,1,0,0:0:0:35:
460,192,61918,1,0,0:0:0:35:
153,192,61918,1,0,0:0:0:35:
358,192,62076,1,0,0:0:0:35:
51,192,62234,1,0,0:0:0:35:
256,192,62392,1,0,0:0:0:35:
460,192,62550,1,0,0:0:0:35:
153,192,62708,1,0,0:0:0:35:
358,192,62866,1,0,0:0:0:35:
256,192,63024,1,0,0:0:0:35:
153,192,63181,1,0,0:0:0:35:
358,192,63339,1,0,0:0:0:35:
51,192,63497,1,0,0:0:0:35:
153,192,63655,1,0,0:0:0:35:
358,192,63813,1,0,0:0:0:35:
460,192,63971,1,0,0:0:0:35:
256,192,64129,1,0,0:0:0:35:
51,192,64287,1,0,0:0:0:35:
358,192,64445,1,0,0:0:0:35:
153,192,64602,1,0,0:0:0:35:
256,192,64760,1,0,0:0:0:35:
358,192,64918,1,0,0:0:0:35:
51,192,65076,1,0,0:0:0:35:
460,192,65076,1,0,0:0:0:35:
358,192,65234,1,0,0:0:0:35:
256,192,65392,1,0,0:0:0:35:
153,192,65550,1,0,0:0:0:35:
460,192,65708,1,0,0:0:0:35:
358,192,65708,1,0,0:0:0:35:
256,192,65866,1,0,0:0:0:35:
153,192,66024,1,0,0:0:0:35:
358,192,66181,1,0,0:0:0:35:
51,192,66339,1,0,0:0:0:35:
256,192,66497,1,0,0:0:0:35:
460,192,66655,1,0,0:0:0:35:
153,192,66813,1,0,0:0:0:35:
256,192,66971,1,0,0:0:0:35:
460,192,66971,1,0,0:0:0:35:
358,192,67129,1,0,0:0:0:35:
153,192,67287,1,0,0:0:0:35:
256,192,67445,1,0,0:0:0:35:
358,192,67602,1,0,0:0:0:35:
51,192,67760,1,0,0:0:0:35:
256,192,67918,1,0,0:0:0:35:
460,192,68076,1,0,0:0:0:35:
51,192,68234,1,0,0:0:0:35:
153,192,68234,1,0,0:0:0:35:
358,192,68392,1,0,0:0:0:35:
51,192,68550,1,0,0:0:0:35:
256,192,68708,1,0,0:0:0:35:
460,192,68866,1,0,0:0:0:35:
358,192,69024,1,0,0:0:0:35:
256,192,69181,1,0,0:0:0:35:
153,192,69339,1,0,0:0:0:35:
256,192,69497,128,0,69813:0:0:0:35:
51,192,69497,1,0,0:0:0:35:
51,192,69813,1,0,0:0:0:35:
460,192,69892,128,0,70524:0:0:0:35:
256,192,69931,128,0,70602:0:0:0:35:
51,192,69971,128,0,70681:0:0:0:35:
460,192,70602,1,0,0:0:0:35:
358,192,70655,1,0,0:0:0:35:
256,192,70708,1,0,0:0:0:0:
153,192,70760,1,4,0:0:0:35:
51,192,70760,1,0,0:0:0:35:
460,192,70760,1,0,0:0:0:35:
256,192,72655,1,0,0:0:0:35:
460,192,73287,128,4,73760:0:0:0:35:
358,192,73287,128,0,73918:0:0:0:35:
153,192,73287,1,0,0:0:0:35:
51,192,73918,1,8,0:0:0:35:
256,192,73918,1,0,0:0:0:35:
153,192,73918,1,0,0:0:0:35:
460,192,74076,1,0,0:0:0:35:
153,192,74155,1,0,0:0:0:35:
358,192,74155,1,0,0:0:0:35:
51,192,74234,1,0,0:0:0:35:
358,192,74313,1,0,0:0:0:35:
460,192,74392,1,0,0:0:0:35:
153,192,74392,1,0,0:0:0:35:
51,192,74471,1,0,0:0:0:35:
358,192,74471,1,0,0:0:0:35:
153,192,74550,1,4,0:0:0:35:
256,192,74550,1,0,0:0:0:35:
460,192,74550,1,0,0:0:0:35:
51,192,75102,1,0,0:0:0:35:
460,192,75102,1,0,0:0:0:35:
153,192,75181,1,8,0:0:0:35:
256,192,75181,1,0,0:0:0:35:
358,192,75181,1,0,0:0:0:35:
358,192,75339,1,0,0:0:0:35:
153,192,75418,1,0,0:0:0:35:
358,192,75497,1,0,0:0:0:35:
256,192,75576,1,0,0:0:0:35:
153,192,75655,1,0,0:0:0:35:
51,192,75655,1,0,0:0:0:35:
358,192,75734,1,0,0:0:0:35:
460,192,75734,1,0,0:0:0:35:
153,192,75813,1,4,0:0:0:35:
51,192,75813,1,0,0:0:0:35:
256,192,75813,1,0,0:0:0:35:
358,192,75892,1,0,0:0:0:35:
153,192,75971,1,0,0:0:0:35:
256,192,76050,1,0,0:0:0:35:
358,192,76129,1,0,0:0:0:35:
460,192,76129,1,0,0:0:0:35:
51,192,76208,1,0,0:0:0:35:
256,192,76287,1,0,0:0:0:35:
460,192,76366,1,0,0:0:0:35:
51,192,76445,1,8,0:0:0:35:
153,192,76445,1,0,0:0:0:35:
358,192,76445,1,0,0:0:0:35:
256,192,76602,1,0,0:0:0:35:
153,192,76681,1,0,0:0:0:35:
460,192,76760,1,0,0:0:0:35:
460,192,76866,1,0,0:0:0:35:
460,192,76971,1,0,0:0:0:35:
51,192,77076,1,4,0:0:0:35:
153,192,77076,1,0,0:0:0:35:
358,192,77076,1,0,0:0:0:35:
153,192,77708,1,8,0:0:0:35:
358,192,77708,1,0,0:0:0:35:
256,192,77708,128,0,77866:0:0:0:35:
256,192,78024,128,0,78339:0:0:0:35:
358,192,78339,1,8,0:0:0:35:
153,192,78339,128,0,78576:0:0:0:35:
460,192,78339,1,0,0:0:0:35:
256,192,78497,1,0,0:0:0:35:
153,192,78655,128,8,78971:0:0:0:35:
358,192,78655,128,0,78971:0:0:0:35:
51,192,78655,1,0,0:0:0:35:
460,192,78971,1,0,0:0:0:35:
51,192,78971,1,0,0:0:0:35:
153,192,79181,1,4,0:0:0:35:
358,192,79181,1,0,0:0:0:35:
256,192,79181,1,0,0:0:0:35:
51,192,79287,1,0,0:0:0:35:
460,192,79392,1,0,0:0:0:35:
153,192,79497,1,4,0:0:0:35:
358,192,79497,1,0,0:0:0:35:
153,192,79602,1,4,0:0:0:35:
358,192,79602,1,0,0:0:0:35:
256,192,79602,1,0,0:0:0:35:
153,192,79839,1,8,0:0:0:35:
51,192,79839,1,0,0:0:0:35:
358,192,79839,1,0,0:0:0:35:
153,192,80234,1,8,0:0:0:35:
358,192,80234,1,0,0:0:0:35:
460,192,80234,1,0,0:0:0:35:
256,192,80392,1,0,0:0:0:35:
51,192,80471,1,0,0:0:0:35:
153,192,80550,1,0,0:0:0:35:
358,192,80550,1,0,0:0:0:35:
460,192,80550,1,0,0:0:0:35:
358,192,80866,1,0,0:0:0:35:
256,192,80945,1,0,0:0:0:35:
153,192,81024,1,0,0:0:0:35:
460,192,81024,1,0,0:0:0:35:
153,192,81181,1,0,0:0:0:35:
256,192,81260,1,0,0:0:0:35:
358,192,81339,1,0,0:0:0:35:
51,192,81339,1,0,0:0:0:35:
256,192,81497,1,8,0:0:0:35:
460,192,81497,1,0,0:0:0:35:
153,192,81497,128,0,82129:0:0:0:35:
256,192,81734,1,8,0:0:0:35:
460,192,81734,1,0,0:0:0:35:
51,192,82129,1,4,0:0:0:35:
358,192,82129,128,0,82760:0:0:0:35:
460,192,82129,1,0,0:0:0:35:
153,192,82760,1,0,0:0:0:35:
256,192,82839,1,0,0:0:0:35:
358,192,82918,1,0,0:0:0:35:
153,192,82997,1,0,0:0:0:35:
256,192,83076,128,0,83392:0:0:0:35:
460,192,83076,128,0,83392:0:0:0:35:
358,192,83392,1,4,0:0:0:35:
153,192,83392,1,0,0:0:0:35:
51,192,83392,1,0,0:0:0:35:
51,192,83550,128,0,84024:0:0:0:35:
153,192,84024,1,0,0:0:0:35:
460,192,84024,1,0,0:0:0:35:
358,192,84024,1,0,0:0:0:35:
256,192,84102,1,0,0:0:0:35:
153,192,84181,1,0,0:0:0:35:
358,192,84260,1,0,0:0:0:35:
256,192,84339,1,0,0:0:0:35:
153,192,84418,1,0,0:0:0:35:
358,192,84497,1,0,0:0:0:35:
153,192,84576,1,0,0:0:0:35:
256,192,84655,1,0,0:0:0:35:
460,192,84655,128,0,84734:0:0:0:35:
460,192,84813,128,0,84892:0:0:0:35:
256,192,84813,1,0,0:0:0:35:
153,192,84971,1,0,0:0:0:35:
358,192,85076,1,0,0:0:0:35:
153,192,85181,1,0,0:0:0:35:
256,192,85287,1,8,0:0:0:35:
358,192,85287,1,0,0:0:0:35:
460,192,85287,1,0,0:0:0:35:
51,192,85445,1,0,0:0:0:35:
256,192,85524,1,0,0:0:0:35:
460,192,85602,1,0,0:0:0:35:
153,192,85681,1,0,0:0:0:35:
358,192,85760,1,0,0:0:0:35:
51,192,85918,1,8,0:0:0:35:
460,192,85918,1,0,0:0:0:35:
153,192,85918,128,0,86550:0:0:0:35:
358,192,86550,1,0,0:0:0:35:
460,192,86550,1,0,0:0:0:35:
256,192,86629,1,0,0:0:0:35:
153,192,86708,1,0,0:0:0:35:
256,192,86866,1,0,0:0:0:0:
51,192,86866,1,0,0:0:0:35:
51,192,86945,1,0,0:0:0:35:
153,192,87024,1,8,0:0:0:35:
358,192,87024,1,0,0:0:0:35:
460,192,87024,1,0,0:0:0:35:
256,192,87181,1,0,0:0:0:35:
256,192,87339,1,0,0:0:0:35:
153,192,87497,128,0,87655:0:0:0:35:
358,192,87497,1,0,0:0:0:35:
51,192,87497,1,0,0:0:0:35:
358,192,87655,1,0,0:0:0:35:
256,192,87813,1,0,0:0:0:35:
256,192,87971,1,0,0:0:0:35:
153,192,88129,1,0,0:0:0:35:
358,192,88129,128,0,88287:0:0:0:35:
460,192,88129,1,0,0:0:0:35:
153,192,88287,1,0,0:0:0:0:
51,192,88445,1,0,0:0:0:35:
256,192,88550,1,0,0:0:0:35:
460,192,88655,1,0,0:0:0:35:
153,192,88760,1,0,0:0:0:35:
358,192,88866,1,0,0:0:0:35:
51,192,88971,1,0,0:0:0:35:
256,192,89076,1,0,0:0:0:35:
460,192,89076,1,0,0:0:0:35:
153,192,89181,1,0,0:0:0:35:
358,192,89287,1,0,0:0:0:35:
51,192,89392,1,0,0:0:0:35:
256,192,89497,1,0,0:0:0:35:
460,192,89602,1,0,0:0:0:35:
51,192,89708,1,0,0:0:0:35:
358,192,89708,1,0,0:0:0:35:
153,192,89813,1,0,0:0:0:35:
358,192,89918,1,0,0:0:0:35:
460,192,90024,1,0,0:0:0:35:
51,192,90129,1,0,0:0:0:35:
153,192,90234,1,0,0:0:0:35:
256,192,90339,1,0,0:0:0:35:
460,192,90339,1,0,0:0:0:35:
51,192,90445,1,0,0:0:0:35:
153,192,90550,1,0,0:0:0:35:
358,192,90655,1,0,0:0:0:35:
460,192,90760,1,0,0:0:0:35:
51,192,90760,1,0,0:0:0:0:
153,192,90866,1,0,0:0:0:35:
256,192,90971,1,0,0:0:0:35:
460,192,90971,1,0,0:0:0:35:
51,192,91076,1,0,0:0:0:35:
256,192,91181,1,0,0:0:0:35:
460,192,91287,1,0,0:0:0:35:
153,192,91392,1,0,0:0:0:35:
256,192,91497,1,0,0:0:0:35:
358,192,91602,1,0,0:0:0:35:
51,192,91602,1,0,0:0:0:35:
153,192,91708,1,0,0:0:0:35:
358,192,91813,1,0,0:0:0:35:
153,192,91918,1,0,0:0:0:35:
358,192,92024,1,0,0:0:0:35:
153,192,92129,1,0,0:0:0:35:
51,192,92234,1,0,0:0:0:35:
460,192,92234,1,0,0:0:0:35:
256,192,92339,1,0,0:0:0:35:
51,192,92445,1,0,0:0:0:35:
358,192,92550,1,0,0:0:0:35:
153,192,92655,1,0,0:0:0:35:
460,192,92760,1,0,0:0:0:35:
256,192,92866,1,0,0:0:0:35:
51,192,92866,1,0,0:0:0:35:
358,192,92971,1,0,0:0:0:35:
153,192,93076,1,0,0:0:0:35:
358,192,93181,1,0,0:0:0:35:
153,192,93287,1,0,0:0:0:35:
358,192,93392,1,0,0:0:0:35:
460,192,93497,1,0,0:0:0:35:
51,192,93497,1,0,0:0:0:35:
153,192,93602,1,0,0:0:0:35:
358,192,93708,1,0,0:0:0:35:
460,192,93813,1,0,0:0:0:35:
153,192,93918,1,0,0:0:0:35:
358,192,94024,1,0,0:0:0:35:
256,192,94129,1,0,0:0:0:35:
51,192,94129,1,0,0:0:0:35:
460,192,94234,1,0,0:0:0:35:
153,192,94339,1,0,0:0:0:35:
358,192,94445,1,0,0:0:0:35:
51,192,94550,1,0,0:0:0:35:
256,192,94655,1,0,0:0:0:35:
460,192,94760,1,0,0:0:0:35:
358,192,94760,1,0,0:0:0:35:
153,192,94866,1,0,0:0:0:35:
358,192,94971,1,0,0:0:0:35:
153,192,95076,1,0,0:0:0:35:
358,192,95181,1,0,0:0:0:35:
51,192,95287,1,0,0:0:0:35:
256,192,95392,1,0,0:0:0:35:
460,192,95392,1,0,0:0:0:35:
51,192,95497,1,0,0:0:0:35:
358,192,95602,1,0,0:0:0:35:
153,192,95708,1,0,0:0:0:35:
460,192,95813,1,0,0:0:0:35:
256,192,95813,1,0,0:0:0:35:
460,192,96024,1,0,0:0:0:35:
256,192,96024,1,0,0:0:0:35:
153,192,96234,1,0,0:0:0:35:
358,192,96234,1,0,0:0:0:35:
51,192,96445,1,0,0:0:0:35:
256,192,96445,1,0,0:0:0:35:
358,192,96655,1,0,0:0:0:35:
460,192,96655,1,0,0:0:0:35:
51,192,96866,1,0,0:0:0:35:
153,192,96866,1,0,0:0:0:35:
256,192,97076,1,0,0:0:0:35:
460,192,97076,1,0,0:0:0:35:
460,192,97287,1,0,0:0:0:35:
153,192,97287,1,0,0:0:0:35:
51,192,97497,1,0,0:0:0:35:
460,192,97497,1,0,0:0:0:35:
358,192,97708,1,0,0:0:0:35:
51,192,97708,1,0,0:0:0:35:
256,192,97918,1,0,0:0:0:35:
51,192,97918,1,0,0:0:0:35:
358,192,98129,1,0,0:0:0:35:
460,192,98129,1,0,0:0:0:35:
51,192,98339,1,0,0:0:0:35:
153,192,98339,1,0,0:0:0:35:
256,192,98550,1,0,0:0:0:35:
460,192,98550,1,0,0:0:0:35:
51,192,98760,1,0,0:0:0:35:
153,192,98760,1,0,0:0:0:35:
358,192,98971,1,0,0:0:0:35:
460,192,98971,1,0,0:0:0:35:
256,192,99181,1,0,0:0:0:35:
51,192,99181,1,0,0:0:0:35:
153,192,99392,1,0,0:0:0:35:
358,192,99392,1,0,0:0:0:35:
256,192,99602,1,0,0:0:0:35:
460,192,99602,1,0,0:0:0:35:
153,192,99813,1,4,0:0:0:35:
358,192,99813,1,0,0:0:0:35:
51,192,99813,1,0,0:0:0:35:
51,192,100024,1,0,0:0:0:35:
256,192,100024,1,0,0:0:0:35:
153,192,100234,1,0,0:0:0:35:
460,192,100234,1,0,0:0:0:35:
51,192,100445,128,0,101076:0:0:0:35:
358,192,100445,1,0,0:0:0:35:
256,192,101076,1,0,0:0:0:35:
460,192,101076,1,0,0:0:0:35:
153,192,101708,1,0,0:0:0:35:
51,192,101708,1,0,0:0:0:35:
256,192,101813,1,0,0:0:0:35:
51,192,101918,1,0,0:0:0:35:
358,192,101918,1,0,0:0:0:35:
153,192,102024,1,0,0:0:0:35:
460,192,102024,1,0,0:0:0:35:
358,192,102129,1,0,0:0:0:35:
153,192,102234,1,0,0:0:0:35:
358,192,102339,1,4,0:0:0:35:
51,192,102339,1,0,0:0:0:35:
256,192,102339,1,0,0:0:0:35:
153,192,102655,1,0,0:0:0:35:
460,192,102655,1,0,0:0:0:35:
358,192,102760,1,0,0:0:0:35:
256,192,102760,1,0,0:0:0:35:
51,192,102866,1,0,0:0:0:35:
460,192,102866,1,0,0:0:0:35:
358,192,102971,1,0,0:0:0:35:
153,192,102971,128,0,103602:0:0:0:35:
256,192,103129,1,0,0:0:0:0:
460,192,103287,1,0,0:0:0:0:
256,192,103445,1,0,0:0:0:0:
460,192,103602,1,4,0:0:0:35:
358,192,103602,1,0,0:0:0:35:
51,192,103602,1,0,0:0:0:35:
153,192,103918,1,0,0:0:0:35:
51,192,103918,1,0,0:0:0:35:
358,192,104024,1,0,0:0:0:35:
460,192,104024,1,0,0:0:0:35:
153,192,104129,1,0,0:0:0:35:
51,192,104129,1,0,0:0:0:35:
358,192,104234,1,0,0:0:0:35:
460,192,104234,1,0,0:0:0:35:
256,192,104234,128,0,104550:0:0:0:35:
51,192,104550,1,0,0:0:0:35:
153,192,104629,1,0,0:0:0:35:
460,192,104708,1,0,0:0:0:35:
358,192,104787,1,0,0:0:0:35:
153,192,104866,1,0,0:0:0:35:
256,192,104866,1,0,0:0:0:35:
358,192,104971,1,0,0:0:0:35:
153,192,105076,1,0,0:0:0:35:
358,192,105181,1,0,0:0:0:35:
256,192,105287,1,0,0:0:0:35:
153,192,105392,1,0,0:0:0:35:
358,192,105497,1,0,0:0:0:35:
51,192,105497,1,0,0:0:0:35:
256,192,105602,1,0,0:0:0:35:
153,192,105708,1,0,0:0:0:35:
460,192,105813,1,0,0:0:0:35:
358,192,105918,1,0,0:0:0:35:
256,192,106024,1,0,0:0:0:35:
51,192,106129,1,2,0:0:0:35:
153,192,106129,1,4,0:0:0:35:
460,192,106129,1,0,0:0:0:35:
153,192,106445,1,8,0:0:0:35:
358,192,106445,1,0,0:0:0:35:
51,192,106760,1,8,0:0:0:35:
256,192,106760,1,0,0:0:0:35:
358,192,106760,1,0,0:0:0:35:
460,192,106918,1,0,0:0:0:35:
51,192,107076,1,4,0:0:0:35:
153,192,107076,1,8,0:0:0:35:
358,192,107076,1,0,0:0:0:35:
460,192,107234,1,0,0:0:0:35:
153,192,107392,1,4,0:0:0:35:
256,192,107392,1,0,0:0:0:35:
358,192,107392,1,0,0:0:0:35:
153,192,107629,1,4,0:0:0:35:
256,192,107629,1,0,0:0:0:35:
358,192,107629,1,0,0:0:0:35:
51,192,107813,1,4,0:0:0:35:
153,192,107813,1,0,0:0:0:35:
460,192,107813,1,0,0:0:0:35:
153,192,108024,1,4,0:0:0:35:
358,192,108024,1,0,0:0:0:35:
460,192,108024,1,0,0:0:0:35:
51,192,108234,1,8,0:0:0:35:
256,192,108234,1,4,0:0:0:35:
358,192,108234,1,0,0:0:0:35:
153,192,108445,1,4,0:0:0:35:
460,192,108445,1,0,0:0:0:35:
358,192,108445,1,0,0:0:0:35:
51,192,108655,1,4,0:0:0:35:
460,192,108655,1,0,0:0:0:35:
153,192,108971,1,0,0:0:0:35:
358,192,109050,1,0,0:0:0:35:
256,192,109129,1,0,0:0:0:35:
153,192,109208,1,0,0:0:0:35:
358,192,109287,128,0,109602:0:0:0:35:
460,192,109287,1,0,0:0:0:35:
51,192,109602,1,4,0:0:0:35:
256,192,109602,1,0,0:0:0:35:
153,192,109918,1,4,0:0:0:35:
460,192,109918,1,0,0:0:0:35:
358,192,110234,1,0,0:0:0:35:
153,192,110313,1,0,0:0:0:35:
358,192,110392,1,0,0:0:0:35:
256,192,110471,1,0,0:0:0:35:
153,192,110550,1,0,0:0:0:35:
51,192,110550,128,0,111181:0:0:0:35:
358,192,110708,1,0,0:0:0:35:
460,192,110866,1,0,0:0:0:35:
256,192,111024,1,0,0:0:0:35:
358,192,111181,1,0,0:0:0:35:
256,192,111260,1,0,0:0:0:35:
153,192,111339,1,0,0:0:0:35:
358,192,111418,1,0,0:0:0:35:
256,192,111497,1,8,0:0:0:35:
51,192,111497,1,0,0:0:0:35:
358,192,111576,1,0,0:0:0:35:
460,192,111576,1,0,0:0:0:35:
153,192,111655,1,0,0:0:0:35:
51,192,111655,1,0,0:0:0:35:
256,192,111813,1,8,0:0:0:35:
358,192,111813,1,0,0:0:0:35:
153,192,111813,1,0,0:0:0:35:
358,192,111971,1,0,0:0:0:35:
153,192,112129,1,0,0:0:0:35:
51,192,112129,1,0,0:0:0:35:
51,192,112287,1,0,0:0:0:35:
256,192,112445,1,0,0:0:0:35:
358,192,112445,1,0,0:0:0:35:
460,192,112445,1,0,0:0:0:35:
460,192,112602,1,0,0:0:0:35:
153,192,112760,1,0,0:0:0:35:
51,192,112760,1,0,0:0:0:35:
358,192,112839,1,0,0:0:0:35:
256,192,112918,1,0,0:0:0:35:
153,192,112997,1,0,0:0:0:35:
358,192,113076,128,0,113392:0:0:0:35:
460,192,113076,1,0,0:0:0:35:
153,192,113392,128,8,113708:0:0:0:35:
51,192,113392,1,0,0:0:0:35:
256,192,113708,1,0,0:0:0:35:
460,192,113708,1,0,0:0:0:35:
256,192,113866,1,0,0:0:0:35:
460,192,113866,1,0,0:0:0:35:
51,192,114024,1,0,0:0:0:35:
153,192,114076,1,0,0:0:0:35:
358,192,114129,1,0,0:0:0:35:
256,192,114181,1,0,0:0:0:35:
153,192,114234,1,0,0:0:0:35:
358,192,114287,1,0,0:0:0:35:
460,192,114339,1,0,0:0:0:35:
153,192,114418,1,0,0:0:0:35:
358,192,114497,1,0,0:0:0:35:
256,192,114576,1,0,0:0:0:35:
153,192,114655,1,0,0:0:0:35:
358,192,114734,1,0,0:0:0:35:
51,192,114813,1,0,0:0:0:35:
256,192,114892,1,0,0:0:0:35:
460,192,114971,1,0,0:0:0:35:
153,192,115050,1,0,0:0:0:35:
358,192,115129,1,0,0:0:0:35:
256,192,115208,1,0,0:0:0:35:
153,192,115287,1,4,0:0:0:35:
358,192,115366,1,4,0:0:0:35:
153,192,115445,1,4,0:0:0:35:
256,192,115524,1,4,0:0:0:35:
358,192,115602,1,8,0:0:0:35:
51,192,115602,1,0,0:0:0:35:
460,192,115602,1,0,0:0:0:35:
153,192,115760,1,0,0:0:0:35:
358,192,115918,1,0,0:0:0:35:
153,192,116076,1,0,0:0:0:35:
358,192,116234,1,0,0:0:0:35:
256,192,116234,128,0,116866:0:0:0:35:
153,192,116392,1,0,0:0:0:35:
358,192,116550,1,0,0:0:0:35:
51,192,116787,128,0,116866:0:0:0:35:
460,192,116866,128,0,117497:0:0:0:35:
153,192,117024,1,0,0:0:0:35:
358,192,117181,1,0,0:0:0:35:
51,192,117339,1,0,0:0:0:35:
153,192,117392,1,0,0:0:0:35:
256,192,117445,1,0,0:0:0:35:
358,192,117497,1,0,0:0:0:35:
51,192,117576,1,0,0:0:0:35:
256,192,117655,1,0,0:0:0:35:
460,192,117734,1,0,0:0:0:35:
153,192,117813,1,0,0:0:0:35:
358,192,117813,1,0,0:0:0:35:
51,192,117892,1,0,0:0:0:35:
256,192,117971,1,0,0:0:0:35:
460,192,118050,1,0,0:0:0:35:
153,192,118129,1,0,0:0:0:35:
358,192,118129,1,0,0:0:0:35:
153,192,118208,1,0,0:0:0:35:
256,192,118287,1,0,0:0:0:35:
256,192,118366,1,0,0:0:0:35:
358,192,118445,1,0,0:0:0:35:
153,192,118445,128,0,118760:0:0:0:35:
256,192,118760,1,0,0:0:0:35:
460,192,118760,1,0,0:0:0:35:
51,192,118760,1,0,0:0:0:35:
358,192,118918,1,0,0:0:0:35:
153,192,119076,1,4,0:0:0:35:
256,192,119076,1,0,0:0:0:35:
358,192,119234,1,0,0:0:0:35:
153,192,119392,1,4,0:0:0:35:
51,192,119392,1,8,0:0:0:35:
460,192,119392,1,0,0:0:0:35:
256,192,119550,1,0,0:0:0:35:
358,192,119629,1,0,0:0:0:35:
153,192,119708,1,0,0:0:0:35:
256,192,119787,1,0,0:0:0:35:
358,192,119866,1,0,0:0:0:35:
51,192,119945,1,0,0:0:0:35:
153,192,120024,1,0,0:0:0:35:
460,192,120024,1,0,0:0:0:35:
460,192,120181,1,0,0:0:0:35:
153,192,120181,1,0,0:0:0:35:
256,192,120339,1,0,0:0:0:35:
358,192,120392,1,0,0:0:0:35:
153,192,120445,1,0,0:0:0:35:
256,192,120497,1,0,0:0:0:35:
358,192,120550,1,0,0:0:0:35:
153,192,120602,1,0,0:0:0:35:
51,192,120655,1,4,0:0:0:35:
460,192,120655,1,8,0:0:0:35:
256,192,120655,1,0,0:0:0:35:
358,192,120813,1,0,0:0:0:35:
153,192,120892,1,0,0:0:0:35:
358,192,120971,1,0,0:0:0:35:
153,192,121050,1,0,0:0:0:35:
358,192,121129,1,0,0:0:0:35:
153,192,121208,1,0,0:0:0:35:
256,192,121287,1,8,0:0:0:35:
460,192,121287,1,0,0:0:0:35:
51,192,121445,1,4,0:0:0:35:
153,192,121524,1,4,0:0:0:35:
256,192,121602,1,8,0:0:0:35:
460,192,121602,1,0,0:0:0:35:
358,192,121602,1,0,0:0:0:35:
51,192,121760,1,4,0:0:0:35:
153,192,121839,1,4,0:0:0:35:
256,192,121918,1,8,0:0:0:35:
358,192,121918,1,0,0:0:0:35:
460,192,121918,1,0,0:0:0:35:
51,192,122076,1,4,0:0:0:35:
153,192,122129,1,4,0:0:0:35:
460,192,122181,1,4,0:0:0:35:
358,192,122234,1,8,0:0:0:35:
256,192,122234,1,4,0:0:0:35:
51,192,122234,1,0,0:0:0:35:
460,192,122392,1,4,0:0:0:35:
358,192,122445,1,4,0:0:0:35:
51,192,122497,1,4,0:0:0:35:
153,192,122550,1,0,0:0:0:35:
256,192,122550,1,0,0:0:0:35:
256,192,122708,1,0,0:0:0:35:
153,192,122866,1,0,0:0:0:35:
358,192,123024,1,0,0:0:0:35:
51,192,123102,128,0,123181:0:0:0:35:
256,192,123181,128,0,123813:0:0:0:35:
51,192,123655,1,0,0:0:0:35:
153,192,123708,1,0,0:0:0:35:
460,192,123760,1,0,0:0:0:35:
358,192,123813,1,2,0:0:0:35:
51,192,123813,1,4,0:0:0:35:
153,192,123813,1,0,0:0:0:35:
153,192,124129,1,4,0:0:0:35:
358,192,124129,1,0,0:0:0:35:
153,192,124445,1,4,0:0:0:35:
358,192,124445,1,8,0:0:0:35:
256,192,124445,1,0,0:0:0:35:
153,192,124760,1,4,0:0:0:35:
358,192,124760,1,0,0:0:0:35:
51,192,125076,1,4,0:0:0:35:
256,192,125076,1,0,0:0:0:35:
153,192,125076,1,0,0:0:0:35:
358,192,125234,1,0,0:0:0:35:
256,192,125313,1,0,0:0:0:35:
153,192,125392,1,0,0:0:0:35:
358,192,125471,1,0,0:0:0:35:
460,192,125550,1,4,0:0:0:35:
51,192,125550,1,0,0:0:0:35:
153,192,125550,1,0,0:0:0:35:
256,192,125708,128,0,126339:0:0:0:35:
358,192,125708,1,0,0:0:0:35:
460,192,125866,1,0,0:0:0:35:
153,192,126024,1,0,0:0:0:35:
51,192,126181,1,0,0:0:0:35:
153,192,126339,1,4,0:0:0:35:
358,192,126339,1,0,0:0:0:35:
460,192,126497,1,0,0:0:0:35:
256,192,126655,1,0,0:0:0:35:
153,192,126734,1,0,0:0:0:35:
358,192,126813,1,0,0:0:0:35:
256,192,126892,1,0,0:0:0:35:
51,192,126971,1,0,0:0:0:35:
153,192,126971,128,0,127287:0:0:0:35:
460,192,126971,1,0,0:0:0:35:
358,192,127287,1,4,0:0:0:35:
460,192,127287,1,0,0:0:0:35:
51,192,127287,1,0,0:0:0:35:
256,192,127602,1,4,0:0:0:35:
153,192,127602,1,0,0:0:0:35:
460,192,127602,1,0,0:0:0:35:
358,192,127760,1,0,0:0:0:35:
153,192,127839,1,0,0:0:0:35:
358,192,127918,1,0,0:0:0:35:
153,192,127997,1,0,0:0:0:35:
256,192,128076,1,4,0:0:0:35:
358,192,128076,1,0,0:0:0:35:
460,192,128076,1,0,0:0:0:35:
153,192,128234,128,0,128866:0:0:0:35:
51,192,128234,1,0,0:0:0:35:
358,192,128392,1,0,0:0:0:35:
460,192,128550,1,0,0:0:0:35:
256,192,128708,1,0,0:0:0:35:
358,192,128866,1,0,0:0:0:35:
460,192,128945,1,0,0:0:0:35:
153,192,129024,1,0,0:0:0:35:
256,192,129102,1,0,0:0:0:35:
358,192,129181,1,0,0:0:0:35:
153,192,129260,1,0,0:0:0:35:
51,192,129339,1,8,0:0:0:35:
460,192,129339,1,0,0:0:0:35:
153,192,129497,1,8,0:0:0:35:
256,192,129497,1,0,0:0:0:35:
460,192,129497,1,0,0:0:0:35:
153,192,129655,1,0,0:0:0:35:
358,192,129813,1,0,0:0:0:35:
256,192,129971,128,0,130129:0:0:0:35:
153,192,130129,1,0,0:0:0:35:
51,192,130129,1,0,0:0:0:35:
358,192,130129,1,0,0:0:0:35:
256,192,130287,1,0,0:0:0:35:
153,192,130445,1,0,0:0:0:35:
358,192,130445,1,0,0:0:0:35:
51,192,130524,1,0,0:0:0:35:
256,192,130602,1,0,0:0:0:35:
460,192,130681,1,0,0:0:0:35:
153,192,130760,128,4,130971:0:0:0:35:
51,192,130760,1,0,0:0:0:35:
460,192,130918,1,0,0:0:0:35:
358,192,130971,128,0,131181:0:0:0:35:
256,192,131181,128,0,131392:0:0:0:35:
153,192,131392,128,0,131550:0:0:0:35:
51,192,131392,1,0,0:0:0:35:
460,192,131550,128,0,131708:0:0:0:35:
51,192,131602,1,4,0:0:0:35:
153,192,131655,1,4,0:0:0:35:
358,192,131708,1,4,0:0:0:35:
256,192,131760,1,4,0:0:0:35:
153,192,131813,1,4,0:0:0:35:
358,192,131866,1,4,0:0:0:35:
460,192,131918,1,0,0:0:0:35:
256,192,131971,1,0,0:0:0:35:
51,192,132024,128,0,132181:0:0:0:35:
153,192,132181,128,0,132497:0:0:0:35:
358,192,132181,128,0,132497:0:0:0:35:
460,192,132339,128,0,132497:0:0:0:35:
256,192,132497,128,0,132655:0:0:0:35:
51,192,132497,128,0,132655:0:0:0:35:
358,192,132655,1,0,0:0:0:35:
460,192,132734,1,0,0:0:0:35:
256,192,132813,1,0,0:0:0:35:
51,192,132892,1,0,0:0:0:35:
358,192,132971,1,0,0:0:0:35:
256,192,133050,1,0,0:0:0:35:
153,192,133129,1,0,0:0:0:35:
358,192,133208,1,0,0:0:0:35:
153,192,133287,1,8,0:0:0:35:
51,192,133287,1,0,0:0:0:35:
460,192,133287,1,0,0:0:0:35:
153,192,133918,1,8,0:0:0:35:
256,192,133918,1,0,0:0:0:35:
358,192,133918,1,0,0:0:0:35:
51,192,134510,1,0,0:0:0:35:
153,192,134530,1,0,0:0:0:35:
256,192,134550,1,0,0:0:0:35:
358,192,134570,1,0,0:0:0:35:
460,192,134589,1,0,0:0:0:35:
51,192,135024,1,0,0:0:0:35:
153,192,135076,1,0,0:0:0:35:
460,192,135129,1,0,0:0:0:35:
358,192,135181,1,0,0:0:0:35:
51,192,135181,1,0,0:0:0:35:
256,192,135260,1,0,0:0:0:35:
153,192,135339,1,0,0:0:0:35:
460,192,135418,1,0,0:0:0:35:
256,192,135497,1,0,0:0:0:35:
51,192,135576,1,0,0:0:0:35:
256,192,135655,1,0,0:0:0:35:
460,192,135734,1,0,0:0:0:35:
256,192,135813,1,0,0:0:0:35:
51,192,135892,1,0,0:0:0:35:
358,192,135971,1,0,0:0:0:35:
153,192,136050,1,0,0:0:0:35:
358,192,136129,1,0,0:0:0:35:
153,192,136208,1,0,0:0:0:35:
358,192,136287,1,0,0:0:0:35:
256,192,136366,1,0,0:0:0:35:
460,192,136445,1,4,0:0:0:35:
51,192,136445,1,0,0:0:0:35:
153,192,136445,1,0,0:0:0:35:
153,192,136760,1,4,0:0:0:35:
358,192,136760,1,0,0:0:0:35:
256,192,136760,1,0,0:0:0:35:
51,192,137076,1,8,0:0:0:35:
153,192,137076,1,4,0:0:0:35:
358,192,137076,1,0,0:0:0:35:
460,192,137076,1,0,0:0:0:35:
256,192,137234,1,0,0:0:0:35:
153,192,137313,1,0,0:0:0:35:
460,192,137392,1,0,0:0:0:35:
256,192,137471,1,0,0:0:0:35:
51,192,137550,1,0,0:0:0:35:
460,192,137629,1,0,0:0:0:35:
153,192,137708,1,0,0:0:0:35:
358,192,137708,128,0,137787:0:0:0:35:
358,192,137866,1,0,0:0:0:35:
153,192,137866,128,0,137945:0:0:0:35:
51,192,138024,1,8,0:0:0:35:
460,192,138024,1,0,0:0:0:35:
153,192,138076,1,8,0:0:0:35:
358,192,138129,1,8,0:0:0:35:
256,192,138181,1,8,0:0:0:35:
153,192,138234,1,8,0:0:0:35:
358,192,138287,1,8,0:0:0:35:
460,192,138339,1,8,0:0:0:35:
51,192,138339,1,4,0:0:0:35:
256,192,138339,1,0,0:0:0:35:
153,192,138497,1,0,0:0:0:35:
358,192,138576,1,0,0:0:0:35:
51,192,138655,1,0,0:0:0:35:
460,192,138734,1,0,0:0:0:35:
153,192,138813,1,0,0:0:0:35:
358,192,138892,1,0,0:0:0:35:
51,192,138971,1,8,0:0:0:35:
256,192,138971,1,0,0:0:0:35:
460,192,139129,1,4,0:0:0:35:
358,192,139208,1,4,0:0:0:35:
256,192,139287,1,8,0:0:0:35:
51,192,139287,1,0,0:0:0:35:
153,192,139287,1,0,0:0:0:35:
460,192,139445,1,4,0:0:0:35:
358,192,139524,1,4,0:0:0:35:
256,192,139602,1,8,0:0:0:35:
153,192,139602,1,0,0:0:0:35:
51,192,139602,1,0,0:0:0:35:
358,192,139760,1,4,0:0:0:35:
460,192,139813,1,4,0:0:0:35:
51,192,139866,1,4,0:0:0:35:
153,192,139918,1,4,0:0:0:35:
256,192,139918,1,8,0:0:0:35:
358,192,139918,1,0,0:0:0:35:
51,192,140076,1,4,0:0:0:35:
358,192,140076,1,0,0:0:0:35:
460,192,140076,1,0,0:0:0:35:
256,192,140234,1,0,0:0:0:35:
153,192,140339,1,4,0:0:0:35:
460,192,140392,1,4,0:0:0:35:
256,192,140445,1,4,0:0:0:35:
51,192,140497,1,4,0:0:0:35:
153,192,140550,1,4,0:0:0:35:
460,192,140550,1,0,0:0:0:35:
358,192,140550,1,0,0:0:0:35:
256,192,140708,1,0,0:0:0:35:
51,192,140866,1,0,0:0:0:35:
153,192,140866,128,0,141497:0:0:0:35:
358,192,140866,1,0,0:0:0:35:
256,192,141024,1,0,0:0:0:35:
460,192,141181,1,0,0:0:0:35:
51,192,141339,1,0,0:0:0:35:
256,192,141392,1,0,0:0:0:35:
358,192,141445,1,0,0:0:0:35:
460,192,141497,1,4,0:0:0:35:
51,192,141497,1,0,0:0:0:35:
256,192,141497,1,0,0:0:0:35:
51,192,142760,1,0,0:0:0:35:
153,192,142800,1,0,0:0:0:35:
256,192,142839,1,0,0:0:0:35:
51,192,144024,1,0,0:0:0:35:
256,192,144063,1,0,0:0:0:35:
460,192,144102,1,0,0:0:0:35:
153,192,145287,1,0,0:0:0:35:
256,192,145326,1,0,0:0:0:35:
358,192,145366,1,0,0:0:0:35:
460,192,145405,1,0,0:0:0:35:
256,192,145997,1,0,0:0:0:0:
153,192,146550,1,4,0:0:0:35:
51,192,146550,1,0,0:0:0:35:
358,192,146550,1,0,0:0:0:35:
460,192,146550,1,0,0:0:0:35:
51,192,146866,1,4,0:0:0:35:
153,192,146866,1,0,0:0:0:35:
358,192,146866,1,0,0:0:0:35:
460,192,146866,1,0,0:0:0:35:
51,192,147181,1,4,0:0:0:35:
153,192,147181,1,0,0:0:0:35:
358,192,147181,1,0,0:0:0:35:
460,192,147181,1,0,0:0:0:35:
51,192,147497,1,4,0:0:0:35:
153,192,147497,1,0,0:0:0:35:
358,192,147497,1,0,0:0:0:35:
460,192,147497,1,0,0:0:0:35:
51,192,147813,1,4,0:0:0:35:
153,192,147813,1,0,0:0:0:35:
358,192,147813,1,0,0:0:0:35:
460,192,147813,1,0,0:0:0:35:
51,192,148024,1,4,0:0:0:35:
153,192,148024,1,0,0:0:0:35:
256,192,148024,1,0,0:0:0:35:
153,192,148234,1,4,0:0:0:35:
358,192,148234,1,0,0:0:0:35:
460,192,148234,1,0,0:0:0:35:
51,192,148445,1,4,0:0:0:35:
256,192,148445,1,0,0:0:0:35:
153,192,148445,1,0,0:0:0:35:
153,192,148655,1,4,0:0:0:35:
51,192,148655,1,0,0:0:0:35:
460,192,148655,1,0,0:0:0:35:
256,192,148866,1,4,0:0:0:35:
153,192,148866,1,0,0:0:0:35:
358,192,148866,1,0,0:0:0:35:
51,192,149076,1,4,0:0:0:35:
460,192,149076,1,0,0:0:0:35:
358,192,149076,128,0,150339:0:0:0:35:
51,192,149708,128,0,150024:0:0:0:35:
153,192,150024,128,0,150339:0:0:0:35:
256,192,150339,128,0,151287:0:0:0:35:
51,192,151602,1,0,0:0:0:35:
256,192,151642,1,0,0:0:0:35:
460,192,151681,1,0,0:0:0:35:
358,192,152234,1,0,0:0:0:35:
153,192,152866,1,0,0:0:0:35:
256,192,152971,1,0,0:0:0:35:
358,192,153076,1,0,0:0:0:35:
460,192,153181,1,0,0:0:0:35:
51,192,153497,1,0,0:0:0:35:
460,192,154129,1,0,0:0:0:35:
358,192,154234,1,0,0:0:0:35:
153,192,154339,1,0,0:0:0:35:
51,192,154445,1,0,0:0:0:35:
153,192,155392,1,0,0:0:0:35:
256,192,155497,1,0,0:0:0:35:
358,192,155602,1,0,0:0:0:35:
51,192,155708,1,0,0:0:0:35:
153,192,155787,1,0,0:0:0:35:
460,192,155866,1,0,0:0:0:35:
358,192,155945,1,0,0:0:0:35:
153,192,156024,1,0,0:0:0:35:
51,192,156102,1,0,0:0:0:35:
358,192,156181,1,0,0:0:0:35:
460,192,156260,1,0,0:0:0:35:
51,192,156339,1,0,0:0:0:35:
153,192,156418,1,0,0:0:0:35:
460,192,156497,1,0,0:0:0:35:
358,192,156576,1,0,0:0:0:35:
51,192,156655,1,0,0:0:0:35:
256,192,156655,1,0,0:0:0:0:
460,192,156734,1,0,0:0:0:35:
358,192,156813,1,0,0:0:0:35:
51,192,156892,1,0,0:0:0:35:
153,192,156971,1,0,0:0:0:35:
256,192,157050,1,0,0:0:0:35:
51,192,157129,1,0,0:0:0:35:
153,192,157208,1,0,0:0:0:35:
460,192,157287,1,0,0:0:0:35:
358,192,157366,1,0,0:0:0:35:
256,192,157445,1,0,0:0:0:35:
460,192,157524,1,0,0:0:0:35:
358,192,157602,1,0,0:0:0:35:
51,192,157681,1,0,0:0:0:35:
153,192,157760,1,0,0:0:0:35:
256,192,157839,1,0,0:0:0:35:
51,192,157918,1,0,0:0:0:35:
153,192,157997,1,0,0:0:0:35:
358,192,158076,1,0,0:0:0:35:
153,192,158155,1,0,0:0:0:35:
358,192,158234,1,0,0:0:0:35:
460,192,158313,1,0,0:0:0:35:
256,192,158392,1,0,0:0:0:35:
358,192,158471,1,0,0:0:0:35:
153,192,158550,1,0,0:0:0:35:
256,192,158629,1,0,0:0:0:35:
51,192,158708,1,0,0:0:0:35:
153,192,158787,1,0,0:0:0:35:
358,192,158866,1,0,0:0:0:35:
460,192,158945,1,0,0:0:0:35:
256,192,159024,1,0,0:0:0:35:
358,192,159102,1,0,0:0:0:35:
153,192,159181,1,2,0:0:0:35:
460,192,159181,1,0,0:0:0:35:
51,192,159181,1,0,0:0:0:35:
153,192,159339,1,0,0:0:0:35:
358,192,159497,1,0,0:0:0:35:
153,192,159655,1,0,0:0:0:35:
358,192,159813,1,0,0:0:0:35:
153,192,159971,1,0,0:0:0:35:
358,192,160129,1,0,0:0:0:35:
153,192,160287,1,0,0:0:0:35:
358,192,160445,1,0,0:0:0:35:
460,192,160445,1,0,0:0:0:35:
153,192,160602,1,0,0:0:0:35:
358,192,160681,1,0,0:0:0:35:
153,192,160760,1,0,0:0:0:35:
358,192,160839,1,0,0:0:0:35:
153,192,160918,1,0,0:0:0:35:
358,192,160997,1,0,0:0:0:35:
256,192,161076,1,0,0:0:0:35:
51,192,161076,1,0,0:0:0:35:
460,192,161234,1,0,0:0:0:35:
51,192,161392,1,0,0:0:0:35:
460,192,161550,1,0,0:0:0:35:
51,192,161708,1,0,0:0:0:35:
256,192,161708,1,0,0:0:0:35:
460,192,161866,1,0,0:0:0:35:
51,192,162024,1,0,0:0:0:35:
460,192,162181,1,0,0:0:0:35:
51,192,162339,1,0,0:0:0:35:
460,192,162497,1,0,0:0:0:35:
51,192,162655,1,0,0:0:0:35:
460,192,162813,1,0,0:0:0:35:
51,192,162892,1,0,0:0:0:35:
460,192,162971,1,0,0:0:0:35:
256,192,162971,1,0,0:0:0:0:
51,192,163050,1,0,0:0:0:35:
460,192,163129,1,0,0:0:0:35:
51,192,163208,1,0,0:0:0:35:
460,192,163287,1,0,0:0:0:35:
256,192,163445,1,0,0:0:0:35:
358,192,163602,1,0,0:0:0:35:
460,192,163602,1,0,0:0:0:35:
256,192,163760,1,0,0:0:0:35:
460,192,163918,1,0,0:0:0:35:
153,192,164076,1,0,0:0:0:35:
51,192,164234,1,0,0:0:0:35:
358,192,164234,1,0,0:0:0:35:
256,192,164392,1,0,0:0:0:35:
460,192,164550,1,0,0:0:0:35:
153,192,164708,1,0,0:0:0:35:
358,192,164866,1,0,0:0:0:35:
51,192,165024,1,0,0:0:0:35:
153,192,165102,1,0,0:0:0:35:
460,192,165181,1,0,0:0:0:35:
358,192,165260,1,0,0:0:0:35:
51,192,165339,1,0,0:0:0:35:
153,192,165418,1,0,0:0:0:35:
460,192,165497,1,0,0:0:0:35:
256,192,165497,1,0,0:0:0:35:
153,192,165655,1,0,0:0:0:35:
256,192,165813,1,0,0:0:0:35:
358,192,165971,1,0,0:0:0:35:
153,192,166129,1,0,0:0:0:35:
358,192,166287,1,0,0:0:0:35:
153,192,166445,1,0,0:0:0:35:
256,192,166602,1,0,0:0:0:35:
358,192,166760,1,0,0:0:0:35:
460,192,166760,1,0,0:0:0:35:
153,192,166918,1,0,0:0:0:35:
358,192,167076,1,0,0:0:0:35:
153,192,167234,1,0,0:0:0:35:
51,192,167313,1,0,0:0:0:35:
358,192,167392,1,0,0:0:0:35:
460,192,167471,1,0,0:0:0:35:
153,192,167550,1,0,0:0:0:35:
51,192,167629,1,0,0:0:0:35:
256,192,167708,1,0,0:0:0:35:
460,192,167708,1,0,0:0:0:0:
153,192,167866,1,0,0:0:0:35:
358,192,168024,1,0,0:0:0:35:
51,192,168024,1,0,0:0:0:35:
153,192,168181,1,0,0:0:0:35:
358,192,168339,1,0,0:0:0:35:
460,192,168497,1,0,0:0:0:35:
153,192,168655,1,0,0:0:0:35:
51,192,168813,1,0,0:0:0:35:
358,192,168971,1,0,0:0:0:35:
256,192,169129,1,0,0:0:0:35:
153,192,169287,1,0,0:0:0:35:
51,192,169287,1,0,0:0:0:35:
256,192,169445,1,0,0:0:0:35:
153,192,169524,1,0,0:0:0:35:
358,192,169602,1,0,0:0:0:35:
460,192,169681,1,0,0:0:0:35:
153,192,169760,1,0,0:0:0:35:
51,192,169839,1,0,0:0:0:35:
256,192,169918,1,0,0:0:0:35:
460,192,170076,1,0,0:0:0:35:
153,192,170234,1,0,0:0:0:35:
358,192,170392,1,0,0:0:0:35:
153,192,170550,1,0,0:0:0:35:
51,192,170550,1,0,0:0:0:35:
358,192,170708,1,0,0:0:0:35:
153,192,170866,1,0,0:0:0:35:
460,192,171024,1,0,0:0:0:35:
51,192,171181,1,0,0:0:0:35:
256,192,171181,1,0,0:0:0:35:
358,192,171497,1,0,0:0:0:35:
153,192,171655,1,0,0:0:0:35:
460,192,171813,1,0,0:0:0:35:
256,192,171813,1,0,0:0:0:35:
153,192,171918,1,0,0:0:0:35:
51,192,172024,1,0,0:0:0:35:
358,192,172129,1,0,0:0:0:35:
153,192,173076,1,0,0:0:0:35:
256,192,173181,1,0,0:0:0:35:
358,192,173287,1,0,0:0:0:35:
460,192,173392,1,0,0:0:0:35:
460,192,174339,1,0,0:0:0:35:
358,192,174445,1,0,0:0:0:35:
256,192,174550,1,0,0:0:0:35:
51,192,174655,1,0,0:0:0:35:
358,192,174813,1,0,0:0:0:35:
51,192,174971,1,0,0:0:0:35:
358,192,175129,1,0,0:0:0:35:
51,192,175287,1,0,0:0:0:35:
358,192,175445,1,0,0:0:0:35:
51,192,175602,1,0,0:0:0:35:
358,192,175760,1,0,0:0:0:35:
153,192,175918,1,4,0:0:0:35:
51,192,175918,1,0,0:0:0:35:
256,192,175997,1,4,0:0:0:35:
358,192,176076,1,4,0:0:0:35:
460,192,176076,1,0,0:0:0:35:
153,192,176155,1,4,0:0:0:35:
256,192,176234,1,4,0:0:0:35:
358,192,176313,1,0,0:0:0:35:
153,192,176392,1,0,0:0:0:35:
51,192,176471,1,0,0:0:0:35:
358,192,176550,1,0,0:0:0:35:
460,192,176629,1,0,0:0:0:35:
153,192,176708,1,0,0:0:0:35:
256,192,176787,1,0,0:0:0:35:
358,192,176866,1,0,0:0:0:35:
153,192,176945,1,0,0:0:0:35:
51,192,177024,1,0,0:0:0:35:
358,192,177102,1,0,0:0:0:35:
256,192,177181,1,0,0:0:0:35:
153,192,177287,1,0,0:0:0:35:
358,192,177392,1,0,0:0:0:35:
460,192,177497,1,0,0:0:0:0:
153,192,177550,1,0,0:0:0:35:
358,192,177708,1,0,0:0:0:35:
256,192,178024,1,0,0:0:0:35:
358,192,178287,1,0,0:0:0:35:
153,192,178445,1,0,0:0:0:35:
460,192,178445,1,0,0:0:0:35:
256,192,178602,1,0,0:0:0:35:
51,192,178760,1,0,0:0:0:35:
358,192,178760,1,0,0:0:0:35:
153,192,178918,1,0,0:0:0:35:
256,192,179076,1,0,0:0:0:35:
358,192,179155,1,0,0:0:0:35:
153,192,179234,1,0,0:0:0:35:
358,192,179313,1,0,0:0:0:35:
256,192,179392,1,0,0:0:0:35:
51,192,179392,1,0,0:0:0:35:
358,192,179471,1,0,0:0:0:35:
153,192,179550,1,0,0:0:0:35:
256,192,179629,1,0,0:0:0:35:
358,192,179708,1,0,0:0:0:35:
460,192,179708,1,0,0:0:0:35:
51,192,179708,1,0,0:0:0:35:
153,192,179866,1,0,0:0:0:35:
358,192,180024,1,0,0:0:0:35:
460,192,180181,1,0,0:0:0:35:
153,192,180339,1,0,0:0:0:35:
358,192,180497,1,0,0:0:0:35:
153,192,180655,1,0,0:0:0:35:
256,192,180813,1,0,0:0:0:35:
358,192,180971,1,0,0:0:0:35:
51,192,181129,1,0,0:0:0:35:
256,192,181287,1,0,0:0:0:35:
460,192,181445,1,0,0:0:0:35:
153,192,181602,1,0,0:0:0:35:
358,192,181760,1,0,0:0:0:35:
153,192,181918,1,0,0:0:0:35:
256,192,182076,1,0,0:0:0:35:
358,192,182234,1,0,0:0:0:35:
153,192,182392,1,0,0:0:0:35:
51,192,182550,1,0,0:0:0:35:
358,192,182708,1,0,0:0:0:35:
460,192,182866,1,0,0:0:0:35:
256,192,183024,1,0,0:0:0:35:
460,192,183181,1,0,0:0:0:35:
153,192,183339,1,0,0:0:0:35:
256,192,183497,1,0,0:0:0:35:
358,192,183655,1,0,0:0:0:35:
153,192,183813,1,0,0:0:0:35:
51,192,183971,1,0,0:0:0:35:
256,192,184129,1,0,0:0:0:35:
460,192,184287,1,0,0:0:0:35:
256,192,184445,1,0,0:0:0:35:
153,192,184602,1,0,0:0:0:35:
358,192,184760,1,0,0:0:0:35:
256,192,184918,1,0,0:0:0:35:
51,192,185076,1,0,0:0:0:35:
153,192,185234,1,0,0:0:0:35:
358,192,185392,1,0,0:0:0:35:
460,192,185550,1,0,0:0:0:35:
358,192,185708,1,0,0:0:0:35:
51,192,185866,1,0,0:0:0:35:
256,192,186024,1,0,0:0:0:35:
460,192,186181,1,0,0:0:0:35:
153,192,186339,1,0,0:0:0:35:
460,192,186497,1,0,0:0:0:35:
153,192,186655,1,0,0:0:0:35:
358,192,186813,1,0,0:0:0:35:
153,192,186971,1,0,0:0:0:35:
256,192,187129,1,0,0:0:0:35:
460,192,187287,1,0,0:0:0:35:
153,192,187445,1,0,0:0:0:35:
256,192,187602,1,0,0:0:0:35:
51,192,187760,1,0,0:0:0:35:
358,192,187918,1,0,0:0:0:35:
153,192,188076,1,0,0:0:0:35:
358,192,188234,1,0,0:0:0:35:
256,192,188392,1,0,0:0:0:35:
153,192,188550,1,0,0:0:0:35:
358,192,188708,1,0,0:0:0:35:
153,192,188866,1,0,0:0:0:35:
358,192,189024,1,0,0:0:0:35:
256,192,189181,1,0,0:0:0:35:
51,192,189339,1,0,0:0:0:35:
256,192,189497,1,0,0:0:0:35:
460,192,189655,1,0,0:0:0:35:
153,192,189813,1,0,0:0:0:35:
358,192,189971,1,0,0:0:0:35:
153,192,190129,1,0,0:0:0:35:
256,192,190287,1,0,0:0:0:35:
358,192,190445,1,0,0:0:0:35:
51,192,190602,1,0,0:0:0:35:
358,192,190760,1,0,0:0:0:35:
153,192,190918,1,0,0:0:0:35:
256,192,191076,1,0,0:0:0:35:
460,192,191234,1,0,0:0:0:35:
358,192,191392,1,0,0:0:0:35:
51,192,191550,1,0,0:0:0:35:
256,192,191708,1,0,0:0:0:35:
153,192,191866,1,0,0:0:0:35:
256,192,192024,1,0,0:0:0:35:
358,192,192181,1,0,0:0:0:35:
153,192,192339,1,0,0:0:0:35:
460,192,192497,1,0,0:0:0:35:
51,192,192655,1,0,0:0:0:35:
256,192,192813,1,0,0:0:0:35:
460,192,192971,1,0,0:0:0:35:
153,192,193129,1,0,0:0:0:35:
460,192,193287,1,0,0:0:0:35:
256,192,193445,1,0,0:0:0:35:
51,192,193602,1,0,0:0:0:35:
358,192,193760,1,0,0:0:0:35:
153,192,193918,1,0,0:0:0:35:
358,192,194076,1,0,0:0:0:35:
256,192,194234,1,0,0:0:0:35:
153,192,194392,1,0,0:0:0:35:
256,192,194550,1,0,0:0:0:35:
358,192,194708,1,0,0:0:0:35:
153,192,194866,1,0,0:0:0:35:
358,192,195024,1,0,0:0:0:35:
51,192,195181,1,0,0:0:0:35:
256,192,195339,1,0,0:0:0:35:
460,192,195497,1,0,0:0:0:35:
153,192,195655,1,0,0:0:0:35:
460,192,195813,1,0,0:0:0:35:
358,192,195866,1,0,0:0:0:35:
51,192,195918,1,0,0:0:0:35:
153,192,195971,1,0,0:0:0:35:
460,192,196050,1,0,0:0:0:35:
358,192,196129,1,0,0:0:0:35:
51,192,196234,1,0,0:0:0:35:
256,192,196339,1,0,0:0:0:35:
460,192,196445,1,0,0:0:0:35:
153,192,196550,1,0,0:0:0:35:
358,192,196655,1,0,0:0:0:35:
256,192,196760,128,8,197392:0:0:0:35:
153,192,197392,1,4,0:0:0:35:
51,192,197392,1,0,0:0:0:35:
460,192,197392,1,0,0:0:0:35:
358,192,197550,1,8,0:0:0:35:
153,192,197550,1,0,0:0:0:35:
51,192,197708,1,4,0:0:0:35:
256,192,197708,1,0,0:0:0:35:
460,192,197708,1,0,0:0:0:35:
256,192,197866,1,8,0:0:0:35:
153,192,197866,1,0,0:0:0:35:
358,192,198024,1,4,0:0:0:35:
51,192,198024,1,0,0:0:0:35:
460,192,198024,1,0,0:0:0:35:
358,192,198181,1,8,0:0:0:35:
256,192,198181,1,0,0:0:0:35:
153,192,198339,1,4,0:0:0:35:
51,192,198339,1,0,0:0:0:35:
460,192,198339,1,0,0:0:0:35:
460,192,198497,1,8,0:0:0:35:
256,192,198497,1,0,0:0:0:35:
51,192,198655,1,8,0:0:0:35:
153,192,198655,1,0,0:0:0:35:
256,192,198734,1,4,0:0:0:35:
460,192,198734,1,0,0:0:0:35:
358,192,198813,1,8,0:0:0:35:
51,192,198813,1,0,0:0:0:35:
153,192,198892,1,4,0:0:0:35:
256,192,198892,1,0,0:0:0:35:
460,192,198971,1,8,0:0:0:35:
358,192,198971,1,0,0:0:0:35:
51,192,199050,1,4,0:0:0:35:
153,192,199050,1,0,0:0:0:35:
256,192,199129,1,8,0:0:0:35:
460,192,199129,1,0,0:0:0:35:
358,192,199208,1,4,0:0:0:35:
51,192,199208,1,0,0:0:0:35:
256,192,199287,1,8,0:0:0:35:
153,192,199287,1,0,0:0:0:35:
460,192,199287,1,0,0:0:0:35:
358,192,199366,1,0,0:0:0:35:
256,192,199445,1,0,0:0:0:35:
153,192,199524,1,0,0:0:0:35:
51,192,199602,1,0,0:0:0:35:
460,192,199602,1,0,0:0:0:35:
256,192,199681,1,0,0:0:0:35:
358,192,199760,128,0,199918:0:0:0:35:
153,192,199839,128,0,199918:0:0:0:35:
256,192,199918,1,0,0:0:0:35:
358,192,199997,1,0,0:0:0:35:
153,192,200076,1,0,0:0:0:35:
256,192,200155,1,0,0:0:0:35:
358,192,200234,1,0,0:0:0:35:
51,192,200234,1,0,0:0:0:35:
256,192,200313,1,0,0:0:0:35:
153,192,200392,1,0,0:0:0:35:
358,192,200471,1,0,0:0:0:35:
460,192,200550,1,0,0:0:0:35:
51,192,200550,1,0,0:0:0:35:
153,192,200550,128,0,200708:0:0:0:0:
460,192,200708,1,0,0:0:0:35:
358,192,200708,128,0,200866:0:0:0:35:
256,192,200866,1,0,0:0:0:35:
51,192,200866,1,0,0:0:0:35:
153,192,200945,1,0,0:0:0:35:
358,192,201024,1,0,0:0:0:35:
460,192,201024,128,0,201181:0:0:0:35:
153,192,201181,1,0,0:0:0:35:
256,192,201260,1,0,0:0:0:35:
51,192,201339,1,0,0:0:0:35:
358,192,201418,1,0,0:0:0:35:
153,192,201497,1,0,0:0:0:35:
256,192,201576,1,0,0:0:0:35:
358,192,201655,1,0,0:0:0:35:
153,192,201734,1,0,0:0:0:35:
256,192,201813,1,0,0:0:0:35:
460,192,201813,1,0,0:0:0:35:
358,192,201892,1,0,0:0:0:35:
153,192,201971,1,0,0:0:0:35:
51,192,202050,1,0,0:0:0:35:
256,192,202129,1,0,0:0:0:35:
460,192,202129,128,0,202287:0:0:0:35:
358,192,202287,1,0,0:0:0:35:
153,192,202366,1,0,0:0:0:35:
256,192,202445,1,0,0:0:0:35:
460,192,202445,1,0,0:0:0:35:
358,192,202524,1,4,0:0:0:35:
51,192,202524,1,0,0:0:0:35:
153,192,202602,1,0,0:0:0:35:
256,192,202602,1,0,0:0:0:35:
460,192,202681,1,4,0:0:0:35:
358,192,202681,1,0,0:0:0:35:
51,192,202760,1,0,0:0:0:35:
256,192,202760,1,0,0:0:0:35:
153,192,202839,1,4,0:0:0:35:
460,192,202839,1,0,0:0:0:35:
358,192,202918,1,0,0:0:0:35:
256,192,202918,1,0,0:0:0:35:
153,192,202997,1,4,0:0:0:35:
51,192,202997,1,0,0:0:0:35:
460,192,203076,1,0,0:0:0:35:
358,192,203076,1,0,0:0:0:35:
256,192,203155,1,0,0:0:0:35:
153,192,203155,1,0,0:0:0:0:
51,192,203234,1,0,0:0:0:35:
256,192,203313,1,0,0:0:0:35:
460,192,203392,1,0,0:0:0:35:
358,192,203392,1,0,0:0:0:35:
460,192,203471,1,0,0:0:0:35:
153,192,203550,1,0,0:0:0:35:
51,192,203550,1,0,0:0:0:35:
153,192,203629,1,0,0:0:0:35:
460,192,203708,128,0,204024:0:0:0:35:
358,192,203708,1,0,0:0:0:35:
51,192,203866,128,0,204024:0:0:0:35:
153,192,204024,1,0,0:0:0:35:
358,192,204102,1,0,0:0:0:35:
51,192,204181,1,0,0:0:0:35:
153,192,204221,1,0,0:0:0:35:
256,192,204260,1,0,0:0:0:35:
358,192,204300,1,0,0:0:0:35:
460,192,204339,1,0,0:0:0:35:
51,192,204379,1,0,0:0:0:35:
153,192,204418,1,0,0:0:0:35:
256,192,204458,1,0,0:0:0:35:
358,192,204497,1,0,0:0:0:35:
460,192,204576,1,0,0:0:0:35:
153,192,204655,1,0,0:0:0:35:
256,192,204734,1,0,0:0:0:35:
358,192,204813,1,0,0:0:0:35:
51,192,204892,1,0,0:0:0:35:
256,192,204971,128,0,205602:0:0:0:35:
153,192,204971,128,0,205287:0:0:0:35:
358,192,205287,1,0,0:0:0:35:
460,192,205366,1,0,0:0:0:35:
51,192,205445,1,0,0:0:0:35:
153,192,205524,1,0,0:0:0:35:
358,192,205602,1,0,0:0:0:35:
460,192,205602,1,0,0:0:0:35:
153,192,205681,1,0,0:0:0:35:
256,192,205760,1,0,0:0:0:35:
358,192,205839,1,0,0:0:0:35:
153,192,205918,1,0,0:0:0:35:
51,192,205918,1,0,0:0:0:35:
358,192,205997,1,0,0:0:0:35:
256,192,206076,1,0,0:0:0:35:
153,192,206155,1,0,0:0:0:35:
358,192,206234,1,0,0:0:0:35:
460,192,206234,1,0,0:0:0:35:
153,192,206313,1,0,0:0:0:35:
51,192,206313,1,0,0:0:0:35:
256,192,206392,1,0,0:0:0:35:
460,192,206392,1,0,0:0:0:35:
358,192,206471,1,0,0:0:0:35:
51,192,206471,1,0,0:0:0:35:
153,192,206550,1,0,0:0:0:35:
256,192,206550,1,0,0:0:0:35:
460,192,206629,1,0,0:0:0:35:
358,192,206708,1,0,0:0:0:35:
51,192,206708,1,0,0:0:0:35:
153,192,206787,1,0,0:0:0:35:
256,192,206866,1,0,0:0:0:35:
460,192,206866,1,0,0:0:0:35:
153,192,206945,1,0,0:0:0:35:
51,192,206945,1,0,0:0:0:35:
358,192,207024,1,0,0:0:0:35:
460,192,207024,1,0,0:0:0:35:
256,192,207181,1,0,0:0:0:35:
51,192,207181,1,0,0:0:0:35:
358,192,207260,1,0,0:0:0:35:
153,192,207339,1,0,0:0:0:35:
256,192,207418,1,0,0:0:0:35:
358,192,207497,1,0,0:0:0:35:
358,192,207655,1,0,0:0:0:35:
153,192,207813,1,0,0:0:0:35:
153,192,207971,1,0,0:0:0:35:
256,192,208050,1,0,0:0:0:35:
358,192,208129,1,0,0:0:0:35:
51,192,208208,1,0,0:0:0:35:
256,192,208287,1,0,0:0:0:35:
460,192,208366,1,0,0:0:0:35:
153,192,208445,1,0,0:0:0:35:
358,192,208524,1,0,0:0:0:35:
256,192,208602,1,0,0:0:0:35:
153,192,208681,1,0,0:0:0:35:
460,192,208760,1,0,0:0:0:35:
256,192,208839,1,0,0:0:0:35:
51,192,208918,1,0,0:0:0:35:
358,192,208997,1,0,0:0:0:35:
153,192,209076,1,0,0:0:0:35:
256,192,209155,1,0,0:0:0:35:
358,192,209234,1,0,0:0:0:35:
153,192,209313,1,0,0:0:0:35:
358,192,209392,1,0,0:0:0:35:
51,192,209471,1,0,0:0:0:35:
256,192,209550,1,0,0:0:0:35:
460,192,209629,1,0,0:0:0:35:
358,192,209708,1,0,0:0:0:35:
256,192,209787,1,0,0:0:0:35:
51,192,209866,128,0,210024:0:0:0:35:
153,192,209866,128,0,210024:0:0:0:0:
358,192,210024,1,4,0:0:0:35:
460,192,210024,1,2,0:0:0:35:
256,192,210181,1,8,0:0:0:35:
51,192,210181,1,0,0:0:0:35:
358,192,210339,1,4,0:0:0:35:
460,192,210339,1,0,0:0:0:35:
51,192,210497,1,8,0:0:0:35:
153,192,210497,1,0,0:0:0:35:
256,192,210655,1,4,0:0:0:35:
460,192,210655,1,0,0:0:0:35:
51,192,210813,1,8,0:0:0:35:
358,192,210813,1,0,0:0:0:35:
153,192,210971,1,4,0:0:0:35:
460,192,210971,1,0,0:0:0:35:
256,192,211129,1,8,0:0:0:35:
358,192,211129,1,0,0:0:0:35:
51,192,211287,1,4,0:0:0:35:
153,192,211287,1,0,0:0:0:35:
358,192,211445,1,8,0:0:0:35:
460,192,211445,1,0,0:0:0:35:
256,192,211602,1,0,0:0:0:35:
51,192,211681,1,0,0:0:0:35:
358,192,211760,1,0,0:0:0:35:
153,192,211839,1,0,0:0:0:35:
256,192,211918,1,0,0:0:0:35:
460,192,211918,1,0,0:0:0:35:
153,192,211997,1,0,0:0:0:35:
51,192,212076,1,0,0:0:0:35:
256,192,212155,1,0,0:0:0:35:
153,192,212234,1,0,0:0:0:35:
358,192,212313,1,0,0:0:0:35:
460,192,212392,1,0,0:0:0:35:
153,192,212471,1,0,0:0:0:35:
256,192,212550,1,8,0:0:0:35:
460,192,212550,1,0,0:0:0:35:
51,192,212629,1,4,0:0:0:35:
153,192,212629,1,0,0:0:0:35:
256,192,212708,1,8,0:0:0:35:
358,192,212708,1,0,0:0:0:35:
460,192,212787,1,4,0:0:0:35:
51,192,212787,1,0,0:0:0:35:
153,192,212866,1,8,0:0:0:35:
256,192,212866,1,0,0:0:0:35:
358,192,212945,1,4,0:0:0:35:
460,192,212945,1,0,0:0:0:35:
256,192,213024,1,8,0:0:0:35:
51,192,213024,1,0,0:0:0:35:
153,192,213102,1,4,0:0:0:35:
460,192,213102,1,0,0:0:0:35:
256,192,213181,1,8,0:0:0:35:
358,192,213181,1,0,0:0:0:35:
51,192,213260,1,4,0:0:0:35:
460,192,213260,1,0,0:0:0:35:
153,192,213339,1,8,0:0:0:35:
358,192,213339,1,0,0:0:0:35:
256,192,213418,1,4,0:0:0:35:
51,192,213418,1,0,0:0:0:35:
358,192,213497,1,8,0:0:0:35:
460,192,213497,1,0,0:0:0:35:
153,192,213576,1,4,0:0:0:35:
51,192,213576,1,0,0:0:0:35:
256,192,213655,1,8,0:0:0:35:
460,192,213655,1,0,0:0:0:35:
358,192,213734,1,4,0:0:0:35:
51,192,213734,1,0,0:0:0:35:
153,192,213813,1,8,0:0:0:35:
256,192,213813,1,0,0:0:0:35:
358,192,213892,1,8,0:0:0:35:
460,192,213892,1,0,0:0:0:35:
51,192,213971,1,8,0:0:0:35:
153,192,213971,1,0,0:0:0:35:
256,192,214050,1,8,0:0:0:35:
460,192,214050,1,0,0:0:0:35:
153,192,214129,1,8,0:0:0:35:
51,192,214129,1,0,0:0:0:35:
358,192,214208,1,8,0:0:0:35:
460,192,214208,1,0,0:0:0:35:
51,192,214287,1,8,0:0:0:35:
256,192,214287,1,0,0:0:0:35:
358,192,214366,1,8,0:0:0:35:
460,192,214366,1,0,0:0:0:35:
51,192,214445,1,8,0:0:0:35:
153,192,214445,1,0,0:0:0:35:
256,192,214524,1,8,0:0:0:35:
460,192,214524,1,0,0:0:0:35:
51,192,214602,1,8,0:0:0:35:
153,192,214602,1,0,0:0:0:35:
358,192,214681,1,8,0:0:0:35:
460,192,214681,1,0,0:0:0:35:
256,192,214760,1,8,0:0:0:35:
51,192,214760,1,0,0:0:0:35:
358,192,214839,1,8,0:0:0:35:
460,192,214839,1,0,0:0:0:35:
51,192,214918,1,8,0:0:0:35:
153,192,214918,1,0,0:0:0:35:
256,192,214997,1,8,0:0:0:35:
460,192,214997,1,0,0:0:0:35:
51,192,215076,1,0,0:0:0:35:
358,192,215076,1,0,0:0:0:35:
