osu file format v14

[General]
AudioFilename: audio.mp3
AudioLeadIn: 0
PreviewTime: -1
Countdown: 0
SampleSet: Normal
StackLeniency: 0.2
Mode: 0
LetterboxInBreaks: 0
WidescreenStoryboard: 1

[Editor]
Bookmarks: 275,12875,14675,25475,27275,29075,40475
DistanceSpacing: 1
BeatDivisor: 3
GridSize: 4
TimelineZoom: 2.4

[Metadata]
Title:Scarlatti 2.0
TitleUnicode:Scarlatti 2.0
Artist:Igorr
ArtistUnicode:Igorr
Creator:Sonix
Version:Scary
Source:
Tags:hallelujah
BeatmapID:1298134
BeatmapSetID:615482

[Difficulty]
HPDrainRate:6
CircleSize:4
OverallDifficulty:8.4
ApproachRate:9.6
SliderMultiplier:1.6
SliderTickRate:1

[Events]
//Background and Video events
0,0,"winter_s_grave_by_narandel-d641ztk.jpg",0,0
//Break Periods
//Storyboard Layer 0 (Background)
//Storyboard Layer 1 (Fail)
//Storyboard Layer 2 (Pass)
//Storyboard Layer 3 (Foreground)
//Storyboard Sound Samples

[TimingPoints]
275,300,3,1,1,100,1,0
575,-133.333333333333,3,1,1,100,0,0
1775,-100,3,1,1,100,0,0
2075,-133.333333333333,3,1,1,100,0,0
2375,-80,3,1,1,100,0,0
2675,-133.333333333333,3,1,1,100,0,0
3275,-166.666666666667,3,1,1,60,0,0
3575,-200,3,1,1,20,0,0
3875,-100,3,1,1,100,0,0
5075,-80,3,1,1,100,0,0
5975,-100,3,1,1,100,0,0
7475,-133.333333333333,3,1,1,100,0,0
12875,-80,3,1,1,100,0,0
16475,-66.6666666666667,3,1,1,100,0,0
16775,-80,3,1,1,100,0,0
20975,-100,3,1,1,100,0,0
27875,-80,3,1,1,100,0,0
28775,-66.6666666666667,3,1,1,100,0,0
40475,-100,3,1,1,100,0,0
41975,-100,3,1,1,70,0,0
43475,-100,3,1,1,100,0,0
43775,-80,3,1,1,100,0,0
52475,-133.333333333333,3,1,1,100,0,0
52775,-80,3,1,1,100,0,0
55175,-133.333333333333,3,1,1,100,0,0
57425,-100,3,1,1,100,0,0
58375,-66.6666666666667,3,1,1,100,0,0
58775,-100,3,1,1,100,0,0
61475,-66.6666666666667,3,1,1,100,0,0
65975,-66.6666666666667,3,1,1,50,0,0
66075,-66.6666666666667,3,1,1,55,0,0
66175,-66.6666666666667,3,1,1,60,0,0
66275,-66.6666666666667,3,1,1,65,0,0
66375,-66.6666666666667,3,1,1,70,0,0
66475,-66.6666666666667,3,1,1,75,0,0
66575,-66.6666666666667,3,1,1,85,0,0
66675,-66.6666666666667,3,1,1,90,0,0
66775,-66.6666666666667,3,1,1,95,0,0
66875,-133.333333333333,3,1,1,95,0,0
67175,-66.6666666666667,3,1,1,95,0,0
70475,-100,3,1,1,95,0,0
70775,-133.333333333333,3,1,1,95,0,0
71975,-100,3,1,1,95,0,0
72275,-133.333333333333,3,1,1,95,0,0
72575,-80,3,1,1,95,0,0
73175,-100,3,1,1,95,0,0
75875,-80,3,1,1,95,0,0
76775,-100,3,1,1,95,0,0
81275,-133.333333333333,3,1,1,95,0,0
82175,-133.333333333333,3,1,1,95,0,0
82475,-166.666666666667,3,1,1,95,0,0
82775,-200,3,1,1,95,0,0
83075,-200,3,1,1,95,0,0
83375,-200,3,1,1,85,0,0
83675,-200,3,1,1,75,0,0
83975,-200,3,1,1,55,0,0
84275,-200,3,1,1,35,0,0
84575,-200,3,1,1,25,0,0
84875,-133.333333333333,3,1,1,95,0,0
111875,-133.333333333333,3,1,1,95,0,1
124475,-133.333333333333,3,1,1,95,0,0
131075,-133.333333333333,3,1,1,95,0,1
148775,-133.333333333333,3,1,1,95,0,0

[Colours]
Combo1 : 166,233,255
Combo2 : 255,255,255
Combo3 : 254,253,205

[HitObjects]
96,144,275,6,0,P|168:134|216:144,1,106.666666666667,0|0,3:0|0:0,0:0:0:0:
279,155,575,2,0,P|330:147|354:117,1,80.0000030517579,0|0,3:0|0:0,0:0:0:0:
153,232,875,1,8,0:0:0:0:
150,243,975,1,8,0:0:0:0:
147,254,1075,1,8,0:0:0:0:
141,274,1175,2,0,B|131:296|131:296|105:304,2,40.000001525879
103,203,1475,2,0,B|88:183|88:183|95:156,2,40.000001525879
209,196,1775,2,0,L|272:192,1,53.3333333333333
315,188,1975,1,0,0:0:0:0:
405,259,2075,6,0,L|365:261,2,40.000001525879
421,180,2375,2,0,P|433:130|426:106,1,66.6666666666667,8|0,0:0|0:0,0:0:0:0:
388,184,2575,1,8,0:0:0:0:
421,180,2675,2,0,P|445:137|413:109,1,80.0000030517579,8|0,0:0|0:0,0:0:0:0:
398,86,2925,1,0,0:0:0:0:
392,83,2975,2,0,B|380:66|380:66|378:35,2,40.000001525879
312,94,3275,2,0,B|296:80|296:80|289:56,2,31.9999990234375
252,138,3575,2,0,B|233:127|233:127|223:110,2,26.6666666666667
211,35,3875,6,0,P|153:23|96:30,1,106.666666666667,0|0,3:0|0:0,0:0:0:0:
70,99,4175,2,0,B|58:129|58:129|31:141,2,53.3333333333333,0|0|0,3:0|0:0|0:0,0:0:0:0:
168,111,4475,1,0,0:0:0:0:
205,112,4575,2,0,L|283:115,1,53.3333333333333
171,225,4775,2,0,P|125:217|108:205,2,53.3333333333333
287,171,5075,2,0,P|367:160|433:195,1,133.333333333333,8|0,0:0|0:0,0:0:0:0:
345,267,5375,2,0,P|265:278|199:243,1,133.333333333333,8|0,0:0|0:0,0:0:0:0:
171,225,5675,1,0,0:0:0:0:
50,128,5875,5,0,0:0:0:0:
51,152,5975,2,0,B|43:170|43:170|27:189,5,26.6666666666667
155,99,6275,1,8,0:0:0:0:
176,100,6375,1,8,0:0:0:0:
218,102,6475,1,8,0:0:0:0:
271,104,6575,2,0,B|302:98|302:98|325:75,2,53.3333333333333
359,156,6875,1,0,0:0:0:0:
364,176,6975,1,0,0:0:0:0:
369,196,7075,1,0,0:0:0:0:
294,222,7175,1,0,0:0:0:0:
289,242,7275,1,0,0:0:0:0:
284,262,7375,1,0,0:0:0:0:
363,303,7475,6,0,P|433:291|467:252,1,120.000004577637,0|0,3:0|0:0,0:0:0:0:
464,256,8075,1,0,3:0:0:0:
259,230,8375,6,0,P|329:218|363:179,1,120.000004577637,0|0,3:0|0:0,0:0:0:0:
360,183,8975,1,0,3:0:0:0:
183,139,9175,5,0,0:0:0:0:
158,143,9275,2,0,P|107:141|75:122,1,80.0000030517579
141,47,9575,2,0,P|192:49|224:68,1,80.0000030517579
82,127,9875,2,0,P|31:125|-1:106,1,80.0000030517579
65,31,10175,2,0,P|116:33|148:52,1,80.0000030517579
244,84,10475,1,8,0:0:0:0:
267,86,10575,1,8,0:0:0:0:
290,88,10675,1,8,0:0:0:0:
325,91,10775,2,0,L|381:94,2,40.000001525879
424,146,11075,5,0,0:0:0:0:
441,313,11375,1,0,0:0:0:0:
343,275,11675,1,0,0:0:0:0:
510,258,11975,5,0,0:0:0:0:
370,375,12275,1,0,0:0:0:0:
343,275,12575,1,0,0:0:0:0:
97,276,12875,6,0,L|181:281,1,66.6666666666667
148,186,13075,1,0,0:0:0:0:
224,206,13175,2,8,P|266:213|309:190,2,66.6666666666667
91,137,13475,2,0,L|88:68,1,66.6666666666667
86,24,13675,1,0,0:0:0:0:
269,90,13775,2,8,P|314:85|342:68,2,66.6666666666667
151,102,14075,1,8,0:0:0:0:
119,127,14175,1,8,0:0:0:0:
98,161,14275,1,8,0:0:0:0:
88,199,14375,1,0,0:0:0:0:
88,238,14475,1,0,0:0:0:0:
97,276,14575,1,0,0:0:0:0:
92,325,14675,6,0,P|169:347|228:328,1,133.333333333333,0|0,3:0|0:0,0:0:0:0:
314,239,14975,2,0,P|378:225|440:247,1,133.333333333333,0|0,3:0|0:0,0:0:0:0:
262,336,15275,2,0,P|218:286|206:222,1,133.333333333333,0|0,3:0|0:0,0:0:0:0:
207,154,15575,1,8,0:0:0:0:
63,217,15875,6,0,B|25:220|25:220|-12:200,2,66.6666666666667,0|0|0,3:0|0:0|0:0,0:0:0:0:
32,92,16175,1,0,0:0:0:0:
38,73,16275,1,0,0:0:0:0:
45,54,16375,1,0,0:0:0:0:
156,126,16475,2,0,P|233:124|257:120,1,80.0000030517579,0|0,3:0|0:0,0:0:0:0:
382,59,16675,1,0,0:0:0:0:
394,82,16775,2,0,P|406:140|401:161,1,66.6666666666667,8|0,0:0|0:0,0:0:0:0:
276,181,16975,1,8,0:0:0:0:
264,204,17075,2,0,P|252:262|257:283,2,66.6666666666667,8|0|0,0:0|0:0|0:0,0:0:0:0:
389,248,17375,1,0,3:0:0:0:
389,248,17675,6,0,P|298:257|255:249,1,133.333333333333
62,203,17975,1,0,3:0:0:0:
177,67,18175,5,0,3:0:0:0:
59,95,18275,2,0,B|23:95|23:95|-12:81,2,66.6666666666667
177,67,18575,1,0,0:0:0:0:
216,62,18675,1,0,0:0:0:0:
255,61,18775,1,0,0:0:0:0:
309,68,18875,2,0,P|351:69|384:60,2,66.6666666666667
206,153,19175,6,0,B|156:203|156:203|227:211,1,133.333333333333
365,131,19475,2,0,B|346:62|346:62|303:120,1,133.333333333333
304,280,19775,2,0,B|372:297|372:297|343:231,1,133.333333333333
169,328,20075,2,0,B|138:343|138:343|84:323,2,66.6666666666667
206,153,20375,2,0,L|211:79,1,66.6666666666667
213,46,20575,1,0,0:0:0:0:
80,124,20675,2,0,L|75:198,1,66.6666666666667
73,231,20875,1,0,0:0:0:0:
227,149,20975,2,0,P|292:146|337:164,1,106.666666666667,0|0,3:0|0:0,0:0:0:0:
378,183,21275,1,0,3:0:0:0:
378,183,21575,5,8,0:0:0:0:
382,76,21775,5,8,0:0:0:0:
268,238,21875,2,0,P|211:261|151:253,1,106.666666666667,0|0,3:0|0:0,0:0:0:0:
311,131,22175,2,0,P|359:168|382:224,1,106.666666666667,0|0,3:0|0:0,0:0:0:0:
197,147,22475,2,0,P|205:86|242:38,1,106.666666666667,0|0,3:0|0:0,0:0:0:0:
258,174,22775,1,8,0:0:0:0:
155,239,22975,1,8,0:0:0:0:
191,248,23075,1,8,0:0:0:0:
330,299,23275,1,8,0:0:0:0:
294,308,23375,2,0,B|271:313|271:313|224:303,2,53.3333333333333,0|0|0,3:0|3:0|3:0,3:0:0:0:
466,331,23675,1,8,0:0:0:0:
356,114,23975,6,0,B|352:140|352:140|367:174,2,53.3333333333333
224,188,24275,2,0,B|218:213|218:213|193:240,2,53.3333333333333
145,32,24575,2,0,P|85:43|47:78,1,106.666666666667
165,160,24875,1,0,0:0:0:0:
161,191,24975,1,0,0:0:0:0:
158,222,25075,1,0,0:0:0:0:
148,270,25175,2,0,B|136:300|136:300|101:320,2,53.3333333333333
227,318,25475,5,0,3:0:0:0:
314,203,25775,1,0,0:0:0:0:
453,240,26075,1,0,0:0:0:0:
227,318,26375,6,0,B|202:323|202:323|174:313,3,40,8|0|0|0,0:0|0:0|0:0|0:0,0:0:0:0:
300,351,26675,1,0,0:0:0:0:
241,202,26975,1,0,0:0:0:0:
363,44,27275,6,0,B|385:65|385:65|394:99,2,53.3333333333333,0|0|0,3:0|3:0|3:0,3:0:0:0:
235,117,27575,1,0,3:0:0:0:
203,115,27675,1,0,3:0:0:0:
171,113,27775,1,0,3:0:0:0:
122,119,27875,2,8,B|103:152|103:152|107:180,2,66.6666666666667
261,209,28175,1,8,0:0:0:0:
254,248,28275,1,8,0:0:0:0:
247,287,28375,1,8,0:0:0:0:
353,252,28475,1,8,0:0:0:0:
362,199,28575,1,8,0:0:0:0:
370,146,28675,1,8,0:0:0:0:
276,104,28775,2,0,B|235:82|235:82|221:49,2,80.0000030517579
381,67,29075,5,4,0:0:0:0:
454,244,29375,1,0,0:0:0:0:
334,238,29675,1,0,0:0:0:0:
393,66,29975,5,0,0:0:0:0:
447,250,30275,1,0,0:0:0:0:
328,231,30575,1,0,0:0:0:0:
106,162,30875,5,0,0:0:0:0:
297,143,31175,1,0,0:0:0:0:
241,36,31475,1,0,0:0:0:0:
262,266,31775,5,0,0:0:0:0:
76,311,32075,1,0,0:0:0:0:
364,346,32375,5,0,0:0:0:0:
324,103,32675,5,0,0:0:0:0:
139,156,32975,1,0,0:0:0:0:
161,38,33275,1,0,0:0:0:0:
322,115,33575,5,0,0:0:0:0:
133,148,33875,1,0,0:0:0:0:
167,33,34175,1,0,0:0:0:0:
272,238,34475,5,0,0:0:0:0:
461,268,34775,1,0,0:0:0:0:
452,148,35075,1,0,0:0:0:0:
270,225,35375,5,0,0:0:0:0:
455,274,35675,1,0,0:0:0:0:
459,154,35975,1,0,0:0:0:0:
140,225,36275,5,0,0:0:0:0:
80,42,36575,1,0,0:0:0:0:
198,50,36875,1,0,0:0:0:0:
152,224,37175,5,0,0:0:0:0:
73,49,37475,1,0,0:0:0:0:
192,44,37775,1,0,0:0:0:0:
342,139,38075,5,0,0:0:0:0:
274,318,38375,1,0,0:0:0:0:
393,316,38675,1,0,0:0:0:0:
329,139,38975,5,0,0:0:0:0:
280,324,39275,1,0,0:0:0:0:
398,309,39575,1,0,0:0:0:0:
200,205,39875,5,0,0:0:0:0:
391,191,40175,1,0,0:0:0:0:
311,101,40475,2,0,B|284:93|284:93|240:101,2,53.3333333333333
221,191,40775,2,0,B|194:199|194:199|150:191,2,53.3333333333333
74,87,41075,1,0,0:0:0:0:
57,120,41175,1,0,0:0:0:0:
49,151,41275,1,0,0:0:0:0:
44,182,41375,1,0,0:0:0:0:
41,208,41475,1,0,0:0:0:0:
41,229,41575,1,0,0:0:0:0:
30,277,41675,6,0,P|101:287|149:280,1,106.666666666667,0|0,3:0|0:0,0:0:0:0:
189,278,41975,2,0,L|227:287,5,26.6666666666667,0|0|0|0|0|0,3:0|0:0|0:0|0:0|0:0|0:0,0:0:0:0:
274,203,42275,2,0,L|312:194,5,26.6666666666667,0|0|0|0|0|0,3:0|0:0|0:0|0:0|0:0|0:0,0:0:0:0:
123,142,42575,2,0,L|85:151,5,26.6666666666667,0|0|0|0|0|0,3:0|0:0|0:0|0:0|0:0|0:0,0:0:0:0:
214,284,42875,2,0,L|189:278,5,26.6666666666667,0|0|0|0|0|0,3:0|0:0|0:0|0:0|0:0|0:0,0:0:0:0:
254,94,43175,2,0,L|292:103,5,26.6666666666667,0|0|0|0|0|0,3:0|0:0|0:0|0:0|0:0|0:0,0:0:0:0:
91,120,43475,6,0,B|61:118|61:118|36:99,2,53.3333333333333
217,42,43775,2,0,P|276:38|317:42,1,66.6666666666667
399,130,43975,1,0,0:0:0:0:
416,139,44075,2,0,B|455:144|455:144|496:131,2,66.6666666666667
211,202,44375,2,0,P|201:283|302:332,1,200
294,333,44975,1,0,0:0:0:0:
312,152,45175,5,0,0:0:0:0:
125,219,45275,2,0,B|88:225|88:225|54:214,2,66.6666666666667
204,125,45575,2,0,B|241:119|241:119|275:130,2,66.6666666666667
85,107,45875,5,0,0:0:0:0:
400,162,46175,5,0,0:0:0:0:
203,32,46475,5,0,0:0:0:0:
410,275,46775,5,0,0:0:0:0:
166,248,47075,5,0,0:0:0:0:
468,142,47375,5,0,0:0:0:0:
352,308,47675,5,0,0:0:0:0:
129,78,47975,6,0,B|150:98|150:98|154:121,3,50
231,94,48275,1,0,0:0:0:0:
333,204,48575,1,0,0:0:0:0:
96,164,48775,5,0,0:0:0:0:
333,204,48875,2,0,P|420:197|472:153,1,133.333333333333
498,120,49175,1,0,0:0:0:0:
263,52,49375,5,0,0:0:0:0:
275,256,49475,2,0,P|238:335|182:364,1,133.333333333333
138,377,49775,1,0,0:0:0:0:
379,258,49975,5,0,0:0:0:0:
174,186,50075,2,0,P|108:175|31:194,1,133.333333333333
126,290,50375,2,0,B|124:328|124:328|111:355,2,66.6666666666667
207,341,50675,1,0,0:0:0:0:
417,268,50975,5,0,0:0:0:0:
377,271,51075,1,0,0:0:0:0:
337,274,51175,1,0,0:0:0:0:
292,199,51275,1,0,0:0:0:0:
245,191,51375,1,0,0:0:0:0:
198,183,51475,1,0,0:0:0:0:
263,102,51575,2,0,B|281:71|281:71|277:33,2,66.6666666666667
128,132,51875,2,0,B|110:163|110:163|114:201,2,66.6666666666667
19,279,52175,1,0,0:0:0:0:
87,319,52275,1,0,0:0:0:0:
166,319,52375,1,0,0:0:0:0:
324,272,52475,2,0,P|366:301|348:352,1,80.0000030517579
392,124,52775,6,0,L|408:56,2,66.6666666666667
120,260,53075,2,0,L|136:193,2,66.6666666666667
344,312,53375,2,0,L|273:318,2,66.6666666666667
221,68,53675,2,0,L|152:73,2,66.6666666666667
404,196,53975,2,0,L|475:202,2,66.6666666666667
194,314,54275,5,0,0:0:0:0:
191,292,54375,1,0,0:0:0:0:
188,270,54475,1,0,0:0:0:0:
272,222,54575,1,0,0:0:0:0:
268,195,54675,1,0,0:0:0:0:
265,168,54775,1,0,0:0:0:0:
366,122,54875,1,0,0:0:0:0:
361,90,54975,1,0,0:0:0:0:
357,58,55075,1,0,0:0:0:0:
208,118,55175,6,0,B|171:148|103:135|79:81|79:81|54:139|-8:112|40:170,1,240.000009155274
159,44,55975,5,0,0:0:0:0:
83,195,56075,2,0,B|59:253|81:318|129:358|205:356|205:356|238:322|304:338|324:283,1,360.000013732911
309,305,57275,5,0,0:0:0:0:
254,206,57425,2,0,P|355:197|412:136,1,160
400,287,57875,6,0,L|416:303,8,13.3333333333333
473,229,58175,5,0,0:0:0:0:
217,293,58375,2,0,L|199:315,14,20.0000007629395
167,268,58775,6,0,P|148:216|217:145,1,160
211,145,59375,1,0,0:0:0:0:
193,37,59575,5,0,0:0:0:0:
223,219,59675,1,0,0:0:0:0:
256,192,59775,12,0,61175,0:0:0:0:
136,100,61475,6,0,B|95:116|95:116|65:147,2,80.0000030517579
160,209,61775,2,0,B|145:250|145:250|150:293,2,80.0000030517579
262,256,62075,2,0,B|284:293|284:293|320:317,2,80.0000030517579
434,208,62375,5,0,0:0:0:0:
443,161,62475,1,0,0:0:0:0:
432,114,62575,1,0,0:0:0:0:
394,84,62675,1,0,0:0:0:0:
346,77,62775,1,0,0:0:0:0:
304,100,62875,1,0,0:0:0:0:
261,122,62975,1,0,0:0:0:0:
214,132,63075,1,0,0:0:0:0:
166,126,63175,1,0,0:0:0:0:
111,92,63275,5,0,0:0:0:0:
34,222,63475,1,0,0:0:0:0:
65,220,63575,1,0,0:0:0:0:
238,279,63775,1,0,0:0:0:0:
219,252,63875,1,0,0:0:0:0:
98,319,64075,1,0,0:0:0:0:
122,301,64175,2,0,P|159:225|137:148,1,160.000006103516
218,211,64475,2,0,P|300:229|370:191,1,160.000006103516
397,165,64775,1,0,0:0:0:0:
178,122,64975,5,0,0:0:0:0:
397,165,65075,1,0,0:0:0:0:
397,165,65375,6,0,B|375:131|375:131|338:115,2,80.0000030517579
254,210,65675,2,0,B|217:192|217:192|177:197,2,80.0000030517579
181,337,65975,1,0,0:0:0:0:
165,338,66075,1,0,0:0:0:0:
149,338,66175,1,0,0:0:0:0:
117,333,66275,1,0,0:0:0:0:
80,315,66375,1,0,0:0:0:0:
48,278,66475,1,0,0:0:0:0:
32,222,66575,1,0,0:0:0:0:
35,158,66675,1,0,0:0:0:0:
65,92,66775,1,0,0:0:0:0:
154,36,66875,2,0,P|210:29|251:45,1,80.0000030517579
345,227,67175,6,0,B|351:268|351:268|326:313,2,80.0000030517579
148,262,67475,6,0,B|110:268|110:268|81:299,2,80.0000030517579
285,113,67775,6,0,B|291:72|291:72|272:38,2,80.0000030517579
435,172,68075,6,0,B|472:165|472:165|501:134,2,80.0000030517579
135,105,68375,6,0,B|97:111|97:111|68:142,2,80.0000030517579
340,56,68675,5,0,0:0:0:0:
355,57,68775,1,0,0:0:0:0:
370,59,68875,1,0,0:0:0:0:
397,63,68975,2,0,B|437:68|437:68|475:49,2,80.0000030517579
317,251,69275,6,0,B|303:289|303:289|314:330,2,80.0000030517579
214,103,69575,5,0,0:0:0:0:
182,95,69675,2,0,L|100:74,1,80.0000030517579
286,163,69875,1,0,0:0:0:0:
318,155,69975,2,0,L|400:134,1,80.0000030517579
217,230,70175,1,0,0:0:0:0:
185,222,70275,2,0,L|103:201,1,80.0000030517579
343,298,70475,6,0,P|417:299|461:271,1,106.666666666667
382,210,70775,2,0,P|380:166|402:127,1,80.0000030517579
288,221,71075,2,0,B|268:232|268:232|248:267,2,40.000001525879
464,189,71375,2,0,B|484:178|484:178|504:143,2,40.000001525879
295,129,71675,1,0,0:0:0:0:
283,127,71775,1,0,0:0:0:0:
271,125,71875,1,0,0:0:0:0:
259,123,71975,2,0,B|207:115,1,53.3333333333333
153,106,72175,1,0,0:0:0:0:
73,213,72275,6,0,B|52:223|52:223|16:228,2,40.000001525879
160,260,72575,2,0,P|170:219|167:188,1,66.6666666666667
80,135,72775,1,0,0:0:0:0:
69,133,72875,2,0,B|34:123|34:123|14:99,2,66.6666666666667
153,106,73175,2,0,B|232:68|232:130|307:100,1,160
307,99,73775,1,0,0:0:0:0:
266,32,73975,5,0,0:0:0:0:
198,170,74075,1,0,0:0:0:0:
307,99,74375,5,0,0:0:0:0:
375,237,74675,1,0,0:0:0:0:
198,170,74975,6,0,B|174:172|174:172|149:184,3,40
207,248,75275,2,0,L|201:309,2,53.3333333333333
269,201,75575,2,0,L|332:215,2,53.3333333333333
198,86,75875,6,0,P|152:76|126:79,1,66.6666666666667
294,75,76075,1,0,0:0:0:0:
300,71,76175,2,0,P|331:36|342:12,1,66.6666666666667
256,155,76375,1,0,0:0:0:0:
256,163,76475,2,0,P|270:207|285:228,2,66.6666666666667
353,149,76775,6,0,P|421:149|460:128,1,106.666666666667
494,96,77075,1,0,0:0:0:0:
299,36,77375,5,0,0:0:0:0:
494,96,77575,5,0,0:0:0:0:
380,208,77675,2,0,P|367:272|384:333,1,106.666666666667
287,175,77975,2,0,P|235:131|175:116,1,106.666666666667
361,120,78275,2,0,P|423:97|466:52,1,106.666666666667
387,234,78575,1,0,0:0:0:0:
344,230,78675,1,0,0:0:0:0:
301,226,78775,1,0,0:0:0:0:
350,317,78875,1,0,0:0:0:0:
393,313,78975,1,0,0:0:0:0:
436,309,79075,1,0,0:0:0:0:
265,320,79175,6,0,B|235:308|235:308|206:273,2,53.3333333333333
269,266,79475,1,0,0:0:0:0:
165,208,79775,5,0,0:0:0:0:
163,170,79875,1,0,0:0:0:0:
161,132,79975,1,0,0:0:0:0:
78,151,80075,1,0,0:0:0:0:
70,108,80175,1,0,0:0:0:0:
63,65,80275,1,0,0:0:0:0:
160,87,80375,2,0,P|222:88|273:62,1,106.666666666667
410,39,80675,6,0,B|442:41|442:41|483:57,2,53.3333333333333
437,97,80975,2,0,B|464:113|464:113|493:147,2,53.3333333333333
283,160,81275,6,0,P|271:222|292:237,1,80.0000030517579
283,160,81575,2,0,P|259:212|284:238,1,80.0000030517579
283,160,81875,2,0,P|253:211|284:238,1,80.0000030517579
213,70,82175,2,0,B|196:64|196:64|150:62,2,40.000001525879
147,103,82475,2,0,B|129:101|129:101|87:111,2,31.9999990234375
100,143,82775,2,0,B|82:146|82:146|57:165,2,26.6666666666667
184,257,83075,5,0,0:0:0:0:
184,257,83375,1,0,0:0:0:0:
184,257,83675,1,0,0:0:0:0:
184,257,83975,1,0,0:0:0:0:
184,257,84275,1,0,0:0:0:0:
184,257,84575,1,0,0:0:0:0:
304,268,84875,6,0,P|364:272|424:248,1,120.000004577637
419,251,85475,1,0,0:0:0:0:
332,92,85775,6,0,P|272:88|212:112,1,120.000004577637
217,109,86375,1,0,0:0:0:0:
64,112,86675,5,0,0:0:0:0:
92,288,86975,1,0,0:0:0:0:
196,224,87275,1,0,0:0:0:0:
47,122,87575,6,0,B|35:182|35:182|40:195|40:195|31:258,1,120.000004577637
33,239,88175,1,0,0:0:0:0:
273,193,88475,5,0,0:0:0:0:
227,366,88775,2,0,L|351:355,1,120.000004577637
258,190,89375,5,0,0:0:0:0:
243,369,89675,2,0,L|363:336,1,120.000004577637
258,190,90275,6,0,P|236:129|259:63,2,120.000004577637
380,58,91175,6,0,P|402:119|379:185,2,120.000004577637
292,251,92075,5,0,0:0:0:0:
467,293,92375,1,0,0:0:0:0:
444,175,92675,1,0,0:0:0:0:
295,267,92975,5,0,0:0:0:0:
474,282,93275,1,0,0:0:0:0:
433,169,93575,1,0,0:0:0:0:
295,267,93875,6,0,P|226:264|180:234,1,120.000004577637
184,237,94475,1,0,0:0:0:0:
281,167,94775,6,0,P|350:163|396:133,1,120.000004577637
392,136,95375,1,0,0:0:0:0:
235,36,95675,5,0,0:0:0:0:
184,237,95975,1,0,0:0:0:0:
