osu file format v14

[General]
AudioFilename: audio.mp3
AudioLeadIn: 0
PreviewTime: 119800
Countdown: 0
SampleSet: Normal
StackLeniency: 0.2
Mode: 1
LetterboxInBreaks: 0
WidescreenStoryboard: 1

[Editor]
DistanceSpacing: 1
BeatDivisor: 4
GridSize: 32
TimelineZoom: 3.45

[Metadata]
Title:Super Ink Burst
TitleUnicode:Super Ink Burst
Artist:Iglooghost
ArtistUnicode:Iglooghost
Creator:Ulqui
Version:HiroK's Futsuu
Source:
Tags:neo Neō wax bloom electronic instrumental Genjuro HiroK Gamelan4 Kqrth
BeatmapID:2495709
BeatmapSetID:1182264

[Difficulty]
HPDrainRate:6.6
CircleSize:2
OverallDifficulty:3.5
ApproachRate:10
SliderMultiplier:1.4
SliderTickRate:1

[Events]
//Background and Video events
0,0,"eyd6561ouyg11.jpg",0,10
//Break Periods
2,114449,116681
//Storyboard Layer 0 (Background)
//Storyboard Layer 1 (Fail)
//Storyboard Layer 2 (Pass)
//Storyboard Layer 3 (Foreground)
//Storyboard Layer 4 (Overlay)
//Storyboard Sound Samples

[TimingPoints]
521,338.983050847458,4,1,0,80,1,0
521,-100,4,1,0,80,0,1
6622,-100,4,1,0,80,0,0
11368,-100,4,1,0,75,0,1
12004,-105.263157894737,4,1,0,75,0,1
16368,-103.448275862069,4,1,0,75,0,1
16537,-101.694915254272,4,1,0,75,0,1
16707,-100,4,1,0,75,0,1
16792,-100,4,1,0,75,0,0
19800,-100,4,1,0,80,0,0
22385,-100,4,1,0,80,0,0
27639,-100,4,1,0,80,0,1
33063,-100,4,1,0,80,0,0
33148,-108.108108108108,4,1,0,80,0,0
37893,-106.666666666667,4,1,0,80,0,0
38063,-105.263157894737,4,1,0,80,0,0
38487,-100,4,1,0,80,0,1
43910,-100,4,1,0,80,0,0
43995,-108.108108108108,4,1,0,80,0,0
54334,-109.090909090909,4,1,0,80,0,0
54504,-110.091743119266,4,1,0,80,0,0
54673,-111.111111111111,4,1,0,80,0,0
54758,-111.111111111111,4,1,0,80,0,1
55436,-111.111111111111,4,1,0,80,0,0
57470,-111.111111111111,4,1,0,80,0,1
58148,-111.111111111111,4,1,0,80,0,1
60182,-111.111111111111,4,1,0,80,0,0
71114,-125,4,1,0,80,0,0
71707,-125,4,1,0,80,0,1
76114,-111.111111111111,4,1,0,80,0,1
76453,-111.111111111111,4,1,0,80,0,0
76749,-111.111111111111,4,1,0,80,0,0
82554,-125,4,1,0,80,0,1
86114,-121.951219512195,4,1,0,80,0,1
86453,-119.047619047619,4,1,0,80,0,1
86792,-116.279069767442,4,1,0,80,0,1
87046,-113.636363636364,4,1,0,80,0,1
87215,-111.111111111111,4,1,0,80,0,1
87300,-111.111111111111,4,1,0,80,0,0
93571,-125,4,1,0,80,0,0
98148,-100,4,1,0,80,0,1
104249,-100,4,1,0,80,0,0
106283,-100,4,1,0,80,0,1
108910,-100,4,1,0,80,0,0
108995,-100,4,1,0,80,0,1
109165,-125,4,1,0,80,0,1
114419,-125,4,1,0,80,0,0
119843,-125,4,1,0,75,0,1
121156,-153.846153846153,4,1,0,75,0,1
121198,-153.846153846153,4,1,0,75,0,0
121537,-153.846153846153,4,1,0,75,0,1
123232,-153.846153846153,4,1,0,75,0,0
124419,-153.846153846153,4,1,0,75,0,1
124927,-153.846153846153,4,1,0,75,0,0
125266,-153.846153846153,4,1,0,75,0,1
126622,-153.846153846153,4,1,0,75,0,0
126961,-153.846153846153,4,1,0,75,0,1
128656,-153.846153846153,4,1,0,75,0,0
129334,-153.846153846153,4,1,0,75,0,1
130690,-153.846153846153,4,1,0,75,0,0
132385,-153.846153846153,4,1,0,75,0,1
132724,-153.846153846153,4,1,0,75,0,0
135266,-153.846153846153,4,1,0,75,0,1
135775,-153.846153846153,4,1,0,75,0,0
136114,-153.846153846153,4,1,0,75,0,1
137470,-153.846153846153,4,1,0,75,0,0
137809,-153.846153846153,4,1,0,75,0,1
139504,-153.846153846153,4,1,0,75,0,0
140182,-153.846153846153,4,1,0,75,0,1
141537,-153.846153846153,4,1,0,75,0,0
142004,-153.846153846154,4,1,0,20,0,0
150139,-149.253731343284,4,1,0,29,0,0
150648,-144.927536231884,4,1,0,34,0,0
151156,-140.845070422535,4,1,0,43,0,0
151283,-138.888888888889,4,1,0,43,0,0
151665,-135.135135135135,4,1,0,49,0,0
152004,-131.578947368421,4,1,0,54,0,0
152173,-129.87012987013,4,1,0,57,0,0
152343,-128.205128205128,4,1,0,60,0,0
152851,-125,4,1,0,20,0,0
163190,-121.212121212121,4,1,0,50,0,0
163741,-111.111111111111,4,1,0,75,0,1
168656,-111.111111111111,4,1,0,75,0,0
169165,-108.108108108108,4,1,0,75,0,1
174080,-108.108108108108,4,1,0,75,0,0
174588,-105.263157894737,4,1,0,75,0,1
179504,-105.263157894737,4,1,0,75,0,0
180012,-102.564102564103,4,1,0,75,0,1
184927,-102.564102564103,4,1,0,75,0,0
185393,-117.647058823529,4,1,0,75,0,0
185436,-117.647058823529,4,1,0,75,0,1
190351,-117.647058823529,4,1,0,50,0,0
190817,-117.647058823529,4,1,0,75,0,0
190859,-117.647058823529,4,1,0,75,0,1
195775,-117.647058823529,4,1,0,50,0,0
196241,-117.647058823529,4,1,0,75,0,0
196283,-117.647058823529,4,1,0,75,0,1
201198,-117.647058823529,4,1,0,50,0,0
201665,-117.647058823529,4,1,0,75,0,0
201707,-117.647058823529,4,1,0,75,0,1
206622,-117.647058823529,4,1,0,75,0,0

[HitObjects]
256,192,521,5,4,0:0:0:0:
256,192,1198,1,8,0:0:0:0:
256,192,1537,1,0,0:0:0:0:
256,192,2215,1,0,0:0:0:0:
256,192,2554,1,8,0:0:0:0:
256,192,2724,1,0,0:0:0:0:
256,192,3063,1,8,0:0:0:0:
256,192,3232,1,0,0:0:0:0:
256,192,3741,1,0,0:0:0:0:
256,192,3910,1,8,0:0:0:0:
256,192,4249,1,0,0:0:0:0:
256,192,4419,1,8,0:0:0:0:
256,192,4588,1,0,0:0:0:0:
256,192,4927,1,0,0:0:0:0:
256,192,5266,1,8,0:0:0:0:
256,192,5436,1,0,0:0:0:0:
256,192,5605,1,0,0:0:0:0:
256,192,5775,1,8,0:0:0:0:
256,192,5944,1,0,0:0:0:0:
256,192,6622,1,8,0:0:0:0:
256,192,6792,1,0,0:0:0:0:
256,192,7131,1,8,0:0:0:0:
256,192,7470,1,8,0:0:0:0:
256,192,7639,1,0,0:0:0:0:
256,192,7978,1,8,0:0:0:0:
256,192,8148,1,0,0:0:0:0:
256,192,8317,1,8,0:0:0:0:
256,192,8656,1,0,0:0:0:0:
256,192,9334,1,8,0:0:0:0:
256,192,9673,1,0,0:0:0:0:
256,192,9843,1,8,0:0:0:0:
256,192,10012,1,0,0:0:0:0:
256,192,10351,1,0,0:0:0:0:
256,192,10690,1,8,0:0:0:0:
256,192,10859,1,0,0:0:0:0:
256,192,11029,1,8,0:0:0:0:
256,192,11368,1,0,0:0:0:0:
256,192,12046,1,8,0:0:0:0:
256,192,13063,1,0,0:0:0:0:
256,192,13402,1,8,0:0:0:0:
256,192,13571,1,0,0:0:0:0:
256,192,13910,1,8,0:0:0:0:
256,192,14080,1,0,0:0:0:0:
256,192,14588,1,0,0:0:0:0:
256,192,14758,1,8,0:0:0:0:
256,192,15097,1,0,0:0:0:0:
256,192,15266,1,8,0:0:0:0:
256,192,15605,1,8,0:0:0:0:
256,192,15775,1,0,0:0:0:0:
256,192,15944,1,0,0:0:0:0:
256,192,16114,1,8,0:0:0:0:
256,192,16453,1,0,0:0:0:0:
256,192,16622,1,8,0:0:0:0:
256,192,16792,1,0,0:0:0:0:
256,192,17131,1,8,0:0:0:0:
256,192,17470,1,0,0:0:0:0:
256,192,17639,1,8,0:0:0:0:
256,192,17809,1,8,0:0:0:0:
256,192,18148,1,0,0:0:0:0:
256,192,18487,1,8,0:0:0:0:
256,192,18826,1,0,0:0:0:0:
256,192,18995,1,0,0:0:0:0:
256,192,19165,1,8,0:0:0:0:
256,192,19504,1,0,0:0:0:0:
256,192,20182,1,8,0:0:0:0:
256,192,20690,1,8,0:0:0:0:
256,192,21198,1,0,0:0:0:0:
256,192,21537,1,8,0:0:0:0:
256,192,21707,5,0,0:0:0:0:
256,192,21876,1,8,0:0:0:0:
224,128,22215,1,0,0:0:0:0:
256,192,22554,1,0,0:0:0:0:
256,192,23063,1,0,0:0:0:0:
256,192,23232,1,0,0:0:0:0:
256,192,23571,1,0,0:0:0:0:
256,192,23910,1,0,0:0:0:0:
256,192,24080,1,0,0:0:0:0:
256,192,24588,1,0,0:0:0:0:
256,192,24927,1,0,0:0:0:0:
256,192,25266,1,0,0:0:0:0:
256,192,25436,1,0,0:0:0:0:
256,192,25775,1,0,0:0:0:0:
256,192,25944,1,0,0:0:0:0:
256,192,26283,1,8,0:0:0:0:
256,192,26792,1,0,0:0:0:0:
256,192,26961,1,8,0:0:0:0:
256,192,27300,1,8,0:0:0:0:
256,192,27639,1,0,0:0:0:0:
256,192,28317,1,8,0:0:0:0:
256,192,28487,1,0,0:0:0:0:
256,192,28826,1,8,0:0:0:0:
256,192,29165,1,8,0:0:0:0:
256,192,29334,1,0,0:0:0:0:
256,192,29673,1,8,0:0:0:0:
256,192,29843,1,0,0:0:0:0:
256,192,30012,1,8,0:0:0:0:
256,192,30351,1,0,0:0:0:0:
256,192,31029,1,8,0:0:0:0:
256,192,31368,1,0,0:0:0:0:
256,192,31537,1,8,0:0:0:0:
256,192,31876,1,8,0:0:0:0:
192,224,32046,1,0,0:0:0:0:
256,192,32385,1,8,0:0:0:0:
256,192,32554,1,0,0:0:0:0:
256,192,32724,1,8,0:0:0:0:
256,192,33063,1,0,0:0:0:0:
256,192,34080,1,0,0:0:0:0:
256,192,34758,1,0,0:0:0:0:
256,192,35266,1,0,0:0:0:0:
256,192,35605,1,8,0:0:0:0:
256,192,35775,1,0,0:0:0:0:
256,192,36283,1,0,0:0:0:0:
256,192,36792,1,0,0:0:0:0:
256,192,37131,1,0,0:0:0:0:
256,192,37470,1,0,0:0:0:0:
256,192,37639,1,0,0:0:0:0:
256,192,37978,1,0,0:0:0:0:
256,192,38148,1,0,0:0:0:0:
256,192,38487,1,8,0:0:0:0:
256,192,38995,1,8,0:0:0:0:
256,192,39165,1,8,0:0:0:0:
256,192,39504,1,8,0:0:0:0:
256,192,39843,1,8,0:0:0:0:
256,192,40351,1,8,0:0:0:0:
256,192,40521,1,8,0:0:0:0:
256,192,40859,1,8,0:0:0:0:
256,192,41029,1,0,0:0:0:0:
256,192,41198,1,8,0:0:0:0:
256,192,41707,1,8,0:0:0:0:
256,192,41876,1,8,0:0:0:0:
256,192,42215,1,8,0:0:0:0:
256,192,42554,1,0,0:0:0:0:
256,192,42893,1,0,0:0:0:0:
256,192,43063,1,8,0:0:0:0:
256,192,43232,1,0,0:0:0:0:
256,192,43571,1,8,0:0:0:0:
256,192,43910,1,0,0:0:0:0:
256,192,44588,1,8,0:0:0:0:
256,192,45605,1,0,0:0:0:0:
256,192,45944,1,8,0:0:0:0:
256,192,46114,1,0,0:0:0:0:
256,192,46453,1,8,0:0:0:0:
256,192,46622,1,0,0:0:0:0:
256,192,47131,1,0,0:0:0:0:
256,192,47300,1,8,0:0:0:0:
256,192,47639,1,0,0:0:0:0:
256,192,47809,1,8,0:0:0:0:
256,192,48148,1,8,0:0:0:0:
256,192,48317,1,0,0:0:0:0:
256,192,48656,1,8,0:0:0:0:
256,192,48995,1,0,0:0:0:0:
256,192,49165,1,8,0:0:0:0:
256,192,49334,1,0,0:0:0:0:
256,192,50012,1,8,0:0:0:0:
256,192,50182,1,0,0:0:0:0:
256,192,50521,1,8,0:0:0:0:
256,192,50859,1,8,0:0:0:0:
256,192,51029,1,0,0:0:0:0:
256,192,51368,1,8,0:0:0:0:
256,192,51876,1,8,0:0:0:0:
256,192,52046,1,0,0:0:0:0:
256,192,52724,1,8,0:0:0:0:
256,192,53063,1,0,0:0:0:0:
256,192,53232,1,8,0:0:0:0:
256,192,53571,1,0,0:0:0:0:
256,192,53741,1,0,0:0:0:0:
256,192,54080,1,8,0:0:0:0:
256,192,54419,1,0,0:0:0:0:
256,192,54588,1,8,0:0:0:0:
256,192,54758,1,0,0:0:0:0:
256,192,55097,1,0,0:0:0:0:
256,192,55436,1,8,0:0:0:0:
256,192,55944,1,8,0:0:0:0:
256,192,56453,1,0,0:0:0:0:
256,192,56792,1,8,0:0:0:0:
256,192,56961,1,0,0:0:0:0:
256,192,57300,1,8,0:0:0:0:
256,192,57470,1,0,0:0:0:0:
256,192,57978,1,0,0:0:0:0:
256,192,58148,1,8,0:0:0:0:
256,192,58487,1,0,0:0:0:0:
256,192,58656,1,8,0:0:0:0:
256,192,58995,1,8,0:0:0:0:
256,192,59165,1,0,0:0:0:0:
256,192,59504,1,8,0:0:0:0:
256,192,59843,1,0,0:0:0:0:
256,192,60012,1,8,0:0:0:0:
256,192,60182,1,0,0:0:0:0:
256,192,60859,1,8,0:0:0:0:
256,192,61368,1,8,0:0:0:0:
256,192,61876,1,0,0:0:0:0:
256,192,62215,1,8,0:0:0:0:
256,192,62385,1,0,0:0:0:0:
256,192,62724,1,8,0:0:0:0:
256,192,62893,1,0,0:0:0:0:
256,192,63402,1,0,0:0:0:0:
256,192,63571,1,8,0:0:0:0:
256,192,63910,1,0,0:0:0:0:
256,192,64080,1,8,0:0:0:0:
256,192,64419,5,8,0:0:0:0:
256,192,64588,1,0,0:0:0:0:
256,192,64758,1,0,0:0:0:0:
256,192,64927,1,8,0:0:0:0:
256,192,65266,1,0,0:0:0:0:
256,192,65436,1,8,0:0:0:0:
256,192,66283,1,8,0:0:0:0:
256,192,66453,1,0,0:0:0:0:
256,192,66792,1,8,0:0:0:0:
256,192,67131,1,8,0:0:0:0:
256,192,67300,1,0,0:0:0:0:
256,192,67639,1,8,0:0:0:0:
256,192,67978,1,0,0:0:0:0:
256,192,68148,5,8,0:0:0:0:
256,192,68317,1,0,0:0:0:0:
256,192,68656,1,8,0:0:0:0:
256,192,68826,1,0,0:0:0:0:
256,192,69165,1,8,0:0:0:0:
256,192,69504,1,8,0:0:0:0:
256,192,69673,1,0,0:0:0:0:
256,192,70012,1,0,0:0:0:0:
256,192,70182,1,0,0:0:0:0:
256,192,70351,1,8,0:0:0:0:
256,192,70521,1,0,0:0:0:0:
256,192,70690,1,0,0:0:0:0:
256,192,71029,1,0,0:0:0:0:
256,192,71707,1,8,0:0:0:0:
256,192,72724,1,0,0:0:0:0:
256,192,73063,1,8,0:0:0:0:
256,192,73232,1,0,0:0:0:0:
256,192,73571,1,8,0:0:0:0:
256,192,73741,1,0,0:0:0:0:
256,192,74249,1,0,0:0:0:0:
256,192,74419,1,8,0:0:0:0:
256,192,74758,1,0,0:0:0:0:
256,192,74927,1,8,0:0:0:0:
256,192,75266,1,8,0:0:0:0:
256,192,75436,1,0,0:0:0:0:
256,192,75605,1,0,0:0:0:0:
256,192,75775,1,8,0:0:0:0:
256,192,75944,1,0,0:0:0:0:
256,192,76453,1,0,0:0:0:0:
256,192,76792,1,0,0:0:0:0:
256,192,76961,1,0,0:0:0:0:
256,192,77300,1,0,0:0:0:0:
256,192,77470,1,0,0:0:0:0:
256,192,77809,1,0,0:0:0:0:
256,192,78148,1,0,0:0:0:0:
256,192,78317,1,0,0:0:0:0:
256,192,78656,1,0,0:0:0:0:
256,192,78826,1,0,0:0:0:0:
256,192,79165,1,8,0:0:0:0:
256,192,79504,1,0,0:0:0:0:
256,192,79673,1,0,0:0:0:0:
256,192,80012,1,0,0:0:0:0:
256,192,80182,1,8,0:0:0:0:
256,192,80521,1,0,0:0:0:0:
256,192,80859,1,8,0:0:0:0:
256,192,81029,1,0,0:0:0:0:
256,192,81198,1,8,0:0:0:0:
256,192,81537,1,0,0:0:0:0:
256,192,81707,1,8,0:0:0:0:
256,192,81876,1,0,0:0:0:0:
256,192,82554,1,12,0:0:0:0:
256,192,83232,1,0,0:0:0:0:
256,192,83910,1,12,0:0:0:0:
256,192,84588,1,0,0:0:0:0:
256,192,85266,1,12,0:0:0:0:
256,192,85944,1,0,0:0:0:0:
256,192,86283,1,8,0:0:0:0:
256,192,86622,1,8,0:0:0:0:
256,192,86961,1,8,0:0:0:0:
256,192,87131,1,8,0:0:0:0:
256,192,87300,1,0,0:0:0:0:
256,192,87809,1,0,0:0:0:0:
256,192,87978,1,0,0:0:0:0:
256,192,88317,1,0,0:0:0:0:
256,192,88656,1,8,0:0:0:0:
256,192,88826,1,0,0:0:0:0:
256,192,88995,1,0,0:0:0:0:
256,192,89334,1,0,0:0:0:0:
256,192,89673,1,8,0:0:0:0:
256,192,89843,1,0,0:0:0:0:
256,192,90012,1,0,0:0:0:0:
256,192,90521,1,0,0:0:0:0:
256,192,90690,1,0,0:0:0:0:
256,192,91029,1,0,0:0:0:0:
256,192,91368,1,8,0:0:0:0:
256,192,91537,1,0,0:0:0:0:
256,192,91707,1,0,0:0:0:0:
256,192,92046,1,8,0:0:0:0:
256,192,92385,1,0,0:0:0:0:
256,192,92554,1,0,0:0:0:0:
256,192,92724,1,0,0:0:0:0:
256,192,93741,1,0,0:0:0:0:
256,192,94419,1,0,0:0:0:0:
256,192,95266,1,0,0:0:0:0:
256,192,95436,1,0,0:0:0:0:
256,192,98148,1,4,0:0:0:0:
256,192,98826,1,8,0:0:0:0:
256,192,99165,1,0,0:0:0:0:
256,192,99334,1,0,0:0:0:0:
256,192,99504,1,8,0:0:0:0:
256,192,99843,1,0,0:0:0:0:
256,192,100182,1,8,0:0:0:0:
256,192,100351,1,0,0:0:0:0:
256,192,100690,1,8,0:0:0:0:
256,192,100859,1,0,0:0:0:0:
256,192,101368,1,0,0:0:0:0:
256,192,101537,1,8,0:0:0:0:
256,192,101876,1,0,0:0:0:0:
256,192,102046,1,8,0:0:0:0:
256,192,102385,1,8,0:0:0:0:
256,192,102554,1,0,0:0:0:0:
256,192,102893,1,8,0:0:0:0:
256,192,103232,1,0,0:0:0:0:
256,192,103402,1,8,0:0:0:0:
256,192,103571,1,0,0:0:0:0:
256,192,104249,1,8,0:0:0:0:
256,192,104419,1,0,0:0:0:0:
256,192,104758,1,8,0:0:0:0:
256,192,105097,1,8,0:0:0:0:
256,192,105266,1,0,0:0:0:0:
256,192,105605,1,8,0:0:0:0:
256,192,105775,1,0,0:0:0:0:
256,192,105944,1,8,0:0:0:0:
256,192,106283,1,0,0:0:0:0:
256,192,106961,1,8,0:0:0:0:
256,192,107470,1,8,0:0:0:0:
256,192,107978,1,0,0:0:0:0:
256,192,108317,1,8,0:0:0:0:
256,192,108487,1,0,0:0:0:0:
256,192,108826,1,8,0:0:0:0:
256,192,108995,1,0,0:0:0:0:
256,192,110690,1,8,0:0:0:0:
256,192,111198,1,8,0:0:0:0:
256,192,111707,1,8,0:0:0:0:
256,192,112215,1,8,0:0:0:0:
256,192,112724,1,8,0:0:0:0:
256,192,113232,1,8,0:0:0:0:
256,192,113402,1,8,0:0:0:0:
256,192,113741,1,8,0:0:0:0:
256,192,114080,1,8,0:0:0:0:
256,192,114249,1,8,0:0:0:0:
256,192,117131,5,8,0:0:0:0:
256,192,117639,1,8,0:0:0:0:
256,192,118148,1,8,0:0:0:0:
256,192,118487,1,0,0:0:0:0:
256,192,118826,1,8,0:0:0:0:
256,192,118995,1,0,0:0:0:0:
256,192,119334,1,0,0:0:0:0:
256,192,119504,1,8,0:0:0:0:
256,192,119843,5,4,0:0:0:0:
256,192,121198,1,8,0:0:0:0:
256,192,121537,1,0,0:0:0:0:
256,192,121876,1,0,0:0:0:0:
256,192,123910,1,8,0:0:0:0:
256,192,124419,1,0,0:0:0:0:
256,192,124927,1,8,0:0:0:0:
256,192,125266,1,4,0:0:0:0:
256,192,126622,1,8,0:0:0:0:
256,192,126961,1,0,0:0:0:0:
256,192,127300,1,0,0:0:0:0:
256,192,128995,1,0,0:0:0:0:
256,192,129334,1,8,0:0:0:0:
256,192,129673,1,0,0:0:0:0:
256,192,129843,1,8,0:0:0:0:
256,192,130182,1,0,0:0:0:0:
256,192,130351,1,8,0:0:0:0:
256,192,130690,1,0,0:0:0:0:
256,192,132046,1,8,0:0:0:0:
256,192,132385,1,0,0:0:0:0:
256,192,132724,1,0,0:0:0:0:
256,192,134758,1,8,0:0:0:0:
256,192,135266,1,0,0:0:0:0:
256,192,135775,1,8,0:0:0:0:
256,192,136114,1,4,0:0:0:0:
256,192,136622,1,0,0:0:0:0:
256,192,137131,1,0,0:0:0:0:
256,192,137470,1,8,0:0:0:0:
256,192,137809,1,0,0:0:0:0:
256,192,138148,1,0,0:0:0:0:
256,192,139843,1,0,0:0:0:0:
256,192,140182,1,8,0:0:0:0:
256,192,140521,1,0,0:0:0:0:
256,192,140690,1,8,0:0:0:0:
256,192,141029,1,0,0:0:0:0:
256,192,141198,1,8,0:0:0:0:
256,192,141537,1,4,0:0:0:0:
256,192,142046,1,8,0:0:0:0:
256,192,142385,1,8,0:0:0:0:
256,192,142724,1,8,0:0:0:0:
256,192,142893,1,8,0:0:0:0:
256,192,143402,1,8,0:0:0:0:
256,192,143741,1,8,0:0:0:0:
256,192,143910,1,8,0:0:0:0:
256,192,144080,1,8,0:0:0:0:
256,192,144249,1,8,0:0:0:0:
256,192,144758,1,8,0:0:0:0:
256,192,145097,1,8,0:0:0:0:
256,192,145436,1,8,0:0:0:0:
256,192,145605,1,8,0:0:0:0:
256,192,146114,1,8,0:0:0:0:
256,192,146453,1,8,0:0:0:0:
256,192,146622,1,8,0:0:0:0:
256,192,146792,1,8,0:0:0:0:
256,192,146961,1,0,0:0:0:0:
256,192,147809,1,8,0:0:0:0:
256,192,148148,1,8,0:0:0:0:
256,192,148317,1,8,0:0:0:0:
256,192,148826,1,8,0:0:0:0:
256,192,149165,1,8,0:0:0:0:
256,192,149334,1,8,0:0:0:0:
212,138,149504,1,8,0:0:0:0:
256,192,149673,1,0,0:0:0:0:
256,192,150182,1,8,0:0:0:0:
256,192,150690,1,8,0:0:0:0:
256,192,151029,1,0,0:0:0:0:
256,192,151198,1,8,0:0:0:0:
256,192,151707,1,8,0:0:0:0:
256,192,152046,1,8,0:0:0:0:
256,192,152215,1,8,0:0:0:0:
256,192,152385,1,0,0:0:0:0:
256,192,152893,1,8,0:0:0:0:
256,192,153232,1,8,0:0:0:0:
256,192,153571,1,8,0:0:0:0:
256,192,153741,1,8,0:0:0:0:
256,192,154249,1,8,0:0:0:0:
256,192,154588,1,8,0:0:0:0:
256,192,154758,1,8,0:0:0:0:
256,192,154927,1,8,0:0:0:0:
256,192,155097,1,8,0:0:0:0:
256,192,155605,1,8,0:0:0:0:
256,192,155944,1,8,0:0:0:0:
256,192,156283,1,8,0:0:0:0:
256,192,156453,1,8,0:0:0:0:
256,192,156961,1,8,0:0:0:0:
256,192,157300,1,8,0:0:0:0:
256,192,157470,1,8,0:0:0:0:
256,192,157639,1,8,0:0:0:0:
256,192,157809,1,0,0:0:0:0:
256,192,158656,1,8,0:0:0:0:
256,192,158995,1,8,0:0:0:0:
256,192,159165,1,8,0:0:0:0:
256,192,159673,1,8,0:0:0:0:
256,192,160012,1,8,0:0:0:0:
256,192,160182,1,8,0:0:0:0:
256,192,160351,1,8,0:0:0:0:
256,192,160521,1,8,0:0:0:0:
256,192,161029,1,8,0:0:0:0:
256,192,161368,1,8,0:0:0:0:
256,192,161707,1,8,0:0:0:0:
256,192,161876,1,8,0:0:0:0:
256,192,162046,1,8,0:0:0:0:
256,192,162385,1,8,0:0:0:0:
256,192,162554,1,8,0:0:0:0:
256,192,162893,1,8,0:0:0:0:
256,192,163232,1,0,0:0:0:0:
256,192,163741,1,8,0:0:0:0:
256,192,163910,1,0,0:0:0:0:
256,192,164249,1,8,0:0:0:0:
256,192,164588,1,0,0:0:0:0:
256,192,165097,1,8,0:0:0:0:
256,192,165266,1,0,0:0:0:0:
256,192,165605,1,8,0:0:0:0:
256,192,165775,1,0,0:0:0:0:
256,192,165944,1,8,0:0:0:0:
256,192,166622,1,0,0:0:0:0:
256,192,166961,1,8,0:0:0:0:
256,192,167300,1,0,0:0:0:0:
256,192,167470,1,8,0:0:0:0:
256,192,167639,1,8,0:0:0:0:
256,192,167809,1,8,0:0:0:0:
256,192,167978,1,0,0:0:0:0:
256,192,168317,1,8,0:0:0:0:
256,192,168487,1,8,0:0:0:0:
256,192,168656,1,0,0:0:0:0:
256,192,169165,5,8,0:0:0:0:
256,192,169334,1,0,0:0:0:0:
256,192,169673,1,8,0:0:0:0:
256,192,170012,1,0,0:0:0:0:
256,192,170521,1,8,0:0:0:0:
256,192,170690,1,0,0:0:0:0:
256,192,171029,1,8,0:0:0:0:
256,192,171368,1,0,0:0:0:0:
256,192,171537,1,0,0:0:0:0:
256,192,171707,1,8,0:0:0:0:
256,192,171876,1,8,0:0:0:0:
256,192,172046,1,0,0:0:0:0:
256,192,172385,1,8,0:0:0:0:
256,192,172724,1,0,0:0:0:0:
256,192,172893,1,8,0:0:0:0:
256,192,173232,1,8,0:0:0:0:
256,192,173402,1,0,0:0:0:0:
256,192,174080,1,0,0:0:0:0:
256,192,174588,5,8,0:0:0:0:
256,192,174758,1,0,0:0:0:0:
256,192,175097,1,8,0:0:0:0:
256,192,175436,1,0,0:0:0:0:
256,192,175944,1,8,0:0:0:0:
256,192,176114,1,0,0:0:0:0:
256,192,176453,1,8,0:0:0:0:
256,192,176622,1,0,0:0:0:0:
256,192,176792,1,8,0:0:0:0:
256,192,177470,1,0,0:0:0:0:
256,192,177809,1,8,0:0:0:0:
256,192,178148,1,0,0:0:0:0:
256,192,178317,1,0,0:0:0:0:
256,192,178487,1,8,0:0:0:0:
256,192,178656,1,8,0:0:0:0:
256,192,178826,1,0,0:0:0:0:
256,192,179165,1,0,0:0:0:0:
256,192,179334,1,8,0:0:0:0:
256,192,179504,1,8,0:0:0:0:
256,192,180012,1,8,0:0:0:0:
256,192,180182,1,0,0:0:0:0:
256,192,180521,1,8,0:0:0:0:
256,192,180859,1,0,0:0:0:0:
256,192,181029,1,8,0:0:0:0:
256,192,181368,1,8,0:0:0:0:
256,192,181537,1,0,0:0:0:0:
256,192,182215,1,8,0:0:0:0:
256,192,182554,1,0,0:0:0:0:
256,192,182724,1,0,0:0:0:0:
256,192,182893,1,8,0:0:0:0:
256,192,183232,1,0,0:0:0:0:
256,192,183402,1,8,0:0:0:0:
256,192,183571,1,0,0:0:0:0:
256,192,183910,1,8,0:0:0:0:
256,192,184249,1,0,0:0:0:0:
256,192,184419,1,8,0:0:0:0:
256,192,184758,1,8,0:0:0:0:
256,192,185436,1,0,0:0:0:0:
256,192,185605,1,0,0:0:0:0:
256,192,186961,1,8,0:0:0:0:
256,192,187639,1,0,0:0:0:0:
256,192,188995,1,8,0:0:0:0:
256,192,189334,1,0,0:0:0:0:
256,192,189673,1,8,0:0:0:0:
256,192,190012,1,0,0:0:0:0:
256,192,190859,1,0,0:0:0:0:
256,192,191029,1,0,0:0:0:0:
256,192,193063,1,0,0:0:0:0:
256,192,194419,1,8,0:0:0:0:
256,192,194758,1,0,0:0:0:0:
256,192,195097,1,8,0:0:0:0:
256,192,195436,1,0,0:0:0:0:
256,192,195605,1,8,0:0:0:0:
256,192,196283,1,0,0:0:0:0:
256,192,196453,1,0,0:0:0:0:
256,192,198487,1,0,0:0:0:0:
256,192,199843,1,8,0:0:0:0:
256,192,200182,1,0,0:0:0:0:
256,192,200521,1,8,0:0:0:0:
256,192,200859,1,0,0:0:0:0:
256,192,201707,1,0,0:0:0:0:
256,192,201876,1,0,0:0:0:0:
256,192,203910,1,0,0:0:0:0:
256,192,204419,1,8,0:0:0:0:
256,192,205266,1,8,0:0:0:0:
256,192,205605,1,0,0:0:0:0:
256,192,205944,1,8,0:0:0:0:
256,192,206283,1,0,0:0:0:0:
256,192,206453,1,0,0:0:0:0:
