osu file format v14

[General]
AudioFilename: audio.mp3
AudioLeadIn: 0
PreviewTime: -1
Countdown: 0
SampleSet: None
StackLeniency: 0.7
Mode: 3
LetterboxInBreaks: 0
SpecialStyle: 0
WidescreenStoryboard: 1

[Editor]
Bookmarks: 42287,180218,285045,328946,455804,520946,541518,548375,561967,586456,733207,842901,895648,958945,990593,1032791,1126691,1150249,1197366,1294544,1364337,1387609,1439973,1473427,1503973,1550518,1604200,1644480,1718326,1745179,1768676,1795529,1854093,1999642,2100287,2114222,2180592,2209899,2227782,2238448,2255201
DistanceSpacing: 0.2
BeatDivisor: 4
GridSize: 16
TimelineZoom: 1

[Metadata]
Title:Clear Tamei & Steel Mogu
TitleUnicode:Clear Tamei & Steel Mogu
Artist:Iglooghost
ArtistUnicode:Iglooghost
Creator:OliBomby
Version:Mamu
Source:
Tags:
BeatmapID:1762785
BeatmapSetID:842432

[Difficulty]
HPDrainRate:5
CircleSize:4
OverallDifficulty:9
ApproachRate:5
SliderMultiplier:1.4
SliderTickRate:1

[Events]
//Background and Video events
0,0,"69184378_p0.jpg",0,0
//Break Periods
2,41896,46589
2,130748,140382
2,202472,206589
2,222731,228572
2,314989,325160
2,1291708,1296434
2,1364628,1371410
//Storyboard Layer 0 (Background)
//Storyboard Layer 1 (Fail)
//Storyboard Layer 2 (Pass)
//Storyboard Layer 3 (Foreground)
//Storyboard Sound Samples

[TimingPoints]
75,329.67032967033,4,2,0,100,1,0
42272,344.827586206897,4,2,0,100,1,0
287789,428.571428571429,4,2,0,100,1,0
561967,382.65306122449,4,2,0,100,1,0
586464,382.165605095541,4,2,0,100,1,0
733215,395.176842105263,4,2,0,100,1,0
758506,329.67032967033,4,2,0,100,1,0
1032791,500,4,2,0,100,1,0
1079575,368.098159509202,4,2,0,100,1,0
1294544,363.507764350453,4,2,0,100,1,0
1364337,363.636363636364,4,2,0,100,1,0
1550518,416.666666666667,4,2,0,100,1,0
1553851,419.58041958042,4,2,0,100,1,0
1795529,352.941176470588,4,2,0,100,1,0
1798352,387.096774193548,4,2,0,100,1,0
2126218,521.739130434783,4,2,0,100,1,0
2142913,523.331879633668,4,2,0,100,1,0
2209899,444.444444444444,4,2,0,100,1,0
2213454,447.761194029851,4,2,0,100,1,0
2227782,444.444444444444,4,2,0,100,1,0
2238448,526.315789473684,4,2,0,100,1,0
2242658,522.648083623693,4,2,0,100,1,0

[HitObjects]
320,192,75,5,0,0:0:0:0:
192,192,75,1,0,0:0:0:0:
320,192,1888,1,0,0:0:0:0:
64,192,2053,1,0,0:0:0:0:
192,192,2712,1,0,0:0:0:0:
192,192,3784,1,0,0:0:0:0:
192,192,4278,1,0,0:0:0:0:
448,192,5350,1,0,0:0:0:0:
320,192,5432,1,0,0:0:0:0:
320,192,7328,1,0,0:0:0:0:
64,192,10624,1,0,0:0:0:0:
448,192,11943,1,0,0:0:0:0:
192,192,13262,1,0,0:0:0:0:
192,192,14086,1,0,0:0:0:0:
64,192,14828,1,0,0:0:0:0:
192,192,15240,1,0,0:0:0:0:
192,192,15899,1,0,0:0:0:0:
448,192,18537,1,0,0:0:0:0:
320,192,18619,1,0,0:0:0:0:
320,192,18866,1,0,0:0:0:0:
448,192,20185,1,0,0:0:0:0:
320,192,20844,1,0,0:0:0:0:
192,192,21174,1,0,0:0:0:0:
448,192,21256,1,0,0:0:0:0:
64,192,21586,1,0,0:0:0:0:
448,192,21668,1,0,0:0:0:0:
320,192,22245,1,0,0:0:0:0:
192,192,23811,1,0,0:0:0:0:
448,192,25377,1,0,0:0:0:0:
64,192,26284,1,0,0:0:0:0:
448,192,26449,1,0,0:0:0:0:
192,192,26778,1,0,0:0:0:0:
448,192,28097,1,0,0:0:0:0:
320,192,28427,1,0,0:0:0:0:
64,192,29004,1,0,0:0:0:0:
192,192,29745,1,0,0:0:0:0:
320,192,29828,1,0,0:0:0:0:
448,192,30734,1,0,0:0:0:0:
64,192,31394,1,0,0:0:0:0:
320,192,31723,1,0,0:0:0:0:
320,192,32465,1,0,0:0:0:0:
448,192,34361,1,0,0:0:0:0:
320,192,35927,1,0,0:0:0:0:
192,192,37080,1,0,0:0:0:0:
192,192,37657,1,0,0:0:0:0:
448,192,38976,1,0,0:0:0:0:
320,192,39965,1,0,0:0:0:0:
192,192,41696,1,0,0:0:0:0:
320,192,47789,5,0,0:0:0:0:
320,192,51927,1,0,0:0:0:0:
448,192,52444,1,0,0:0:0:0:
320,192,53220,1,0,0:0:0:0:
448,192,53306,1,0,0:0:0:0:
192,192,53306,1,0,0:0:0:0:
192,192,56065,1,0,0:0:0:0:
320,192,56841,1,0,0:0:0:0:
192,192,57875,1,0,0:0:0:0:
64,192,58479,1,0,0:0:0:0:
320,192,58824,1,0,0:0:0:0:
64,192,60031,1,0,0:0:0:0:
320,192,60720,1,0,0:0:0:0:
64,192,61582,1,0,0:0:0:0:
320,192,61755,1,0,0:0:0:0:
448,192,61841,1,0,0:0:0:0:
64,192,62358,1,0,0:0:0:0:
320,192,62444,1,0,0:0:0:0:
64,192,62531,1,0,0:0:0:0:
448,192,62875,1,0,0:0:0:0:
448,192,63824,1,0,0:0:0:0:
192,192,63910,1,0,0:0:0:0:
192,192,64169,1,0,0:0:0:0:
192,192,64341,1,0,0:0:0:0:
192,192,67100,1,0,0:0:0:0:
64,192,69858,1,0,0:0:0:0:
192,192,70375,1,0,0:0:0:0:
64,192,70634,1,0,0:0:0:0:
192,192,70720,1,0,0:0:0:0:
192,192,71065,1,0,0:0:0:0:
192,192,71238,1,0,0:0:0:0:
320,192,71324,1,0,0:0:0:0:
448,192,71410,1,0,0:0:0:0:
64,192,71496,1,0,0:0:0:0:
320,192,71582,1,0,0:0:0:0:
64,192,71927,1,0,0:0:0:0:
192,192,72100,1,0,0:0:0:0:
320,192,72272,1,0,0:0:0:0:
448,192,72358,1,0,0:0:0:0:
320,192,72444,1,0,0:0:0:0:
64,192,72531,1,0,0:0:0:0:
320,192,72617,1,0,0:0:0:0:
448,192,74341,1,0,0:0:0:0:
192,192,74858,1,0,0:0:0:0:
64,192,75203,1,0,0:0:0:0:
320,192,75289,1,0,0:0:0:0:
64,192,75375,1,0,0:0:0:0:
448,192,78134,1,0,0:0:0:0:
320,192,80893,1,0,0:0:0:0:
320,192,81324,1,0,0:0:0:0:
448,192,82272,1,0,0:0:0:0:
448,192,82703,1,0,0:0:0:0:
64,192,82789,1,0,0:0:0:0:
320,192,83393,1,0,0:0:0:0:
448,192,83479,1,0,0:0:0:0:
192,192,83824,1,0,0:0:0:0:
192,192,84513,1,0,0:0:0:0:
320,192,84772,1,0,0:0:0:0:
448,192,84944,1,0,0:0:0:0:
64,192,85031,1,0,0:0:0:0:
64,192,85979,1,0,0:0:0:0:
320,192,86410,1,0,0:0:0:0:
448,192,86582,1,0,0:0:0:0:
320,192,86755,1,0,0:0:0:0:
64,192,86927,1,0,0:0:0:0:
64,192,87100,1,0,0:0:0:0:
64,192,87272,1,0,0:0:0:0:
448,192,87358,1,0,0:0:0:0:
192,192,87444,1,0,0:0:0:0:
192,192,87617,1,0,0:0:0:0:
448,192,87703,1,0,0:0:0:0:
320,192,87789,1,0,0:0:0:0:
448,192,87962,1,0,0:0:0:0:
320,192,88134,1,0,0:0:0:0:
192,192,88306,1,0,0:0:0:0:
64,192,88479,1,0,0:0:0:0:
64,192,88651,1,0,0:0:0:0:
192,192,88738,1,0,0:0:0:0:
64,192,88824,1,0,0:0:0:0:
64,192,88996,1,0,0:0:0:0:
448,192,89082,1,0,0:0:0:0:
64,192,89169,1,0,0:0:0:0:
320,192,89341,1,0,0:0:0:0:
448,192,89427,1,0,0:0:0:0:
192,192,89513,1,0,0:0:0:0:
448,192,89686,1,0,0:0:0:0:
192,192,89858,1,0,0:0:0:0:
448,192,90031,1,0,0:0:0:0:
64,192,90117,1,0,0:0:0:0:
320,192,90203,1,0,0:0:0:0:
320,192,90375,1,0,0:0:0:0:
448,192,90462,1,0,0:0:0:0:
320,192,90548,1,0,0:0:0:0:
64,192,90720,1,0,0:0:0:0:
448,192,90893,1,0,0:0:0:0:
64,192,91065,1,0,0:0:0:0:
320,192,91238,1,0,0:0:0:0:
448,192,91755,1,0,0:0:0:0:
64,192,91841,1,0,0:0:0:0:
320,192,91927,1,0,0:0:0:0:
448,192,92617,1,0,0:0:0:0:
192,192,92617,1,0,0:0:0:0:
64,192,92703,1,0,0:0:0:0:
192,192,92962,1,0,0:0:0:0:
320,192,93996,1,0,0:0:0:0:
192,192,94255,1,0,0:0:0:0:
192,192,94427,1,0,0:0:0:0:
448,192,94513,1,0,0:0:0:0:
320,192,94600,1,0,0:0:0:0:
64,192,94600,1,0,0:0:0:0:
192,192,94944,1,0,0:0:0:0:
320,192,95203,1,0,0:0:0:0:
192,192,95375,1,0,0:0:0:0:
448,192,95375,1,0,0:0:0:0:
64,192,95893,1,0,0:0:0:0:
448,192,96582,1,0,0:0:0:0:
192,192,96755,1,0,0:0:0:0:
320,192,96755,1,0,0:0:0:0:
320,192,96927,1,0,0:0:0:0:
448,192,97186,1,0,0:0:0:0:
192,192,97272,1,0,0:0:0:0:
320,192,97272,1,0,0:0:0:0:
64,192,97444,1,0,0:0:0:0:
320,192,100203,1,0,0:0:0:0:
192,192,100375,1,0,0:0:0:0:
448,192,100462,1,0,0:0:0:0:
192,192,100548,1,0,0:0:0:0:
448,192,100720,1,0,0:0:0:0:
448,192,100893,1,0,0:0:0:0:
192,192,101065,1,0,0:0:0:0:
320,192,101151,1,0,0:0:0:0:
64,192,101238,1,0,0:0:0:0:
64,192,101410,1,0,0:0:0:0:
448,192,101496,1,0,0:0:0:0:
192,192,101582,1,0,0:0:0:0:
192,192,101755,1,0,0:0:0:0:
192,192,101927,1,0,0:0:0:0:
64,192,102100,1,0,0:0:0:0:
192,192,102272,1,0,0:0:0:0:
64,192,102789,1,0,0:0:0:0:
192,192,102875,1,0,0:0:0:0:
448,192,102962,1,0,0:0:0:0:
192,192,103134,1,0,0:0:0:0:
192,192,103651,1,0,0:0:0:0:
448,192,103651,1,0,0:0:0:0:
192,192,103996,1,0,0:0:0:0:
320,192,104858,1,0,0:0:0:0:
320,192,105031,1,0,0:0:0:0:
192,192,105203,1,0,0:0:0:0:
320,192,105289,1,0,0:0:0:0:
320,192,105462,1,0,0:0:0:0:
448,192,105548,1,0,0:0:0:0:
192,192,105634,1,0,0:0:0:0:
448,192,105720,1,0,0:0:0:0:
320,192,105979,1,0,0:0:0:0:
448,192,106238,1,0,0:0:0:0:
64,192,106410,1,0,0:0:0:0:
320,192,106410,1,0,0:0:0:0:
192,192,106582,1,0,0:0:0:0:
320,192,106669,1,0,0:0:0:0:
192,192,106841,1,0,0:0:0:0:
320,192,106927,1,0,0:0:0:0:
448,192,107100,1,0,0:0:0:0:
448,192,107617,1,0,0:0:0:0:
64,192,107703,1,0,0:0:0:0:
320,192,107789,1,0,0:0:0:0:
64,192,107875,1,0,0:0:0:0:
192,192,107962,1,0,0:0:0:0:
320,192,108048,1,0,0:0:0:0:
448,192,108220,1,0,0:0:0:0:
320,192,108306,1,0,0:0:0:0:
192,192,108306,1,0,0:0:0:0:
448,192,108393,1,0,0:0:0:0:
64,192,108479,1,0,0:0:0:0:
64,192,108651,1,0,0:0:0:0:
192,192,108738,1,0,0:0:0:0:
64,192,108824,1,0,0:0:0:0:
448,192,108824,1,0,0:0:0:0:
64,192,109082,1,0,0:0:0:0:
64,192,109341,1,0,0:0:0:0:
64,192,109513,1,0,0:0:0:0:
448,192,109600,1,0,0:0:0:0:
64,192,109686,1,0,0:0:0:0:
192,192,109858,1,0,0:0:0:0:
64,192,110203,1,0,0:0:0:0:
448,192,110289,1,0,0:0:0:0:
64,192,110462,1,0,0:0:0:0:
192,192,110720,1,0,0:0:0:0:
320,192,110893,1,0,0:0:0:0:
64,192,111065,1,0,0:0:0:0:
320,192,111151,1,0,0:0:0:0:
192,192,111238,1,0,0:0:0:0:
448,192,111410,1,0,0:0:0:0:
192,192,111496,1,0,0:0:0:0:
64,192,111582,1,0,0:0:0:0:
448,192,111582,1,0,0:0:0:0:
192,192,111755,1,0,0:0:0:0:
448,192,112100,1,0,0:0:0:0:
64,192,112272,1,0,0:0:0:0:
448,192,112962,1,0,0:0:0:0:
192,192,113220,1,0,0:0:0:0:
64,192,113306,1,0,0:0:0:0:
320,192,113306,1,0,0:0:0:0:
192,192,113479,1,0,0:0:0:0:
64,192,113651,1,0,0:0:0:0:
320,192,113824,1,0,0:0:0:0:
448,192,113910,1,0,0:0:0:0:
192,192,113996,1,0,0:0:0:0:
64,192,114255,1,0,0:0:0:0:
320,192,114341,1,0,0:0:0:0:
192,192,114341,1,0,0:0:0:0:
192,192,114513,1,0,0:0:0:0:
320,192,114858,1,0,0:0:0:0:
64,192,114858,1,0,0:0:0:0:
192,192,115117,1,0,0:0:0:0:
320,192,115203,1,0,0:0:0:0:
64,192,115375,1,0,0:0:0:0:
192,192,115720,1,0,0:0:0:0:
320,192,116238,1,0,0:0:0:0:
192,192,116410,1,0,0:0:0:0:
448,192,116582,1,0,0:0:0:0:
64,192,116669,1,0,0:0:0:0:
448,192,116755,1,0,0:0:0:0:
192,192,116755,1,0,0:0:0:0:
448,192,116927,1,0,0:0:0:0:
320,192,117013,1,0,0:0:0:0:
192,192,117100,1,0,0:0:0:0:
64,192,117100,1,0,0:0:0:0:
320,192,117186,1,0,0:0:0:0:
64,192,117272,1,0,0:0:0:0:
192,192,117617,1,0,0:0:0:0:
64,192,117789,1,0,0:0:0:0:
448,192,117789,1,0,0:0:0:0:
192,192,118134,1,0,0:0:0:0:
320,192,118479,1,0,0:0:0:0:
320,192,118824,1,0,0:0:0:0:
64,192,118996,1,0,0:0:0:0:
320,192,119169,1,0,0:0:0:0:
320,192,119341,1,0,0:0:0:0:
448,192,119427,1,0,0:0:0:0:
64,192,119427,1,0,0:0:0:0:
320,192,119513,1,0,0:0:0:0:
64,192,119858,1,0,0:0:0:0:
448,192,119858,1,0,0:0:0:0:
192,192,120031,1,0,0:0:0:0:
448,192,120375,1,0,0:0:0:0:
320,192,120375,1,0,0:0:0:0:
320,192,120893,1,0,0:0:0:0:
320,192,121238,1,0,0:0:0:0:
64,192,121496,1,0,0:0:0:0:
448,192,121755,1,0,0:0:0:0:
64,192,121927,1,0,0:0:0:0:
448,192,122100,1,0,0:0:0:0:
448,192,122272,1,0,0:0:0:0:
192,192,122444,1,0,0:0:0:0:
320,192,122531,1,0,0:0:0:0:
192,192,122617,1,0,0:0:0:0:
64,192,122617,1,0,0:0:0:0:
448,192,122703,1,0,0:0:0:0:
64,192,122789,1,0,0:0:0:0:
448,192,122875,1,0,0:0:0:0:
192,192,123134,1,0,0:0:0:0:
64,192,123306,1,0,0:0:0:0:
320,192,123479,1,0,0:0:0:0:
320,192,123996,1,0,0:0:0:0:
320,192,124341,1,0,0:0:0:0:
320,192,124513,1,0,0:0:0:0:
192,192,124686,1,0,0:0:0:0:
448,192,125031,1,0,0:0:0:0:
64,192,125375,1,0,0:0:0:0:
320,192,127617,1,0,0:0:0:0:
64,192,127789,1,0,0:0:0:0:
448,192,127962,1,0,0:0:0:0:
192,192,128048,1,0,0:0:0:0:
448,192,128134,1,0,0:0:0:0:
320,192,128306,1,0,0:0:0:0:
192,192,128479,1,0,0:0:0:0:
192,192,128651,1,0,0:0:0:0:
64,192,128738,1,0,0:0:0:0:
448,192,128824,1,0,0:0:0:0:
320,192,128996,1,0,0:0:0:0:
64,192,129082,1,0,0:0:0:0:
320,192,129169,1,0,0:0:0:0:
448,192,129341,1,0,0:0:0:0:
64,192,129513,1,0,0:0:0:0:
192,192,129686,1,0,0:0:0:0:
320,192,129858,1,0,0:0:0:0:
64,192,130375,1,0,0:0:0:0:
192,192,130462,1,0,0:0:0:0:
320,192,130548,1,0,0:0:0:0:
192,192,141582,5,0,0:0:0:0:
320,192,141582,1,0,0:0:0:0:
64,192,141927,1,0,0:0:0:0:
64,192,143479,1,0,0:0:0:0:
192,192,143824,1,0,0:0:0:0:
192,192,143996,1,0,0:0:0:0:
320,192,144169,1,0,0:0:0:0:
192,192,144341,1,0,0:0:0:0:
192,192,146065,1,0,0:0:0:0:
320,192,146151,1,0,0:0:0:0:
320,192,146582,1,0,0:0:0:0:
192,192,146755,1,0,0:0:0:0:
192,192,146927,1,0,0:0:0:0:
192,192,147100,1,0,0:0:0:0:
192,192,148996,1,0,0:0:0:0:
320,192,149341,1,0,0:0:0:0:
448,192,149513,1,0,0:0:0:0:
448,192,149686,1,0,0:0:0:0:
64,192,149858,1,0,0:0:0:0:
192,192,150031,1,0,0:0:0:0:
320,192,151841,1,0,0:0:0:0:
192,192,151927,1,0,0:0:0:0:
320,192,152100,1,0,0:0:0:0:
448,192,152186,1,0,0:0:0:0:
64,192,152272,1,0,0:0:0:0:
320,192,152358,1,0,0:0:0:0:
64,192,152444,1,0,0:0:0:0:
192,192,152617,1,0,0:0:0:0:
192,192,152962,1,0,0:0:0:0:
448,192,153134,1,0,0:0:0:0:
192,192,153479,1,0,0:0:0:0:
64,192,153651,1,0,0:0:0:0:
192,192,153996,1,0,0:0:0:0:
320,192,154169,1,0,0:0:0:0:
192,192,154341,1,0,0:0:0:0:
64,192,155031,1,0,0:0:0:0:
320,192,155117,1,0,0:0:0:0:
192,192,155203,1,0,0:0:0:0:
320,192,155375,1,0,0:0:0:0:
448,192,155720,1,0,0:0:0:0:
192,192,155720,1,0,0:0:0:0:
192,192,155893,1,0,0:0:0:0:
320,192,156238,1,0,0:0:0:0:
64,192,156410,1,0,0:0:0:0:
320,192,156582,1,0,0:0:0:0:
192,192,156755,1,0,0:0:0:0:
448,192,157444,1,0,0:0:0:0:
192,192,157962,1,0,0:0:0:0:
320,192,158134,1,0,0:0:0:0:
448,192,158479,1,0,0:0:0:0:
448,192,158651,1,0,0:0:0:0:
192,192,158996,1,0,0:0:0:0:
448,192,158996,1,0,0:0:0:0:
192,192,159513,1,0,0:0:0:0:
320,192,159686,1,0,0:0:0:0:
192,192,159858,1,0,0:0:0:0:
64,192,160720,1,0,0:0:0:0:
192,192,161151,1,0,0:0:0:0:
192,192,161410,1,0,0:0:0:0:
320,192,161496,1,0,0:0:0:0:
64,192,161755,1,0,0:0:0:0:
448,192,161927,1,0,0:0:0:0:
64,192,162013,1,0,0:0:0:0:
320,192,162100,1,0,0:0:0:0:
320,192,162272,1,0,0:0:0:0:
320,192,162617,1,0,0:0:0:0:
64,192,163134,1,0,0:0:0:0:
448,192,163306,1,0,0:0:0:0:
192,192,163393,1,0,0:0:0:0:
448,192,163479,1,0,0:0:0:0:
64,192,163565,1,0,0:0:0:0:
448,192,163651,1,0,0:0:0:0:
448,192,163996,1,0,0:0:0:0:
192,192,164341,1,0,0:0:0:0:
192,192,164513,1,0,0:0:0:0:
192,192,164686,1,0,0:0:0:0:
64,192,165031,1,0,0:0:0:0:
448,192,165203,1,0,0:0:0:0:
448,192,165375,1,0,0:0:0:0:
192,192,165548,1,0,0:0:0:0:
320,192,165720,1,0,0:0:0:0:
192,192,165893,1,0,0:0:0:0:
448,192,166065,1,0,0:0:0:0:
64,192,166151,1,0,0:0:0:0:
320,192,166238,1,0,0:0:0:0:
64,192,166324,1,0,0:0:0:0:
320,192,166410,1,0,0:0:0:0:
448,192,166755,1,0,0:0:0:0:
192,192,166927,1,0,0:0:0:0:
192,192,167272,1,0,0:0:0:0:
320,192,167444,1,0,0:0:0:0:
448,192,167617,1,0,0:0:0:0:
192,192,167789,1,0,0:0:0:0:
192,192,168479,1,0,0:0:0:0:
320,192,168996,1,0,0:0:0:0:
192,192,169169,1,0,0:0:0:0:
448,192,169513,1,0,0:0:0:0:
192,192,169513,1,0,0:0:0:0:
448,192,169686,1,0,0:0:0:0:
64,192,170031,1,0,0:0:0:0:
192,192,170548,1,0,0:0:0:0:
448,192,170720,1,0,0:0:0:0:
64,192,170893,1,0,0:0:0:0:
64,192,171755,1,0,0:0:0:0:
192,192,171927,1,0,0:0:0:0:
192,192,172444,1,0,0:0:0:0:
320,192,172531,1,0,0:0:0:0:
320,192,172789,1,0,0:0:0:0:
320,192,172962,1,0,0:0:0:0:
192,192,173048,1,0,0:0:0:0:
448,192,173134,1,0,0:0:0:0:
192,192,173651,1,0,0:0:0:0:
64,192,174169,1,0,0:0:0:0:
320,192,174169,1,0,0:0:0:0:
64,192,174341,1,0,0:0:0:0:
192,192,174427,1,0,0:0:0:0:
320,192,174513,1,0,0:0:0:0:
448,192,174600,1,0,0:0:0:0:
64,192,174686,1,0,0:0:0:0:
192,192,175375,1,0,0:0:0:0:
320,192,175375,1,0,0:0:0:0:
64,192,175462,1,0,0:0:0:0:
320,192,175720,1,0,0:0:0:0:
320,192,176755,1,0,0:0:0:0:
448,192,176755,1,0,0:0:0:0:
64,192,177186,1,0,0:0:0:0:
192,192,177272,1,0,0:0:0:0:
320,192,177358,1,0,0:0:0:0:
448,192,177703,1,0,0:0:0:0:
64,192,177875,1,0,0:0:0:0:
192,192,177962,1,0,0:0:0:0:
64,192,178134,1,0,0:0:0:0:
192,192,178134,1,0,0:0:0:0:
448,192,179341,1,0,0:0:0:0:
448,192,179513,1,0,0:0:0:0:
448,192,179772,1,0,0:0:0:0:
64,192,179858,1,0,0:0:0:0:
448,192,179944,1,0,0:0:0:0:
64,192,180031,1,0,0:0:0:0:
320,192,180031,1,0,0:0:0:0:
64,192,180548,1,0,0:0:0:0:
192,192,180893,1,0,0:0:0:0:
320,192,180893,1,0,0:0:0:0:
320,192,181065,1,0,0:0:0:0:
448,192,181238,1,0,0:0:0:0:
192,192,182100,1,0,0:0:0:0:
448,192,182272,1,0,0:0:0:0:
192,192,182358,1,0,0:0:0:0:
448,192,182444,1,0,0:0:0:0:
448,192,182703,1,0,0:0:0:0:
192,192,182789,1,0,0:0:0:0:
320,192,182875,1,0,0:0:0:0:
320,192,183220,1,0,0:0:0:0:
64,192,183479,1,0,0:0:0:0:
192,192,183651,1,0,0:0:0:0:
448,192,184341,1,0,0:0:0:0:
64,192,184858,1,0,0:0:0:0:
64,192,185031,1,0,0:0:0:0:
320,192,185203,1,0,0:0:0:0:
192,192,185289,1,0,0:0:0:0:
64,192,185375,1,0,0:0:0:0:
448,192,185462,1,0,0:0:0:0:
64,192,185548,1,0,0:0:0:0:
192,192,185634,1,0,0:0:0:0:
192,192,186238,1,0,0:0:0:0:
192,192,186755,1,0,0:0:0:0:
64,192,187444,1,0,0:0:0:0:
64,192,187703,1,0,0:0:0:0:
320,192,187789,1,0,0:0:0:0:
448,192,187875,1,0,0:0:0:0:
192,192,187962,1,0,0:0:0:0:
64,192,188048,1,0,0:0:0:0:
320,192,188306,1,0,0:0:0:0:
64,192,188651,1,0,0:0:0:0:
448,192,188738,1,0,0:0:0:0:
320,192,188996,1,0,0:0:0:0:
320,192,189513,1,0,0:0:0:0:
448,192,189944,1,0,0:0:0:0:
320,192,190031,1,0,0:0:0:0:
192,192,190203,1,0,0:0:0:0:
320,192,190548,1,0,0:0:0:0:
448,192,190893,1,0,0:0:0:0:
64,192,191065,1,0,0:0:0:0:
192,192,191065,1,0,0:0:0:0:
320,192,191151,1,0,0:0:0:0:
448,192,192272,1,0,0:0:0:0:
448,192,193479,1,0,0:0:0:0:
192,192,193824,1,0,0:0:0:0:
64,192,193996,1,0,0:0:0:0:
320,192,194255,1,0,0:0:0:0:
320,192,194427,1,0,0:0:0:0:
448,192,194513,1,0,0:0:0:0:
320,192,195548,1,0,0:0:0:0:
448,192,195720,1,0,0:0:0:0:
64,192,196065,1,0,0:0:0:0:
320,192,196410,1,0,0:0:0:0:
192,192,196496,1,0,0:0:0:0:
448,192,196582,1,0,0:0:0:0:
64,192,196669,1,0,0:0:0:0:
64,192,196927,1,0,0:0:0:0:
64,192,197962,1,0,0:0:0:0:
448,192,198220,1,0,0:0:0:0:
192,192,198393,1,0,0:0:0:0:
64,192,199169,1,0,0:0:0:0:
192,192,199255,1,0,0:0:0:0:
448,192,202272,1,0,0:0:0:0:
320,192,207789,5,0,0:0:0:0:
448,192,210548,1,0,0:0:0:0:
192,192,211324,1,0,0:0:0:0:
192,192,211496,1,0,0:0:0:0:
320,192,213048,1,0,0:0:0:0:
320,192,213306,1,0,0:0:0:0:
64,192,213479,1,0,0:0:0:0:
320,192,213651,1,0,0:0:0:0:
320,192,213824,1,0,0:0:0:0:
192,192,214169,1,0,0:0:0:0:
320,192,214341,1,0,0:0:0:0:
192,192,214513,1,0,0:0:0:0:
448,192,214686,1,0,0:0:0:0:
448,192,214858,1,0,0:0:0:0:
192,192,215031,1,0,0:0:0:0:
192,192,215203,1,0,0:0:0:0:
320,192,215720,1,0,0:0:0:0:
448,192,215806,1,0,0:0:0:0:
64,192,215893,1,0,0:0:0:0:
192,192,215979,1,0,0:0:0:0:
64,192,216065,1,0,0:0:0:0:
192,192,216238,1,0,0:0:0:0:
192,192,216582,1,0,0:0:0:0:
320,192,216669,1,0,0:0:0:0:
64,192,218306,1,0,0:0:0:0:
64,192,218824,1,0,0:0:0:0:
192,192,222531,1,0,0:0:0:0:
448,192,229772,5,0,0:0:0:0:
64,192,229858,1,0,0:0:0:0:
320,192,232617,1,0,0:0:0:0:
448,192,233393,1,0,0:0:0:0:
192,192,233565,1,0,0:0:0:0:
192,192,234082,1,0,0:0:0:0:
192,192,235031,1,0,0:0:0:0:
64,192,235375,1,0,0:0:0:0:
64,192,236238,1,0,0:0:0:0:
448,192,236755,1,0,0:0:0:0:
64,192,237272,1,0,0:0:0:0:
320,192,238134,1,0,0:0:0:0:
64,192,238824,1,0,0:0:0:0:
448,192,238996,1,0,0:0:0:0:
448,192,239341,1,0,0:0:0:0:
320,192,240031,1,0,0:0:0:0:
64,192,240375,1,0,0:0:0:0:
192,192,240462,1,0,0:0:0:0:
448,192,240548,1,0,0:0:0:0:
192,192,240893,1,0,0:0:0:0:
448,192,241238,1,0,0:0:0:0:
448,192,241582,1,0,0:0:0:0:
192,192,241582,1,0,0:0:0:0:
448,192,241755,1,0,0:0:0:0:
64,192,241841,1,0,0:0:0:0:
64,192,242100,1,0,0:0:0:0:
448,192,242272,1,0,0:0:0:0:
320,192,242444,1,0,0:0:0:0:
64,192,242531,1,0,0:0:0:0:
448,192,242617,1,0,0:0:0:0:
320,192,242789,1,0,0:0:0:0:
192,192,242962,1,0,0:0:0:0:
192,192,243134,1,0,0:0:0:0:
320,192,243220,1,0,0:0:0:0:
192,192,243306,1,0,0:0:0:0:
192,192,243479,1,0,0:0:0:0:
320,192,243565,1,0,0:0:0:0:
64,192,243565,1,0,0:0:0:0:
448,192,243651,1,0,0:0:0:0:
64,192,243824,1,0,0:0:0:0:
448,192,243910,1,0,0:0:0:0:
320,192,243996,1,0,0:0:0:0:
64,192,244169,1,0,0:0:0:0:
448,192,244169,1,0,0:0:0:0:
320,192,244341,1,0,0:0:0:0:
448,192,244513,1,0,0:0:0:0:
64,192,244600,1,0,0:0:0:0:
448,192,244686,1,0,0:0:0:0:
448,192,244858,1,0,0:0:0:0:
448,192,245031,1,0,0:0:0:0:
64,192,245203,1,0,0:0:0:0:
448,192,245289,1,0,0:0:0:0:
320,192,245375,1,0,0:0:0:0:
320,192,245548,1,0,0:0:0:0:
320,192,245720,1,0,0:0:0:0:
64,192,245893,1,0,0:0:0:0:
320,192,245979,1,0,0:0:0:0:
64,192,246065,1,0,0:0:0:0:
192,192,246238,1,0,0:0:0:0:
448,192,246324,1,0,0:0:0:0:
192,192,246410,1,0,0:0:0:0:
320,192,246582,1,0,0:0:0:0:
448,192,246669,1,0,0:0:0:0:
192,192,246755,1,0,0:0:0:0:
64,192,246927,1,0,0:0:0:0:
320,192,247100,1,0,0:0:0:0:
448,192,247272,1,0,0:0:0:0:
192,192,247358,1,0,0:0:0:0:
320,192,247444,1,0,0:0:0:0:
448,192,247617,1,0,0:0:0:0:
192,192,247789,1,0,0:0:0:0:
64,192,247962,1,0,0:0:0:0:
320,192,248048,1,0,0:0:0:0:
192,192,248134,1,0,0:0:0:0:
448,192,248306,1,0,0:0:0:0:
192,192,248479,1,0,0:0:0:0:
448,192,248651,1,0,0:0:0:0:
320,192,248738,1,0,0:0:0:0:
64,192,248824,1,0,0:0:0:0:
320,192,248996,1,0,0:0:0:0:
192,192,249082,1,0,0:0:0:0:
320,192,249169,1,0,0:0:0:0:
448,192,249169,1,0,0:0:0:0:
192,192,249341,1,0,0:0:0:0:
64,192,249427,1,0,0:0:0:0:
192,192,249513,1,0,0:0:0:0:
320,192,249686,1,0,0:0:0:0:
192,192,249858,1,0,0:0:0:0:
192,192,250031,1,0,0:0:0:0:
448,192,250117,1,0,0:0:0:0:
64,192,250203,1,0,0:0:0:0:
320,192,250375,1,0,0:0:0:0:
320,192,250548,1,0,0:0:0:0:
192,192,250720,1,0,0:0:0:0:
320,192,250806,1,0,0:0:0:0:
64,192,250893,1,0,0:0:0:0:
192,192,251065,1,0,0:0:0:0:
64,192,251065,1,0,0:0:0:0:
320,192,251238,1,0,0:0:0:0:
320,192,251410,1,0,0:0:0:0:
448,192,251496,1,0,0:0:0:0:
320,192,251582,1,0,0:0:0:0:
448,192,251755,1,0,0:0:0:0:
64,192,251841,1,0,0:0:0:0:
448,192,251927,1,0,0:0:0:0:
320,192,251927,1,0,0:0:0:0:
320,192,252272,1,0,0:0:0:0:
192,192,252617,1,0,0:0:0:0:
192,192,252789,1,0,0:0:0:0:
448,192,252875,1,0,0:0:0:0:
448,192,253134,1,0,0:0:0:0:
64,192,253306,1,0,0:0:0:0:
192,192,253479,1,0,0:0:0:0:
64,192,253565,1,0,0:0:0:0:
448,192,253651,1,0,0:0:0:0:
192,192,253824,1,0,0:0:0:0:
448,192,253910,1,0,0:0:0:0:
320,192,253996,1,0,0:0:0:0:
320,192,254169,1,0,0:0:0:0:
64,192,254255,1,0,0:0:0:0:
320,192,254341,1,0,0:0:0:0:
448,192,254513,1,0,0:0:0:0:
320,192,254600,1,0,0:0:0:0:
192,192,254600,1,0,0:0:0:0:
64,192,254686,1,0,0:0:0:0:
64,192,254858,1,0,0:0:0:0:
448,192,254944,1,0,0:0:0:0:
320,192,255203,1,0,0:0:0:0:
448,192,255375,1,0,0:0:0:0:
64,192,255548,1,0,0:0:0:0:
320,192,255634,1,0,0:0:0:0:
64,192,255720,1,0,0:0:0:0:
448,192,255893,1,0,0:0:0:0:
448,192,256065,1,0,0:0:0:0:
64,192,256238,1,0,0:0:0:0:
320,192,256324,1,0,0:0:0:0:
448,192,256410,1,0,0:0:0:0:
320,192,256582,1,0,0:0:0:0:
448,192,256755,1,0,0:0:0:0:
448,192,256927,1,0,0:0:0:0:
320,192,257013,1,0,0:0:0:0:
64,192,257100,1,0,0:0:0:0:
192,192,257272,1,0,0:0:0:0:
448,192,257444,1,0,0:0:0:0:
64,192,257617,1,0,0:0:0:0:
448,192,257703,1,0,0:0:0:0:
320,192,257789,1,0,0:0:0:0:
320,192,257962,1,0,0:0:0:0:
192,192,258134,1,0,0:0:0:0:
448,192,258306,1,0,0:0:0:0:
192,192,258393,1,0,0:0:0:0:
320,192,258479,1,0,0:0:0:0:
192,192,258651,1,0,0:0:0:0:
192,192,258824,1,0,0:0:0:0:
320,192,258996,1,0,0:0:0:0:
64,192,259082,1,0,0:0:0:0:
448,192,259341,1,0,0:0:0:0:
448,192,259513,1,0,0:0:0:0:
320,192,259686,1,0,0:0:0:0:
64,192,259772,1,0,0:0:0:0:
448,192,260031,1,0,0:0:0:0:
192,192,260117,1,0,0:0:0:0:
320,192,260203,1,0,0:0:0:0:
320,192,260375,1,0,0:0:0:0:
448,192,260462,1,0,0:0:0:0:
192,192,260548,1,0,0:0:0:0:
64,192,260634,1,0,0:0:0:0:
320,192,260720,1,0,0:0:0:0:
320,192,260893,1,0,0:0:0:0:
64,192,261065,1,0,0:0:0:0:
192,192,261151,1,0,0:0:0:0:
320,192,261238,1,0,0:0:0:0:
192,192,261410,1,0,0:0:0:0:
320,192,261582,1,0,0:0:0:0:
64,192,261755,1,0,0:0:0:0:
448,192,261841,1,0,0:0:0:0:
192,192,261927,1,0,0:0:0:0:
448,192,262100,1,0,0:0:0:0:
448,192,262272,1,0,0:0:0:0:
320,192,262444,1,0,0:0:0:0:
448,192,262531,1,0,0:0:0:0:
192,192,262617,1,0,0:0:0:0:
320,192,262789,1,0,0:0:0:0:
64,192,262875,1,0,0:0:0:0:
320,192,262962,1,0,0:0:0:0:
192,192,263048,1,0,0:0:0:0:
448,192,263134,1,0,0:0:0:0:
64,192,263220,1,0,0:0:0:0:
192,192,263306,1,0,0:0:0:0:
448,192,263479,1,0,0:0:0:0:
320,192,263565,1,0,0:0:0:0:
64,192,263651,1,0,0:0:0:0:
320,192,263824,1,0,0:0:0:0:
64,192,263910,1,0,0:0:0:0:
320,192,263996,1,0,0:0:0:0:
192,192,264169,1,0,0:0:0:0:
448,192,264341,1,0,0:0:0:0:
320,192,264513,1,0,0:0:0:0:
192,192,264600,1,0,0:0:0:0:
64,192,264686,1,0,0:0:0:0:
64,192,264858,1,0,0:0:0:0:
192,192,264944,1,0,0:0:0:0:
448,192,265031,1,0,0:0:0:0:
64,192,265203,1,0,0:0:0:0:
448,192,265289,1,0,0:0:0:0:
320,192,265375,1,0,0:0:0:0:
448,192,265548,1,0,0:0:0:0:
320,192,265634,1,0,0:0:0:0:
448,192,265720,1,0,0:0:0:0:
320,192,265893,1,0,0:0:0:0:
64,192,265979,1,0,0:0:0:0:
448,192,266065,1,0,0:0:0:0:
448,192,266238,1,0,0:0:0:0:
448,192,266410,1,0,0:0:0:0:
320,192,266582,1,0,0:0:0:0:
64,192,266669,1,0,0:0:0:0:
320,192,266755,1,0,0:0:0:0:
448,192,266927,1,0,0:0:0:0:
64,192,267100,1,0,0:0:0:0:
448,192,267272,1,0,0:0:0:0:
192,192,267358,1,0,0:0:0:0:
448,192,267444,1,0,0:0:0:0:
64,192,267531,1,0,0:0:0:0:
448,192,267617,1,0,0:0:0:0:
448,192,267789,1,0,0:0:0:0:
64,192,267962,1,0,0:0:0:0:
192,192,268048,1,0,0:0:0:0:
320,192,268048,1,0,0:0:0:0:
64,192,268134,1,0,0:0:0:0:
448,192,268306,1,0,0:0:0:0:
192,192,268393,1,0,0:0:0:0:
320,192,268479,1,0,0:0:0:0:
64,192,268651,1,0,0:0:0:0:
448,192,268738,1,0,0:0:0:0:
320,192,268824,1,0,0:0:0:0:
320,192,268996,1,0,0:0:0:0:
192,192,269169,1,0,0:0:0:0:
448,192,269341,1,0,0:0:0:0:
192,192,269427,1,0,0:0:0:0:
320,192,269513,1,0,0:0:0:0:
64,192,269686,1,0,0:0:0:0:
320,192,269858,1,0,0:0:0:0:
192,192,270031,1,0,0:0:0:0:
448,192,270117,1,0,0:0:0:0:
192,192,270203,1,0,0:0:0:0:
64,192,270375,1,0,0:0:0:0:
448,192,270375,1,0,0:0:0:0:
448,192,270548,1,0,0:0:0:0:
448,192,270720,1,0,0:0:0:0:
64,192,270806,1,0,0:0:0:0:
320,192,270893,1,0,0:0:0:0:
448,192,271065,1,0,0:0:0:0:
320,192,271151,1,0,0:0:0:0:
448,192,271238,1,0,0:0:0:0:
192,192,271238,1,0,0:0:0:0:
448,192,271410,1,0,0:0:0:0:
64,192,271496,1,0,0:0:0:0:
320,192,271582,1,0,0:0:0:0:
64,192,271669,1,0,0:0:0:0:
320,192,271755,1,0,0:0:0:0:
192,192,271927,1,0,0:0:0:0:
448,192,272100,1,0,0:0:0:0:
64,192,272186,1,0,0:0:0:0:
448,192,272272,1,0,0:0:0:0:
192,192,272444,1,0,0:0:0:0:
192,192,272617,1,0,0:0:0:0:
64,192,272789,1,0,0:0:0:0:
192,192,272875,1,0,0:0:0:0:
320,192,272962,1,0,0:0:0:0:
448,192,273134,1,0,0:0:0:0:
192,192,273306,1,0,0:0:0:0:
64,192,273479,1,0,0:0:0:0:
192,192,273565,1,0,0:0:0:0:
64,192,273651,1,0,0:0:0:0:
320,192,273824,1,0,0:0:0:0:
448,192,273910,1,0,0:0:0:0:
192,192,273996,1,0,0:0:0:0:
64,192,274082,1,0,0:0:0:0:
448,192,274169,1,0,0:0:0:0:
320,192,274255,1,0,0:0:0:0:
192,192,274341,1,0,0:0:0:0:
64,192,274513,1,0,0:0:0:0:
192,192,274600,1,0,0:0:0:0:
320,192,274686,1,0,0:0:0:0:
64,192,274858,1,0,0:0:0:0:
64,192,275031,1,0,0:0:0:0:
448,192,275117,1,0,0:0:0:0:
64,192,275375,1,0,0:0:0:0:
320,192,275462,1,0,0:0:0:0:
448,192,275548,1,0,0:0:0:0:
192,192,275720,1,0,0:0:0:0:
448,192,275806,1,0,0:0:0:0:
64,192,275893,1,0,0:0:0:0:
320,192,275979,1,0,0:0:0:0:
192,192,276065,1,0,0:0:0:0:
192,192,276238,1,0,0:0:0:0:
64,192,276324,1,0,0:0:0:0:
448,192,276410,1,0,0:0:0:0:
320,192,276496,1,0,0:0:0:0:
64,192,276582,1,0,0:0:0:0:
192,192,276669,1,0,0:0:0:0:
320,192,276755,1,0,0:0:0:0:
448,192,276841,1,0,0:0:0:0:
64,192,276927,1,0,0:0:0:0:
192,192,277013,1,0,0:0:0:0:
320,192,277100,1,0,0:0:0:0:
448,192,277272,1,0,0:0:0:0:
448,192,277617,1,0,0:0:0:0:
64,192,277789,1,0,0:0:0:0:
192,192,278134,1,0,0:0:0:0:
64,192,278220,1,0,0:0:0:0:
320,192,278306,1,0,0:0:0:0:
64,192,278479,1,0,0:0:0:0:
192,192,278651,1,0,0:0:0:0:
448,192,278738,1,0,0:0:0:0:
192,192,278824,1,0,0:0:0:0:
192,192,278996,1,0,0:0:0:0:
64,192,279082,1,0,0:0:0:0:
192,192,279169,1,0,0:0:0:0:
320,192,279255,1,0,0:0:0:0:
64,192,279427,1,0,0:0:0:0:
192,192,279513,1,0,0:0:0:0:
320,192,279686,1,0,0:0:0:0:
64,192,279772,1,0,0:0:0:0:
192,192,279858,1,0,0:0:0:0:
192,192,280031,1,0,0:0:0:0:
320,192,280117,1,0,0:0:0:0:
448,192,280203,1,0,0:0:0:0:
320,192,280375,1,0,0:0:0:0:
448,192,280462,1,0,0:0:0:0:
320,192,280548,1,0,0:0:0:0:
320,192,280893,1,0,0:0:0:0:
448,192,280979,1,0,0:0:0:0:
192,192,281065,1,0,0:0:0:0:
64,192,281238,1,0,0:0:0:0:
192,192,281324,1,0,0:0:0:0:
448,192,281410,1,0,0:0:0:0:
320,192,281496,1,0,0:0:0:0:
448,192,281582,1,0,0:0:0:0:
64,192,281669,1,0,0:0:0:0:
320,192,281755,1,0,0:0:0:0:
192,192,281841,1,0,0:0:0:0:
320,192,281927,1,0,0:0:0:0:
448,192,282100,1,0,0:0:0:0:
64,192,282186,1,0,0:0:0:0:
448,192,282272,1,0,0:0:0:0:
320,192,282358,1,0,0:0:0:0:
192,192,282444,1,0,0:0:0:0:
320,192,282531,1,0,0:0:0:0:
192,192,282617,1,0,0:0:0:0:
448,192,282617,1,0,0:0:0:0:
64,192,282703,1,0,0:0:0:0:
320,192,282789,1,0,0:0:0:0:
448,192,282875,1,0,0:0:0:0:
320,192,282962,1,0,0:0:0:0:
192,192,283134,1,0,0:0:0:0:
320,192,283306,1,0,0:0:0:0:
448,192,283651,1,0,0:0:0:0:
64,192,283738,1,0,0:0:0:0:
192,192,283824,1,0,0:0:0:0:
448,192,283996,1,0,0:0:0:0:
64,192,284169,1,0,0:0:0:0:
448,192,284255,1,0,0:0:0:0:
64,192,284341,1,0,0:0:0:0:
320,192,284427,1,0,0:0:0:0:
448,192,284513,1,0,0:0:0:0:
192,192,284600,1,0,0:0:0:0:
320,192,284686,1,0,0:0:0:0:
320,192,284858,1,0,0:0:0:0:
192,192,285031,1,0,0:0:0:0:
192,192,285548,1,0,0:0:0:0:
448,192,285806,1,0,0:0:0:0:
192,192,286065,1,0,0:0:0:0:
320,192,286238,1,0,0:0:0:0:
448,192,286324,1,0,0:0:0:0:
192,192,286410,1,0,0:0:0:0:
320,192,286496,1,0,0:0:0:0:
448,192,286582,1,0,0:0:0:0:
320,192,286669,1,0,0:0:0:0:
64,192,286755,1,0,0:0:0:0:
448,192,287100,1,0,0:0:0:0:
64,192,287272,1,0,0:0:0:0:
448,192,287444,1,0,0:0:0:0:
64,192,287531,1,0,0:0:0:0:
448,192,287617,1,0,0:0:0:0:
64,192,288753,1,0,0:0:0:0:
448,192,290360,1,0,0:0:0:0:
64,192,291003,1,0,0:0:0:0:
192,192,292289,1,0,0:0:0:0:
64,192,294003,1,0,0:0:0:0:
448,192,297968,1,0,0:0:0:0:
320,192,302146,1,0,0:0:0:0:
64,192,304610,1,0,0:0:0:0:
320,192,305146,1,0,0:0:0:0:
64,192,306539,1,0,0:0:0:0:
64,192,307718,1,0,0:0:0:0:
320,192,307825,1,0,0:0:0:0:
192,192,308039,1,0,0:0:0:0:
320,192,308146,1,0,0:0:0:0:
192,192,309218,1,0,0:0:0:0:
448,192,313718,1,0,0:0:0:0:
448,192,314146,1,0,0:0:0:0:
320,192,314789,1,0,0:0:0:0:
64,192,326360,5,0,0:0:0:0:
64,192,327646,1,0,0:0:0:0:
192,192,328075,1,0,0:0:0:0:
64,192,328396,1,0,0:0:0:0:
320,192,328610,1,0,0:0:0:0:
448,192,328718,1,0,0:0:0:0:
320,192,328932,1,0,0:0:0:0:
192,192,329039,1,0,0:0:0:0:
320,192,330646,1,0,0:0:0:0:
192,192,330968,1,0,0:0:0:0:
448,192,331289,1,0,0:0:0:0:
448,192,331503,1,0,0:0:0:0:
320,192,331825,1,0,0:0:0:0:
64,192,331932,1,0,0:0:0:0:
64,192,332146,1,0,0:0:0:0:
448,192,332360,1,0,0:0:0:0:
320,192,332468,1,0,0:0:0:0:
64,192,332896,1,0,0:0:0:0:
320,192,333003,1,0,0:0:0:0:
448,192,333110,1,0,0:0:0:0:
64,192,333646,1,0,0:0:0:0:
64,192,333860,1,0,0:0:0:0:
448,192,334289,1,0,0:0:0:0:
192,192,334396,1,0,0:0:0:0:
64,192,334610,1,0,0:0:0:0:
192,192,334825,1,0,0:0:0:0:
320,192,334932,1,0,0:0:0:0:
64,192,335146,1,0,0:0:0:0:
64,192,335575,1,0,0:0:0:0:
192,192,335896,1,0,0:0:0:0:
320,192,336325,1,0,0:0:0:0:
192,192,336646,1,0,0:0:0:0:
192,192,336860,1,0,0:0:0:0:
448,192,336968,1,0,0:0:0:0:
64,192,337075,1,0,0:0:0:0:
192,192,337182,1,0,0:0:0:0:
64,192,337289,1,0,0:0:0:0:
320,192,337396,1,0,0:0:0:0:
192,192,337503,1,0,0:0:0:0:
448,192,337503,1,0,0:0:0:0:
448,192,337718,1,0,0:0:0:0:
192,192,337825,1,0,0:0:0:0:
320,192,338039,1,0,0:0:0:0:
64,192,338146,1,0,0:0:0:0:
64,192,338360,1,0,0:0:0:0:
448,192,338575,1,0,0:0:0:0:
448,192,338896,1,0,0:0:0:0:
64,192,339003,1,0,0:0:0:0:
64,192,339218,1,0,0:0:0:0:
448,192,339432,1,0,0:0:0:0:
64,192,339539,1,0,0:0:0:0:
320,192,339753,1,0,0:0:0:0:
448,192,339860,1,0,0:0:0:0:
192,192,340075,1,0,0:0:0:0:
448,192,340289,1,0,0:0:0:0:
192,192,340396,1,0,0:0:0:0:
320,192,340503,1,0,0:0:0:0:
448,192,340503,1,0,0:0:0:0:
64,192,340610,1,0,0:0:0:0:
320,192,340718,1,0,0:0:0:0:
64,192,340825,1,0,0:0:0:0:
320,192,340932,1,0,0:0:0:0:
448,192,341146,1,0,0:0:0:0:
320,192,341253,1,0,0:0:0:0:
448,192,341468,1,0,0:0:0:0:
64,192,341575,1,0,0:0:0:0:
448,192,341682,1,0,0:0:0:0:
64,192,341789,1,0,0:0:0:0:
320,192,342003,1,0,0:0:0:0:
448,192,342218,1,0,0:0:0:0:
192,192,342432,1,0,0:0:0:0:
64,192,342432,1,0,0:0:0:0:
448,192,344039,1,0,0:0:0:0:
64,192,344253,1,0,0:0:0:0:
448,192,344360,1,0,0:0:0:0:
320,192,344789,1,0,0:0:0:0:
448,192,344896,1,0,0:0:0:0:
320,192,345110,1,0,0:0:0:0:
192,192,345218,1,0,0:0:0:0:
320,192,345325,1,0,0:0:0:0:
192,192,345968,1,0,0:0:0:0:
192,192,346718,1,0,0:0:0:0:
192,192,347789,1,0,0:0:0:0:
320,192,348003,1,0,0:0:0:0:
448,192,348110,1,0,0:0:0:0:
448,192,348325,1,0,0:0:0:0:
320,192,348539,1,0,0:0:0:0:
448,192,348753,1,0,0:0:0:0:
192,192,349396,1,0,0:0:0:0:
192,192,351646,1,0,0:0:0:0:
64,192,351753,1,0,0:0:0:0:
192,192,351860,1,0,0:0:0:0:
64,192,351968,1,0,0:0:0:0:
64,192,352182,1,0,0:0:0:0:
192,192,352825,1,0,0:0:0:0:
64,192,353253,1,0,0:0:0:0:
448,192,353468,1,0,0:0:0:0:
64,192,353575,1,0,0:0:0:0:
192,192,353789,1,0,0:0:0:0:
192,192,354003,1,0,0:0:0:0:
320,192,354646,1,0,0:0:0:0:
192,192,354860,1,0,0:0:0:0:
64,192,354968,1,0,0:0:0:0:
64,192,355396,1,0,0:0:0:0:
320,192,355610,1,0,0:0:0:0:
448,192,356146,1,0,0:0:0:0:
320,192,356253,1,0,0:0:0:0:
448,192,356682,1,0,0:0:0:0:
64,192,357753,1,0,0:0:0:0:
320,192,357860,1,0,0:0:0:0:
320,192,358182,1,0,0:0:0:0:
448,192,358503,1,0,0:0:0:0:
192,192,358825,1,0,0:0:0:0:
192,192,359039,1,0,0:0:0:0:
448,192,360110,1,0,0:0:0:0:
448,192,360325,1,0,0:0:0:0:
448,192,360539,1,0,0:0:0:0:
64,192,360860,1,0,0:0:0:0:
64,192,361718,1,0,0:0:0:0:
192,192,361932,1,0,0:0:0:0:
448,192,362039,1,0,0:0:0:0:
448,192,362789,1,0,0:0:0:0:
320,192,363432,1,0,0:0:0:0:
192,192,363860,1,0,0:0:0:0:
320,192,364396,1,0,0:0:0:0:
448,192,364718,1,0,0:0:0:0:
448,192,365039,1,0,0:0:0:0:
320,192,365146,1,0,0:0:0:0:
64,192,365253,1,0,0:0:0:0:
192,192,365575,1,0,0:0:0:0:
64,192,365789,1,0,0:0:0:0:
192,192,366110,1,0,0:0:0:0:
64,192,366432,1,0,0:0:0:0:
448,192,366753,1,0,0:0:0:0:
320,192,366860,1,0,0:0:0:0:
64,192,366968,1,0,0:0:0:0:
64,192,367182,1,0,0:0:0:0:
448,192,367289,1,0,0:0:0:0:
64,192,367718,1,0,0:0:0:0:
320,192,368039,1,0,0:0:0:0:
192,192,368253,1,0,0:0:0:0:
320,192,368360,1,0,0:0:0:0:
448,192,368575,1,0,0:0:0:0:
64,192,368682,1,0,0:0:0:0:
192,192,368896,1,0,0:0:0:0:
64,192,373396,1,0,0:0:0:0:
64,192,373718,1,0,0:0:0:0:
448,192,374253,1,0,0:0:0:0:
192,192,374575,1,0,0:0:0:0:
64,192,374682,1,0,0:0:0:0:
192,192,374896,1,0,0:0:0:0:
64,192,375003,1,0,0:0:0:0:
448,192,375110,1,0,0:0:0:0:
192,192,375218,1,0,0:0:0:0:
320,192,375432,1,0,0:0:0:0:
192,192,375539,1,0,0:0:0:0:
448,192,375753,1,0,0:0:0:0:
192,192,375968,1,0,0:0:0:0:
192,192,376503,1,0,0:0:0:0:
320,192,376825,1,0,0:0:0:0:
192,192,376825,1,0,0:0:0:0:
192,192,377253,1,0,0:0:0:0:
192,192,378325,1,0,0:0:0:0:
448,192,378432,1,0,0:0:0:0:
192,192,378646,1,0,0:0:0:0:
320,192,378753,1,0,0:0:0:0:
192,192,378860,1,0,0:0:0:0:
320,192,378968,1,0,0:0:0:0:
448,192,379182,1,0,0:0:0:0:
320,192,379396,1,0,0:0:0:0:
320,192,379718,1,0,0:0:0:0:
320,192,379932,1,0,0:0:0:0:
64,192,380253,1,0,0:0:0:0:
320,192,380253,1,0,0:0:0:0:
64,192,380575,1,0,0:0:0:0:
448,192,381110,1,0,0:0:0:0:
320,192,381432,1,0,0:0:0:0:
448,192,381753,1,0,0:0:0:0:
192,192,381753,1,0,0:0:0:0:
192,192,381968,1,0,0:0:0:0:
320,192,382075,1,0,0:0:0:0:
192,192,382289,1,0,0:0:0:0:
448,192,382396,1,0,0:0:0:0:
64,192,382503,1,0,0:0:0:0:
192,192,382610,1,0,0:0:0:0:
192,192,382825,1,0,0:0:0:0:
192,192,383039,1,0,0:0:0:0:
192,192,383253,1,0,0:0:0:0:
448,192,384325,1,0,0:0:0:0:
192,192,385182,1,0,0:0:0:0:
320,192,385289,1,0,0:0:0:0:
64,192,385396,1,0,0:0:0:0:
320,192,385610,1,0,0:0:0:0:
320,192,386253,1,0,0:0:0:0:
448,192,386360,1,0,0:0:0:0:
320,192,386468,1,0,0:0:0:0:
320,192,386896,1,0,0:0:0:0:
192,192,387218,1,0,0:0:0:0:
192,192,387432,1,0,0:0:0:0:
320,192,387539,1,0,0:0:0:0:
320,192,387753,1,0,0:0:0:0:
192,192,387968,1,0,0:0:0:0:
320,192,388289,1,0,0:0:0:0:
448,192,388932,1,0,0:0:0:0:
192,192,389146,1,0,0:0:0:0:
448,192,389253,1,0,0:0:0:0:
192,192,389360,1,0,0:0:0:0:
448,192,389468,1,0,0:0:0:0:
64,192,389896,1,0,0:0:0:0:
320,192,390325,1,0,0:0:0:0:
64,192,390968,1,0,0:0:0:0:
192,192,391182,1,0,0:0:0:0:
320,192,391289,1,0,0:0:0:0:
320,192,391503,1,0,0:0:0:0:
64,192,392039,1,0,0:0:0:0:
192,192,392146,1,0,0:0:0:0:
192,192,392468,1,0,0:0:0:0:
448,192,392575,1,0,0:0:0:0:
64,192,392789,1,0,0:0:0:0:
192,192,393110,1,0,0:0:0:0:
192,192,393325,1,0,0:0:0:0:
320,192,394182,1,0,0:0:0:0:
448,192,394289,1,0,0:0:0:0:
192,192,394396,1,0,0:0:0:0:
448,192,394610,1,0,0:0:0:0:
64,192,394825,1,0,0:0:0:0:
448,192,395146,1,0,0:0:0:0:
64,192,395789,1,0,0:0:0:0:
192,192,396003,1,0,0:0:0:0:
448,192,396432,1,0,0:0:0:0:
320,192,396753,1,0,0:0:0:0:
64,192,396860,1,0,0:0:0:0:
192,192,398146,1,0,0:0:0:0:
64,192,398575,1,0,0:0:0:0:
320,192,398682,1,0,0:0:0:0:
192,192,398789,1,0,0:0:0:0:
64,192,399003,1,0,0:0:0:0:
448,192,399110,1,0,0:0:0:0:
64,192,399218,1,0,0:0:0:0:
320,192,399860,1,0,0:0:0:0:
192,192,400503,1,0,0:0:0:0:
320,192,400825,1,0,0:0:0:0:
64,192,401360,1,0,0:0:0:0:
448,192,401575,1,0,0:0:0:0:
448,192,402003,1,0,0:0:0:0:
320,192,402110,1,0,0:0:0:0:
192,192,402218,1,0,0:0:0:0:
192,192,402432,1,0,0:0:0:0:
64,192,402539,1,0,0:0:0:0:
448,192,402646,1,0,0:0:0:0:
64,192,402968,1,0,0:0:0:0:
448,192,403075,1,0,0:0:0:0:
448,192,403289,1,0,0:0:0:0:
448,192,403610,1,0,0:0:0:0:
320,192,403718,1,0,0:0:0:0:
192,192,403825,1,0,0:0:0:0:
448,192,403932,1,0,0:0:0:0:
64,192,404039,1,0,0:0:0:0:
64,192,404360,1,0,0:0:0:0:
448,192,405003,1,0,0:0:0:0:
64,192,405539,1,0,0:0:0:0:
192,192,405646,1,0,0:0:0:0:
192,192,405860,1,0,0:0:0:0:
320,192,405968,1,0,0:0:0:0:
448,192,406075,1,0,0:0:0:0:
192,192,406075,1,0,0:0:0:0:
64,192,406718,1,0,0:0:0:0:
64,192,406932,1,0,0:0:0:0:
320,192,407146,1,0,0:0:0:0:
192,192,407360,1,0,0:0:0:0:
448,192,407575,1,0,0:0:0:0:
64,192,407682,1,0,0:0:0:0:
192,192,407789,1,0,0:0:0:0:
64,192,408110,1,0,0:0:0:0:
448,192,408432,1,0,0:0:0:0:
64,192,408432,1,0,0:0:0:0:
192,192,408860,1,0,0:0:0:0:
192,192,409075,1,0,0:0:0:0:
320,192,409396,1,0,0:0:0:0:
192,192,409503,1,0,0:0:0:0:
448,192,409825,1,0,0:0:0:0:
448,192,410039,1,0,0:0:0:0:
64,192,410146,1,0,0:0:0:0:
192,192,410253,1,0,0:0:0:0:
64,192,410360,1,0,0:0:0:0:
320,192,410468,1,0,0:0:0:0:
448,192,410575,1,0,0:0:0:0:
64,192,411539,1,0,0:0:0:0:
192,192,411753,1,0,0:0:0:0:
448,192,411860,1,0,0:0:0:0:
192,192,412075,1,0,0:0:0:0:
192,192,412289,1,0,0:0:0:0:
64,192,412396,1,0,0:0:0:0:
448,192,412396,1,0,0:0:0:0:
320,192,412503,1,0,0:0:0:0:
192,192,412503,1,0,0:0:0:0:
64,192,412718,1,0,0:0:0:0:
448,192,412825,1,0,0:0:0:0:
64,192,412932,1,0,0:0:0:0:
192,192,413253,1,0,0:0:0:0:
448,192,413360,1,0,0:0:0:0:
64,192,413468,1,0,0:0:0:0:
448,192,413575,1,0,0:0:0:0:
64,192,413682,1,0,0:0:0:0:
320,192,413789,1,0,0:0:0:0:
192,192,413896,1,0,0:0:0:0:
448,192,414003,1,0,0:0:0:0:
192,192,414539,1,0,0:0:0:0:
320,192,414968,1,0,0:0:0:0:
192,192,415289,1,0,0:0:0:0:
320,192,415396,1,0,0:0:0:0:
448,192,415503,1,0,0:0:0:0:
320,192,415718,1,0,0:0:0:0:
192,192,415825,1,0,0:0:0:0:
64,192,415932,1,0,0:0:0:0:
320,192,416039,1,0,0:0:0:0:
448,192,416146,1,0,0:0:0:0:
192,192,416146,1,0,0:0:0:0:
320,192,416253,1,0,0:0:0:0:
448,192,416360,1,0,0:0:0:0:
448,192,416575,1,0,0:0:0:0:
320,192,416682,1,0,0:0:0:0:
64,192,416789,1,0,0:0:0:0:
448,192,417003,1,0,0:0:0:0:
320,192,417110,1,0,0:0:0:0:
64,192,417218,1,0,0:0:0:0:
320,192,417325,1,0,0:0:0:0:
64,192,417432,1,0,0:0:0:0:
448,192,417539,1,0,0:0:0:0:
192,192,417753,1,0,0:0:0:0:
320,192,417860,1,0,0:0:0:0:
64,192,418075,1,0,0:0:0:0:
320,192,418289,1,0,0:0:0:0:
320,192,418503,1,0,0:0:0:0:
192,192,418718,1,0,0:0:0:0:
448,192,418932,1,0,0:0:0:0:
192,192,419468,1,0,0:0:0:0:
448,192,419575,1,0,0:0:0:0:
64,192,419682,1,0,0:0:0:0:
448,192,419789,1,0,0:0:0:0:
192,192,419789,1,0,0:0:0:0:
320,192,420110,1,0,0:0:0:0:
320,192,420646,1,0,0:0:0:0:
192,192,420860,1,0,0:0:0:0:
448,192,420968,1,0,0:0:0:0:
64,192,420968,1,0,0:0:0:0:
192,192,421075,1,0,0:0:0:0:
448,192,421182,1,0,0:0:0:0:
320,192,421289,1,0,0:0:0:0:
192,192,421396,1,0,0:0:0:0:
320,192,421503,1,0,0:0:0:0:
448,192,421718,1,0,0:0:0:0:
192,192,422146,1,0,0:0:0:0:
448,192,422360,1,0,0:0:0:0:
448,192,422575,1,0,0:0:0:0:
320,192,422682,1,0,0:0:0:0:
320,192,422896,1,0,0:0:0:0:
448,192,423003,1,0,0:0:0:0:
192,192,423110,1,0,0:0:0:0:
320,192,423110,1,0,0:0:0:0:
448,192,423218,1,0,0:0:0:0:
448,192,423432,1,0,0:0:0:0:
192,192,423539,1,0,0:0:0:0:
192,192,423753,1,0,0:0:0:0:
448,192,423968,1,0,0:0:0:0:
320,192,424075,1,0,0:0:0:0:
192,192,424182,1,0,0:0:0:0:
320,192,424289,1,0,0:0:0:0:
64,192,424396,1,0,0:0:0:0:
320,192,424610,1,0,0:0:0:0:
448,192,425039,1,0,0:0:0:0:
64,192,426003,1,0,0:0:0:0:
64,192,426218,1,0,0:0:0:0:
448,192,426860,1,0,0:0:0:0:
320,192,428575,1,0,0:0:0:0:
320,192,429003,1,0,0:0:0:0:
192,192,429003,1,0,0:0:0:0:
448,192,429110,1,0,0:0:0:0:
320,192,429432,1,0,0:0:0:0:
192,192,429753,1,0,0:0:0:0:
320,192,429860,1,0,0:0:0:0:
320,192,430075,1,0,0:0:0:0:
64,192,430289,1,0,0:0:0:0:
192,192,430396,1,0,0:0:0:0:
64,192,430718,1,0,0:0:0:0:
448,192,430825,1,0,0:0:0:0:
320,192,431253,1,0,0:0:0:0:
448,192,431360,1,0,0:0:0:0:
448,192,432110,1,0,0:0:0:0:
320,192,432432,1,0,0:0:0:0:
64,192,433503,1,0,0:0:0:0:
448,192,433610,1,0,0:0:0:0:
192,192,433718,1,0,0:0:0:0:
448,192,433825,1,0,0:0:0:0:
320,192,434146,1,0,0:0:0:0:
64,192,434253,1,0,0:0:0:0:
192,192,434468,1,0,0:0:0:0:
192,192,434789,1,0,0:0:0:0:
64,192,435218,1,0,0:0:0:0:
448,192,435432,1,0,0:0:0:0:
192,192,435646,1,0,0:0:0:0:
320,192,435753,1,0,0:0:0:0:
448,192,435860,1,0,0:0:0:0:
192,192,435968,1,0,0:0:0:0:
320,192,436289,1,0,0:0:0:0:
192,192,436396,1,0,0:0:0:0:
192,192,436610,1,0,0:0:0:0:
192,192,436825,1,0,0:0:0:0:
448,192,437039,1,0,0:0:0:0:
320,192,437146,1,0,0:0:0:0:
448,192,437253,1,0,0:0:0:0:
320,192,437468,1,0,0:0:0:0:
192,192,437575,1,0,0:0:0:0:
64,192,437682,1,0,0:0:0:0:
320,192,437896,1,0,0:0:0:0:
448,192,438432,1,0,0:0:0:0:
192,192,439396,1,0,0:0:0:0:
64,192,439718,1,0,0:0:0:0:
64,192,439932,1,0,0:0:0:0:
320,192,440039,1,0,0:0:0:0:
64,192,440575,1,0,0:0:0:0:
320,192,442182,1,0,0:0:0:0:
448,192,442396,1,0,0:0:0:0:
64,192,442503,1,0,0:0:0:0:
448,192,442718,1,0,0:0:0:0:
320,192,443146,1,0,0:0:0:0:
320,192,443360,1,0,0:0:0:0:
448,192,443468,1,0,0:0:0:0:
192,192,443575,1,0,0:0:0:0:
448,192,443682,1,0,0:0:0:0:
320,192,444003,1,0,0:0:0:0:
448,192,444110,1,0,0:0:0:0:
448,192,444432,1,0,0:0:0:0:
320,192,444539,1,0,0:0:0:0:
192,192,444753,1,0,0:0:0:0:
192,192,444968,1,0,0:0:0:0:
64,192,445075,1,0,0:0:0:0:
64,192,445825,1,0,0:0:0:0:
448,192,445932,1,0,0:0:0:0:
448,192,446146,1,0,0:0:0:0:
320,192,446253,1,0,0:0:0:0:
192,192,446789,1,0,0:0:0:0:
64,192,446896,1,0,0:0:0:0:
448,192,447003,1,0,0:0:0:0:
192,192,447218,1,0,0:0:0:0:
192,192,447539,1,0,0:0:0:0:
64,192,447753,1,0,0:0:0:0:
320,192,447860,1,0,0:0:0:0:
448,192,447860,1,0,0:0:0:0:
192,192,447968,1,0,0:0:0:0:
320,192,448075,1,0,0:0:0:0:
192,192,448289,1,0,0:0:0:0:
64,192,448503,1,0,0:0:0:0:
320,192,448718,1,0,0:0:0:0:
64,192,449039,1,0,0:0:0:0:
320,192,449146,1,0,0:0:0:0:
448,192,449253,1,0,0:0:0:0:
64,192,449468,1,0,0:0:0:0:
320,192,449682,1,0,0:0:0:0:
192,192,449789,1,0,0:0:0:0:
448,192,450003,1,0,0:0:0:0:
64,192,450110,1,0,0:0:0:0:
320,192,450218,1,0,0:0:0:0:
192,192,450753,1,0,0:0:0:0:
64,192,450860,1,0,0:0:0:0:
64,192,451289,1,0,0:0:0:0:
192,192,451396,1,0,0:0:0:0:
448,192,451503,1,0,0:0:0:0:
64,192,451932,1,0,0:0:0:0:
192,192,452146,1,0,0:0:0:0:
320,192,452896,1,0,0:0:0:0:
320,192,453646,1,0,0:0:0:0:
192,192,453860,1,0,0:0:0:0:
320,192,454289,1,0,0:0:0:0:
448,192,454396,1,0,0:0:0:0:
448,192,454932,1,0,0:0:0:0:
192,192,455146,1,0,0:0:0:0:
64,192,455468,1,0,0:0:0:0:
320,192,456003,1,0,0:0:0:0:
192,192,456325,1,0,0:0:0:0:
448,192,456539,1,0,0:0:0:0:
448,192,456860,1,0,0:0:0:0:
192,192,457182,1,0,0:0:0:0:
448,192,457289,1,0,0:0:0:0:
64,192,457396,1,0,0:0:0:0:
448,192,457503,1,0,0:0:0:0:
320,192,457718,1,0,0:0:0:0:
320,192,458039,1,0,0:0:0:0:
64,192,458468,1,0,0:0:0:0:
192,192,458575,1,0,0:0:0:0:
192,192,458896,1,0,0:0:0:0:
320,192,459325,1,0,0:0:0:0:
320,192,461575,1,0,0:0:0:0:
448,192,462325,1,0,0:0:0:0:
448,192,462860,1,0,0:0:0:0:
64,192,463396,1,0,0:0:0:0:
448,192,463718,1,0,0:0:0:0:
320,192,463932,1,0,0:0:0:0:
192,192,464039,1,0,0:0:0:0:
64,192,464253,1,0,0:0:0:0:
192,192,464575,1,0,0:0:0:0:
448,192,465432,1,0,0:0:0:0:
448,192,465753,1,0,0:0:0:0:
64,192,465860,1,0,0:0:0:0:
448,192,466289,1,0,0:0:0:0:
64,192,466932,1,0,0:0:0:0:
320,192,467146,1,0,0:0:0:0:
64,192,468003,1,0,0:0:0:0:
320,192,468110,1,0,0:0:0:0:
448,192,468218,1,0,0:0:0:0:
64,192,468539,1,0,0:0:0:0:
192,192,468753,1,0,0:0:0:0:
320,192,468860,1,0,0:0:0:0:
64,192,469289,1,0,0:0:0:0:
192,192,469610,1,0,0:0:0:0:
64,192,469718,1,0,0:0:0:0:
192,192,470253,1,0,0:0:0:0:
320,192,470575,1,0,0:0:0:0:
448,192,470896,1,0,0:0:0:0:
192,192,472182,1,0,0:0:0:0:
320,192,472289,1,0,0:0:0:0:
64,192,472503,1,0,0:0:0:0:
448,192,472610,1,0,0:0:0:0:
64,192,472825,1,0,0:0:0:0:
320,192,473682,1,0,0:0:0:0:
64,192,474003,1,0,0:0:0:0:
448,192,474325,1,0,0:0:0:0:
192,192,475396,1,0,0:0:0:0:
192,192,475718,1,0,0:0:0:0:
192,192,476575,1,0,0:0:0:0:
448,192,476896,1,0,0:0:0:0:
448,192,477110,1,0,0:0:0:0:
192,192,477325,1,0,0:0:0:0:
64,192,477432,1,0,0:0:0:0:
192,192,478610,1,0,0:0:0:0:
320,192,479146,1,0,0:0:0:0:
192,192,480325,1,0,0:0:0:0:
64,192,481396,1,0,0:0:0:0:
64,192,482253,1,0,0:0:0:0:
192,192,482575,1,0,0:0:0:0:
64,192,483432,1,0,0:0:0:0:
448,192,483539,1,0,0:0:0:0:
192,192,483646,1,0,0:0:0:0:
320,192,483753,1,0,0:0:0:0:
192,192,483860,1,0,0:0:0:0:
320,192,483968,1,0,0:0:0:0:
448,192,484075,1,0,0:0:0:0:
320,192,484718,1,0,0:0:0:0:
192,192,484825,1,0,0:0:0:0:
448,192,484932,1,0,0:0:0:0:
448,192,485146,1,0,0:0:0:0:
192,192,485253,1,0,0:0:0:0:
64,192,485253,1,0,0:0:0:0:
320,192,485575,1,0,0:0:0:0:
64,192,485682,1,0,0:0:0:0:
192,192,485789,1,0,0:0:0:0:
64,192,485896,1,0,0:0:0:0:
192,192,486110,1,0,0:0:0:0:
320,192,486218,1,0,0:0:0:0:
64,192,486432,1,0,0:0:0:0:
320,192,486968,1,0,0:0:0:0:
448,192,487075,1,0,0:0:0:0:
192,192,487289,1,0,0:0:0:0:
64,192,487396,1,0,0:0:0:0:
320,192,487503,1,0,0:0:0:0:
448,192,487825,1,0,0:0:0:0:
448,192,488039,1,0,0:0:0:0:
64,192,488146,1,0,0:0:0:0:
192,192,488360,1,0,0:0:0:0:
64,192,488575,1,0,0:0:0:0:
320,192,488682,1,0,0:0:0:0:
192,192,488789,1,0,0:0:0:0:
448,192,488896,1,0,0:0:0:0:
64,192,489003,1,0,0:0:0:0:
192,192,489110,1,0,0:0:0:0:
448,192,489218,1,0,0:0:0:0:
192,192,489325,1,0,0:0:0:0:
64,192,489646,1,0,0:0:0:0:
320,192,490289,1,0,0:0:0:0:
64,192,490396,1,0,0:0:0:0:
448,192,490610,1,0,0:0:0:0:
192,192,490932,1,0,0:0:0:0:
192,192,491146,1,0,0:0:0:0:
448,192,491253,1,0,0:0:0:0:
64,192,491468,1,0,0:0:0:0:
320,192,491575,1,0,0:0:0:0:
320,192,491789,1,0,0:0:0:0:
64,192,492003,1,0,0:0:0:0:
448,192,492110,1,0,0:0:0:0:
64,192,492432,1,0,0:0:0:0:
320,192,492539,1,0,0:0:0:0:
192,192,492646,1,0,0:0:0:0:
448,192,492753,1,0,0:0:0:0:
448,192,493075,1,0,0:0:0:0:
64,192,493182,1,0,0:0:0:0:
64,192,493396,1,0,0:0:0:0:
448,192,493932,1,0,0:0:0:0:
64,192,494039,1,0,0:0:0:0:
64,192,494253,1,0,0:0:0:0:
320,192,494468,1,0,0:0:0:0:
448,192,494575,1,0,0:0:0:0:
320,192,494682,1,0,0:0:0:0:
192,192,494789,1,0,0:0:0:0:
448,192,494896,1,0,0:0:0:0:
192,192,495218,1,0,0:0:0:0:
192,192,495539,1,0,0:0:0:0:
448,192,496182,1,0,0:0:0:0:
64,192,496718,1,0,0:0:0:0:
448,192,498003,1,0,0:0:0:0:
448,192,498646,1,0,0:0:0:0:
448,192,499932,1,0,0:0:0:0:
192,192,501003,1,0,0:0:0:0:
192,192,501218,1,0,0:0:0:0:
64,192,501432,1,0,0:0:0:0:
320,192,501539,1,0,0:0:0:0:
64,192,501646,1,0,0:0:0:0:
320,192,501860,1,0,0:0:0:0:
192,192,502075,1,0,0:0:0:0:
448,192,502075,1,0,0:0:0:0:
320,192,502289,1,0,0:0:0:0:
448,192,502396,1,0,0:0:0:0:
192,192,502718,1,0,0:0:0:0:
320,192,502932,1,0,0:0:0:0:
192,192,503146,1,0,0:0:0:0:
64,192,503253,1,0,0:0:0:0:
320,192,503360,1,0,0:0:0:0:
448,192,503360,1,0,0:0:0:0:
192,192,503468,1,0,0:0:0:0:
320,192,503575,1,0,0:0:0:0:
64,192,503682,1,0,0:0:0:0:
448,192,503789,1,0,0:0:0:0:
64,192,504003,1,0,0:0:0:0:
448,192,504110,1,0,0:0:0:0:
448,192,504432,1,0,0:0:0:0:
448,192,504646,1,0,0:0:0:0:
192,192,504860,1,0,0:0:0:0:
320,192,505075,1,0,0:0:0:0:
320,192,505718,1,0,0:0:0:0:
64,192,506146,1,0,0:0:0:0:
192,192,506253,1,0,0:0:0:0:
64,192,506360,1,0,0:0:0:0:
64,192,506575,1,0,0:0:0:0:
448,192,506682,1,0,0:0:0:0:
192,192,506789,1,0,0:0:0:0:
448,192,507003,1,0,0:0:0:0:
448,192,507325,1,0,0:0:0:0:
320,192,507432,1,0,0:0:0:0:
64,192,509146,1,0,0:0:0:0:
192,192,509682,1,0,0:0:0:0:
448,192,509789,1,0,0:0:0:0:
64,192,510218,1,0,0:0:0:0:
192,192,510325,1,0,0:0:0:0:
64,192,510432,1,0,0:0:0:0:
192,192,511503,1,0,0:0:0:0:
192,192,512039,1,0,0:0:0:0:
64,192,512146,1,0,0:0:0:0:
448,192,512253,1,0,0:0:0:0:
448,192,513110,1,0,0:0:0:0:
64,192,513218,1,0,0:0:0:0:
192,192,513325,1,0,0:0:0:0:
448,192,514610,1,0,0:0:0:0:
448,192,516539,1,0,0:0:0:0:
64,192,516646,1,0,0:0:0:0:
448,192,516753,1,0,0:0:0:0:
320,192,516968,1,0,0:0:0:0:
448,192,517182,1,0,0:0:0:0:
320,192,517182,1,0,0:0:0:0:
64,192,517289,1,0,0:0:0:0:
192,192,517289,1,0,0:0:0:0:
320,192,517396,1,0,0:0:0:0:
448,192,519003,1,0,0:0:0:0:
192,192,519110,1,0,0:0:0:0:
320,192,519325,1,0,0:0:0:0:
64,192,519753,1,0,0:0:0:0:
320,192,520610,1,0,0:0:0:0:
64,192,520718,1,0,0:0:0:0:
448,192,521039,1,0,0:0:0:0:
320,192,521146,1,0,0:0:0:0:
192,192,521682,1,0,0:0:0:0:
64,192,522110,1,0,0:0:0:0:
320,192,522325,1,0,0:0:0:0:
448,192,522432,1,0,0:0:0:0:
192,192,522539,1,0,0:0:0:0:
64,192,522539,1,0,0:0:0:0:
448,192,522753,1,0,0:0:0:0:
64,192,522860,1,0,0:0:0:0:
64,192,523396,1,0,0:0:0:0:
320,192,523503,1,0,0:0:0:0:
192,192,524039,1,0,0:0:0:0:
448,192,524575,1,0,0:0:0:0:
192,192,524682,1,0,0:0:0:0:
448,192,525110,1,0,0:0:0:0:
192,192,525218,1,0,0:0:0:0:
320,192,525325,1,0,0:0:0:0:
320,192,525753,1,0,0:0:0:0:
64,192,525860,1,0,0:0:0:0:
448,192,525968,1,0,0:0:0:0:
448,192,526182,1,0,0:0:0:0:
320,192,526825,1,0,0:0:0:0:
64,192,526932,1,0,0:0:0:0:
192,192,527039,1,0,0:0:0:0:
448,192,527468,1,0,0:0:0:0:
320,192,528003,1,0,0:0:0:0:
64,192,528325,1,0,0:0:0:0:
192,192,528539,1,0,0:0:0:0:
320,192,529182,1,0,0:0:0:0:
192,192,529289,1,0,0:0:0:0:
320,192,529718,1,0,0:0:0:0:
64,192,529825,1,0,0:0:0:0:
320,192,530253,1,0,0:0:0:0:
448,192,530360,1,0,0:0:0:0:
192,192,530468,1,0,0:0:0:0:
64,192,530789,1,0,0:0:0:0:
448,192,530896,1,0,0:0:0:0:
320,192,531003,1,0,0:0:0:0:
64,192,531110,1,0,0:0:0:0:
320,192,531432,1,0,0:0:0:0:
448,192,531753,1,0,0:0:0:0:
448,192,532182,1,0,0:0:0:0:
192,192,532718,1,0,0:0:0:0:
448,192,532825,1,0,0:0:0:0:
64,192,533360,1,0,0:0:0:0:
320,192,534432,1,0,0:0:0:0:
448,192,534539,1,0,0:0:0:0:
448,192,534968,1,0,0:0:0:0:
448,192,536789,1,0,0:0:0:0:
192,192,536896,1,0,0:0:0:0:
192,192,537325,1,0,0:0:0:0:
192,192,538503,1,0,0:0:0:0:
64,192,540218,1,0,0:0:0:0:
320,192,540325,1,0,0:0:0:0:
64,192,540646,1,0,0:0:0:0:
320,192,541075,1,0,0:0:0:0:
64,192,541182,1,0,0:0:0:0:
448,192,543218,1,0,0:0:0:0:
320,192,543860,1,0,0:0:0:0:
192,192,544182,1,0,0:0:0:0:
192,192,544718,1,0,0:0:0:0:
192,192,544932,1,0,0:0:0:0:
320,192,545360,1,0,0:0:0:0:
64,192,545789,1,0,0:0:0:0:
64,192,547182,1,0,0:0:0:0:
448,192,548146,1,0,0:0:0:0:
192,192,548575,1,0,0:0:0:0:
448,192,548682,1,0,0:0:0:0:
192,192,548896,1,0,0:0:0:0:
64,192,549003,1,0,0:0:0:0:
192,192,549110,1,0,0:0:0:0:
320,192,549218,1,0,0:0:0:0:
192,192,549539,1,0,0:0:0:0:
448,192,549646,1,0,0:0:0:0:
320,192,549753,1,0,0:0:0:0:
192,192,549860,1,0,0:0:0:0:
64,192,549968,1,0,0:0:0:0:
448,192,550075,1,0,0:0:0:0:
64,192,550182,1,0,0:0:0:0:
448,192,550289,1,0,0:0:0:0:
64,192,550396,1,0,0:0:0:0:
192,192,550396,1,0,0:0:0:0:
320,192,550503,1,0,0:0:0:0:
64,192,550610,1,0,0:0:0:0:
320,192,550718,1,0,0:0:0:0:
64,192,550825,1,0,0:0:0:0:
320,192,550932,1,0,0:0:0:0:
448,192,551039,1,0,0:0:0:0:
192,192,551146,1,0,0:0:0:0:
320,192,551146,1,0,0:0:0:0:
192,192,551360,1,0,0:0:0:0:
192,192,551575,1,0,0:0:0:0:
64,192,551682,1,0,0:0:0:0:
320,192,552003,1,0,0:0:0:0:
64,192,552110,1,0,0:0:0:0:
320,192,552218,1,0,0:0:0:0:
64,192,552432,1,0,0:0:0:0:
192,192,552539,1,0,0:0:0:0:
64,192,552646,1,0,0:0:0:0:
448,192,552646,1,0,0:0:0:0:
320,192,552860,1,0,0:0:0:0:
192,192,552968,1,0,0:0:0:0:
448,192,553182,1,0,0:0:0:0:
64,192,553289,1,0,0:0:0:0:
448,192,553396,1,0,0:0:0:0:
320,192,553503,1,0,0:0:0:0:
192,192,553718,1,0,0:0:0:0:
320,192,553825,1,0,0:0:0:0:
64,192,553932,1,0,0:0:0:0:
448,192,554146,1,0,0:0:0:0:
192,192,554253,1,0,0:0:0:0:
64,192,554682,1,0,0:0:0:0:
448,192,554789,1,0,0:0:0:0:
192,192,554789,1,0,0:0:0:0:
320,192,555003,1,0,0:0:0:0:
448,192,555110,1,0,0:0:0:0:
320,192,555432,1,0,0:0:0:0:
448,192,555539,1,0,0:0:0:0:
192,192,555753,1,0,0:0:0:0:
320,192,555860,1,0,0:0:0:0:
320,192,556075,1,0,0:0:0:0:
320,192,556289,1,0,0:0:0:0:
448,192,556396,1,0,0:0:0:0:
448,192,556610,1,0,0:0:0:0:
320,192,556718,1,0,0:0:0:0:
448,192,556932,1,0,0:0:0:0:
320,192,557039,1,0,0:0:0:0:
64,192,557146,1,0,0:0:0:0:
320,192,557253,1,0,0:0:0:0:
448,192,557360,1,0,0:0:0:0:
448,192,557575,1,0,0:0:0:0:
64,192,558003,1,0,0:0:0:0:
448,192,558218,1,0,0:0:0:0:
320,192,558753,1,0,0:0:0:0:
192,192,559075,1,0,0:0:0:0:
448,192,560789,1,0,0:0:0:0:
320,192,560896,1,0,0:0:0:0:
64,192,561218,1,0,0:0:0:0:
192,192,561325,1,0,0:0:0:0:
64,192,561753,1,0,0:0:0:0:
448,192,561860,1,0,0:0:0:0:
448,192,562828,1,0,0:0:0:0:
64,192,564837,1,0,0:0:0:0:
448,192,564933,1,0,0:0:0:0:
64,192,565028,1,0,0:0:0:0:
448,192,566081,1,0,0:0:0:0:
320,192,567707,1,0,0:0:0:0:
320,192,568089,1,0,0:0:0:0:
320,192,568281,1,0,0:0:0:0:
64,192,569237,1,0,0:0:0:0:
448,192,570385,1,0,0:0:0:0:
64,192,570385,1,0,0:0:0:0:
448,192,571055,1,0,0:0:0:0:
320,192,571151,1,0,0:0:0:0:
64,192,572299,1,0,0:0:0:0:
320,192,572681,1,0,0:0:0:0:
320,192,573447,1,0,0:0:0:0:
192,192,573829,1,0,0:0:0:0:
320,192,573829,1,0,0:0:0:0:
448,192,574212,1,0,0:0:0:0:
448,192,574595,1,0,0:0:0:0:
192,192,574690,1,0,0:0:0:0:
64,192,574786,1,0,0:0:0:0:
448,192,574882,1,0,0:0:0:0:
320,192,576125,1,0,0:0:0:0:
448,192,576508,1,0,0:0:0:0:
448,192,577273,1,0,0:0:0:0:
320,192,577273,1,0,0:0:0:0:
320,192,577560,1,0,0:0:0:0:
448,192,577656,1,0,0:0:0:0:
192,192,578038,1,0,0:0:0:0:
64,192,578038,1,0,0:0:0:0:
320,192,578134,1,0,0:0:0:0:
64,192,578804,1,0,0:0:0:0:
192,192,579186,1,0,0:0:0:0:
448,192,579569,1,0,0:0:0:0:
192,192,579760,1,0,0:0:0:0:
192,192,579952,1,0,0:0:0:0:
64,192,580143,1,0,0:0:0:0:
448,192,580334,1,0,0:0:0:0:
192,192,580334,1,0,0:0:0:0:
448,192,581195,1,0,0:0:0:0:
64,192,581291,1,0,0:0:0:0:
320,192,582056,1,0,0:0:0:0:
64,192,582343,1,0,0:0:0:0:
64,192,582630,1,0,0:0:0:0:
64,192,582917,1,0,0:0:0:0:
192,192,583013,1,0,0:0:0:0:
192,192,583300,1,0,0:0:0:0:
320,192,583778,1,0,0:0:0:0:
192,192,584161,1,0,0:0:0:0:
320,192,584352,1,0,0:0:0:0:
320,192,584639,1,0,0:0:0:0:
320,192,585118,1,0,0:0:0:0:
192,192,585500,1,0,0:0:0:0:
320,192,586074,1,0,0:0:0:0:
448,192,586170,1,0,0:0:0:0:
64,192,586751,1,0,0:0:0:0:
64,192,586942,1,0,0:0:0:0:
192,192,587133,1,0,0:0:0:0:
448,192,587228,1,0,0:0:0:0:
64,192,587228,1,0,0:0:0:0:
320,192,587324,1,0,0:0:0:0:
64,192,587515,1,0,0:0:0:0:
64,192,587706,1,0,0:0:0:0:
448,192,587802,1,0,0:0:0:0:
448,192,588279,1,0,0:0:0:0:
320,192,588375,1,0,0:0:0:0:
192,192,588757,1,0,0:0:0:0:
192,192,589808,1,0,0:0:0:0:
64,192,589903,1,0,0:0:0:0:
320,192,589999,1,0,0:0:0:0:
448,192,590190,1,0,0:0:0:0:
64,192,590286,1,0,0:0:0:0:
448,192,590381,1,0,0:0:0:0:
64,192,590572,1,0,0:0:0:0:
64,192,590763,1,0,0:0:0:0:
192,192,590859,1,0,0:0:0:0:
64,192,591337,1,0,0:0:0:0:
320,192,591432,1,0,0:0:0:0:
64,192,591814,1,0,0:0:0:0:
448,192,592579,1,0,0:0:0:0:
320,192,592865,1,0,0:0:0:0:
192,192,592961,1,0,0:0:0:0:
448,192,593247,1,0,0:0:0:0:
320,192,593343,1,0,0:0:0:0:
320,192,593630,1,0,0:0:0:0:
64,192,593916,1,0,0:0:0:0:
192,192,594394,1,0,0:0:0:0:
192,192,594585,1,0,0:0:0:0:
448,192,594872,1,0,0:0:0:0:
64,192,595923,1,0,0:0:0:0:
192,192,596018,1,0,0:0:0:0:
64,192,596114,1,0,0:0:0:0:
320,192,596305,1,0,0:0:0:0:
448,192,596400,1,0,0:0:0:0:
192,192,596496,1,0,0:0:0:0:
64,192,596591,1,0,0:0:0:0:
320,192,596687,1,0,0:0:0:0:
192,192,596878,1,0,0:0:0:0:
64,192,596974,1,0,0:0:0:0:
320,192,596974,1,0,0:0:0:0:
448,192,597069,1,0,0:0:0:0:
64,192,597451,1,0,0:0:0:0:
448,192,597929,1,0,0:0:0:0:
192,192,598980,1,0,0:0:0:0:
192,192,599744,1,0,0:0:0:0:
64,192,600509,1,0,0:0:0:0:
448,192,600986,1,0,0:0:0:0:
64,192,600986,1,0,0:0:0:0:
64,192,601464,1,0,0:0:0:0:
320,192,602037,1,0,0:0:0:0:
192,192,602133,1,0,0:0:0:0:
192,192,603566,1,0,0:0:0:0:
448,192,603661,1,0,0:0:0:0:
448,192,605190,1,0,0:0:0:0:
64,192,605286,1,0,0:0:0:0:
192,192,605381,1,0,0:0:0:0:
448,192,605572,1,0,0:0:0:0:
320,192,605668,1,0,0:0:0:0:
320,192,605859,1,0,0:0:0:0:
320,192,606050,1,0,0:0:0:0:
448,192,606241,1,0,0:0:0:0:
192,192,606719,1,0,0:0:0:0:
64,192,608152,1,0,0:0:0:0:
320,192,608247,1,0,0:0:0:0:
448,192,608343,1,0,0:0:0:0:
320,192,608534,1,0,0:0:0:0:
192,192,608725,1,0,0:0:0:0:
64,192,608821,1,0,0:0:0:0:
448,192,608916,1,0,0:0:0:0:
448,192,609107,1,0,0:0:0:0:
64,192,609203,1,0,0:0:0:0:
320,192,609298,1,0,0:0:0:0:
448,192,609776,1,0,0:0:0:0:
448,192,610158,1,0,0:0:0:0:
64,192,610158,1,0,0:0:0:0:
320,192,610254,1,0,0:0:0:0:
192,192,610540,1,0,0:0:0:0:
192,192,611209,1,0,0:0:0:0:
448,192,611687,1,0,0:0:0:0:
192,192,612069,1,0,0:0:0:0:
64,192,612451,1,0,0:0:0:0:
320,192,612547,1,0,0:0:0:0:
448,192,612547,1,0,0:0:0:0:
192,192,612642,1,0,0:0:0:0:
320,192,612738,1,0,0:0:0:0:
448,192,612929,1,0,0:0:0:0:
64,192,613216,1,0,0:0:0:0:
192,192,613407,1,0,0:0:0:0:
448,192,613502,1,0,0:0:0:0:
64,192,613598,1,0,0:0:0:0:
448,192,613693,1,0,0:0:0:0:
320,192,613789,1,0,0:0:0:0:
64,192,613884,1,0,0:0:0:0:
64,192,614267,1,0,0:0:0:0:
192,192,614744,1,0,0:0:0:0:
192,192,614935,1,0,0:0:0:0:
320,192,615126,1,0,0:0:0:0:
64,192,615318,1,0,0:0:0:0:
448,192,615509,1,0,0:0:0:0:
192,192,615604,1,0,0:0:0:0:
448,192,615700,1,0,0:0:0:0:
64,192,615795,1,0,0:0:0:0:
64,192,616082,1,0,0:0:0:0:
64,192,616560,1,0,0:0:0:0:
192,192,616655,1,0,0:0:0:0:
192,192,616846,1,0,0:0:0:0:
64,192,617324,1,0,0:0:0:0:
320,192,617419,1,0,0:0:0:0:
448,192,617802,1,0,0:0:0:0:
192,192,618661,1,0,0:0:0:0:
448,192,618757,1,0,0:0:0:0:
64,192,618853,1,0,0:0:0:0:
320,192,619044,1,0,0:0:0:0:
192,192,619139,1,0,0:0:0:0:
320,192,619235,1,0,0:0:0:0:
192,192,619330,1,0,0:0:0:0:
192,192,619521,1,0,0:0:0:0:
64,192,619617,1,0,0:0:0:0:
64,192,619808,1,0,0:0:0:0:
320,192,619903,1,0,0:0:0:0:
64,192,619999,1,0,0:0:0:0:
192,192,620381,1,0,0:0:0:0:
64,192,620859,1,0,0:0:0:0:
192,192,621050,1,0,0:0:0:0:
320,192,621241,1,0,0:0:0:0:
448,192,621432,1,0,0:0:0:0:
320,192,621623,1,0,0:0:0:0:
64,192,621719,1,0,0:0:0:0:
320,192,621814,1,0,0:0:0:0:
192,192,621910,1,0,0:0:0:0:
448,192,622388,1,0,0:0:0:0:
448,192,622674,1,0,0:0:0:0:
192,192,622770,1,0,0:0:0:0:
64,192,623439,1,0,0:0:0:0:
448,192,624203,1,0,0:0:0:0:
192,192,624298,1,0,0:0:0:0:
320,192,624298,1,0,0:0:0:0:
320,192,625540,1,0,0:0:0:0:
64,192,625636,1,0,0:0:0:0:
320,192,625732,1,0,0:0:0:0:
192,192,625827,1,0,0:0:0:0:
448,192,625923,1,0,0:0:0:0:
192,192,626114,1,0,0:0:0:0:
448,192,626496,1,0,0:0:0:0:
448,192,626974,1,0,0:0:0:0:
192,192,626974,1,0,0:0:0:0:
320,192,627069,1,0,0:0:0:0:
64,192,627356,1,0,0:0:0:0:
448,192,629553,1,0,0:0:0:0:
64,192,629840,1,0,0:0:0:0:
320,192,630031,1,0,0:0:0:0:
448,192,630891,1,0,0:0:0:0:
192,192,630986,1,0,0:0:0:0:
64,192,631464,1,0,0:0:0:0:
448,192,631560,1,0,0:0:0:0:
448,192,632037,1,0,0:0:0:0:
192,192,632610,1,0,0:0:0:0:
448,192,632706,1,0,0:0:0:0:
192,192,633279,1,0,0:0:0:0:
320,192,633948,1,0,0:0:0:0:
64,192,634139,1,0,0:0:0:0:
448,192,634712,1,0,0:0:0:0:
64,192,635668,1,0,0:0:0:0:
320,192,636146,1,0,0:0:0:0:
192,192,636910,1,0,0:0:0:0:
320,192,637196,1,0,0:0:0:0:
192,192,638247,1,0,0:0:0:0:
448,192,640254,1,0,0:0:0:0:
448,192,641209,1,0,0:0:0:0:
320,192,641305,1,0,0:0:0:0:
192,192,641400,1,0,0:0:0:0:
64,192,643980,1,0,0:0:0:0:
192,192,645126,1,0,0:0:0:0:
448,192,645318,1,0,0:0:0:0:
64,192,646464,1,0,0:0:0:0:
64,192,647037,1,0,0:0:0:0:
320,192,647228,1,0,0:0:0:0:
448,192,647324,1,0,0:0:0:0:
192,192,647324,1,0,0:0:0:0:
320,192,647419,1,0,0:0:0:0:
192,192,647515,1,0,0:0:0:0:
64,192,647515,1,0,0:0:0:0:
64,192,647897,1,0,0:0:0:0:
64,192,648184,1,0,0:0:0:0:
64,192,648566,1,0,0:0:0:0:
320,192,648566,1,0,0:0:0:0:
64,192,649044,1,0,0:0:0:0:
448,192,649139,1,0,0:0:0:0:
320,192,649235,1,0,0:0:0:0:
64,192,649426,1,0,0:0:0:0:
448,192,649521,1,0,0:0:0:0:
448,192,649712,1,0,0:0:0:0:
320,192,649903,1,0,0:0:0:0:
320,192,650095,1,0,0:0:0:0:
192,192,650190,1,0,0:0:0:0:
192,192,651146,1,0,0:0:0:0:
448,192,651910,1,0,0:0:0:0:
64,192,652579,1,0,0:0:0:0:
64,192,653534,1,0,0:0:0:0:
448,192,653630,1,0,0:0:0:0:
192,192,654012,1,0,0:0:0:0:
320,192,654298,1,0,0:0:0:0:
448,192,655254,1,0,0:0:0:0:
64,192,655349,1,0,0:0:0:0:
448,192,655445,1,0,0:0:0:0:
64,192,655732,1,0,0:0:0:0:
192,192,656018,1,0,0:0:0:0:
448,192,656209,1,0,0:0:0:0:
192,192,657260,1,0,0:0:0:0:
64,192,657451,1,0,0:0:0:0:
320,192,657547,1,0,0:0:0:0:
320,192,657738,1,0,0:0:0:0:
448,192,658216,1,0,0:0:0:0:
192,192,658311,1,0,0:0:0:0:
448,192,659458,1,0,0:0:0:0:
320,192,659553,1,0,0:0:0:0:
64,192,659649,1,0,0:0:0:0:
320,192,659744,1,0,0:0:0:0:
64,192,660126,1,0,0:0:0:0:
320,192,660222,1,0,0:0:0:0:
192,192,660891,1,0,0:0:0:0:
448,192,660986,1,0,0:0:0:0:
192,192,662133,1,0,0:0:0:0:
64,192,662610,1,0,0:0:0:0:
320,192,662897,1,0,0:0:0:0:
192,192,663184,1,0,0:0:0:0:
64,192,663375,1,0,0:0:0:0:
448,192,663661,1,0,0:0:0:0:
320,192,663948,1,0,0:0:0:0:
192,192,664044,1,0,0:0:0:0:
192,192,664235,1,0,0:0:0:0:
64,192,664617,1,0,0:0:0:0:
64,192,665190,1,0,0:0:0:0:
320,192,665477,1,0,0:0:0:0:
192,192,665668,1,0,0:0:0:0:
192,192,667101,1,0,0:0:0:0:
320,192,667292,1,0,0:0:0:0:
320,192,668247,1,0,0:0:0:0:
320,192,668725,1,0,0:0:0:0:
320,192,669012,1,0,0:0:0:0:
192,192,669298,1,0,0:0:0:0:
448,192,669489,1,0,0:0:0:0:
64,192,669872,1,0,0:0:0:0:
320,192,670063,1,0,0:0:0:0:
192,192,670158,1,0,0:0:0:0:
192,192,670540,1,0,0:0:0:0:
192,192,670732,1,0,0:0:0:0:
192,192,671305,1,0,0:0:0:0:
320,192,671782,1,0,0:0:0:0:
192,192,672165,1,0,0:0:0:0:
448,192,672833,1,0,0:0:0:0:
192,192,673216,1,0,0:0:0:0:
64,192,673598,1,0,0:0:0:0:
320,192,674362,1,0,0:0:0:0:
192,192,674840,1,0,0:0:0:0:
192,192,675126,1,0,0:0:0:0:
320,192,675413,1,0,0:0:0:0:
320,192,675891,1,0,0:0:0:0:
448,192,676368,1,0,0:0:0:0:
192,192,677419,1,0,0:0:0:0:
64,192,677706,1,0,0:0:0:0:
64,192,677897,1,0,0:0:0:0:
64,192,678184,1,0,0:0:0:0:
320,192,678948,1,0,0:0:0:0:
64,192,678948,1,0,0:0:0:0:
320,192,679330,1,0,0:0:0:0:
192,192,679426,1,0,0:0:0:0:
64,192,679712,1,0,0:0:0:0:
64,192,679999,1,0,0:0:0:0:
192,192,680190,1,0,0:0:0:0:
320,192,680286,1,0,0:0:0:0:
192,192,680572,1,0,0:0:0:0:
320,192,680954,1,0,0:0:0:0:
448,192,681241,1,0,0:0:0:0:
448,192,681528,1,0,0:0:0:0:
192,192,681623,1,0,0:0:0:0:
320,192,681719,1,0,0:0:0:0:
64,192,681910,1,0,0:0:0:0:
192,192,682005,1,0,0:0:0:0:
448,192,682196,1,0,0:0:0:0:
64,192,682388,1,0,0:0:0:0:
320,192,682483,1,0,0:0:0:0:
64,192,682770,1,0,0:0:0:0:
64,192,683056,1,0,0:0:0:0:
448,192,683343,1,0,0:0:0:0:
320,192,683439,1,0,0:0:0:0:
448,192,683534,1,0,0:0:0:0:
64,192,683821,1,0,0:0:0:0:
320,192,684012,1,0,0:0:0:0:
64,192,684585,1,0,0:0:0:0:
192,192,685063,1,0,0:0:0:0:
192,192,685636,1,0,0:0:0:0:
320,192,685923,1,0,0:0:0:0:
320,192,686496,1,0,0:0:0:0:
448,192,686591,1,0,0:0:0:0:
320,192,687069,1,0,0:0:0:0:
448,192,687929,1,0,0:0:0:0:
192,192,688025,1,0,0:0:0:0:
320,192,688120,1,0,0:0:0:0:
320,192,688311,1,0,0:0:0:0:
192,192,688693,1,0,0:0:0:0:
448,192,688980,1,0,0:0:0:0:
320,192,689075,1,0,0:0:0:0:
320,192,690031,1,0,0:0:0:0:
192,192,690222,1,0,0:0:0:0:
320,192,690509,1,0,0:0:0:0:
192,192,691273,1,0,0:0:0:0:
64,192,691368,1,0,0:0:0:0:
320,192,692324,1,0,0:0:0:0:
320,192,692897,1,0,0:0:0:0:
448,192,693757,1,0,0:0:0:0:
448,192,694999,1,0,0:0:0:0:
64,192,695190,1,0,0:0:0:0:
448,192,697292,1,0,0:0:0:0:
64,192,697865,1,0,0:0:0:0:
320,192,698247,1,0,0:0:0:0:
64,192,698630,1,0,0:0:0:0:
64,192,698821,1,0,0:0:0:0:
64,192,699203,1,0,0:0:0:0:
64,192,699394,1,0,0:0:0:0:
192,192,699681,1,0,0:0:0:0:
320,192,699776,1,0,0:0:0:0:
64,192,700540,1,0,0:0:0:0:
64,192,700923,1,0,0:0:0:0:
448,192,701305,1,0,0:0:0:0:
320,192,701496,1,0,0:0:0:0:
320,192,701687,1,0,0:0:0:0:
192,192,702069,1,0,0:0:0:0:
64,192,702260,1,0,0:0:0:0:
64,192,702451,1,0,0:0:0:0:
192,192,702451,1,0,0:0:0:0:
64,192,702833,1,0,0:0:0:0:
64,192,703025,1,0,0:0:0:0:
448,192,703216,1,0,0:0:0:0:
192,192,703407,1,0,0:0:0:0:
320,192,703598,1,0,0:0:0:0:
64,192,704744,1,0,0:0:0:0:
64,192,705031,1,0,0:0:0:0:
448,192,705509,1,0,0:0:0:0:
192,192,705795,1,0,0:0:0:0:
320,192,705986,1,0,0:0:0:0:
64,192,706082,1,0,0:0:0:0:
192,192,706177,1,0,0:0:0:0:
448,192,706273,1,0,0:0:0:0:
64,192,706368,1,0,0:0:0:0:
448,192,706464,1,0,0:0:0:0:
64,192,706560,1,0,0:0:0:0:
192,192,706655,1,0,0:0:0:0:
320,192,707228,1,0,0:0:0:0:
64,192,707324,1,0,0:0:0:0:
320,192,707419,1,0,0:0:0:0:
192,192,707706,1,0,0:0:0:0:
320,192,707802,1,0,0:0:0:0:
64,192,708184,1,0,0:0:0:0:
64,192,708375,1,0,0:0:0:0:
320,192,708470,1,0,0:0:0:0:
192,192,708566,1,0,0:0:0:0:
320,192,710572,1,0,0:0:0:0:
192,192,711623,1,0,0:0:0:0:
64,192,711719,1,0,0:0:0:0:
448,192,712388,1,0,0:0:0:0:
320,192,712961,1,0,0:0:0:0:
448,192,713725,1,0,0:0:0:0:
448,192,714298,1,0,0:0:0:0:
448,192,714489,1,0,0:0:0:0:
448,192,714681,1,0,0:0:0:0:
192,192,715445,1,0,0:0:0:0:
320,192,716209,1,0,0:0:0:0:
320,192,717451,1,0,0:0:0:0:
64,192,718407,1,0,0:0:0:0:
320,192,718502,1,0,0:0:0:0:
64,192,718598,1,0,0:0:0:0:
320,192,718693,1,0,0:0:0:0:
448,192,718884,1,0,0:0:0:0:
448,192,719075,1,0,0:0:0:0:
320,192,719171,1,0,0:0:0:0:
448,192,719649,1,0,0:0:0:0:
192,192,720891,1,0,0:0:0:0:
64,192,721560,1,0,0:0:0:0:
64,192,722419,1,0,0:0:0:0:
64,192,723088,1,0,0:0:0:0:
448,192,723184,1,0,0:0:0:0:
64,192,724617,1,0,0:0:0:0:
320,192,725190,1,0,0:0:0:0:
64,192,725286,1,0,0:0:0:0:
64,192,725954,1,0,0:0:0:0:
64,192,726337,1,0,0:0:0:0:
192,192,727674,1,0,0:0:0:0:
448,192,729967,1,0,0:0:0:0:
192,192,730445,1,0,0:0:0:0:
320,192,730540,1,0,0:0:0:0:
192,192,730636,1,0,0:0:0:0:
320,192,730732,1,0,0:0:0:0:
448,192,730827,1,0,0:0:0:0:
320,192,730923,1,0,0:0:0:0:
192,192,730923,1,0,0:0:0:0:
64,192,731018,1,0,0:0:0:0:
448,192,731114,1,0,0:0:0:0:
192,192,731305,1,0,0:0:0:0:
64,192,732069,1,0,0:0:0:0:
320,192,732260,1,0,0:0:0:0:
64,192,732833,1,0,0:0:0:0:
320,192,732929,1,0,0:0:0:0:
448,192,733025,1,0,0:0:0:0:
320,192,733709,1,0,0:0:0:0:
320,192,733907,1,0,0:0:0:0:
320,192,734203,1,0,0:0:0:0:
192,192,734895,1,0,0:0:0:0:
448,192,736475,1,0,0:0:0:0:
64,192,738747,1,0,0:0:0:0:
320,192,738945,1,0,0:0:0:0:
448,192,739143,1,0,0:0:0:0:
192,192,740822,1,0,0:0:0:0:
192,192,741415,1,0,0:0:0:0:
192,192,742502,1,0,0:0:0:0:
320,192,742996,1,0,0:0:0:0:
448,192,744181,1,0,0:0:0:0:
448,192,744478,1,0,0:0:0:0:
64,192,744774,1,0,0:0:0:0:
192,192,745268,1,0,0:0:0:0:
64,192,745367,1,0,0:0:0:0:
64,192,745762,1,0,0:0:0:0:
64,192,746256,1,0,0:0:0:0:
192,192,746552,1,0,0:0:0:0:
192,192,746750,1,0,0:0:0:0:
320,192,747738,1,0,0:0:0:0:
192,192,749220,1,0,0:0:0:0:
192,192,749417,1,0,0:0:0:0:
320,192,752579,1,0,0:0:0:0:
448,192,752677,1,0,0:0:0:0:
64,192,752776,1,0,0:0:0:0:
320,192,753863,1,0,0:0:0:0:
192,192,754159,1,0,0:0:0:0:
64,192,754258,1,0,0:0:0:0:
192,192,754555,1,0,0:0:0:0:
64,192,755542,1,0,0:0:0:0:
448,192,757024,1,0,0:0:0:0:
448,192,758506,1,0,0:0:0:0:
448,192,759825,1,0,0:0:0:0:
64,192,760154,1,0,0:0:0:0:
192,192,760154,1,0,0:0:0:0:
192,192,761308,1,0,0:0:0:0:
192,192,762792,1,0,0:0:0:0:
320,192,762874,1,0,0:0:0:0:
64,192,763286,1,0,0:0:0:0:
320,192,763781,1,0,0:0:0:0:
64,192,765924,1,0,0:0:0:0:
320,192,768066,1,0,0:0:0:0:
192,192,769055,1,0,0:0:0:0:
192,192,772517,1,0,0:0:0:0:
64,192,773094,1,0,0:0:0:0:
192,192,773918,1,0,0:0:0:0:
448,192,774990,1,0,0:0:0:0:
320,192,774990,1,0,0:0:0:0:
448,192,775319,1,0,0:0:0:0:
64,192,775979,1,0,0:0:0:0:
64,192,776143,1,0,0:0:0:0:
320,192,776308,1,0,0:0:0:0:
448,192,776391,1,0,0:0:0:0:
192,192,776638,1,0,0:0:0:0:
192,192,777462,1,0,0:0:0:0:
192,192,777792,1,0,0:0:0:0:
192,192,777957,1,0,0:0:0:0:
320,192,778451,1,0,0:0:0:0:
320,192,779110,1,0,0:0:0:0:
192,192,779605,1,0,0:0:0:0:
320,192,779605,1,0,0:0:0:0:
192,192,779935,1,0,0:0:0:0:
64,192,780924,1,0,0:0:0:0:
448,192,781253,1,0,0:0:0:0:
192,192,781418,1,0,0:0:0:0:
64,192,782407,1,0,0:0:0:0:
448,192,782572,1,0,0:0:0:0:
320,192,782737,1,0,0:0:0:0:
448,192,782902,1,0,0:0:0:0:
320,192,783066,1,0,0:0:0:0:
192,192,783396,1,0,0:0:0:0:
64,192,783891,1,0,0:0:0:0:
448,192,784385,1,0,0:0:0:0:
64,192,784880,1,0,0:0:0:0:
192,192,784880,1,0,0:0:0:0:
192,192,785209,1,0,0:0:0:0:
64,192,785374,1,0,0:0:0:0:
448,192,785869,1,0,0:0:0:0:
64,192,786363,1,0,0:0:0:0:
448,192,786858,1,0,0:0:0:0:
64,192,787022,1,0,0:0:0:0:
64,192,788011,1,0,0:0:0:0:
192,192,788341,1,0,0:0:0:0:
448,192,789001,1,0,0:0:0:0:
64,192,789330,1,0,0:0:0:0:
192,192,789495,1,0,0:0:0:0:
64,192,790154,1,0,0:0:0:0:
320,192,790484,1,0,0:0:0:0:
192,192,790649,1,0,0:0:0:0:
64,192,791143,1,0,0:0:0:0:
320,192,791308,1,0,0:0:0:0:
448,192,791391,1,0,0:0:0:0:
64,192,791638,1,0,0:0:0:0:
64,192,792132,1,0,0:0:0:0:
192,192,792215,1,0,0:0:0:0:
64,192,792297,1,0,0:0:0:0:
192,192,792792,1,0,0:0:0:0:
64,192,793204,1,0,0:0:0:0:
448,192,793286,1,0,0:0:0:0:
192,192,793451,1,0,0:0:0:0:
192,192,793616,1,0,0:0:0:0:
64,192,795429,1,0,0:0:0:0:
448,192,795759,1,0,0:0:0:0:
448,192,796088,1,0,0:0:0:0:
64,192,796418,1,0,0:0:0:0:
320,192,796501,1,0,0:0:0:0:
64,192,796583,1,0,0:0:0:0:
448,192,796913,1,0,0:0:0:0:
192,192,797077,1,0,0:0:0:0:
192,192,797407,1,0,0:0:0:0:
64,192,797572,1,0,0:0:0:0:
320,192,797737,1,0,0:0:0:0:
64,192,798561,1,0,0:0:0:0:
64,192,800374,1,0,0:0:0:0:
64,192,800704,1,0,0:0:0:0:
320,192,800704,1,0,0:0:0:0:
448,192,800786,1,0,0:0:0:0:
192,192,800869,1,0,0:0:0:0:
320,192,801033,1,0,0:0:0:0:
448,192,801281,1,0,0:0:0:0:
320,192,801363,1,0,0:0:0:0:
64,192,801446,1,0,0:0:0:0:
192,192,801610,1,0,0:0:0:0:
448,192,801693,1,0,0:0:0:0:
320,192,801775,1,0,0:0:0:0:
64,192,801940,1,0,0:0:0:0:
320,192,802022,1,0,0:0:0:0:
448,192,802105,1,0,0:0:0:0:
64,192,802270,1,0,0:0:0:0:
64,192,802682,1,0,0:0:0:0:
64,192,802847,1,0,0:0:0:0:
448,192,802847,1,0,0:0:0:0:
320,192,802929,1,0,0:0:0:0:
64,192,803011,1,0,0:0:0:0:
320,192,803506,1,0,0:0:0:0:
64,192,803836,1,0,0:0:0:0:
448,192,803918,1,0,0:0:0:0:
192,192,804001,1,0,0:0:0:0:
320,192,804248,1,0,0:0:0:0:
448,192,804330,1,0,0:0:0:0:
320,192,804742,1,0,0:0:0:0:
64,192,804825,1,0,0:0:0:0:
64,192,804990,1,0,0:0:0:0:
64,192,805154,1,0,0:0:0:0:
448,192,805319,1,0,0:0:0:0:
192,192,806308,1,0,0:0:0:0:
320,192,806638,1,0,0:0:0:0:
64,192,806638,1,0,0:0:0:0:
64,192,806968,1,0,0:0:0:0:
448,192,807297,1,0,0:0:0:0:
192,192,807380,1,0,0:0:0:0:
192,192,808121,1,0,0:0:0:0:
192,192,808286,1,0,0:0:0:0:
64,192,808369,1,0,0:0:0:0:
64,192,808616,1,0,0:0:0:0:
448,192,808698,1,0,0:0:0:0:
192,192,808781,1,0,0:0:0:0:
320,192,808863,1,0,0:0:0:0:
192,192,809110,1,0,0:0:0:0:
448,192,809275,1,0,0:0:0:0:
448,192,809605,1,0,0:0:0:0:
320,192,809605,1,0,0:0:0:0:
320,192,809770,1,0,0:0:0:0:
64,192,810099,1,0,0:0:0:0:
448,192,810264,1,0,0:0:0:0:
320,192,810429,1,0,0:0:0:0:
320,192,810759,1,0,0:0:0:0:
192,192,811088,1,0,0:0:0:0:
448,192,811253,1,0,0:0:0:0:
320,192,811418,1,0,0:0:0:0:
64,192,811501,1,0,0:0:0:0:
64,192,811665,1,0,0:0:0:0:
320,192,811748,1,0,0:0:0:0:
320,192,811995,1,0,0:0:0:0:
192,192,811995,1,0,0:0:0:0:
448,192,812077,1,0,0:0:0:0:
192,192,812160,1,0,0:0:0:0:
320,192,812242,1,0,0:0:0:0:
64,192,812325,1,0,0:0:0:0:
320,192,812407,1,0,0:0:0:0:
448,192,812490,1,0,0:0:0:0:
192,192,812572,1,0,0:0:0:0:
320,192,812654,1,0,0:0:0:0:
64,192,812737,1,0,0:0:0:0:
448,192,813066,1,0,0:0:0:0:
320,192,813231,1,0,0:0:0:0:
64,192,813396,1,0,0:0:0:0:
320,192,813479,1,0,0:0:0:0:
448,192,813561,1,0,0:0:0:0:
448,192,813891,1,0,0:0:0:0:
320,192,814385,1,0,0:0:0:0:
448,192,814880,1,0,0:0:0:0:
448,192,815209,1,0,0:0:0:0:
64,192,815292,1,0,0:0:0:0:
320,192,815621,1,0,0:0:0:0:
192,192,815704,1,0,0:0:0:0:
64,192,816033,1,0,0:0:0:0:
320,192,817022,1,0,0:0:0:0:
192,192,817105,1,0,0:0:0:0:
64,192,817435,1,0,0:0:0:0:
192,192,817517,1,0,0:0:0:0:
320,192,817682,1,0,0:0:0:0:
64,192,817847,1,0,0:0:0:0:
192,192,818341,1,0,0:0:0:0:
320,192,818506,1,0,0:0:0:0:
64,192,818836,1,0,0:0:0:0:
64,192,819083,1,0,0:0:0:0:
192,192,819165,1,0,0:0:0:0:
192,192,819660,1,0,0:0:0:0:
320,192,820154,1,0,0:0:0:0:
320,192,820402,1,0,0:0:0:0:
448,192,820566,1,0,0:0:0:0:
192,192,820649,1,0,0:0:0:0:
448,192,820979,1,0,0:0:0:0:
64,192,821143,1,0,0:0:0:0:
320,192,821473,1,0,0:0:0:0:
64,192,822462,1,0,0:0:0:0:
320,192,822544,1,0,0:0:0:0:
448,192,822709,1,0,0:0:0:0:
192,192,822792,1,0,0:0:0:0:
448,192,822874,1,0,0:0:0:0:
64,192,822957,1,0,0:0:0:0:
320,192,823039,1,0,0:0:0:0:
448,192,823121,1,0,0:0:0:0:
64,192,823204,1,0,0:0:0:0:
320,192,823369,1,0,0:0:0:0:
192,192,823781,1,0,0:0:0:0:
320,192,823946,1,0,0:0:0:0:
64,192,824028,1,0,0:0:0:0:
448,192,824605,1,0,0:0:0:0:
448,192,824770,1,0,0:0:0:0:
320,192,824935,1,0,0:0:0:0:
192,192,825099,1,0,0:0:0:0:
192,192,825347,1,0,0:0:0:0:
64,192,825429,1,0,0:0:0:0:
448,192,825594,1,0,0:0:0:0:
64,192,826006,1,0,0:0:0:0:
192,192,826088,1,0,0:0:0:0:
320,192,826171,1,0,0:0:0:0:
64,192,826501,1,0,0:0:0:0:
448,192,826583,1,0,0:0:0:0:
448,192,827077,1,0,0:0:0:0:
448,192,827737,1,0,0:0:0:0:
192,192,827902,1,0,0:0:0:0:
64,192,828231,1,0,0:0:0:0:
64,192,828396,1,0,0:0:0:0:
448,192,828726,1,0,0:0:0:0:
448,192,829220,1,0,0:0:0:0:
64,192,829385,1,0,0:0:0:0:
448,192,829715,1,0,0:0:0:0:
320,192,829880,1,0,0:0:0:0:
192,192,830209,1,0,0:0:0:0:
320,192,830374,1,0,0:0:0:0:
64,192,830704,1,0,0:0:0:0:
192,192,830869,1,0,0:0:0:0:
64,192,831198,1,0,0:0:0:0:
192,192,831858,1,0,0:0:0:0:
320,192,832187,1,0,0:0:0:0:
192,192,832352,1,0,0:0:0:0:
64,192,832517,1,0,0:0:0:0:
448,192,832599,1,0,0:0:0:0:
64,192,832764,1,0,0:0:0:0:
64,192,832929,1,0,0:0:0:0:
192,192,833011,1,0,0:0:0:0:
320,192,833094,1,0,0:0:0:0:
64,192,833259,1,0,0:0:0:0:
448,192,833341,1,0,0:0:0:0:
192,192,833424,1,0,0:0:0:0:
320,192,833506,1,0,0:0:0:0:
448,192,833588,1,0,0:0:0:0:
192,192,833671,1,0,0:0:0:0:
64,192,833753,1,0,0:0:0:0:
320,192,833836,1,0,0:0:0:0:
64,192,833918,1,0,0:0:0:0:
448,192,834330,1,0,0:0:0:0:
448,192,834495,1,0,0:0:0:0:
192,192,834577,1,0,0:0:0:0:
64,192,834990,1,0,0:0:0:0:
192,192,835154,1,0,0:0:0:0:
448,192,835402,1,0,0:0:0:0:
320,192,835484,1,0,0:0:0:0:
320,192,836308,1,0,0:0:0:0:
192,192,838286,1,0,0:0:0:0:
192,192,838533,1,0,0:0:0:0:
64,192,838946,1,0,0:0:0:0:
64,192,839935,1,0,0:0:0:0:
192,192,840099,1,0,0:0:0:0:
192,192,840264,1,0,0:0:0:0:
320,192,841501,1,0,0:0:0:0:
64,192,841665,1,0,0:0:0:0:
64,192,842077,1,0,0:0:0:0:
448,192,842407,1,0,0:0:0:0:
64,192,842572,1,0,0:0:0:0:
448,192,842737,1,0,0:0:0:0:
64,192,842902,1,0,0:0:0:0:
192,192,842984,1,0,0:0:0:0:
64,192,843066,1,0,0:0:0:0:
448,192,844220,1,0,0:0:0:0:
64,192,844220,1,0,0:0:0:0:
320,192,844550,1,0,0:0:0:0:
448,192,844797,1,0,0:0:0:0:
320,192,845044,1,0,0:0:0:0:
64,192,845127,1,0,0:0:0:0:
320,192,845539,1,0,0:0:0:0:
192,192,845621,1,0,0:0:0:0:
320,192,845951,1,0,0:0:0:0:
192,192,846198,1,0,0:0:0:0:
64,192,846281,1,0,0:0:0:0:
448,192,846446,1,0,0:0:0:0:
448,192,846858,1,0,0:0:0:0:
192,192,846858,1,0,0:0:0:0:
192,192,847352,1,0,0:0:0:0:
320,192,847847,1,0,0:0:0:0:
448,192,847929,1,0,0:0:0:0:
320,192,848176,1,0,0:0:0:0:
192,192,848918,1,0,0:0:0:0:
320,192,849001,1,0,0:0:0:0:
64,192,849495,1,0,0:0:0:0:
192,192,850319,1,0,0:0:0:0:
448,192,850402,1,0,0:0:0:0:
448,192,850814,1,0,0:0:0:0:
320,192,850896,1,0,0:0:0:0:
192,192,851143,1,0,0:0:0:0:
64,192,851226,1,0,0:0:0:0:
192,192,851473,1,0,0:0:0:0:
192,192,851638,1,0,0:0:0:0:
320,192,851720,1,0,0:0:0:0:
64,192,852132,1,0,0:0:0:0:
320,192,852462,1,0,0:0:0:0:
448,192,852544,1,0,0:0:0:0:
320,192,852627,1,0,0:0:0:0:
64,192,852874,1,0,0:0:0:0:
192,192,852957,1,0,0:0:0:0:
64,192,853039,1,0,0:0:0:0:
448,192,853121,1,0,0:0:0:0:
320,192,853286,1,0,0:0:0:0:
64,192,853369,1,0,0:0:0:0:
64,192,853616,1,0,0:0:0:0:
192,192,853698,1,0,0:0:0:0:
64,192,854193,1,0,0:0:0:0:
448,192,854770,1,0,0:0:0:0:
320,192,855017,1,0,0:0:0:0:
448,192,855099,1,0,0:0:0:0:
192,192,855429,1,0,0:0:0:0:
320,192,855594,1,0,0:0:0:0:
192,192,856088,1,0,0:0:0:0:
448,192,856171,1,0,0:0:0:0:
192,192,856253,1,0,0:0:0:0:
448,192,856501,1,0,0:0:0:0:
64,192,856748,1,0,0:0:0:0:
192,192,856830,1,0,0:0:0:0:
448,192,857407,1,0,0:0:0:0:
192,192,857407,1,0,0:0:0:0:
320,192,857490,1,0,0:0:0:0:
320,192,857654,1,0,0:0:0:0:
320,192,858066,1,0,0:0:0:0:
192,192,858149,1,0,0:0:0:0:
64,192,858231,1,0,0:0:0:0:
320,192,858314,1,0,0:0:0:0:
192,192,858396,1,0,0:0:0:0:
448,192,858891,1,0,0:0:0:0:
64,192,859385,1,0,0:0:0:0:
64,192,859550,1,0,0:0:0:0:
448,192,859715,1,0,0:0:0:0:
448,192,859880,1,0,0:0:0:0:
64,192,860044,1,0,0:0:0:0:
192,192,860127,1,0,0:0:0:0:
320,192,860374,1,0,0:0:0:0:
320,192,860704,1,0,0:0:0:0:
64,192,860786,1,0,0:0:0:0:
448,192,860869,1,0,0:0:0:0:
64,192,860951,1,0,0:0:0:0:
64,192,861528,1,0,0:0:0:0:
320,192,861858,1,0,0:0:0:0:
320,192,862022,1,0,0:0:0:0:
192,192,862270,1,0,0:0:0:0:
320,192,862352,1,0,0:0:0:0:
64,192,862682,1,0,0:0:0:0:
64,192,863011,1,0,0:0:0:0:
192,192,863176,1,0,0:0:0:0:
192,192,863506,1,0,0:0:0:0:
320,192,863588,1,0,0:0:0:0:
64,192,863671,1,0,0:0:0:0:
64,192,863918,1,0,0:0:0:0:
320,192,864001,1,0,0:0:0:0:
320,192,864330,1,0,0:0:0:0:
64,192,864495,1,0,0:0:0:0:
64,192,864660,1,0,0:0:0:0:
64,192,864825,1,0,0:0:0:0:
64,192,864990,1,0,0:0:0:0:
64,192,865154,1,0,0:0:0:0:
320,192,865319,1,0,0:0:0:0:
192,192,865649,1,0,0:0:0:0:
64,192,865649,1,0,0:0:0:0:
64,192,865814,1,0,0:0:0:0:
448,192,866143,1,0,0:0:0:0:
192,192,866308,1,0,0:0:0:0:
448,192,866473,1,0,0:0:0:0:
64,192,866638,1,0,0:0:0:0:
192,192,866885,1,0,0:0:0:0:
448,192,866968,1,0,0:0:0:0:
64,192,867132,1,0,0:0:0:0:
192,192,867297,1,0,0:0:0:0:
64,192,867462,1,0,0:0:0:0:
448,192,867627,1,0,0:0:0:0:
192,192,867792,1,0,0:0:0:0:
320,192,867957,1,0,0:0:0:0:
448,192,868121,1,0,0:0:0:0:
320,192,868286,1,0,0:0:0:0:
192,192,868616,1,0,0:0:0:0:
64,192,868781,1,0,0:0:0:0:
320,192,869110,1,0,0:0:0:0:
448,192,869275,1,0,0:0:0:0:
64,192,869275,1,0,0:0:0:0:
64,192,869440,1,0,0:0:0:0:
320,192,869605,1,0,0:0:0:0:
192,192,869770,1,0,0:0:0:0:
448,192,869935,1,0,0:0:0:0:
320,192,870017,1,0,0:0:0:0:
192,192,870264,1,0,0:0:0:0:
448,192,870429,1,0,0:0:0:0:
64,192,870594,1,0,0:0:0:0:
320,192,870924,1,0,0:0:0:0:
448,192,871006,1,0,0:0:0:0:
192,192,871088,1,0,0:0:0:0:
64,192,871253,1,0,0:0:0:0:
192,192,871418,1,0,0:0:0:0:
192,192,871583,1,0,0:0:0:0:
64,192,871748,1,0,0:0:0:0:
448,192,871913,1,0,0:0:0:0:
64,192,872077,1,0,0:0:0:0:
448,192,872242,1,0,0:0:0:0:
448,192,872407,1,0,0:0:0:0:
192,192,872572,1,0,0:0:0:0:
320,192,872737,1,0,0:0:0:0:
192,192,873066,1,0,0:0:0:0:
320,192,873066,1,0,0:0:0:0:
192,192,873231,1,0,0:0:0:0:
320,192,873314,1,0,0:0:0:0:
448,192,873396,1,0,0:0:0:0:
448,192,873561,1,0,0:0:0:0:
448,192,873726,1,0,0:0:0:0:
320,192,873891,1,0,0:0:0:0:
448,192,874055,1,0,0:0:0:0:
448,192,874303,1,0,0:0:0:0:
192,192,874385,1,0,0:0:0:0:
64,192,874385,1,0,0:0:0:0:
64,192,874550,1,0,0:0:0:0:
192,192,874632,1,0,0:0:0:0:
320,192,874880,1,0,0:0:0:0:
320,192,875044,1,0,0:0:0:0:
448,192,875374,1,0,0:0:0:0:
448,192,875539,1,0,0:0:0:0:
192,192,875704,1,0,0:0:0:0:
64,192,875869,1,0,0:0:0:0:
64,192,876198,1,0,0:0:0:0:
192,192,876363,1,0,0:0:0:0:
64,192,876528,1,0,0:0:0:0:
320,192,876693,1,0,0:0:0:0:
320,192,876858,1,0,0:0:0:0:
192,192,877022,1,0,0:0:0:0:
448,192,877187,1,0,0:0:0:0:
192,192,877270,1,0,0:0:0:0:
64,192,877352,1,0,0:0:0:0:
320,192,877352,1,0,0:0:0:0:
192,192,877435,1,0,0:0:0:0:
64,192,877682,1,0,0:0:0:0:
320,192,877764,1,0,0:0:0:0:
192,192,877847,1,0,0:0:0:0:
64,192,877847,1,0,0:0:0:0:
64,192,878011,1,0,0:0:0:0:
320,192,878094,1,0,0:0:0:0:
64,192,878176,1,0,0:0:0:0:
320,192,878341,1,0,0:0:0:0:
64,192,878341,1,0,0:0:0:0:
320,192,878506,1,0,0:0:0:0:
192,192,878588,1,0,0:0:0:0:
64,192,878671,1,0,0:0:0:0:
192,192,878836,1,0,0:0:0:0:
448,192,879165,1,0,0:0:0:0:
320,192,879330,1,0,0:0:0:0:
448,192,879660,1,0,0:0:0:0:
64,192,879660,1,0,0:0:0:0:
320,192,879825,1,0,0:0:0:0:
64,192,879825,1,0,0:0:0:0:
320,192,879990,1,0,0:0:0:0:
192,192,880072,1,0,0:0:0:0:
64,192,880154,1,0,0:0:0:0:
192,192,880402,1,0,0:0:0:0:
448,192,880484,1,0,0:0:0:0:
320,192,880566,1,0,0:0:0:0:
64,192,880649,1,0,0:0:0:0:
192,192,880731,1,0,0:0:0:0:
448,192,880814,1,0,0:0:0:0:
320,192,880896,1,0,0:0:0:0:
192,192,880979,1,0,0:0:0:0:
64,192,881061,1,0,0:0:0:0:
448,192,881143,1,0,0:0:0:0:
192,192,881226,1,0,0:0:0:0:
64,192,881391,1,0,0:0:0:0:
192,192,881473,1,0,0:0:0:0:
192,192,881803,1,0,0:0:0:0:
320,192,881968,1,0,0:0:0:0:
448,192,882132,1,0,0:0:0:0:
320,192,882297,1,0,0:0:0:0:
192,192,882627,1,0,0:0:0:0:
64,192,882709,1,0,0:0:0:0:
320,192,882957,1,0,0:0:0:0:
192,192,883121,1,0,0:0:0:0:
320,192,883286,1,0,0:0:0:0:
320,192,883451,1,0,0:0:0:0:
64,192,883616,1,0,0:0:0:0:
64,192,883781,1,0,0:0:0:0:
320,192,883863,1,0,0:0:0:0:
448,192,883946,1,0,0:0:0:0:
192,192,884110,1,0,0:0:0:0:
192,192,884275,1,0,0:0:0:0:
64,192,884440,1,0,0:0:0:0:
320,192,884770,1,0,0:0:0:0:
64,192,884852,1,0,0:0:0:0:
192,192,884935,1,0,0:0:0:0:
320,192,884935,1,0,0:0:0:0:
448,192,885099,1,0,0:0:0:0:
192,192,885264,1,0,0:0:0:0:
320,192,885429,1,0,0:0:0:0:
192,192,885594,1,0,0:0:0:0:
192,192,885759,1,0,0:0:0:0:
320,192,885924,1,0,0:0:0:0:
448,192,886088,1,0,0:0:0:0:
320,192,886253,1,0,0:0:0:0:
448,192,886418,1,0,0:0:0:0:
64,192,886501,1,0,0:0:0:0:
448,192,886748,1,0,0:0:0:0:
320,192,886913,1,0,0:0:0:0:
192,192,886995,1,0,0:0:0:0:
320,192,887077,1,0,0:0:0:0:
448,192,887242,1,0,0:0:0:0:
320,192,887407,1,0,0:0:0:0:
192,192,887490,1,0,0:0:0:0:
448,192,887490,1,0,0:0:0:0:
64,192,887572,1,0,0:0:0:0:
320,192,887737,1,0,0:0:0:0:
320,192,887902,1,0,0:0:0:0:
192,192,887902,1,0,0:0:0:0:
64,192,887984,1,0,0:0:0:0:
320,192,888066,1,0,0:0:0:0:
448,192,888066,1,0,0:0:0:0:
64,192,888231,1,0,0:0:0:0:
64,192,888396,1,0,0:0:0:0:
320,192,888396,1,0,0:0:0:0:
192,192,888561,1,0,0:0:0:0:
448,192,888643,1,0,0:0:0:0:
320,192,888726,1,0,0:0:0:0:
64,192,888891,1,0,0:0:0:0:
192,192,888973,1,0,0:0:0:0:
448,192,889055,1,0,0:0:0:0:
448,192,889220,1,0,0:0:0:0:
320,192,889220,1,0,0:0:0:0:
448,192,889385,1,0,0:0:0:0:
192,192,889468,1,0,0:0:0:0:
320,192,889550,1,0,0:0:0:0:
448,192,889715,1,0,0:0:0:0:
320,192,889880,1,0,0:0:0:0:
192,192,890044,1,0,0:0:0:0:
192,192,890209,1,0,0:0:0:0:
448,192,890374,1,0,0:0:0:0:
192,192,890374,1,0,0:0:0:0:
320,192,890704,1,0,0:0:0:0:
320,192,890869,1,0,0:0:0:0:
320,192,891033,1,0,0:0:0:0:
64,192,891198,1,0,0:0:0:0:
320,192,891281,1,0,0:0:0:0:
192,192,891281,1,0,0:0:0:0:
448,192,891363,1,0,0:0:0:0:
192,192,891528,1,0,0:0:0:0:
448,192,891610,1,0,0:0:0:0:
320,192,891693,1,0,0:0:0:0:
192,192,892022,1,0,0:0:0:0:
320,192,892105,1,0,0:0:0:0:
64,192,892187,1,0,0:0:0:0:
448,192,892270,1,0,0:0:0:0:
64,192,892352,1,0,0:0:0:0:
320,192,892517,1,0,0:0:0:0:
192,192,892682,1,0,0:0:0:0:
320,192,892764,1,0,0:0:0:0:
192,192,892847,1,0,0:0:0:0:
192,192,893011,1,0,0:0:0:0:
448,192,893176,1,0,0:0:0:0:
192,192,893259,1,0,0:0:0:0:
448,192,893341,1,0,0:0:0:0:
448,192,893506,1,0,0:0:0:0:
64,192,893671,1,0,0:0:0:0:
448,192,893836,1,0,0:0:0:0:
320,192,894001,1,0,0:0:0:0:
192,192,894083,1,0,0:0:0:0:
64,192,894165,1,0,0:0:0:0:
192,192,894248,1,0,0:0:0:0:
320,192,894248,1,0,0:0:0:0:
64,192,894330,1,0,0:0:0:0:
320,192,894495,1,0,0:0:0:0:
448,192,894660,1,0,0:0:0:0:
448,192,894825,1,0,0:0:0:0:
192,192,894990,1,0,0:0:0:0:
192,192,895154,1,0,0:0:0:0:
64,192,895402,1,0,0:0:0:0:
320,192,895484,1,0,0:0:0:0:
192,192,895566,1,0,0:0:0:0:
320,192,895649,1,0,0:0:0:0:
64,192,895649,1,0,0:0:0:0:
320,192,897297,1,0,0:0:0:0:
320,192,898286,1,0,0:0:0:0:
64,192,898451,1,0,0:0:0:0:
448,192,898533,1,0,0:0:0:0:
64,192,898616,1,0,0:0:0:0:
320,192,898781,1,0,0:0:0:0:
64,192,898946,1,0,0:0:0:0:
192,192,899193,1,0,0:0:0:0:
64,192,899275,1,0,0:0:0:0:
192,192,899605,1,0,0:0:0:0:
320,192,899687,1,0,0:0:0:0:
192,192,899770,1,0,0:0:0:0:
64,192,899852,1,0,0:0:0:0:
448,192,899935,1,0,0:0:0:0:
64,192,900099,1,0,0:0:0:0:
192,192,900264,1,0,0:0:0:0:
448,192,900347,1,0,0:0:0:0:
192,192,900429,1,0,0:0:0:0:
64,192,900511,1,0,0:0:0:0:
64,192,900676,1,0,0:0:0:0:
448,192,900759,1,0,0:0:0:0:
192,192,900841,1,0,0:0:0:0:
448,192,901006,1,0,0:0:0:0:
320,192,901088,1,0,0:0:0:0:
64,192,901171,1,0,0:0:0:0:
192,192,901583,1,0,0:0:0:0:
192,192,901830,1,0,0:0:0:0:
64,192,902077,1,0,0:0:0:0:
64,192,902242,1,0,0:0:0:0:
192,192,902737,1,0,0:0:0:0:
64,192,903149,1,0,0:0:0:0:
320,192,903231,1,0,0:0:0:0:
64,192,903314,1,0,0:0:0:0:
320,192,903561,1,0,0:0:0:0:
320,192,903891,1,0,0:0:0:0:
64,192,903973,1,0,0:0:0:0:
64,192,904715,1,0,0:0:0:0:
192,192,904797,1,0,0:0:0:0:
320,192,904880,1,0,0:0:0:0:
64,192,904962,1,0,0:0:0:0:
192,192,905127,1,0,0:0:0:0:
448,192,905292,1,0,0:0:0:0:
320,192,905374,1,0,0:0:0:0:
64,192,905539,1,0,0:0:0:0:
448,192,905704,1,0,0:0:0:0:
192,192,905786,1,0,0:0:0:0:
448,192,905951,1,0,0:0:0:0:
448,192,906198,1,0,0:0:0:0:
64,192,906528,1,0,0:0:0:0:
64,192,906693,1,0,0:0:0:0:
320,192,906858,1,0,0:0:0:0:
320,192,907187,1,0,0:0:0:0:
192,192,907187,1,0,0:0:0:0:
320,192,907435,1,0,0:0:0:0:
192,192,907764,1,0,0:0:0:0:
192,192,908011,1,0,0:0:0:0:
64,192,908341,1,0,0:0:0:0:
64,192,908506,1,0,0:0:0:0:
320,192,908506,1,0,0:0:0:0:
448,192,908753,1,0,0:0:0:0:
192,192,909001,1,0,0:0:0:0:
64,192,909330,1,0,0:0:0:0:
192,192,909495,1,0,0:0:0:0:
64,192,909825,1,0,0:0:0:0:
320,192,909825,1,0,0:0:0:0:
448,192,910402,1,0,0:0:0:0:
320,192,910484,1,0,0:0:0:0:
64,192,910814,1,0,0:0:0:0:
64,192,910979,1,0,0:0:0:0:
320,192,911308,1,0,0:0:0:0:
320,192,911968,1,0,0:0:0:0:
64,192,912462,1,0,0:0:0:0:
192,192,912462,1,0,0:0:0:0:
320,192,913039,1,0,0:0:0:0:
64,192,913286,1,0,0:0:0:0:
448,192,913616,1,0,0:0:0:0:
192,192,913698,1,0,0:0:0:0:
448,192,913781,1,0,0:0:0:0:
64,192,913781,1,0,0:0:0:0:
192,192,914028,1,0,0:0:0:0:
320,192,914110,1,0,0:0:0:0:
320,192,914275,1,0,0:0:0:0:
448,192,914605,1,0,0:0:0:0:
448,192,915099,1,0,0:0:0:0:
320,192,915264,1,0,0:0:0:0:
192,192,915347,1,0,0:0:0:0:
320,192,915429,1,0,0:0:0:0:
64,192,915594,1,0,0:0:0:0:
448,192,915676,1,0,0:0:0:0:
64,192,915759,1,0,0:0:0:0:
448,192,916088,1,0,0:0:0:0:
448,192,916253,1,0,0:0:0:0:
448,192,916583,1,0,0:0:0:0:
192,192,916748,1,0,0:0:0:0:
64,192,917077,1,0,0:0:0:0:
192,192,917077,1,0,0:0:0:0:
64,192,917242,1,0,0:0:0:0:
320,192,917572,1,0,0:0:0:0:
320,192,918066,1,0,0:0:0:0:
64,192,918561,1,0,0:0:0:0:
192,192,918891,1,0,0:0:0:0:
448,192,918973,1,0,0:0:0:0:
64,192,919055,1,0,0:0:0:0:
320,192,919055,1,0,0:0:0:0:
192,192,919055,1,0,0:0:0:0:
448,192,919550,1,0,0:0:0:0:
448,192,919880,1,0,0:0:0:0:
64,192,920044,1,0,0:0:0:0:
320,192,920044,1,0,0:0:0:0:
192,192,920209,1,0,0:0:0:0:
320,192,920292,1,0,0:0:0:0:
320,192,920539,1,0,0:0:0:0:
192,192,920539,1,0,0:0:0:0:
64,192,920704,1,0,0:0:0:0:
320,192,920786,1,0,0:0:0:0:
448,192,920869,1,0,0:0:0:0:
64,192,920869,1,0,0:0:0:0:
448,192,921033,1,0,0:0:0:0:
64,192,921363,1,0,0:0:0:0:
64,192,921858,1,0,0:0:0:0:
448,192,921858,1,0,0:0:0:0:
320,192,922022,1,0,0:0:0:0:
192,192,922517,1,0,0:0:0:0:
64,192,922929,1,0,0:0:0:0:
320,192,923011,1,0,0:0:0:0:
448,192,923011,1,0,0:0:0:0:
448,192,923259,1,0,0:0:0:0:
192,192,923341,1,0,0:0:0:0:
192,192,923506,1,0,0:0:0:0:
320,192,923588,1,0,0:0:0:0:
320,192,923753,1,0,0:0:0:0:
64,192,924001,1,0,0:0:0:0:
320,192,924001,1,0,0:0:0:0:
448,192,924330,1,0,0:0:0:0:
192,192,924330,1,0,0:0:0:0:
64,192,924577,1,0,0:0:0:0:
192,192,924660,1,0,0:0:0:0:
192,192,924990,1,0,0:0:0:0:
320,192,925319,1,0,0:0:0:0:
448,192,925484,1,0,0:0:0:0:
320,192,925649,1,0,0:0:0:0:
64,192,925649,1,0,0:0:0:0:
192,192,925896,1,0,0:0:0:0:
448,192,926143,1,0,0:0:0:0:
448,192,926308,1,0,0:0:0:0:
64,192,926473,1,0,0:0:0:0:
448,192,926555,1,0,0:0:0:0:
320,192,926638,1,0,0:0:0:0:
192,192,926638,1,0,0:0:0:0:
64,192,927132,1,0,0:0:0:0:
64,192,927709,1,0,0:0:0:0:
64,192,927957,1,0,0:0:0:0:
192,192,928286,1,0,0:0:0:0:
320,192,928946,1,0,0:0:0:0:
192,192,929275,1,0,0:0:0:0:
64,192,929275,1,0,0:0:0:0:
192,192,929440,1,0,0:0:0:0:
448,192,929605,1,0,0:0:0:0:
448,192,929770,1,0,0:0:0:0:
320,192,930594,1,0,0:0:0:0:
192,192,930759,1,0,0:0:0:0:
448,192,930924,1,0,0:0:0:0:
320,192,931006,1,0,0:0:0:0:
320,192,931253,1,0,0:0:0:0:
320,192,931913,1,0,0:0:0:0:
64,192,932325,1,0,0:0:0:0:
448,192,932407,1,0,0:0:0:0:
320,192,932407,1,0,0:0:0:0:
320,192,933231,1,0,0:0:0:0:
192,192,933231,1,0,0:0:0:0:
320,192,933561,1,0,0:0:0:0:
448,192,933643,1,0,0:0:0:0:
448,192,933891,1,0,0:0:0:0:
192,192,933973,1,0,0:0:0:0:
192,192,934220,1,0,0:0:0:0:
448,192,934550,1,0,0:0:0:0:
448,192,934715,1,0,0:0:0:0:
320,192,934880,1,0,0:0:0:0:
448,192,934962,1,0,0:0:0:0:
64,192,935044,1,0,0:0:0:0:
192,192,935044,1,0,0:0:0:0:
64,192,935869,1,0,0:0:0:0:
448,192,935869,1,0,0:0:0:0:
192,192,935951,1,0,0:0:0:0:
320,192,936033,1,0,0:0:0:0:
192,192,936116,1,0,0:0:0:0:
448,192,936198,1,0,0:0:0:0:
64,192,936281,1,0,0:0:0:0:
320,192,936610,1,0,0:0:0:0:
192,192,936858,1,0,0:0:0:0:
64,192,937187,1,0,0:0:0:0:
320,192,937352,1,0,0:0:0:0:
320,192,937517,1,0,0:0:0:0:
192,192,937599,1,0,0:0:0:0:
320,192,937682,1,0,0:0:0:0:
320,192,937847,1,0,0:0:0:0:
64,192,938094,1,0,0:0:0:0:
192,192,938259,1,0,0:0:0:0:
64,192,938506,1,0,0:0:0:0:
192,192,938506,1,0,0:0:0:0:
448,192,939165,1,0,0:0:0:0:
320,192,939248,1,0,0:0:0:0:
320,192,939495,1,0,0:0:0:0:
448,192,939495,1,0,0:0:0:0:
448,192,939825,1,0,0:0:0:0:
64,192,939990,1,0,0:0:0:0:
192,192,940319,1,0,0:0:0:0:
320,192,940319,1,0,0:0:0:0:
320,192,940649,1,0,0:0:0:0:
192,192,941143,1,0,0:0:0:0:
64,192,941473,1,0,0:0:0:0:
320,192,941720,1,0,0:0:0:0:
192,192,942215,1,0,0:0:0:0:
320,192,942462,1,0,0:0:0:0:
192,192,942462,1,0,0:0:0:0:
64,192,942874,1,0,0:0:0:0:
448,192,942957,1,0,0:0:0:0:
192,192,942957,1,0,0:0:0:0:
320,192,943698,1,0,0:0:0:0:
192,192,943781,1,0,0:0:0:0:
192,192,944110,1,0,0:0:0:0:
320,192,944110,1,0,0:0:0:0:
64,192,944193,1,0,0:0:0:0:
64,192,944440,1,0,0:0:0:0:
64,192,944770,1,0,0:0:0:0:
64,192,945099,1,0,0:0:0:0:
192,192,945264,1,0,0:0:0:0:
64,192,945429,1,0,0:0:0:0:
320,192,945511,1,0,0:0:0:0:
192,192,945594,1,0,0:0:0:0:
64,192,945594,1,0,0:0:0:0:
448,192,945924,1,0,0:0:0:0:
192,192,946006,1,0,0:0:0:0:
192,192,946418,1,0,0:0:0:0:
64,192,946583,1,0,0:0:0:0:
192,192,946583,1,0,0:0:0:0:
320,192,946748,1,0,0:0:0:0:
192,192,946748,1,0,0:0:0:0:
448,192,946830,1,0,0:0:0:0:
320,192,946995,1,0,0:0:0:0:
448,192,947160,1,0,0:0:0:0:
448,192,947407,1,0,0:0:0:0:
320,192,947902,1,0,0:0:0:0:
64,192,948066,1,0,0:0:0:0:
320,192,948066,1,0,0:0:0:0:
192,192,948149,1,0,0:0:0:0:
320,192,948314,1,0,0:0:0:0:
64,192,948396,1,0,0:0:0:0:
192,192,949055,1,0,0:0:0:0:
320,192,949715,1,0,0:0:0:0:
64,192,950044,1,0,0:0:0:0:
64,192,950539,1,0,0:0:0:0:
192,192,951033,1,0,0:0:0:0:
192,192,951528,1,0,0:0:0:0:
448,192,951858,1,0,0:0:0:0:
448,192,952682,1,0,0:0:0:0:
448,192,953011,1,0,0:0:0:0:
192,192,953671,1,0,0:0:0:0:
192,192,954165,1,0,0:0:0:0:
320,192,954330,1,0,0:0:0:0:
192,192,954495,1,0,0:0:0:0:
64,192,954577,1,0,0:0:0:0:
192,192,954660,1,0,0:0:0:0:
448,192,954660,1,0,0:0:0:0:
448,192,954990,1,0,0:0:0:0:
192,192,954990,1,0,0:0:0:0:
64,192,955319,1,0,0:0:0:0:
320,192,955319,1,0,0:0:0:0:
448,192,955649,1,0,0:0:0:0:
448,192,955979,1,0,0:0:0:0:
448,192,956308,1,0,0:0:0:0:
448,192,956473,1,0,0:0:0:0:
448,192,957132,1,0,0:0:0:0:
64,192,957544,1,0,0:0:0:0:
448,192,957544,1,0,0:0:0:0:
192,192,958369,1,0,0:0:0:0:
192,192,958781,1,0,0:0:0:0:
64,192,958863,1,0,0:0:0:0:
320,192,958946,1,0,0:0:0:0:
64,192,959028,1,0,0:0:0:0:
64,192,959440,1,0,0:0:0:0:
448,192,959605,1,0,0:0:0:0:
192,192,961088,1,0,0:0:0:0:
320,192,961583,1,0,0:0:0:0:
192,192,961748,1,0,0:0:0:0:
64,192,963561,1,0,0:0:0:0:
448,192,964220,1,0,0:0:0:0:
320,192,964220,1,0,0:0:0:0:
64,192,964880,1,0,0:0:0:0:
192,192,964880,1,0,0:0:0:0:
192,192,965209,1,0,0:0:0:0:
448,192,965209,1,0,0:0:0:0:
448,192,965539,1,0,0:0:0:0:
64,192,965539,1,0,0:0:0:0:
320,192,965539,1,0,0:0:0:0:
448,192,965869,1,0,0:0:0:0:
64,192,965869,1,0,0:0:0:0:
320,192,965951,1,0,0:0:0:0:
192,192,966198,1,0,0:0:0:0:
192,192,966528,1,0,0:0:0:0:
448,192,966528,1,0,0:0:0:0:
448,192,966858,1,0,0:0:0:0:
64,192,967022,1,0,0:0:0:0:
320,192,967929,1,0,0:0:0:0:
448,192,968094,1,0,0:0:0:0:
320,192,968424,1,0,0:0:0:0:
192,192,968753,1,0,0:0:0:0:
320,192,969413,1,0,0:0:0:0:
448,192,969495,1,0,0:0:0:0:
320,192,970154,1,0,0:0:0:0:
64,192,970237,1,0,0:0:0:0:
192,192,970319,1,0,0:0:0:0:
448,192,970402,1,0,0:0:0:0:
192,192,970484,1,0,0:0:0:0:
64,192,970566,1,0,0:0:0:0:
448,192,970649,1,0,0:0:0:0:
320,192,970731,1,0,0:0:0:0:
192,192,970814,1,0,0:0:0:0:
64,192,970896,1,0,0:0:0:0:
448,192,970979,1,0,0:0:0:0:
320,192,971061,1,0,0:0:0:0:
320,192,971473,1,0,0:0:0:0:
320,192,971638,1,0,0:0:0:0:
64,192,971720,1,0,0:0:0:0:
192,192,971885,1,0,0:0:0:0:
448,192,972627,1,0,0:0:0:0:
192,192,972792,1,0,0:0:0:0:
320,192,973039,1,0,0:0:0:0:
192,192,973121,1,0,0:0:0:0:
64,192,973698,1,0,0:0:0:0:
448,192,973781,1,0,0:0:0:0:
64,192,973863,1,0,0:0:0:0:
320,192,974193,1,0,0:0:0:0:
192,192,974770,1,0,0:0:0:0:
320,192,975182,1,0,0:0:0:0:
192,192,975264,1,0,0:0:0:0:
448,192,975429,1,0,0:0:0:0:
320,192,975759,1,0,0:0:0:0:
64,192,975924,1,0,0:0:0:0:
64,192,976088,1,0,0:0:0:0:
448,192,976583,1,0,0:0:0:0:
320,192,976913,1,0,0:0:0:0:
320,192,977077,1,0,0:0:0:0:
64,192,977242,1,0,0:0:0:0:
320,192,977407,1,0,0:0:0:0:
192,192,977572,1,0,0:0:0:0:
448,192,977902,1,0,0:0:0:0:
64,192,978066,1,0,0:0:0:0:
64,192,978396,1,0,0:0:0:0:
320,192,978561,1,0,0:0:0:0:
448,192,978726,1,0,0:0:0:0:
320,192,979880,1,0,0:0:0:0:
192,192,980044,1,0,0:0:0:0:
192,192,980292,1,0,0:0:0:0:
64,192,980951,1,0,0:0:0:0:
320,192,981198,1,0,0:0:0:0:
64,192,981281,1,0,0:0:0:0:
192,192,981446,1,0,0:0:0:0:
64,192,981940,1,0,0:0:0:0:
192,192,982929,1,0,0:0:0:0:
320,192,984990,1,0,0:0:0:0:
192,192,985154,1,0,0:0:0:0:
320,192,985237,1,0,0:0:0:0:
448,192,985319,1,0,0:0:0:0:
64,192,985731,1,0,0:0:0:0:
448,192,985979,1,0,0:0:0:0:
320,192,986638,1,0,0:0:0:0:
192,192,987792,1,0,0:0:0:0:
192,192,987957,1,0,0:0:0:0:
192,192,988286,1,0,0:0:0:0:
320,192,988946,1,0,0:0:0:0:
64,192,989110,1,0,0:0:0:0:
192,192,989358,1,0,0:0:0:0:
448,192,989605,1,0,0:0:0:0:
64,192,989770,1,0,0:0:0:0:
448,192,989935,1,0,0:0:0:0:
320,192,990099,1,0,0:0:0:0:
320,192,990264,1,0,0:0:0:0:
64,192,990429,1,0,0:0:0:0:
64,192,990594,1,0,0:0:0:0:
320,192,991583,1,0,0:0:0:0:
320,192,991913,1,0,0:0:0:0:
448,192,991913,1,0,0:0:0:0:
448,192,992572,1,0,0:0:0:0:
64,192,993479,1,0,0:0:0:0:
448,192,993561,1,0,0:0:0:0:
192,192,993643,1,0,0:0:0:0:
64,192,993726,1,0,0:0:0:0:
320,192,993808,1,0,0:0:0:0:
448,192,993891,1,0,0:0:0:0:
320,192,994138,1,0,0:0:0:0:
320,192,994303,1,0,0:0:0:0:
320,192,994550,1,0,0:0:0:0:
192,192,994880,1,0,0:0:0:0:
64,192,994962,1,0,0:0:0:0:
64,192,995292,1,0,0:0:0:0:
192,192,995539,1,0,0:0:0:0:
448,192,995951,1,0,0:0:0:0:
320,192,996775,1,0,0:0:0:0:
192,192,996858,1,0,0:0:0:0:
64,192,997105,1,0,0:0:0:0:
448,192,997187,1,0,0:0:0:0:
192,192,997352,1,0,0:0:0:0:
320,192,997517,1,0,0:0:0:0:
448,192,998176,1,0,0:0:0:0:
448,192,999825,1,0,0:0:0:0:
192,192,999990,1,0,0:0:0:0:
320,192,1000072,1,0,0:0:0:0:
448,192,1000154,1,0,0:0:0:0:
64,192,1000237,1,0,0:0:0:0:
320,192,1000319,1,0,0:0:0:0:
448,192,1000402,1,0,0:0:0:0:
320,192,1000484,1,0,0:0:0:0:
192,192,1000566,1,0,0:0:0:0:
64,192,1000814,1,0,0:0:0:0:
192,192,1000896,1,0,0:0:0:0:
448,192,1000979,1,0,0:0:0:0:
64,192,1001061,1,0,0:0:0:0:
320,192,1001226,1,0,0:0:0:0:
448,192,1002380,1,0,0:0:0:0:
320,192,1002462,1,0,0:0:0:0:
64,192,1002792,1,0,0:0:0:0:
192,192,1002874,1,0,0:0:0:0:
320,192,1003039,1,0,0:0:0:0:
320,192,1003204,1,0,0:0:0:0:
64,192,1003286,1,0,0:0:0:0:
448,192,1004440,1,0,0:0:0:0:
320,192,1004605,1,0,0:0:0:0:
320,192,1005017,1,0,0:0:0:0:
192,192,1005099,1,0,0:0:0:0:
192,192,1005429,1,0,0:0:0:0:
448,192,1005511,1,0,0:0:0:0:
64,192,1005841,1,0,0:0:0:0:
192,192,1006088,1,0,0:0:0:0:
64,192,1006253,1,0,0:0:0:0:
64,192,1007325,1,0,0:0:0:0:
64,192,1007654,1,0,0:0:0:0:
320,192,1007737,1,0,0:0:0:0:
448,192,1007819,1,0,0:0:0:0:
320,192,1007902,1,0,0:0:0:0:
320,192,1008066,1,0,0:0:0:0:
192,192,1008149,1,0,0:0:0:0:
448,192,1008231,1,0,0:0:0:0:
320,192,1008314,1,0,0:0:0:0:
192,192,1008396,1,0,0:0:0:0:
320,192,1008479,1,0,0:0:0:0:
448,192,1008643,1,0,0:0:0:0:
448,192,1009055,1,0,0:0:0:0:
320,192,1009632,1,0,0:0:0:0:
320,192,1010127,1,0,0:0:0:0:
448,192,1010292,1,0,0:0:0:0:
64,192,1010374,1,0,0:0:0:0:
192,192,1010539,1,0,0:0:0:0:
64,192,1010621,1,0,0:0:0:0:
192,192,1010704,1,0,0:0:0:0:
448,192,1010786,1,0,0:0:0:0:
192,192,1010869,1,0,0:0:0:0:
320,192,1010951,1,0,0:0:0:0:
64,192,1011033,1,0,0:0:0:0:
192,192,1011116,1,0,0:0:0:0:
64,192,1011198,1,0,0:0:0:0:
448,192,1011363,1,0,0:0:0:0:
448,192,1011610,1,0,0:0:0:0:
192,192,1011693,1,0,0:0:0:0:
192,192,1012847,1,0,0:0:0:0:
64,192,1013836,1,0,0:0:0:0:
320,192,1014001,1,0,0:0:0:0:
192,192,1014165,1,0,0:0:0:0:
192,192,1014330,1,0,0:0:0:0:
448,192,1014660,1,0,0:0:0:0:
64,192,1015154,1,0,0:0:0:0:
320,192,1015649,1,0,0:0:0:0:
64,192,1015814,1,0,0:0:0:0:
64,192,1015979,1,0,0:0:0:0:
448,192,1016143,1,0,0:0:0:0:
192,192,1016308,1,0,0:0:0:0:
448,192,1016473,1,0,0:0:0:0:
320,192,1016638,1,0,0:0:0:0:
64,192,1016803,1,0,0:0:0:0:
64,192,1016968,1,0,0:0:0:0:
64,192,1017380,1,0,0:0:0:0:
448,192,1017462,1,0,0:0:0:0:
64,192,1017627,1,0,0:0:0:0:
192,192,1017874,1,0,0:0:0:0:
448,192,1017957,1,0,0:0:0:0:
320,192,1018121,1,0,0:0:0:0:
320,192,1018286,1,0,0:0:0:0:
448,192,1018616,1,0,0:0:0:0:
64,192,1018616,1,0,0:0:0:0:
192,192,1018698,1,0,0:0:0:0:
320,192,1018781,1,0,0:0:0:0:
448,192,1018946,1,0,0:0:0:0:
448,192,1019110,1,0,0:0:0:0:
448,192,1019275,1,0,0:0:0:0:
448,192,1019440,1,0,0:0:0:0:
64,192,1019522,1,0,0:0:0:0:
320,192,1019605,1,0,0:0:0:0:
64,192,1019770,1,0,0:0:0:0:
64,192,1019935,1,0,0:0:0:0:
448,192,1020017,1,0,0:0:0:0:
64,192,1020099,1,0,0:0:0:0:
64,192,1020429,1,0,0:0:0:0:
192,192,1020511,1,0,0:0:0:0:
320,192,1020594,1,0,0:0:0:0:
448,192,1020594,1,0,0:0:0:0:
64,192,1020759,1,0,0:0:0:0:
320,192,1020841,1,0,0:0:0:0:
192,192,1020924,1,0,0:0:0:0:
320,192,1021088,1,0,0:0:0:0:
448,192,1021171,1,0,0:0:0:0:
320,192,1021253,1,0,0:0:0:0:
448,192,1021336,1,0,0:0:0:0:
320,192,1021501,1,0,0:0:0:0:
64,192,1021583,1,0,0:0:0:0:
64,192,1021913,1,0,0:0:0:0:
192,192,1021995,1,0,0:0:0:0:
320,192,1022077,1,0,0:0:0:0:
448,192,1022160,1,0,0:0:0:0:
64,192,1022242,1,0,0:0:0:0:
64,192,1022737,1,0,0:0:0:0:
64,192,1023066,1,0,0:0:0:0:
320,192,1023231,1,0,0:0:0:0:
320,192,1023396,1,0,0:0:0:0:
64,192,1023561,1,0,0:0:0:0:
192,192,1023561,1,0,0:0:0:0:
64,192,1023726,1,0,0:0:0:0:
192,192,1023891,1,0,0:0:0:0:
448,192,1024055,1,0,0:0:0:0:
320,192,1024220,1,0,0:0:0:0:
320,192,1024385,1,0,0:0:0:0:
192,192,1024550,1,0,0:0:0:0:
448,192,1024550,1,0,0:0:0:0:
192,192,1024715,1,0,0:0:0:0:
192,192,1024880,1,0,0:0:0:0:
448,192,1024880,1,0,0:0:0:0:
320,192,1025044,1,0,0:0:0:0:
192,192,1025209,1,0,0:0:0:0:
192,192,1025374,1,0,0:0:0:0:
320,192,1025704,1,0,0:0:0:0:
192,192,1026281,1,0,0:0:0:0:
64,192,1026528,1,0,0:0:0:0:
192,192,1026528,1,0,0:0:0:0:
448,192,1026693,1,0,0:0:0:0:
320,192,1027022,1,0,0:0:0:0:
448,192,1027187,1,0,0:0:0:0:
64,192,1027517,1,0,0:0:0:0:
64,192,1027847,1,0,0:0:0:0:
320,192,1028094,1,0,0:0:0:0:
192,192,1028176,1,0,0:0:0:0:
192,192,1028341,1,0,0:0:0:0:
320,192,1028506,1,0,0:0:0:0:
320,192,1028671,1,0,0:0:0:0:
320,192,1028836,1,0,0:0:0:0:
64,192,1028836,1,0,0:0:0:0:
64,192,1029165,1,0,0:0:0:0:
320,192,1029165,1,0,0:0:0:0:
192,192,1029248,1,0,0:0:0:0:
64,192,1029495,1,0,0:0:0:0:
64,192,1029660,1,0,0:0:0:0:
320,192,1029660,1,0,0:0:0:0:
192,192,1029825,1,0,0:0:0:0:
64,192,1029990,1,0,0:0:0:0:
192,192,1030154,1,0,0:0:0:0:
448,192,1030237,1,0,0:0:0:0:
192,192,1030319,1,0,0:0:0:0:
448,192,1030484,1,0,0:0:0:0:
192,192,1030566,1,0,0:0:0:0:
320,192,1030979,1,0,0:0:0:0:
448,192,1031143,1,0,0:0:0:0:
320,192,1031391,1,0,0:0:0:0:
64,192,1031638,1,0,0:0:0:0:
64,192,1032050,1,0,0:0:0:0:
448,192,1032132,1,0,0:0:0:0:
64,192,1032297,1,0,0:0:0:0:
320,192,1032462,1,0,0:0:0:0:
192,192,1032627,1,0,0:0:0:0:
448,192,1032709,1,0,0:0:0:0:
320,192,1032791,1,0,0:0:0:0:
64,192,1034416,1,0,0:0:0:0:
192,192,1035166,1,0,0:0:0:0:
64,192,1035416,1,0,0:0:0:0:
448,192,1036166,1,0,0:0:0:0:
448,192,1036541,1,0,0:0:0:0:
192,192,1036791,1,0,0:0:0:0:
320,192,1037291,1,0,0:0:0:0:
448,192,1037666,1,0,0:0:0:0:
320,192,1037791,1,0,0:0:0:0:
192,192,1037916,1,0,0:0:0:0:
448,192,1038041,1,0,0:0:0:0:
64,192,1038291,1,0,0:0:0:0:
64,192,1038541,1,0,0:0:0:0:
192,192,1038666,1,0,0:0:0:0:
320,192,1040791,1,0,0:0:0:0:
448,192,1041041,1,0,0:0:0:0:
448,192,1043541,1,0,0:0:0:0:
320,192,1045166,1,0,0:0:0:0:
448,192,1045791,1,0,0:0:0:0:
320,192,1045916,1,0,0:0:0:0:
320,192,1048541,1,0,0:0:0:0:
64,192,1048666,1,0,0:0:0:0:
448,192,1053041,1,0,0:0:0:0:
320,192,1053291,1,0,0:0:0:0:
320,192,1056041,1,0,0:0:0:0:
192,192,1056291,1,0,0:0:0:0:
320,192,1056416,1,0,0:0:0:0:
64,192,1056666,1,0,0:0:0:0:
192,192,1056791,1,0,0:0:0:0:
64,192,1057041,1,0,0:0:0:0:
192,192,1057166,1,0,0:0:0:0:
448,192,1058541,1,0,0:0:0:0:
448,192,1059291,1,0,0:0:0:0:
320,192,1060041,1,0,0:0:0:0:
64,192,1061166,1,0,0:0:0:0:
64,192,1063541,1,0,0:0:0:0:
64,192,1066791,1,0,0:0:0:0:
64,192,1067416,1,0,0:0:0:0:
64,192,1068166,1,0,0:0:0:0:
448,192,1068291,1,0,0:0:0:0:
448,192,1068791,1,0,0:0:0:0:
192,192,1070541,1,0,0:0:0:0:
64,192,1072291,1,0,0:0:0:0:
64,192,1072666,1,0,0:0:0:0:
320,192,1072791,1,0,0:0:0:0:
64,192,1072916,1,0,0:0:0:0:
192,192,1073791,1,0,0:0:0:0:
320,192,1073916,1,0,0:0:0:0:
448,192,1074541,1,0,0:0:0:0:
192,192,1074666,1,0,0:0:0:0:
448,192,1074916,1,0,0:0:0:0:
320,192,1075041,1,0,0:0:0:0:
192,192,1075291,1,0,0:0:0:0:
64,192,1079575,1,0,0:0:0:0:
64,192,1080127,1,0,0:0:0:0:
192,192,1080679,1,0,0:0:0:0:
64,192,1080679,1,0,0:0:0:0:
320,192,1081047,1,0,0:0:0:0:
192,192,1081047,1,0,0:0:0:0:
192,192,1081231,1,0,0:0:0:0:
320,192,1081415,1,0,0:0:0:0:
64,192,1081784,1,0,0:0:0:0:
448,192,1081784,1,0,0:0:0:0:
64,192,1081968,1,0,0:0:0:0:
192,192,1081968,1,0,0:0:0:0:
448,192,1082060,1,0,0:0:0:0:
320,192,1082152,1,0,0:0:0:0:
64,192,1082336,1,0,0:0:0:0:
320,192,1082336,1,0,0:0:0:0:
448,192,1082428,1,0,0:0:0:0:
64,192,1082520,1,0,0:0:0:0:
192,192,1082888,1,0,0:0:0:0:
192,192,1083072,1,0,0:0:0:0:
64,192,1083440,1,0,0:0:0:0:
320,192,1083624,1,0,0:0:0:0:
448,192,1083992,1,0,0:0:0:0:
192,192,1083992,1,0,0:0:0:0:
64,192,1084176,1,0,0:0:0:0:
448,192,1084360,1,0,0:0:0:0:
448,192,1084728,1,0,0:0:0:0:
64,192,1084728,1,0,0:0:0:0:
448,192,1084912,1,0,0:0:0:0:
320,192,1084912,1,0,0:0:0:0:
192,192,1085004,1,0,0:0:0:0:
64,192,1085096,1,0,0:0:0:0:
320,192,1085281,1,0,0:0:0:0:
320,192,1085465,1,0,0:0:0:0:
320,192,1086017,1,0,0:0:0:0:
192,192,1086569,1,0,0:0:0:0:
64,192,1086569,1,0,0:0:0:0:
448,192,1086661,1,0,0:0:0:0:
320,192,1086937,1,0,0:0:0:0:
448,192,1087305,1,0,0:0:0:0:
192,192,1087673,1,0,0:0:0:0:
64,192,1087673,1,0,0:0:0:0:
192,192,1087857,1,0,0:0:0:0:
448,192,1087857,1,0,0:0:0:0:
64,192,1087949,1,0,0:0:0:0:
448,192,1088041,1,0,0:0:0:0:
192,192,1088225,1,0,0:0:0:0:
64,192,1088409,1,0,0:0:0:0:
320,192,1088777,1,0,0:0:0:0:
64,192,1088777,1,0,0:0:0:0:
192,192,1088962,1,0,0:0:0:0:
64,192,1089146,1,0,0:0:0:0:
320,192,1089330,1,0,0:0:0:0:
64,192,1089514,1,0,0:0:0:0:
320,192,1089514,1,0,0:0:0:0:
448,192,1089882,1,0,0:0:0:0:
192,192,1090066,1,0,0:0:0:0:
320,192,1090158,1,0,0:0:0:0:
192,192,1090250,1,0,0:0:0:0:
448,192,1090618,1,0,0:0:0:0:
320,192,1090618,1,0,0:0:0:0:
192,192,1090802,1,0,0:0:0:0:
320,192,1090802,1,0,0:0:0:0:
448,192,1090894,1,0,0:0:0:0:
192,192,1090986,1,0,0:0:0:0:
320,192,1091170,1,0,0:0:0:0:
192,192,1091354,1,0,0:0:0:0:
64,192,1091906,1,0,0:0:0:0:
320,192,1092090,1,0,0:0:0:0:
320,192,1092458,1,0,0:0:0:0:
320,192,1092642,1,0,0:0:0:0:
192,192,1092827,1,0,0:0:0:0:
320,192,1092827,1,0,0:0:0:0:
448,192,1093011,1,0,0:0:0:0:
320,192,1093195,1,0,0:0:0:0:
64,192,1093195,1,0,0:0:0:0:
448,192,1093287,1,0,0:0:0:0:
192,192,1093563,1,0,0:0:0:0:
64,192,1093747,1,0,0:0:0:0:
192,192,1093839,1,0,0:0:0:0:
64,192,1093931,1,0,0:0:0:0:
320,192,1093931,1,0,0:0:0:0:
64,192,1094115,1,0,0:0:0:0:
192,192,1094115,1,0,0:0:0:0:
320,192,1094207,1,0,0:0:0:0:
192,192,1094299,1,0,0:0:0:0:
64,192,1094667,1,0,0:0:0:0:
320,192,1094851,1,0,0:0:0:0:
192,192,1095219,1,0,0:0:0:0:
320,192,1095403,1,0,0:0:0:0:
192,192,1095403,1,0,0:0:0:0:
448,192,1095771,1,0,0:0:0:0:
192,192,1095863,1,0,0:0:0:0:
448,192,1095955,1,0,0:0:0:0:
320,192,1096139,1,0,0:0:0:0:
448,192,1096139,1,0,0:0:0:0:
192,192,1096323,1,0,0:0:0:0:
192,192,1096508,1,0,0:0:0:0:
320,192,1096692,1,0,0:0:0:0:
448,192,1096692,1,0,0:0:0:0:
64,192,1096784,1,0,0:0:0:0:
192,192,1096876,1,0,0:0:0:0:
320,192,1097060,1,0,0:0:0:0:
192,192,1097244,1,0,0:0:0:0:
320,192,1097612,1,0,0:0:0:0:
192,192,1097796,1,0,0:0:0:0:
320,192,1097888,1,0,0:0:0:0:
192,192,1098348,1,0,0:0:0:0:
320,192,1098348,1,0,0:0:0:0:
320,192,1098532,1,0,0:0:0:0:
64,192,1098716,1,0,0:0:0:0:
64,192,1098900,1,0,0:0:0:0:
192,192,1099084,1,0,0:0:0:0:
320,192,1099452,1,0,0:0:0:0:
448,192,1099636,1,0,0:0:0:0:
64,192,1099728,1,0,0:0:0:0:
192,192,1100004,1,0,0:0:0:0:
320,192,1100188,1,0,0:0:0:0:
320,192,1100557,1,0,0:0:0:0:
192,192,1100741,1,0,0:0:0:0:
448,192,1100925,1,0,0:0:0:0:
192,192,1101109,1,0,0:0:0:0:
64,192,1101201,1,0,0:0:0:0:
448,192,1101293,1,0,0:0:0:0:
192,192,1101293,1,0,0:0:0:0:
192,192,1101753,1,0,0:0:0:0:
64,192,1102489,1,0,0:0:0:0:
448,192,1102673,1,0,0:0:0:0:
192,192,1102765,1,0,0:0:0:0:
64,192,1103041,1,0,0:0:0:0:
448,192,1103133,1,0,0:0:0:0:
192,192,1103133,1,0,0:0:0:0:
320,192,1103225,1,0,0:0:0:0:
320,192,1103409,1,0,0:0:0:0:
320,192,1103593,1,0,0:0:0:0:
64,192,1103685,1,0,0:0:0:0:
320,192,1103777,1,0,0:0:0:0:
192,192,1103869,1,0,0:0:0:0:
448,192,1104238,1,0,0:0:0:0:
320,192,1104422,1,0,0:0:0:0:
64,192,1104606,1,0,0:0:0:0:
448,192,1104698,1,0,0:0:0:0:
64,192,1104790,1,0,0:0:0:0:
64,192,1104974,1,0,0:0:0:0:
320,192,1105066,1,0,0:0:0:0:
192,192,1105158,1,0,0:0:0:0:
64,192,1105250,1,0,0:0:0:0:
192,192,1105342,1,0,0:0:0:0:
448,192,1105526,1,0,0:0:0:0:
320,192,1105526,1,0,0:0:0:0:
64,192,1105526,1,0,0:0:0:0:
192,192,1105618,1,0,0:0:0:0:
64,192,1105618,1,0,0:0:0:0:
320,192,1105710,1,0,0:0:0:0:
192,192,1105894,1,0,0:0:0:0:
64,192,1105986,1,0,0:0:0:0:
320,192,1106078,1,0,0:0:0:0:
448,192,1106078,1,0,0:0:0:0:
64,192,1106170,1,0,0:0:0:0:
320,192,1106262,1,0,0:0:0:0:
448,192,1106354,1,0,0:0:0:0:
64,192,1106446,1,0,0:0:0:0:
192,192,1106630,1,0,0:0:0:0:
448,192,1106722,1,0,0:0:0:0:
192,192,1107182,1,0,0:0:0:0:
448,192,1107182,1,0,0:0:0:0:
320,192,1107366,1,0,0:0:0:0:
192,192,1107550,1,0,0:0:0:0:
64,192,1107550,1,0,0:0:0:0:
448,192,1107735,1,0,0:0:0:0:
192,192,1107735,1,0,0:0:0:0:
448,192,1107919,1,0,0:0:0:0:
64,192,1108011,1,0,0:0:0:0:
192,192,1108103,1,0,0:0:0:0:
448,192,1108103,1,0,0:0:0:0:
320,192,1108195,1,0,0:0:0:0:
448,192,1108287,1,0,0:0:0:0:
320,192,1108471,1,0,0:0:0:0:
192,192,1108563,1,0,0:0:0:0:
64,192,1108655,1,0,0:0:0:0:
320,192,1108655,1,0,0:0:0:0:
448,192,1108839,1,0,0:0:0:0:
192,192,1108931,1,0,0:0:0:0:
64,192,1109023,1,0,0:0:0:0:
320,192,1109023,1,0,0:0:0:0:
192,192,1109115,1,0,0:0:0:0:
448,192,1109391,1,0,0:0:0:0:
192,192,1109483,1,0,0:0:0:0:
64,192,1109575,1,0,0:0:0:0:
192,192,1109667,1,0,0:0:0:0:
448,192,1109667,1,0,0:0:0:0:
64,192,1109759,1,0,0:0:0:0:
448,192,1110127,1,0,0:0:0:0:
192,192,1110127,1,0,0:0:0:0:
320,192,1110311,1,0,0:0:0:0:
192,192,1110403,1,0,0:0:0:0:
448,192,1110495,1,0,0:0:0:0:
64,192,1110679,1,0,0:0:0:0:
192,192,1110863,1,0,0:0:0:0:
320,192,1110955,1,0,0:0:0:0:
64,192,1111047,1,0,0:0:0:0:
448,192,1111047,1,0,0:0:0:0:
192,192,1111139,1,0,0:0:0:0:
64,192,1111231,1,0,0:0:0:0:
64,192,1111415,1,0,0:0:0:0:
192,192,1111508,1,0,0:0:0:0:
64,192,1111600,1,0,0:0:0:0:
320,192,1111600,1,0,0:0:0:0:
448,192,1111784,1,0,0:0:0:0:
192,192,1111876,1,0,0:0:0:0:
64,192,1111876,1,0,0:0:0:0:
320,192,1111968,1,0,0:0:0:0:
448,192,1111968,1,0,0:0:0:0:
192,192,1112152,1,0,0:0:0:0:
448,192,1112336,1,0,0:0:0:0:
320,192,1112428,1,0,0:0:0:0:
448,192,1112520,1,0,0:0:0:0:
192,192,1112520,1,0,0:0:0:0:
64,192,1112612,1,0,0:0:0:0:
448,192,1112704,1,0,0:0:0:0:
320,192,1112704,1,0,0:0:0:0:
192,192,1112888,1,0,0:0:0:0:
448,192,1113072,1,0,0:0:0:0:
64,192,1113072,1,0,0:0:0:0:
320,192,1113348,1,0,0:0:0:0:
448,192,1113440,1,0,0:0:0:0:
64,192,1113624,1,0,0:0:0:0:
64,192,1113808,1,0,0:0:0:0:
448,192,1113808,1,0,0:0:0:0:
192,192,1113900,1,0,0:0:0:0:
448,192,1113992,1,0,0:0:0:0:
64,192,1114084,1,0,0:0:0:0:
448,192,1114176,1,0,0:0:0:0:
64,192,1114360,1,0,0:0:0:0:
192,192,1114452,1,0,0:0:0:0:
320,192,1114544,1,0,0:0:0:0:
64,192,1114544,1,0,0:0:0:0:
448,192,1114728,1,0,0:0:0:0:
192,192,1114728,1,0,0:0:0:0:
448,192,1114912,1,0,0:0:0:0:
192,192,1114912,1,0,0:0:0:0:
320,192,1115004,1,0,0:0:0:0:
64,192,1115096,1,0,0:0:0:0:
320,192,1115188,1,0,0:0:0:0:
64,192,1115281,1,0,0:0:0:0:
192,192,1115465,1,0,0:0:0:0:
448,192,1115557,1,0,0:0:0:0:
192,192,1115649,1,0,0:0:0:0:
64,192,1115649,1,0,0:0:0:0:
448,192,1115741,1,0,0:0:0:0:
192,192,1115833,1,0,0:0:0:0:
192,192,1116017,1,0,0:0:0:0:
320,192,1116201,1,0,0:0:0:0:
320,192,1116385,1,0,0:0:0:0:
448,192,1116477,1,0,0:0:0:0:
64,192,1116569,1,0,0:0:0:0:
320,192,1116753,1,0,0:0:0:0:
64,192,1116753,1,0,0:0:0:0:
320,192,1116937,1,0,0:0:0:0:
448,192,1116937,1,0,0:0:0:0:
64,192,1117029,1,0,0:0:0:0:
192,192,1117121,1,0,0:0:0:0:
448,192,1117305,1,0,0:0:0:0:
448,192,1117489,1,0,0:0:0:0:
320,192,1117673,1,0,0:0:0:0:
448,192,1117765,1,0,0:0:0:0:
64,192,1117765,1,0,0:0:0:0:
320,192,1117857,1,0,0:0:0:0:
192,192,1117857,1,0,0:0:0:0:
448,192,1117949,1,0,0:0:0:0:
64,192,1118041,1,0,0:0:0:0:
320,192,1118225,1,0,0:0:0:0:
448,192,1118225,1,0,0:0:0:0:
192,192,1118409,1,0,0:0:0:0:
320,192,1118409,1,0,0:0:0:0:
448,192,1118501,1,0,0:0:0:0:
192,192,1118777,1,0,0:0:0:0:
192,192,1119054,1,0,0:0:0:0:
448,192,1119146,1,0,0:0:0:0:
448,192,1119330,1,0,0:0:0:0:
320,192,1119330,1,0,0:0:0:0:
320,192,1119514,1,0,0:0:0:0:
64,192,1119514,1,0,0:0:0:0:
192,192,1119606,1,0,0:0:0:0:
64,192,1119698,1,0,0:0:0:0:
320,192,1119882,1,0,0:0:0:0:
64,192,1119882,1,0,0:0:0:0:
192,192,1119974,1,0,0:0:0:0:
448,192,1120066,1,0,0:0:0:0:
192,192,1120250,1,0,0:0:0:0:
192,192,1120434,1,0,0:0:0:0:
448,192,1120618,1,0,0:0:0:0:
64,192,1120618,1,0,0:0:0:0:
320,192,1120802,1,0,0:0:0:0:
448,192,1120894,1,0,0:0:0:0:
192,192,1121170,1,0,0:0:0:0:
320,192,1121354,1,0,0:0:0:0:
448,192,1121446,1,0,0:0:0:0:
192,192,1121446,1,0,0:0:0:0:
64,192,1121538,1,0,0:0:0:0:
448,192,1121906,1,0,0:0:0:0:
192,192,1121906,1,0,0:0:0:0:
192,192,1122090,1,0,0:0:0:0:
448,192,1122182,1,0,0:0:0:0:
64,192,1122274,1,0,0:0:0:0:
192,192,1122366,1,0,0:0:0:0:
320,192,1122458,1,0,0:0:0:0:
64,192,1122642,1,0,0:0:0:0:
320,192,1122642,1,0,0:0:0:0:
448,192,1122735,1,0,0:0:0:0:
64,192,1122827,1,0,0:0:0:0:
448,192,1122919,1,0,0:0:0:0:
64,192,1123011,1,0,0:0:0:0:
192,192,1123195,1,0,0:0:0:0:
64,192,1123379,1,0,0:0:0:0:
64,192,1123563,1,0,0:0:0:0:
192,192,1123655,1,0,0:0:0:0:
64,192,1123747,1,0,0:0:0:0:
448,192,1123747,1,0,0:0:0:0:
448,192,1123931,1,0,0:0:0:0:
320,192,1124023,1,0,0:0:0:0:
448,192,1124115,1,0,0:0:0:0:
192,192,1124115,1,0,0:0:0:0:
192,192,1124299,1,0,0:0:0:0:
448,192,1124391,1,0,0:0:0:0:
192,192,1124483,1,0,0:0:0:0:
64,192,1124667,1,0,0:0:0:0:
320,192,1124851,1,0,0:0:0:0:
320,192,1125219,1,0,0:0:0:0:
448,192,1125311,1,0,0:0:0:0:
192,192,1125403,1,0,0:0:0:0:
64,192,1125587,1,0,0:0:0:0:
448,192,1125587,1,0,0:0:0:0:
192,192,1125679,1,0,0:0:0:0:
448,192,1125771,1,0,0:0:0:0:
320,192,1125863,1,0,0:0:0:0:
64,192,1125863,1,0,0:0:0:0:
192,192,1125955,1,0,0:0:0:0:
448,192,1125955,1,0,0:0:0:0:
192,192,1126139,1,0,0:0:0:0:
64,192,1126231,1,0,0:0:0:0:
320,192,1126323,1,0,0:0:0:0:
448,192,1126508,1,0,0:0:0:0:
320,192,1126508,1,0,0:0:0:0:
320,192,1126692,1,0,0:0:0:0:
64,192,1128164,1,0,0:0:0:0:
192,192,1128164,1,0,0:0:0:0:
64,192,1128900,1,0,0:0:0:0:
320,192,1132949,1,0,0:0:0:0:
192,192,1133041,1,0,0:0:0:0:
320,192,1133685,1,0,0:0:0:0:
320,192,1134790,1,0,0:0:0:0:
320,192,1135158,1,0,0:0:0:0:
192,192,1136262,1,0,0:0:0:0:
320,192,1138011,1,0,0:0:0:0:
64,192,1138287,1,0,0:0:0:0:
192,192,1138379,1,0,0:0:0:0:
64,192,1138471,1,0,0:0:0:0:
320,192,1138471,1,0,0:0:0:0:
320,192,1138655,1,0,0:0:0:0:
64,192,1139023,1,0,0:0:0:0:
448,192,1139023,1,0,0:0:0:0:
64,192,1139575,1,0,0:0:0:0:
320,192,1139943,1,0,0:0:0:0:
448,192,1139943,1,0,0:0:0:0:
448,192,1140495,1,0,0:0:0:0:
320,192,1140495,1,0,0:0:0:0:
320,192,1140679,1,0,0:0:0:0:
64,192,1140863,1,0,0:0:0:0:
192,192,1140863,1,0,0:0:0:0:
448,192,1140955,1,0,0:0:0:0:
320,192,1141047,1,0,0:0:0:0:
320,192,1141415,1,0,0:0:0:0:
192,192,1141968,1,0,0:0:0:0:
64,192,1142520,1,0,0:0:0:0:
448,192,1142612,1,0,0:0:0:0:
448,192,1142888,1,0,0:0:0:0:
192,192,1143256,1,0,0:0:0:0:
64,192,1143440,1,0,0:0:0:0:
320,192,1143900,1,0,0:0:0:0:
64,192,1143992,1,0,0:0:0:0:
192,192,1143992,1,0,0:0:0:0:
320,192,1144176,1,0,0:0:0:0:
192,192,1144360,1,0,0:0:0:0:
64,192,1144544,1,0,0:0:0:0:
320,192,1144728,1,0,0:0:0:0:
320,192,1144912,1,0,0:0:0:0:
64,192,1144912,1,0,0:0:0:0:
192,192,1145465,1,0,0:0:0:0:
64,192,1145649,1,0,0:0:0:0:
192,192,1145741,1,0,0:0:0:0:
448,192,1145833,1,0,0:0:0:0:
64,192,1146017,1,0,0:0:0:0:
320,192,1146201,1,0,0:0:0:0:
448,192,1146385,1,0,0:0:0:0:
64,192,1146569,1,0,0:0:0:0:
192,192,1146569,1,0,0:0:0:0:
448,192,1146661,1,0,0:0:0:0:
320,192,1146753,1,0,0:0:0:0:
64,192,1146753,1,0,0:0:0:0:
192,192,1146937,1,0,0:0:0:0:
448,192,1147213,1,0,0:0:0:0:
64,192,1147305,1,0,0:0:0:0:
448,192,1147673,1,0,0:0:0:0:
320,192,1147857,1,0,0:0:0:0:
64,192,1148225,1,0,0:0:0:0:
448,192,1148409,1,0,0:0:0:0:
64,192,1148777,1,0,0:0:0:0:
320,192,1148777,1,0,0:0:0:0:
192,192,1149330,1,0,0:0:0:0:
64,192,1149698,1,0,0:0:0:0:
192,192,1149882,1,0,0:0:0:0:
448,192,1149882,1,0,0:0:0:0:
448,192,1150066,1,0,0:0:0:0:
448,192,1150250,1,0,0:0:0:0:
64,192,1150342,1,0,0:0:0:0:
448,192,1150434,1,0,0:0:0:0:
64,192,1150526,1,0,0:0:0:0:
64,192,1150710,1,0,0:0:0:0:
448,192,1150802,1,0,0:0:0:0:
320,192,1150894,1,0,0:0:0:0:
64,192,1150986,1,0,0:0:0:0:
448,192,1151354,1,0,0:0:0:0:
448,192,1151906,1,0,0:0:0:0:
448,192,1152366,1,0,0:0:0:0:
192,192,1152458,1,0,0:0:0:0:
64,192,1152458,1,0,0:0:0:0:
448,192,1152642,1,0,0:0:0:0:
320,192,1152735,1,0,0:0:0:0:
320,192,1152919,1,0,0:0:0:0:
192,192,1153011,1,0,0:0:0:0:
192,192,1153195,1,0,0:0:0:0:
448,192,1153287,1,0,0:0:0:0:
320,192,1153287,1,0,0:0:0:0:
192,192,1153471,1,0,0:0:0:0:
64,192,1153655,1,0,0:0:0:0:
192,192,1153747,1,0,0:0:0:0:
320,192,1153839,1,0,0:0:0:0:
64,192,1153931,1,0,0:0:0:0:
320,192,1154299,1,0,0:0:0:0:
192,192,1154299,1,0,0:0:0:0:
64,192,1154667,1,0,0:0:0:0:
448,192,1155403,1,0,0:0:0:0:
64,192,1155403,1,0,0:0:0:0:
192,192,1155587,1,0,0:0:0:0:
64,192,1155587,1,0,0:0:0:0:
320,192,1155679,1,0,0:0:0:0:
192,192,1155771,1,0,0:0:0:0:
448,192,1155771,1,0,0:0:0:0:
320,192,1155863,1,0,0:0:0:0:
192,192,1155955,1,0,0:0:0:0:
64,192,1155955,1,0,0:0:0:0:
192,192,1156139,1,0,0:0:0:0:
64,192,1156323,1,0,0:0:0:0:
320,192,1156415,1,0,0:0:0:0:
448,192,1156508,1,0,0:0:0:0:
192,192,1156600,1,0,0:0:0:0:
448,192,1156692,1,0,0:0:0:0:
320,192,1156784,1,0,0:0:0:0:
192,192,1156876,1,0,0:0:0:0:
320,192,1157244,1,0,0:0:0:0:
64,192,1157796,1,0,0:0:0:0:
320,192,1158348,1,0,0:0:0:0:
192,192,1158532,1,0,0:0:0:0:
64,192,1158532,1,0,0:0:0:0:
448,192,1158624,1,0,0:0:0:0:
320,192,1158624,1,0,0:0:0:0:
192,192,1158808,1,0,0:0:0:0:
320,192,1158900,1,0,0:0:0:0:
64,192,1159084,1,0,0:0:0:0:
320,192,1159176,1,0,0:0:0:0:
192,192,1159360,1,0,0:0:0:0:
448,192,1159360,1,0,0:0:0:0:
64,192,1159452,1,0,0:0:0:0:
448,192,1159544,1,0,0:0:0:0:
192,192,1159636,1,0,0:0:0:0:
64,192,1159728,1,0,0:0:0:0:
192,192,1159820,1,0,0:0:0:0:
448,192,1160004,1,0,0:0:0:0:
192,192,1160188,1,0,0:0:0:0:
448,192,1160465,1,0,0:0:0:0:
320,192,1160557,1,0,0:0:0:0:
192,192,1160649,1,0,0:0:0:0:
64,192,1160649,1,0,0:0:0:0:
192,192,1161293,1,0,0:0:0:0:
448,192,1161293,1,0,0:0:0:0:
192,192,1161477,1,0,0:0:0:0:
448,192,1161477,1,0,0:0:0:0:
64,192,1161569,1,0,0:0:0:0:
320,192,1161661,1,0,0:0:0:0:
448,192,1161753,1,0,0:0:0:0:
64,192,1161845,1,0,0:0:0:0:
192,192,1161845,1,0,0:0:0:0:
64,192,1162029,1,0,0:0:0:0:
448,192,1162213,1,0,0:0:0:0:
64,192,1162305,1,0,0:0:0:0:
448,192,1162397,1,0,0:0:0:0:
64,192,1162489,1,0,0:0:0:0:
320,192,1162581,1,0,0:0:0:0:
192,192,1162765,1,0,0:0:0:0:
448,192,1162765,1,0,0:0:0:0:
448,192,1163133,1,0,0:0:0:0:
448,192,1163409,1,0,0:0:0:0:
192,192,1163501,1,0,0:0:0:0:
448,192,1163593,1,0,0:0:0:0:
320,192,1163685,1,0,0:0:0:0:
320,192,1164238,1,0,0:0:0:0:
64,192,1164238,1,0,0:0:0:0:
192,192,1164330,1,0,0:0:0:0:
320,192,1164422,1,0,0:0:0:0:
192,192,1164514,1,0,0:0:0:0:
320,192,1164606,1,0,0:0:0:0:
192,192,1164698,1,0,0:0:0:0:
64,192,1164790,1,0,0:0:0:0:
448,192,1164882,1,0,0:0:0:0:
192,192,1164974,1,0,0:0:0:0:
320,192,1164974,1,0,0:0:0:0:
64,192,1165066,1,0,0:0:0:0:
448,192,1165158,1,0,0:0:0:0:
64,192,1165250,1,0,0:0:0:0:
192,192,1165342,1,0,0:0:0:0:
448,192,1165434,1,0,0:0:0:0:
320,192,1165526,1,0,0:0:0:0:
192,192,1165618,1,0,0:0:0:0:
320,192,1165710,1,0,0:0:0:0:
448,192,1166078,1,0,0:0:0:0:
320,192,1166078,1,0,0:0:0:0:
320,192,1166446,1,0,0:0:0:0:
448,192,1166538,1,0,0:0:0:0:
320,192,1166630,1,0,0:0:0:0:
192,192,1166722,1,0,0:0:0:0:
448,192,1167182,1,0,0:0:0:0:
64,192,1167366,1,0,0:0:0:0:
448,192,1167458,1,0,0:0:0:0:
320,192,1167550,1,0,0:0:0:0:
64,192,1167642,1,0,0:0:0:0:
320,192,1167735,1,0,0:0:0:0:
192,192,1167827,1,0,0:0:0:0:
448,192,1167919,1,0,0:0:0:0:
320,192,1168011,1,0,0:0:0:0:
448,192,1168103,1,0,0:0:0:0:
192,192,1168103,1,0,0:0:0:0:
64,192,1168195,1,0,0:0:0:0:
192,192,1168287,1,0,0:0:0:0:
64,192,1168379,1,0,0:0:0:0:
448,192,1168471,1,0,0:0:0:0:
192,192,1168655,1,0,0:0:0:0:
64,192,1169023,1,0,0:0:0:0:
320,192,1169207,1,0,0:0:0:0:
448,192,1169299,1,0,0:0:0:0:
64,192,1169391,1,0,0:0:0:0:
448,192,1169483,1,0,0:0:0:0:
64,192,1169575,1,0,0:0:0:0:
64,192,1169759,1,0,0:0:0:0:
448,192,1169943,1,0,0:0:0:0:
320,192,1170127,1,0,0:0:0:0:
64,192,1170311,1,0,0:0:0:0:
320,192,1170403,1,0,0:0:0:0:
192,192,1170495,1,0,0:0:0:0:
320,192,1170587,1,0,0:0:0:0:
448,192,1170679,1,0,0:0:0:0:
448,192,1170863,1,0,0:0:0:0:
192,192,1170863,1,0,0:0:0:0:
192,192,1171139,1,0,0:0:0:0:
64,192,1171231,1,0,0:0:0:0:
192,192,1171323,1,0,0:0:0:0:
448,192,1171415,1,0,0:0:0:0:
320,192,1171508,1,0,0:0:0:0:
192,192,1171600,1,0,0:0:0:0:
320,192,1171784,1,0,0:0:0:0:
64,192,1171968,1,0,0:0:0:0:
320,192,1172060,1,0,0:0:0:0:
192,192,1172152,1,0,0:0:0:0:
448,192,1172244,1,0,0:0:0:0:
192,192,1172336,1,0,0:0:0:0:
320,192,1172428,1,0,0:0:0:0:
192,192,1172888,1,0,0:0:0:0:
448,192,1173072,1,0,0:0:0:0:
192,192,1173072,1,0,0:0:0:0:
320,192,1173256,1,0,0:0:0:0:
448,192,1173348,1,0,0:0:0:0:
192,192,1173440,1,0,0:0:0:0:
320,192,1173532,1,0,0:0:0:0:
64,192,1173532,1,0,0:0:0:0:
192,192,1173624,1,0,0:0:0:0:
320,192,1173808,1,0,0:0:0:0:
192,192,1174912,1,0,0:0:0:0:
448,192,1174912,1,0,0:0:0:0:
64,192,1175373,1,0,0:0:0:0:
448,192,1176017,1,0,0:0:0:0:
192,192,1176017,1,0,0:0:0:0:
320,192,1176109,1,0,0:0:0:0:
192,192,1176201,1,0,0:0:0:0:
64,192,1176293,1,0,0:0:0:0:
64,192,1176477,1,0,0:0:0:0:
448,192,1176661,1,0,0:0:0:0:
192,192,1176753,1,0,0:0:0:0:
320,192,1177397,1,0,0:0:0:0:
448,192,1178409,1,0,0:0:0:0:
64,192,1178593,1,0,0:0:0:0:
448,192,1178962,1,0,0:0:0:0:
64,192,1179146,1,0,0:0:0:0:
192,192,1179238,1,0,0:0:0:0:
64,192,1179330,1,0,0:0:0:0:
192,192,1179698,1,0,0:0:0:0:
320,192,1179698,1,0,0:0:0:0:
192,192,1180802,1,0,0:0:0:0:
192,192,1181906,1,0,0:0:0:0:
448,192,1182090,1,0,0:0:0:0:
192,192,1182182,1,0,0:0:0:0:
448,192,1182366,1,0,0:0:0:0:
64,192,1182458,1,0,0:0:0:0:
192,192,1182550,1,0,0:0:0:0:
320,192,1182642,1,0,0:0:0:0:
192,192,1182919,1,0,0:0:0:0:
448,192,1183471,1,0,0:0:0:0:
448,192,1184115,1,0,0:0:0:0:
64,192,1184207,1,0,0:0:0:0:
192,192,1184483,1,0,0:0:0:0:
64,192,1184851,1,0,0:0:0:0:
192,192,1185035,1,0,0:0:0:0:
64,192,1185127,1,0,0:0:0:0:
448,192,1185127,1,0,0:0:0:0:
192,192,1185219,1,0,0:0:0:0:
64,192,1185403,1,0,0:0:0:0:
64,192,1185587,1,0,0:0:0:0:
64,192,1186231,1,0,0:0:0:0:
448,192,1186692,1,0,0:0:0:0:
448,192,1187244,1,0,0:0:0:0:
320,192,1187796,1,0,0:0:0:0:
64,192,1187980,1,0,0:0:0:0:
64,192,1188256,1,0,0:0:0:0:
320,192,1188348,1,0,0:0:0:0:
320,192,1188532,1,0,0:0:0:0:
192,192,1188624,1,0,0:0:0:0:
320,192,1188808,1,0,0:0:0:0:
448,192,1188900,1,0,0:0:0:0:
64,192,1189728,1,0,0:0:0:0:
320,192,1190004,1,0,0:0:0:0:
192,192,1190925,1,0,0:0:0:0:
192,192,1191109,1,0,0:0:0:0:
320,192,1191201,1,0,0:0:0:0:
192,192,1191293,1,0,0:0:0:0:
448,192,1191477,1,0,0:0:0:0:
320,192,1191753,1,0,0:0:0:0:
320,192,1192029,1,0,0:0:0:0:
192,192,1192305,1,0,0:0:0:0:
320,192,1192581,1,0,0:0:0:0:
320,192,1192857,1,0,0:0:0:0:
64,192,1192949,1,0,0:0:0:0:
448,192,1193133,1,0,0:0:0:0:
64,192,1193685,1,0,0:0:0:0:
320,192,1193869,1,0,0:0:0:0:
192,192,1194146,1,0,0:0:0:0:
320,192,1194238,1,0,0:0:0:0:
192,192,1194330,1,0,0:0:0:0:
448,192,1194422,1,0,0:0:0:0:
192,192,1194514,1,0,0:0:0:0:
64,192,1194606,1,0,0:0:0:0:
64,192,1194790,1,0,0:0:0:0:
320,192,1195066,1,0,0:0:0:0:
64,192,1195526,1,0,0:0:0:0:
448,192,1195618,1,0,0:0:0:0:
320,192,1195710,1,0,0:0:0:0:
64,192,1195894,1,0,0:0:0:0:
192,192,1195986,1,0,0:0:0:0:
320,192,1196078,1,0,0:0:0:0:
448,192,1196630,1,0,0:0:0:0:
64,192,1196814,1,0,0:0:0:0:
320,192,1196906,1,0,0:0:0:0:
320,192,1197366,1,0,0:0:0:0:
192,192,1197366,1,0,0:0:0:0:
192,192,1197550,1,0,0:0:0:0:
64,192,1197642,1,0,0:0:0:0:
448,192,1197642,1,0,0:0:0:0:
320,192,1197827,1,0,0:0:0:0:
192,192,1197827,1,0,0:0:0:0:
64,192,1197919,1,0,0:0:0:0:
448,192,1197919,1,0,0:0:0:0:
320,192,1198011,1,0,0:0:0:0:
192,192,1198103,1,0,0:0:0:0:
64,192,1198103,1,0,0:0:0:0:
448,192,1198287,1,0,0:0:0:0:
64,192,1198471,1,0,0:0:0:0:
192,192,1198655,1,0,0:0:0:0:
448,192,1199207,1,0,0:0:0:0:
320,192,1199575,1,0,0:0:0:0:
192,192,1199575,1,0,0:0:0:0:
192,192,1199759,1,0,0:0:0:0:
448,192,1199851,1,0,0:0:0:0:
64,192,1199851,1,0,0:0:0:0:
64,192,1200035,1,0,0:0:0:0:
320,192,1200035,1,0,0:0:0:0:
192,192,1200127,1,0,0:0:0:0:
448,192,1200127,1,0,0:0:0:0:
448,192,1200311,1,0,0:0:0:0:
192,192,1200311,1,0,0:0:0:0:
448,192,1200495,1,0,0:0:0:0:
320,192,1200587,1,0,0:0:0:0:
192,192,1200587,1,0,0:0:0:0:
192,192,1200771,1,0,0:0:0:0:
320,192,1200863,1,0,0:0:0:0:
448,192,1200863,1,0,0:0:0:0:
64,192,1200955,1,0,0:0:0:0:
448,192,1201047,1,0,0:0:0:0:
192,192,1201047,1,0,0:0:0:0:
64,192,1201231,1,0,0:0:0:0:
448,192,1201323,1,0,0:0:0:0:
64,192,1201415,1,0,0:0:0:0:
448,192,1201508,1,0,0:0:0:0:
192,192,1201600,1,0,0:0:0:0:
64,192,1201692,1,0,0:0:0:0:
320,192,1201784,1,0,0:0:0:0:
320,192,1202060,1,0,0:0:0:0:
448,192,1202244,1,0,0:0:0:0:
192,192,1202336,1,0,0:0:0:0:
448,192,1202520,1,0,0:0:0:0:
320,192,1202520,1,0,0:0:0:0:
320,192,1202704,1,0,0:0:0:0:
64,192,1202704,1,0,0:0:0:0:
192,192,1202796,1,0,0:0:0:0:
320,192,1202888,1,0,0:0:0:0:
448,192,1202980,1,0,0:0:0:0:
64,192,1202980,1,0,0:0:0:0:
192,192,1203072,1,0,0:0:0:0:
320,192,1203072,1,0,0:0:0:0:
64,192,1203164,1,0,0:0:0:0:
320,192,1203256,1,0,0:0:0:0:
320,192,1203440,1,0,0:0:0:0:
192,192,1203440,1,0,0:0:0:0:
64,192,1203532,1,0,0:0:0:0:
448,192,1203532,1,0,0:0:0:0:
448,192,1203716,1,0,0:0:0:0:
64,192,1203716,1,0,0:0:0:0:
192,192,1203808,1,0,0:0:0:0:
320,192,1203808,1,0,0:0:0:0:
192,192,1203992,1,0,0:0:0:0:
448,192,1203992,1,0,0:0:0:0:
192,192,1205096,1,0,0:0:0:0:
64,192,1205465,1,0,0:0:0:0:
192,192,1205465,1,0,0:0:0:0:
448,192,1205649,1,0,0:0:0:0:
320,192,1205741,1,0,0:0:0:0:
64,192,1205741,1,0,0:0:0:0:
448,192,1205925,1,0,0:0:0:0:
320,192,1206017,1,0,0:0:0:0:
64,192,1206017,1,0,0:0:0:0:
192,192,1206109,1,0,0:0:0:0:
448,192,1206201,1,0,0:0:0:0:
64,192,1206201,1,0,0:0:0:0:
192,192,1206385,1,0,0:0:0:0:
320,192,1206477,1,0,0:0:0:0:
448,192,1206477,1,0,0:0:0:0:
64,192,1206661,1,0,0:0:0:0:
192,192,1206661,1,0,0:0:0:0:
448,192,1206753,1,0,0:0:0:0:
320,192,1206753,1,0,0:0:0:0:
64,192,1206845,1,0,0:0:0:0:
320,192,1206937,1,0,0:0:0:0:
448,192,1206937,1,0,0:0:0:0:
192,192,1207305,1,0,0:0:0:0:
64,192,1207397,1,0,0:0:0:0:
320,192,1207489,1,0,0:0:0:0:
64,192,1207581,1,0,0:0:0:0:
192,192,1207673,1,0,0:0:0:0:
64,192,1207765,1,0,0:0:0:0:
192,192,1207949,1,0,0:0:0:0:
320,192,1208225,1,0,0:0:0:0:
64,192,1208409,1,0,0:0:0:0:
192,192,1208409,1,0,0:0:0:0:
64,192,1208593,1,0,0:0:0:0:
448,192,1208593,1,0,0:0:0:0:
192,192,1208685,1,0,0:0:0:0:
320,192,1208685,1,0,0:0:0:0:
448,192,1208777,1,0,0:0:0:0:
192,192,1208869,1,0,0:0:0:0:
64,192,1208869,1,0,0:0:0:0:
448,192,1208962,1,0,0:0:0:0:
320,192,1208962,1,0,0:0:0:0:
448,192,1209146,1,0,0:0:0:0:
64,192,1209146,1,0,0:0:0:0:
192,192,1209330,1,0,0:0:0:0:
448,192,1209330,1,0,0:0:0:0:
320,192,1209422,1,0,0:0:0:0:
64,192,1209422,1,0,0:0:0:0:
448,192,1209514,1,0,0:0:0:0:
64,192,1209606,1,0,0:0:0:0:
320,192,1209698,1,0,0:0:0:0:
448,192,1209698,1,0,0:0:0:0:
64,192,1209882,1,0,0:0:0:0:
320,192,1209882,1,0,0:0:0:0:
320,192,1210250,1,0,0:0:0:0:
320,192,1210802,1,0,0:0:0:0:
448,192,1210986,1,0,0:0:0:0:
320,192,1211354,1,0,0:0:0:0:
192,192,1211354,1,0,0:0:0:0:
448,192,1211538,1,0,0:0:0:0:
64,192,1211630,1,0,0:0:0:0:
192,192,1211814,1,0,0:0:0:0:
64,192,1211814,1,0,0:0:0:0:
320,192,1211906,1,0,0:0:0:0:
448,192,1211906,1,0,0:0:0:0:
320,192,1212090,1,0,0:0:0:0:
64,192,1212090,1,0,0:0:0:0:
448,192,1212366,1,0,0:0:0:0:
64,192,1212366,1,0,0:0:0:0:
192,192,1212550,1,0,0:0:0:0:
64,192,1212550,1,0,0:0:0:0:
448,192,1212642,1,0,0:0:0:0:
320,192,1212642,1,0,0:0:0:0:
192,192,1212735,1,0,0:0:0:0:
320,192,1212827,1,0,0:0:0:0:
448,192,1212827,1,0,0:0:0:0:
64,192,1213103,1,0,0:0:0:0:
448,192,1213195,1,0,0:0:0:0:
64,192,1213379,1,0,0:0:0:0:
448,192,1213471,1,0,0:0:0:0:
192,192,1213563,1,0,0:0:0:0:
64,192,1213655,1,0,0:0:0:0:
448,192,1213839,1,0,0:0:0:0:
448,192,1214023,1,0,0:0:0:0:
320,192,1214115,1,0,0:0:0:0:
320,192,1214299,1,0,0:0:0:0:
192,192,1214299,1,0,0:0:0:0:
320,192,1214483,1,0,0:0:0:0:
192,192,1214483,1,0,0:0:0:0:
448,192,1214575,1,0,0:0:0:0:
64,192,1214667,1,0,0:0:0:0:
320,192,1214759,1,0,0:0:0:0:
448,192,1214851,1,0,0:0:0:0:
64,192,1214851,1,0,0:0:0:0:
320,192,1214943,1,0,0:0:0:0:
448,192,1215035,1,0,0:0:0:0:
192,192,1215219,1,0,0:0:0:0:
448,192,1215311,1,0,0:0:0:0:
320,192,1215311,1,0,0:0:0:0:
448,192,1215495,1,0,0:0:0:0:
192,192,1215587,1,0,0:0:0:0:
320,192,1215771,1,0,0:0:0:0:
192,192,1215771,1,0,0:0:0:0:
192,192,1215955,1,0,0:0:0:0:
448,192,1216047,1,0,0:0:0:0:
192,192,1216139,1,0,0:0:0:0:
320,192,1216139,1,0,0:0:0:0:
320,192,1217244,1,0,0:0:0:0:
192,192,1217244,1,0,0:0:0:0:
448,192,1217336,1,0,0:0:0:0:
64,192,1217428,1,0,0:0:0:0:
192,192,1217520,1,0,0:0:0:0:
448,192,1217520,1,0,0:0:0:0:
448,192,1217704,1,0,0:0:0:0:
64,192,1217796,1,0,0:0:0:0:
64,192,1217980,1,0,0:0:0:0:
448,192,1218164,1,0,0:0:0:0:
64,192,1218256,1,0,0:0:0:0:
448,192,1218440,1,0,0:0:0:0:
320,192,1218532,1,0,0:0:0:0:
64,192,1218624,1,0,0:0:0:0:
448,192,1218624,1,0,0:0:0:0:
192,192,1218716,1,0,0:0:0:0:
64,192,1218992,1,0,0:0:0:0:
320,192,1219360,1,0,0:0:0:0:
192,192,1219452,1,0,0:0:0:0:
448,192,1219544,1,0,0:0:0:0:
64,192,1219728,1,0,0:0:0:0:
448,192,1219820,1,0,0:0:0:0:
192,192,1220096,1,0,0:0:0:0:
448,192,1220188,1,0,0:0:0:0:
320,192,1220188,1,0,0:0:0:0:
64,192,1220373,1,0,0:0:0:0:
192,192,1220465,1,0,0:0:0:0:
448,192,1220649,1,0,0:0:0:0:
192,192,1220649,1,0,0:0:0:0:
320,192,1220741,1,0,0:0:0:0:
64,192,1220925,1,0,0:0:0:0:
320,192,1220925,1,0,0:0:0:0:
320,192,1221385,1,0,0:0:0:0:
192,192,1221477,1,0,0:0:0:0:
64,192,1221477,1,0,0:0:0:0:
320,192,1221569,1,0,0:0:0:0:
64,192,1221661,1,0,0:0:0:0:
64,192,1222029,1,0,0:0:0:0:
448,192,1222029,1,0,0:0:0:0:
192,192,1222213,1,0,0:0:0:0:
448,192,1222397,1,0,0:0:0:0:
192,192,1222581,1,0,0:0:0:0:
64,192,1222765,1,0,0:0:0:0:
192,192,1222857,1,0,0:0:0:0:
64,192,1222949,1,0,0:0:0:0:
192,192,1223041,1,0,0:0:0:0:
448,192,1223133,1,0,0:0:0:0:
64,192,1223133,1,0,0:0:0:0:
192,192,1223225,1,0,0:0:0:0:
64,192,1223317,1,0,0:0:0:0:
192,192,1223409,1,0,0:0:0:0:
448,192,1223501,1,0,0:0:0:0:
64,192,1223501,1,0,0:0:0:0:
320,192,1223685,1,0,0:0:0:0:
64,192,1223869,1,0,0:0:0:0:
192,192,1223869,1,0,0:0:0:0:
448,192,1223962,1,0,0:0:0:0:
192,192,1224054,1,0,0:0:0:0:
448,192,1224146,1,0,0:0:0:0:
64,192,1224238,1,0,0:0:0:0:
320,192,1224422,1,0,0:0:0:0:
192,192,1224422,1,0,0:0:0:0:
448,192,1224514,1,0,0:0:0:0:
64,192,1224606,1,0,0:0:0:0:
64,192,1224974,1,0,0:0:0:0:
448,192,1224974,1,0,0:0:0:0:
448,192,1225342,1,0,0:0:0:0:
64,192,1225342,1,0,0:0:0:0:
192,192,1225526,1,0,0:0:0:0:
320,192,1225710,1,0,0:0:0:0:
64,192,1225802,1,0,0:0:0:0:
320,192,1225894,1,0,0:0:0:0:
192,192,1225986,1,0,0:0:0:0:
448,192,1225986,1,0,0:0:0:0:
320,192,1226078,1,0,0:0:0:0:
192,192,1226262,1,0,0:0:0:0:
64,192,1226262,1,0,0:0:0:0:
320,192,1226354,1,0,0:0:0:0:
448,192,1226446,1,0,0:0:0:0:
64,192,1226446,1,0,0:0:0:0:
320,192,1226630,1,0,0:0:0:0:
64,192,1226630,1,0,0:0:0:0:
448,192,1226722,1,0,0:0:0:0:
192,192,1226814,1,0,0:0:0:0:
64,192,1226814,1,0,0:0:0:0:
448,192,1226906,1,0,0:0:0:0:
320,192,1227182,1,0,0:0:0:0:
192,192,1227366,1,0,0:0:0:0:
448,192,1227366,1,0,0:0:0:0:
320,192,1227458,1,0,0:0:0:0:
64,192,1227550,1,0,0:0:0:0:
320,192,1227919,1,0,0:0:0:0:
64,192,1227919,1,0,0:0:0:0:
320,192,1228195,1,0,0:0:0:0:
64,192,1228287,1,0,0:0:0:0:
64,192,1228471,1,0,0:0:0:0:
448,192,1228655,1,0,0:0:0:0:
64,192,1228839,1,0,0:0:0:0:
192,192,1228931,1,0,0:0:0:0:
448,192,1229023,1,0,0:0:0:0:
192,192,1229207,1,0,0:0:0:0:
320,192,1229391,1,0,0:0:0:0:
448,192,1229391,1,0,0:0:0:0:
64,192,1229575,1,0,0:0:0:0:
64,192,1229759,1,0,0:0:0:0:
448,192,1229759,1,0,0:0:0:0:
64,192,1230127,1,0,0:0:0:0:
64,192,1230311,1,0,0:0:0:0:
448,192,1230403,1,0,0:0:0:0:
320,192,1230495,1,0,0:0:0:0:
64,192,1230863,1,0,0:0:0:0:
448,192,1230863,1,0,0:0:0:0:
64,192,1231231,1,0,0:0:0:0:
448,192,1231600,1,0,0:0:0:0:
320,192,1231876,1,0,0:0:0:0:
448,192,1231968,1,0,0:0:0:0:
320,192,1232152,1,0,0:0:0:0:
192,192,1232336,1,0,0:0:0:0:
320,192,1232336,1,0,0:0:0:0:
448,192,1232428,1,0,0:0:0:0:
320,192,1232520,1,0,0:0:0:0:
64,192,1232520,1,0,0:0:0:0:
64,192,1232704,1,0,0:0:0:0:
320,192,1232704,1,0,0:0:0:0:
192,192,1232796,1,0,0:0:0:0:
320,192,1232888,1,0,0:0:0:0:
192,192,1233072,1,0,0:0:0:0:
192,192,1233256,1,0,0:0:0:0:
64,192,1233348,1,0,0:0:0:0:
320,192,1233440,1,0,0:0:0:0:
192,192,1233624,1,0,0:0:0:0:
448,192,1233624,1,0,0:0:0:0:
192,192,1233808,1,0,0:0:0:0:
448,192,1233992,1,0,0:0:0:0:
64,192,1234084,1,0,0:0:0:0:
192,192,1234176,1,0,0:0:0:0:
448,192,1234544,1,0,0:0:0:0:
192,192,1234544,1,0,0:0:0:0:
64,192,1234728,1,0,0:0:0:0:
448,192,1234820,1,0,0:0:0:0:
192,192,1234912,1,0,0:0:0:0:
64,192,1235096,1,0,0:0:0:0:
64,192,1235281,1,0,0:0:0:0:
448,192,1235373,1,0,0:0:0:0:
192,192,1235465,1,0,0:0:0:0:
448,192,1235649,1,0,0:0:0:0:
64,192,1235741,1,0,0:0:0:0:
192,192,1235833,1,0,0:0:0:0:
64,192,1236017,1,0,0:0:0:0:
320,192,1236017,1,0,0:0:0:0:
320,192,1236201,1,0,0:0:0:0:
192,192,1236293,1,0,0:0:0:0:
448,192,1236385,1,0,0:0:0:0:
448,192,1236569,1,0,0:0:0:0:
64,192,1236753,1,0,0:0:0:0:
448,192,1236845,1,0,0:0:0:0:
64,192,1237121,1,0,0:0:0:0:
448,192,1237397,1,0,0:0:0:0:
192,192,1237489,1,0,0:0:0:0:
64,192,1237489,1,0,0:0:0:0:
64,192,1237673,1,0,0:0:0:0:
320,192,1237673,1,0,0:0:0:0:
192,192,1237765,1,0,0:0:0:0:
448,192,1237857,1,0,0:0:0:0:
192,192,1238041,1,0,0:0:0:0:
64,192,1238041,1,0,0:0:0:0:
448,192,1238225,1,0,0:0:0:0:
192,192,1238225,1,0,0:0:0:0:
64,192,1238409,1,0,0:0:0:0:
192,192,1238409,1,0,0:0:0:0:
448,192,1238501,1,0,0:0:0:0:
320,192,1238593,1,0,0:0:0:0:
192,192,1238685,1,0,0:0:0:0:
320,192,1238777,1,0,0:0:0:0:
64,192,1238869,1,0,0:0:0:0:
448,192,1238962,1,0,0:0:0:0:
64,192,1239146,1,0,0:0:0:0:
448,192,1239238,1,0,0:0:0:0:
192,192,1239330,1,0,0:0:0:0:
192,192,1239698,1,0,0:0:0:0:
320,192,1239698,1,0,0:0:0:0:
192,192,1239882,1,0,0:0:0:0:
64,192,1239974,1,0,0:0:0:0:
192,192,1240066,1,0,0:0:0:0:
192,192,1240434,1,0,0:0:0:0:
192,192,1240618,1,0,0:0:0:0:
64,192,1240710,1,0,0:0:0:0:
320,192,1240802,1,0,0:0:0:0:
320,192,1241170,1,0,0:0:0:0:
320,192,1241354,1,0,0:0:0:0:
448,192,1241446,1,0,0:0:0:0:
64,192,1241538,1,0,0:0:0:0:
192,192,1241630,1,0,0:0:0:0:
320,192,1241722,1,0,0:0:0:0:
448,192,1241906,1,0,0:0:0:0:
320,192,1242090,1,0,0:0:0:0:
64,192,1242182,1,0,0:0:0:0:
192,192,1242274,1,0,0:0:0:0:
64,192,1242550,1,0,0:0:0:0:
448,192,1242642,1,0,0:0:0:0:
64,192,1243011,1,0,0:0:0:0:
448,192,1243103,1,0,0:0:0:0:
320,192,1243195,1,0,0:0:0:0:
320,192,1243379,1,0,0:0:0:0:
192,192,1243379,1,0,0:0:0:0:
64,192,1243471,1,0,0:0:0:0:
320,192,1243563,1,0,0:0:0:0:
64,192,1243655,1,0,0:0:0:0:
448,192,1243655,1,0,0:0:0:0:
320,192,1243747,1,0,0:0:0:0:
192,192,1243747,1,0,0:0:0:0:
192,192,1243931,1,0,0:0:0:0:
448,192,1244115,1,0,0:0:0:0:
320,192,1244207,1,0,0:0:0:0:
448,192,1244299,1,0,0:0:0:0:
192,192,1244299,1,0,0:0:0:0:
448,192,1244483,1,0,0:0:0:0:
320,192,1244575,1,0,0:0:0:0:
64,192,1244667,1,0,0:0:0:0:
192,192,1244667,1,0,0:0:0:0:
192,192,1244943,1,0,0:0:0:0:
192,192,1245127,1,0,0:0:0:0:
320,192,1245219,1,0,0:0:0:0:
448,192,1245219,1,0,0:0:0:0:
64,192,1245587,1,0,0:0:0:0:
192,192,1245587,1,0,0:0:0:0:
192,192,1245771,1,0,0:0:0:0:
448,192,1245771,1,0,0:0:0:0:
64,192,1245955,1,0,0:0:0:0:
448,192,1245955,1,0,0:0:0:0:
448,192,1246139,1,0,0:0:0:0:
64,192,1246139,1,0,0:0:0:0:
64,192,1246323,1,0,0:0:0:0:
64,192,1246508,1,0,0:0:0:0:
64,192,1246692,1,0,0:0:0:0:
448,192,1247060,1,0,0:0:0:0:
64,192,1247060,1,0,0:0:0:0:
320,192,1247244,1,0,0:0:0:0:
448,192,1247428,1,0,0:0:0:0:
64,192,1247428,1,0,0:0:0:0:
192,192,1247520,1,0,0:0:0:0:
64,192,1247612,1,0,0:0:0:0:
192,192,1247704,1,0,0:0:0:0:
192,192,1248164,1,0,0:0:0:0:
64,192,1248164,1,0,0:0:0:0:
448,192,1248348,1,0,0:0:0:0:
448,192,1248532,1,0,0:0:0:0:
320,192,1248532,1,0,0:0:0:0:
192,192,1248716,1,0,0:0:0:0:
320,192,1248716,1,0,0:0:0:0:
448,192,1248808,1,0,0:0:0:0:
192,192,1248900,1,0,0:0:0:0:
64,192,1249268,1,0,0:0:0:0:
448,192,1249636,1,0,0:0:0:0:
320,192,1249636,1,0,0:0:0:0:
64,192,1250373,1,0,0:0:0:0:
448,192,1250373,1,0,0:0:0:0:
64,192,1250557,1,0,0:0:0:0:
448,192,1250649,1,0,0:0:0:0:
192,192,1250741,1,0,0:0:0:0:
448,192,1250925,1,0,0:0:0:0:
64,192,1251477,1,0,0:0:0:0:
448,192,1251477,1,0,0:0:0:0:
64,192,1252029,1,0,0:0:0:0:
192,192,1252121,1,0,0:0:0:0:
448,192,1252489,1,0,0:0:0:0:
64,192,1253041,1,0,0:0:0:0:
192,192,1253133,1,0,0:0:0:0:
320,192,1253317,1,0,0:0:0:0:
192,192,1253317,1,0,0:0:0:0:
64,192,1253501,1,0,0:0:0:0:
448,192,1253501,1,0,0:0:0:0:
64,192,1253685,1,0,0:0:0:0:
64,192,1253869,1,0,0:0:0:0:
192,192,1254054,1,0,0:0:0:0:
448,192,1254238,1,0,0:0:0:0:
320,192,1254422,1,0,0:0:0:0:
192,192,1254606,1,0,0:0:0:0:
64,192,1254790,1,0,0:0:0:0:
192,192,1254790,1,0,0:0:0:0:
448,192,1255802,1,0,0:0:0:0:
320,192,1256262,1,0,0:0:0:0:
320,192,1256538,1,0,0:0:0:0:
192,192,1256814,1,0,0:0:0:0:
448,192,1257366,1,0,0:0:0:0:
192,192,1257366,1,0,0:0:0:0:
448,192,1257735,1,0,0:0:0:0:
448,192,1257919,1,0,0:0:0:0:
320,192,1258471,1,0,0:0:0:0:
320,192,1258655,1,0,0:0:0:0:
448,192,1258747,1,0,0:0:0:0:
192,192,1258839,1,0,0:0:0:0:
192,192,1259023,1,0,0:0:0:0:
192,192,1259207,1,0,0:0:0:0:
192,192,1259575,1,0,0:0:0:0:
448,192,1259667,1,0,0:0:0:0:
192,192,1259759,1,0,0:0:0:0:
64,192,1259943,1,0,0:0:0:0:
448,192,1260127,1,0,0:0:0:0:
192,192,1260219,1,0,0:0:0:0:
64,192,1260311,1,0,0:0:0:0:
320,192,1260495,1,0,0:0:0:0:
64,192,1260587,1,0,0:0:0:0:
320,192,1260679,1,0,0:0:0:0:
64,192,1260771,1,0,0:0:0:0:
320,192,1260955,1,0,0:0:0:0:
64,192,1261047,1,0,0:0:0:0:
448,192,1261415,1,0,0:0:0:0:
192,192,1261876,1,0,0:0:0:0:
320,192,1262060,1,0,0:0:0:0:
448,192,1262152,1,0,0:0:0:0:
64,192,1262336,1,0,0:0:0:0:
448,192,1262428,1,0,0:0:0:0:
192,192,1262520,1,0,0:0:0:0:
64,192,1263164,1,0,0:0:0:0:
192,192,1263440,1,0,0:0:0:0:
64,192,1263808,1,0,0:0:0:0:
64,192,1264268,1,0,0:0:0:0:
192,192,1264728,1,0,0:0:0:0:
192,192,1264912,1,0,0:0:0:0:
192,192,1265096,1,0,0:0:0:0:
448,192,1265465,1,0,0:0:0:0:
64,192,1265649,1,0,0:0:0:0:
192,192,1265833,1,0,0:0:0:0:
448,192,1265833,1,0,0:0:0:0:
64,192,1266017,1,0,0:0:0:0:
448,192,1266201,1,0,0:0:0:0:
320,192,1266477,1,0,0:0:0:0:
64,192,1266569,1,0,0:0:0:0:
448,192,1266845,1,0,0:0:0:0:
320,192,1266937,1,0,0:0:0:0:
64,192,1267305,1,0,0:0:0:0:
448,192,1267581,1,0,0:0:0:0:
320,192,1267857,1,0,0:0:0:0:
448,192,1268041,1,0,0:0:0:0:
192,192,1269146,1,0,0:0:0:0:
320,192,1269514,1,0,0:0:0:0:
64,192,1269606,1,0,0:0:0:0:
448,192,1270066,1,0,0:0:0:0:
192,192,1270986,1,0,0:0:0:0:
320,192,1271722,1,0,0:0:0:0:
320,192,1271906,1,0,0:0:0:0:
448,192,1272274,1,0,0:0:0:0:
192,192,1272366,1,0,0:0:0:0:
320,192,1272458,1,0,0:0:0:0:
320,192,1273195,1,0,0:0:0:0:
192,192,1273471,1,0,0:0:0:0:
448,192,1273747,1,0,0:0:0:0:
320,192,1273839,1,0,0:0:0:0:
64,192,1274207,1,0,0:0:0:0:
320,192,1274943,1,0,0:0:0:0:
192,192,1275035,1,0,0:0:0:0:
192,192,1275403,1,0,0:0:0:0:
320,192,1275955,1,0,0:0:0:0:
64,192,1276047,1,0,0:0:0:0:
448,192,1276508,1,0,0:0:0:0:
320,192,1277244,1,0,0:0:0:0:
192,192,1277612,1,0,0:0:0:0:
448,192,1278440,1,0,0:0:0:0:
448,192,1279728,1,0,0:0:0:0:
64,192,1280004,1,0,0:0:0:0:
448,192,1280096,1,0,0:0:0:0:
320,192,1280925,1,0,0:0:0:0:
320,192,1281293,1,0,0:0:0:0:
448,192,1281385,1,0,0:0:0:0:
64,192,1281845,1,0,0:0:0:0:
64,192,1282213,1,0,0:0:0:0:
320,192,1282213,1,0,0:0:0:0:
192,192,1282765,1,0,0:0:0:0:
448,192,1283317,1,0,0:0:0:0:
192,192,1284146,1,0,0:0:0:0:
320,192,1284238,1,0,0:0:0:0:
448,192,1284606,1,0,0:0:0:0:
192,192,1284606,1,0,0:0:0:0:
192,192,1285526,1,0,0:0:0:0:
64,192,1285710,1,0,0:0:0:0:
192,192,1285894,1,0,0:0:0:0:
320,192,1285986,1,0,0:0:0:0:
192,192,1286078,1,0,0:0:0:0:
192,192,1286262,1,0,0:0:0:0:
64,192,1286998,1,0,0:0:0:0:
320,192,1287550,1,0,0:0:0:0:
64,192,1287735,1,0,0:0:0:0:
192,192,1287827,1,0,0:0:0:0:
64,192,1287919,1,0,0:0:0:0:
320,192,1288103,1,0,0:0:0:0:
192,192,1288103,1,0,0:0:0:0:
192,192,1288379,1,0,0:0:0:0:
192,192,1288747,1,0,0:0:0:0:
448,192,1289207,1,0,0:0:0:0:
64,192,1290127,1,0,0:0:0:0:
192,192,1290403,1,0,0:0:0:0:
320,192,1290495,1,0,0:0:0:0:
320,192,1290863,1,0,0:0:0:0:
64,192,1291508,1,0,0:0:0:0:
448,192,1297634,5,0,0:0:0:0:
192,192,1297725,1,0,0:0:0:0:
64,192,1299088,1,0,0:0:0:0:
320,192,1299179,1,0,0:0:0:0:
192,192,1299451,1,0,0:0:0:0:
64,192,1299997,1,0,0:0:0:0:
192,192,1301451,1,0,0:0:0:0:
192,192,1301723,1,0,0:0:0:0:
64,192,1301996,1,0,0:0:0:0:
64,192,1302450,1,0,0:0:0:0:
448,192,1303813,1,0,0:0:0:0:
64,192,1303904,1,0,0:0:0:0:
64,192,1304722,1,0,0:0:0:0:
320,192,1304813,1,0,0:0:0:0:
320,192,1305267,1,0,0:0:0:0:
64,192,1305540,1,0,0:0:0:0:
320,192,1305722,1,0,0:0:0:0:
448,192,1306722,1,0,0:0:0:0:
320,192,1306903,1,0,0:0:0:0:
320,192,1307267,1,0,0:0:0:0:
192,192,1307721,1,0,0:0:0:0:
320,192,1307994,1,0,0:0:0:0:
320,192,1308357,1,0,0:0:0:0:
320,192,1309539,1,0,0:0:0:0:
448,192,1311084,1,0,0:0:0:0:
192,192,1311629,1,0,0:0:0:0:
448,192,1312447,1,0,0:0:0:0:
64,192,1312719,1,0,0:0:0:0:
320,192,1312901,1,0,0:0:0:0:
64,192,1313083,1,0,0:0:0:0:
192,192,1313174,1,0,0:0:0:0:
448,192,1313174,1,0,0:0:0:0:
192,192,1313992,1,0,0:0:0:0:
320,192,1314083,1,0,0:0:0:0:
192,192,1314810,1,0,0:0:0:0:
64,192,1314900,1,0,0:0:0:0:
192,192,1315991,1,0,0:0:0:0:
320,192,1315991,1,0,0:0:0:0:
320,192,1316354,1,0,0:0:0:0:
192,192,1316627,1,0,0:0:0:0:
64,192,1316718,1,0,0:0:0:0:
448,192,1317718,1,0,0:0:0:0:
448,192,1318354,1,0,0:0:0:0:
320,192,1318899,1,0,0:0:0:0:
448,192,1319717,1,0,0:0:0:0:
192,192,1320353,1,0,0:0:0:0:
192,192,1320898,1,0,0:0:0:0:
192,192,1321807,1,0,0:0:0:0:
448,192,1322352,1,0,0:0:0:0:
192,192,1322443,1,0,0:0:0:0:
448,192,1322898,1,0,0:0:0:0:
64,192,1323079,1,0,0:0:0:0:
192,192,1323261,1,0,0:0:0:0:
320,192,1323443,1,0,0:0:0:0:
320,192,1324352,1,0,0:0:0:0:
320,192,1325079,1,0,0:0:0:0:
320,192,1325260,1,0,0:0:0:0:
320,192,1325715,1,0,0:0:0:0:
448,192,1325806,1,0,0:0:0:0:
320,192,1325897,1,0,0:0:0:0:
192,192,1326260,1,0,0:0:0:0:
64,192,1327078,1,0,0:0:0:0:
192,192,1327169,1,0,0:0:0:0:
64,192,1327623,1,0,0:0:0:0:
448,192,1327987,1,0,0:0:0:0:
320,192,1328078,1,0,0:0:0:0:
64,192,1328168,1,0,0:0:0:0:
448,192,1329077,1,0,0:0:0:0:
64,192,1329168,1,0,0:0:0:0:
320,192,1329350,1,0,0:0:0:0:
448,192,1330531,1,0,0:0:0:0:
192,192,1331258,1,0,0:0:0:0:
448,192,1331622,1,0,0:0:0:0:
64,192,1332803,1,0,0:0:0:0:
448,192,1332894,1,0,0:0:0:0:
192,192,1333803,1,0,0:0:0:0:
320,192,1334530,1,0,0:0:0:0:
320,192,1335984,1,0,0:0:0:0:
192,192,1336438,1,0,0:0:0:0:
192,192,1336620,1,0,0:0:0:0:
192,192,1337347,1,0,0:0:0:0:
64,192,1337438,1,0,0:0:0:0:
320,192,1337983,1,0,0:0:0:0:
192,192,1338074,1,0,0:0:0:0:
320,192,1339255,1,0,0:0:0:0:
448,192,1339619,1,0,0:0:0:0:
192,192,1339619,1,0,0:0:0:0:
192,192,1339892,1,0,0:0:0:0:
448,192,1339982,1,0,0:0:0:0:
64,192,1340437,1,0,0:0:0:0:
448,192,1341073,1,0,0:0:0:0:
320,192,1341164,1,0,0:0:0:0:
448,192,1342527,1,0,0:0:0:0:
320,192,1342891,1,0,0:0:0:0:
320,192,1343436,1,0,0:0:0:0:
320,192,1343981,1,0,0:0:0:0:
192,192,1344072,1,0,0:0:0:0:
448,192,1345072,1,0,0:0:0:0:
448,192,1345617,1,0,0:0:0:0:
192,192,1345708,1,0,0:0:0:0:
192,192,1346162,1,0,0:0:0:0:
192,192,1346889,1,0,0:0:0:0:
320,192,1348252,1,0,0:0:0:0:
448,192,1348707,1,0,0:0:0:0:
64,192,1348798,1,0,0:0:0:0:
192,192,1349070,1,0,0:0:0:0:
192,192,1349252,1,0,0:0:0:0:
64,192,1349343,1,0,0:0:0:0:
320,192,1349434,1,0,0:0:0:0:
64,192,1349615,1,0,0:0:0:0:
448,192,1349706,1,0,0:0:0:0:
320,192,1349888,1,0,0:0:0:0:
320,192,1350161,1,0,0:0:0:0:
192,192,1351433,1,0,0:0:0:0:
64,192,1352342,1,0,0:0:0:0:
320,192,1352705,1,0,0:0:0:0:
64,192,1354159,1,0,0:0:0:0:
192,192,1354432,1,0,0:0:0:0:
448,192,1354705,1,0,0:0:0:0:
64,192,1355068,1,0,0:0:0:0:
320,192,1355068,1,0,0:0:0:0:
192,192,1355250,1,0,0:0:0:0:
448,192,1355432,1,0,0:0:0:0:
192,192,1355613,1,0,0:0:0:0:
448,192,1355613,1,0,0:0:0:0:
192,192,1356159,1,0,0:0:0:0:
320,192,1356249,1,0,0:0:0:0:
64,192,1356704,1,0,0:0:0:0:
320,192,1356795,1,0,0:0:0:0:
320,192,1357794,1,0,0:0:0:0:
64,192,1357885,1,0,0:0:0:0:
448,192,1358158,1,0,0:0:0:0:
448,192,1358521,1,0,0:0:0:0:
64,192,1358521,1,0,0:0:0:0:
192,192,1358612,1,0,0:0:0:0:
192,192,1359612,1,0,0:0:0:0:
64,192,1359885,1,0,0:0:0:0:
320,192,1359885,1,0,0:0:0:0:
192,192,1360066,1,0,0:0:0:0:
448,192,1360339,1,0,0:0:0:0:
64,192,1360521,1,0,0:0:0:0:
192,192,1360884,1,0,0:0:0:0:
448,192,1361066,1,0,0:0:0:0:
64,192,1361066,1,0,0:0:0:0:
64,192,1361248,1,0,0:0:0:0:
192,192,1361520,1,0,0:0:0:0:
192,192,1361793,1,0,0:0:0:0:
320,192,1362520,1,0,0:0:0:0:
320,192,1363065,1,0,0:0:0:0:
192,192,1363065,1,0,0:0:0:0:
448,192,1363156,1,0,0:0:0:0:
192,192,1363610,1,0,0:0:0:0:
64,192,1363610,1,0,0:0:0:0:
192,192,1364337,1,0,0:0:0:0:
320,192,1364428,1,0,0:0:0:0:
320,192,1372610,5,0,0:0:0:0:
448,192,1375973,1,0,0:0:0:0:
448,192,1379428,1,0,0:0:0:0:
448,192,1380337,1,0,0:0:0:0:
64,192,1381792,1,0,0:0:0:0:
320,192,1382428,1,0,0:0:0:0:
320,192,1383246,1,0,0:0:0:0:
64,192,1384701,1,0,0:0:0:0:
320,192,1384973,1,0,0:0:0:0:
192,192,1385064,1,0,0:0:0:0:
192,192,1385246,1,0,0:0:0:0:
192,192,1387610,1,0,0:0:0:0:
320,192,1387610,1,0,0:0:0:0:
64,192,1387973,1,0,0:0:0:0:
320,192,1388064,1,0,0:0:0:0:
64,192,1388155,1,0,0:0:0:0:
192,192,1388246,1,0,0:0:0:0:
64,192,1388337,1,0,0:0:0:0:
448,192,1388337,1,0,0:0:0:0:
192,192,1388428,1,0,0:0:0:0:
320,192,1388519,1,0,0:0:0:0:
64,192,1388519,1,0,0:0:0:0:
448,192,1388610,1,0,0:0:0:0:
64,192,1388701,1,0,0:0:0:0:
192,192,1388792,1,0,0:0:0:0:
64,192,1388882,1,0,0:0:0:0:
192,192,1388973,1,0,0:0:0:0:
64,192,1389246,1,0,0:0:0:0:
192,192,1389428,1,0,0:0:0:0:
448,192,1389519,1,0,0:0:0:0:
64,192,1389610,1,0,0:0:0:0:
448,192,1389701,1,0,0:0:0:0:
192,192,1389792,1,0,0:0:0:0:
320,192,1389792,1,0,0:0:0:0:
448,192,1389882,1,0,0:0:0:0:
64,192,1389973,1,0,0:0:0:0:
448,192,1390064,1,0,0:0:0:0:
320,192,1390064,1,0,0:0:0:0:
192,192,1390155,1,0,0:0:0:0:
64,192,1390155,1,0,0:0:0:0:
320,192,1390246,1,0,0:0:0:0:
192,192,1390337,1,0,0:0:0:0:
64,192,1390428,1,0,0:0:0:0:
192,192,1390701,1,0,0:0:0:0:
192,192,1390882,1,0,0:0:0:0:
448,192,1390973,1,0,0:0:0:0:
192,192,1391064,1,0,0:0:0:0:
320,192,1391155,1,0,0:0:0:0:
448,192,1391246,1,0,0:0:0:0:
64,192,1391337,1,0,0:0:0:0:
320,192,1391428,1,0,0:0:0:0:
192,192,1391519,1,0,0:0:0:0:
64,192,1391610,1,0,0:0:0:0:
320,192,1391610,1,0,0:0:0:0:
192,192,1391701,1,0,0:0:0:0:
448,192,1391792,1,0,0:0:0:0:
192,192,1392155,1,0,0:0:0:0:
448,192,1392337,1,0,0:0:0:0:
192,192,1392337,1,0,0:0:0:0:
320,192,1392428,1,0,0:0:0:0:
448,192,1392519,1,0,0:0:0:0:
64,192,1392610,1,0,0:0:0:0:
320,192,1392701,1,0,0:0:0:0:
320,192,1392882,1,0,0:0:0:0:
64,192,1392973,1,0,0:0:0:0:
320,192,1393064,1,0,0:0:0:0:
192,192,1393155,1,0,0:0:0:0:
320,192,1393246,1,0,0:0:0:0:
192,192,1393337,1,0,0:0:0:0:
64,192,1393428,1,0,0:0:0:0:
448,192,1393428,1,0,0:0:0:0:
64,192,1393610,1,0,0:0:0:0:
320,192,1393792,1,0,0:0:0:0:
448,192,1393882,1,0,0:0:0:0:
64,192,1393882,1,0,0:0:0:0:
320,192,1393973,1,0,0:0:0:0:
448,192,1394064,1,0,0:0:0:0:
64,192,1394155,1,0,0:0:0:0:
320,192,1394246,1,0,0:0:0:0:
448,192,1394337,1,0,0:0:0:0:
192,192,1394337,1,0,0:0:0:0:
320,192,1394428,1,0,0:0:0:0:
64,192,1394428,1,0,0:0:0:0:
192,192,1394519,1,0,0:0:0:0:
320,192,1394610,1,0,0:0:0:0:
448,192,1394701,1,0,0:0:0:0:
64,192,1394701,1,0,0:0:0:0:
320,192,1394792,1,0,0:0:0:0:
192,192,1395064,1,0,0:0:0:0:
192,192,1395246,1,0,0:0:0:0:
320,192,1395337,1,0,0:0:0:0:
64,192,1395337,1,0,0:0:0:0:
448,192,1395428,1,0,0:0:0:0:
192,192,1395428,1,0,0:0:0:0:
64,192,1395519,1,0,0:0:0:0:
192,192,1395610,1,0,0:0:0:0:
448,192,1395701,1,0,0:0:0:0:
320,192,1395701,1,0,0:0:0:0:
192,192,1395792,1,0,0:0:0:0:
320,192,1395882,1,0,0:0:0:0:
64,192,1395973,1,0,0:0:0:0:
192,192,1395973,1,0,0:0:0:0:
448,192,1396064,1,0,0:0:0:0:
320,192,1396155,1,0,0:0:0:0:
448,192,1396246,1,0,0:0:0:0:
64,192,1396337,1,0,0:0:0:0:
64,192,1396519,1,0,0:0:0:0:
192,192,1396701,1,0,0:0:0:0:
320,192,1396882,1,0,0:0:0:0:
64,192,1396973,1,0,0:0:0:0:
448,192,1397064,1,0,0:0:0:0:
320,192,1397155,1,0,0:0:0:0:
192,192,1397337,1,0,0:0:0:0:
448,192,1397428,1,0,0:0:0:0:
192,192,1397519,1,0,0:0:0:0:
320,192,1397610,1,0,0:0:0:0:
64,192,1397701,1,0,0:0:0:0:
192,192,1397792,1,0,0:0:0:0:
320,192,1398155,1,0,0:0:0:0:
192,192,1398246,1,0,0:0:0:0:
448,192,1398337,1,0,0:0:0:0:
64,192,1398428,1,0,0:0:0:0:
320,192,1398519,1,0,0:0:0:0:
320,192,1398701,1,0,0:0:0:0:
448,192,1398792,1,0,0:0:0:0:
320,192,1398882,1,0,0:0:0:0:
448,192,1398973,1,0,0:0:0:0:
192,192,1399064,1,0,0:0:0:0:
448,192,1399155,1,0,0:0:0:0:
64,192,1399155,1,0,0:0:0:0:
320,192,1399246,1,0,0:0:0:0:
192,192,1399882,1,0,0:0:0:0:
64,192,1399973,1,0,0:0:0:0:
448,192,1401428,1,0,0:0:0:0:
192,192,1401428,1,0,0:0:0:0:
320,192,1401519,1,0,0:0:0:0:
448,192,1401610,1,0,0:0:0:0:
320,192,1401882,1,0,0:0:0:0:
192,192,1401973,1,0,0:0:0:0:
320,192,1402519,1,0,0:0:0:0:
448,192,1402610,1,0,0:0:0:0:
192,192,1402701,1,0,0:0:0:0:
320,192,1402792,1,0,0:0:0:0:
192,192,1402882,1,0,0:0:0:0:
64,192,1402973,1,0,0:0:0:0:
320,192,1403064,1,0,0:0:0:0:
448,192,1403155,1,0,0:0:0:0:
64,192,1403246,1,0,0:0:0:0:
320,192,1403337,1,0,0:0:0:0:
64,192,1403428,1,0,0:0:0:0:
320,192,1403519,1,0,0:0:0:0:
192,192,1403519,1,0,0:0:0:0:
64,192,1403792,1,0,0:0:0:0:
448,192,1403973,1,0,0:0:0:0:
192,192,1404064,1,0,0:0:0:0:
64,192,1404155,1,0,0:0:0:0:
448,192,1404155,1,0,0:0:0:0:
192,192,1404246,1,0,0:0:0:0:
448,192,1404337,1,0,0:0:0:0:
448,192,1404519,1,0,0:0:0:0:
320,192,1404792,1,0,0:0:0:0:
64,192,1404882,1,0,0:0:0:0:
448,192,1404973,1,0,0:0:0:0:
64,192,1405064,1,0,0:0:0:0:
192,192,1405337,1,0,0:0:0:0:
448,192,1405428,1,0,0:0:0:0:
64,192,1405701,1,0,0:0:0:0:
320,192,1405792,1,0,0:0:0:0:
448,192,1406882,1,0,0:0:0:0:
448,192,1407155,1,0,0:0:0:0:
320,192,1407246,1,0,0:0:0:0:
64,192,1407337,1,0,0:0:0:0:
320,192,1407428,1,0,0:0:0:0:
192,192,1407519,1,0,0:0:0:0:
448,192,1407610,1,0,0:0:0:0:
320,192,1407701,1,0,0:0:0:0:
448,192,1407792,1,0,0:0:0:0:
320,192,1407882,1,0,0:0:0:0:
448,192,1407973,1,0,0:0:0:0:
448,192,1409246,1,0,0:0:0:0:
320,192,1409428,1,0,0:0:0:0:
64,192,1409792,1,0,0:0:0:0:
448,192,1410882,1,0,0:0:0:0:
64,192,1410973,1,0,0:0:0:0:
192,192,1411246,1,0,0:0:0:0:
64,192,1411428,1,0,0:0:0:0:
320,192,1411519,1,0,0:0:0:0:
448,192,1411610,1,0,0:0:0:0:
320,192,1411701,1,0,0:0:0:0:
64,192,1411701,1,0,0:0:0:0:
192,192,1411792,1,0,0:0:0:0:
448,192,1411882,1,0,0:0:0:0:
320,192,1411973,1,0,0:0:0:0:
192,192,1412064,1,0,0:0:0:0:
320,192,1412155,1,0,0:0:0:0:
192,192,1412246,1,0,0:0:0:0:
448,192,1412246,1,0,0:0:0:0:
320,192,1412337,1,0,0:0:0:0:
64,192,1412519,1,0,0:0:0:0:
320,192,1412610,1,0,0:0:0:0:
192,192,1412701,1,0,0:0:0:0:
448,192,1412792,1,0,0:0:0:0:
64,192,1412882,1,0,0:0:0:0:
320,192,1412973,1,0,0:0:0:0:
448,192,1413064,1,0,0:0:0:0:
64,192,1413064,1,0,0:0:0:0:
192,192,1413155,1,0,0:0:0:0:
64,192,1413246,1,0,0:0:0:0:
448,192,1413337,1,0,0:0:0:0:
320,192,1413428,1,0,0:0:0:0:
320,192,1413610,1,0,0:0:0:0:
448,192,1413701,1,0,0:0:0:0:
320,192,1413792,1,0,0:0:0:0:
448,192,1413973,1,0,0:0:0:0:
64,192,1414064,1,0,0:0:0:0:
448,192,1414155,1,0,0:0:0:0:
64,192,1414246,1,0,0:0:0:0:
320,192,1414337,1,0,0:0:0:0:
192,192,1414428,1,0,0:0:0:0:
448,192,1414519,1,0,0:0:0:0:
320,192,1414610,1,0,0:0:0:0:
448,192,1414701,1,0,0:0:0:0:
64,192,1414701,1,0,0:0:0:0:
192,192,1414792,1,0,0:0:0:0:
320,192,1414882,1,0,0:0:0:0:
192,192,1414973,1,0,0:0:0:0:
64,192,1415064,1,0,0:0:0:0:
448,192,1415155,1,0,0:0:0:0:
192,192,1415246,1,0,0:0:0:0:
320,192,1415428,1,0,0:0:0:0:
448,192,1415428,1,0,0:0:0:0:
320,192,1415610,1,0,0:0:0:0:
448,192,1415701,1,0,0:0:0:0:
192,192,1415792,1,0,0:0:0:0:
320,192,1415882,1,0,0:0:0:0:
192,192,1415973,1,0,0:0:0:0:
448,192,1416064,1,0,0:0:0:0:
64,192,1416155,1,0,0:0:0:0:
448,192,1416246,1,0,0:0:0:0:
320,192,1416337,1,0,0:0:0:0:
192,192,1416519,1,0,0:0:0:0:
320,192,1416701,1,0,0:0:0:0:
320,192,1417064,1,0,0:0:0:0:
64,192,1417155,1,0,0:0:0:0:
192,192,1417246,1,0,0:0:0:0:
448,192,1417337,1,0,0:0:0:0:
64,192,1417428,1,0,0:0:0:0:
192,192,1417519,1,0,0:0:0:0:
320,192,1417610,1,0,0:0:0:0:
448,192,1417701,1,0,0:0:0:0:
64,192,1417792,1,0,0:0:0:0:
320,192,1417882,1,0,0:0:0:0:
192,192,1417973,1,0,0:0:0:0:
448,192,1418064,1,0,0:0:0:0:
192,192,1418155,1,0,0:0:0:0:
320,192,1418155,1,0,0:0:0:0:
448,192,1418337,1,0,0:0:0:0:
448,192,1418519,1,0,0:0:0:0:
192,192,1418610,1,0,0:0:0:0:
320,192,1418701,1,0,0:0:0:0:
448,192,1418792,1,0,0:0:0:0:
64,192,1418882,1,0,0:0:0:0:
192,192,1418882,1,0,0:0:0:0:
448,192,1418973,1,0,0:0:0:0:
64,192,1419064,1,0,0:0:0:0:
448,192,1419246,1,0,0:0:0:0:
192,192,1419428,1,0,0:0:0:0:
448,192,1419610,1,0,0:0:0:0:
320,192,1419882,1,0,0:0:0:0:
448,192,1419973,1,0,0:0:0:0:
320,192,1420064,1,0,0:0:0:0:
192,192,1420155,1,0,0:0:0:0:
64,192,1420246,1,0,0:0:0:0:
448,192,1420337,1,0,0:0:0:0:
64,192,1420428,1,0,0:0:0:0:
448,192,1420519,1,0,0:0:0:0:
192,192,1420610,1,0,0:0:0:0:
64,192,1420701,1,0,0:0:0:0:
448,192,1420701,1,0,0:0:0:0:
192,192,1420792,1,0,0:0:0:0:
448,192,1420882,1,0,0:0:0:0:
64,192,1420973,1,0,0:0:0:0:
320,192,1421064,1,0,0:0:0:0:
448,192,1421064,1,0,0:0:0:0:
64,192,1421246,1,0,0:0:0:0:
320,192,1421246,1,0,0:0:0:0:
320,192,1421428,1,0,0:0:0:0:
448,192,1421428,1,0,0:0:0:0:
192,192,1421519,1,0,0:0:0:0:
64,192,1421610,1,0,0:0:0:0:
192,192,1421701,1,0,0:0:0:0:
64,192,1421792,1,0,0:0:0:0:
448,192,1421882,1,0,0:0:0:0:
192,192,1421973,1,0,0:0:0:0:
448,192,1422064,1,0,0:0:0:0:
320,192,1422155,1,0,0:0:0:0:
320,192,1422337,1,0,0:0:0:0:
448,192,1422973,1,0,0:0:0:0:
192,192,1423246,1,0,0:0:0:0:
192,192,1423610,1,0,0:0:0:0:
448,192,1423973,1,0,0:0:0:0:
64,192,1424064,1,0,0:0:0:0:
448,192,1424155,1,0,0:0:0:0:
192,192,1424337,1,0,0:0:0:0:
448,192,1424701,1,0,0:0:0:0:
320,192,1424882,1,0,0:0:0:0:
64,192,1424973,1,0,0:0:0:0:
320,192,1425519,1,0,0:0:0:0:
320,192,1425882,1,0,0:0:0:0:
192,192,1426882,1,0,0:0:0:0:
192,192,1427428,1,0,0:0:0:0:
192,192,1428337,1,0,0:0:0:0:
448,192,1428519,1,0,0:0:0:0:
64,192,1428610,1,0,0:0:0:0:
192,192,1428973,1,0,0:0:0:0:
192,192,1429246,1,0,0:0:0:0:
192,192,1429428,1,0,0:0:0:0:
320,192,1429519,1,0,0:0:0:0:
192,192,1429610,1,0,0:0:0:0:
64,192,1429792,1,0,0:0:0:0:
320,192,1429882,1,0,0:0:0:0:
64,192,1429973,1,0,0:0:0:0:
64,192,1430155,1,0,0:0:0:0:
64,192,1430428,1,0,0:0:0:0:
448,192,1430519,1,0,0:0:0:0:
192,192,1431246,1,0,0:0:0:0:
448,192,1431973,1,0,0:0:0:0:
448,192,1432337,1,0,0:0:0:0:
64,192,1432701,1,0,0:0:0:0:
64,192,1432973,1,0,0:0:0:0:
448,192,1433064,1,0,0:0:0:0:
192,192,1433246,1,0,0:0:0:0:
192,192,1433428,1,0,0:0:0:0:
320,192,1433973,1,0,0:0:0:0:
64,192,1434064,1,0,0:0:0:0:
192,192,1434428,1,0,0:0:0:0:
64,192,1434519,1,0,0:0:0:0:
320,192,1434882,1,0,0:0:0:0:
320,192,1435246,1,0,0:0:0:0:
64,192,1435610,1,0,0:0:0:0:
448,192,1435973,1,0,0:0:0:0:
448,192,1436701,1,0,0:0:0:0:
64,192,1436792,1,0,0:0:0:0:
320,192,1437064,1,0,0:0:0:0:
64,192,1437064,1,0,0:0:0:0:
320,192,1437792,1,0,0:0:0:0:
448,192,1437882,1,0,0:0:0:0:
64,192,1438519,1,0,0:0:0:0:
448,192,1438701,1,0,0:0:0:0:
64,192,1438792,1,0,0:0:0:0:
448,192,1439973,1,0,0:0:0:0:
320,192,1440064,1,0,0:0:0:0:
192,192,1441428,1,0,0:0:0:0:
448,192,1441428,1,0,0:0:0:0:
448,192,1441882,1,0,0:0:0:0:
64,192,1442610,1,0,0:0:0:0:
320,192,1442701,1,0,0:0:0:0:
448,192,1442792,1,0,0:0:0:0:
64,192,1443610,1,0,0:0:0:0:
448,192,1444337,1,0,0:0:0:0:
320,192,1444519,1,0,0:0:0:0:
64,192,1444610,1,0,0:0:0:0:
448,192,1444701,1,0,0:0:0:0:
64,192,1445428,1,0,0:0:0:0:
448,192,1445792,1,0,0:0:0:0:
64,192,1446973,1,0,0:0:0:0:
320,192,1447246,1,0,0:0:0:0:
192,192,1447246,1,0,0:0:0:0:
320,192,1447792,1,0,0:0:0:0:
192,192,1448337,1,0,0:0:0:0:
64,192,1448519,1,0,0:0:0:0:
448,192,1448610,1,0,0:0:0:0:
320,192,1448701,1,0,0:0:0:0:
64,192,1449428,1,0,0:0:0:0:
448,192,1450155,1,0,0:0:0:0:
320,192,1450519,1,0,0:0:0:0:
64,192,1451428,1,0,0:0:0:0:
320,192,1451610,1,0,0:0:0:0:
192,192,1452064,1,0,0:0:0:0:
448,192,1452792,1,0,0:0:0:0:
64,192,1453064,1,0,0:0:0:0:
320,192,1453610,1,0,0:0:0:0:
64,192,1453701,1,0,0:0:0:0:
64,192,1454428,1,0,0:0:0:0:
448,192,1454973,1,0,0:0:0:0:
192,192,1455246,1,0,0:0:0:0:
320,192,1455337,1,0,0:0:0:0:
192,192,1455973,1,0,0:0:0:0:
320,192,1457064,1,0,0:0:0:0:
192,192,1457246,1,0,0:0:0:0:
192,192,1457792,1,0,0:0:0:0:
320,192,1457882,1,0,0:0:0:0:
64,192,1458064,1,0,0:0:0:0:
192,192,1458882,1,0,0:0:0:0:
64,192,1459246,1,0,0:0:0:0:
320,192,1459610,1,0,0:0:0:0:
64,192,1459701,1,0,0:0:0:0:
320,192,1460337,1,0,0:0:0:0:
64,192,1460428,1,0,0:0:0:0:
64,192,1460610,1,0,0:0:0:0:
320,192,1461064,1,0,0:0:0:0:
64,192,1461337,1,0,0:0:0:0:
448,192,1461610,1,0,0:0:0:0:
64,192,1461792,1,0,0:0:0:0:
64,192,1461973,1,0,0:0:0:0:
448,192,1462155,1,0,0:0:0:0:
448,192,1462610,1,0,0:0:0:0:
448,192,1463519,1,0,0:0:0:0:
192,192,1463701,1,0,0:0:0:0:
320,192,1464701,1,0,0:0:0:0:
448,192,1465246,1,0,0:0:0:0:
320,192,1465792,1,0,0:0:0:0:
192,192,1466064,1,0,0:0:0:0:
64,192,1466337,1,0,0:0:0:0:
320,192,1466519,1,0,0:0:0:0:
192,192,1466882,1,0,0:0:0:0:
192,192,1467428,1,0,0:0:0:0:
192,192,1467610,1,0,0:0:0:0:
192,192,1468519,1,0,0:0:0:0:
320,192,1468701,1,0,0:0:0:0:
448,192,1469064,1,0,0:0:0:0:
64,192,1469428,1,0,0:0:0:0:
448,192,1470519,1,0,0:0:0:0:
64,192,1470701,1,0,0:0:0:0:
448,192,1471337,1,0,0:0:0:0:
448,192,1471610,1,0,0:0:0:0:
448,192,1472064,1,0,0:0:0:0:
192,192,1472064,1,0,0:0:0:0:
64,192,1472155,1,0,0:0:0:0:
320,192,1472155,1,0,0:0:0:0:
320,192,1472882,1,0,0:0:0:0:
64,192,1472973,1,0,0:0:0:0:
64,192,1473246,1,0,0:0:0:0:
448,192,1473428,1,0,0:0:0:0:
320,192,1473610,1,0,0:0:0:0:
448,192,1474701,1,0,0:0:0:0:
64,192,1475519,1,0,0:0:0:0:
192,192,1476337,1,0,0:0:0:0:
64,192,1476701,1,0,0:0:0:0:
192,192,1476882,1,0,0:0:0:0:
320,192,1476973,1,0,0:0:0:0:
64,192,1477701,1,0,0:0:0:0:
192,192,1477792,1,0,0:0:0:0:
64,192,1478519,1,0,0:0:0:0:
320,192,1478610,1,0,0:0:0:0:
448,192,1478701,1,0,0:0:0:0:
320,192,1478973,1,0,0:0:0:0:
192,192,1479064,1,0,0:0:0:0:
64,192,1479246,1,0,0:0:0:0:
448,192,1479519,1,0,0:0:0:0:
64,192,1479610,1,0,0:0:0:0:
448,192,1480155,1,0,0:0:0:0:
64,192,1480337,1,0,0:0:0:0:
448,192,1480519,1,0,0:0:0:0:
320,192,1480701,1,0,0:0:0:0:
64,192,1481155,1,0,0:0:0:0:
320,192,1481246,1,0,0:0:0:0:
320,192,1481610,1,0,0:0:0:0:
192,192,1482155,1,0,0:0:0:0:
320,192,1483610,1,0,0:0:0:0:
192,192,1485246,1,0,0:0:0:0:
320,192,1486155,1,0,0:0:0:0:
64,192,1486246,1,0,0:0:0:0:
448,192,1486337,1,0,0:0:0:0:
448,192,1486519,1,0,0:0:0:0:
320,192,1486519,1,0,0:0:0:0:
448,192,1486792,1,0,0:0:0:0:
192,192,1486882,1,0,0:0:0:0:
320,192,1486973,1,0,0:0:0:0:
448,192,1487064,1,0,0:0:0:0:
320,192,1487337,1,0,0:0:0:0:
448,192,1487701,1,0,0:0:0:0:
64,192,1487882,1,0,0:0:0:0:
64,192,1489246,1,0,0:0:0:0:
64,192,1489428,1,0,0:0:0:0:
192,192,1489428,1,0,0:0:0:0:
320,192,1490155,1,0,0:0:0:0:
320,192,1490428,1,0,0:0:0:0:
64,192,1490428,1,0,0:0:0:0:
192,192,1490519,1,0,0:0:0:0:
320,192,1490701,1,0,0:0:0:0:
192,192,1490882,1,0,0:0:0:0:
64,192,1491064,1,0,0:0:0:0:
320,192,1491155,1,0,0:0:0:0:
192,192,1491246,1,0,0:0:0:0:
64,192,1491428,1,0,0:0:0:0:
448,192,1491701,1,0,0:0:0:0:
64,192,1491792,1,0,0:0:0:0:
320,192,1491973,1,0,0:0:0:0:
192,192,1492064,1,0,0:0:0:0:
64,192,1492246,1,0,0:0:0:0:
320,192,1492337,1,0,0:0:0:0:
64,192,1492882,1,0,0:0:0:0:
320,192,1493882,1,0,0:0:0:0:
64,192,1494428,1,0,0:0:0:0:
448,192,1494519,1,0,0:0:0:0:
192,192,1495246,1,0,0:0:0:0:
448,192,1495792,1,0,0:0:0:0:
192,192,1495882,1,0,0:0:0:0:
320,192,1495973,1,0,0:0:0:0:
448,192,1497428,1,0,0:0:0:0:
448,192,1497610,1,0,0:0:0:0:
192,192,1497792,1,0,0:0:0:0:
64,192,1497882,1,0,0:0:0:0:
448,192,1497973,1,0,0:0:0:0:
192,192,1498155,1,0,0:0:0:0:
192,192,1498610,1,0,0:0:0:0:
448,192,1498701,1,0,0:0:0:0:
320,192,1499064,1,0,0:0:0:0:
320,192,1499428,1,0,0:0:0:0:
192,192,1499519,1,0,0:0:0:0:
320,192,1500701,1,0,0:0:0:0:
192,192,1501064,1,0,0:0:0:0:
192,192,1502701,1,0,0:0:0:0:
320,192,1503246,1,0,0:0:0:0:
192,192,1503428,1,0,0:0:0:0:
320,192,1503519,1,0,0:0:0:0:
192,192,1503610,1,0,0:0:0:0:
192,192,1503973,1,0,0:0:0:0:
320,192,1504155,1,0,0:0:0:0:
64,192,1504246,1,0,0:0:0:0:
320,192,1504337,1,0,0:0:0:0:
320,192,1504519,1,0,0:0:0:0:
448,192,1504701,1,0,0:0:0:0:
64,192,1504882,1,0,0:0:0:0:
192,192,1505337,1,0,0:0:0:0:
320,192,1505428,1,0,0:0:0:0:
64,192,1505610,1,0,0:0:0:0:
192,192,1505701,1,0,0:0:0:0:
448,192,1505792,1,0,0:0:0:0:
192,192,1505882,1,0,0:0:0:0:
64,192,1505973,1,0,0:0:0:0:
320,192,1506064,1,0,0:0:0:0:
448,192,1506155,1,0,0:0:0:0:
192,192,1506246,1,0,0:0:0:0:
320,192,1506337,1,0,0:0:0:0:
448,192,1506519,1,0,0:0:0:0:
448,192,1506701,1,0,0:0:0:0:
192,192,1506792,1,0,0:0:0:0:
64,192,1506882,1,0,0:0:0:0:
64,192,1507064,1,0,0:0:0:0:
448,192,1507155,1,0,0:0:0:0:
192,192,1507155,1,0,0:0:0:0:
320,192,1507246,1,0,0:0:0:0:
448,192,1507337,1,0,0:0:0:0:
320,192,1507428,1,0,0:0:0:0:
192,192,1507519,1,0,0:0:0:0:
64,192,1507610,1,0,0:0:0:0:
448,192,1507701,1,0,0:0:0:0:
192,192,1507792,1,0,0:0:0:0:
320,192,1507882,1,0,0:0:0:0:
64,192,1507973,1,0,0:0:0:0:
448,192,1507973,1,0,0:0:0:0:
192,192,1508064,1,0,0:0:0:0:
320,192,1508064,1,0,0:0:0:0:
64,192,1508155,1,0,0:0:0:0:
192,192,1508337,1,0,0:0:0:0:
448,192,1508519,1,0,0:0:0:0:
320,192,1508701,1,0,0:0:0:0:
448,192,1508792,1,0,0:0:0:0:
320,192,1508882,1,0,0:0:0:0:
192,192,1508973,1,0,0:0:0:0:
64,192,1509064,1,0,0:0:0:0:
448,192,1509155,1,0,0:0:0:0:
320,192,1509246,1,0,0:0:0:0:
64,192,1509428,1,0,0:0:0:0:
448,192,1509973,1,0,0:0:0:0:
192,192,1510064,1,0,0:0:0:0:
64,192,1510155,1,0,0:0:0:0:
448,192,1510246,1,0,0:0:0:0:
320,192,1510337,1,0,0:0:0:0:
64,192,1510519,1,0,0:0:0:0:
320,192,1510610,1,0,0:0:0:0:
448,192,1510701,1,0,0:0:0:0:
64,192,1510792,1,0,0:0:0:0:
192,192,1510882,1,0,0:0:0:0:
320,192,1510973,1,0,0:0:0:0:
192,192,1511064,1,0,0:0:0:0:
320,192,1511155,1,0,0:0:0:0:
448,192,1511246,1,0,0:0:0:0:
320,192,1511610,1,0,0:0:0:0:
64,192,1511701,1,0,0:0:0:0:
320,192,1511792,1,0,0:0:0:0:
64,192,1511973,1,0,0:0:0:0:
320,192,1512064,1,0,0:0:0:0:
192,192,1512155,1,0,0:0:0:0:
448,192,1512246,1,0,0:0:0:0:
192,192,1512337,1,0,0:0:0:0:
448,192,1512519,1,0,0:0:0:0:
64,192,1512701,1,0,0:0:0:0:
448,192,1512973,1,0,0:0:0:0:
320,192,1513064,1,0,0:0:0:0:
192,192,1513155,1,0,0:0:0:0:
448,192,1513246,1,0,0:0:0:0:
192,192,1513428,1,0,0:0:0:0:
64,192,1513519,1,0,0:0:0:0:
192,192,1513610,1,0,0:0:0:0:
64,192,1513792,1,0,0:0:0:0:
320,192,1513882,1,0,0:0:0:0:
64,192,1513973,1,0,0:0:0:0:
320,192,1514155,1,0,0:0:0:0:
64,192,1514337,1,0,0:0:0:0:
448,192,1514428,1,0,0:0:0:0:
64,192,1514519,1,0,0:0:0:0:
192,192,1514610,1,0,0:0:0:0:
320,192,1514701,1,0,0:0:0:0:
448,192,1514792,1,0,0:0:0:0:
320,192,1514882,1,0,0:0:0:0:
192,192,1514973,1,0,0:0:0:0:
64,192,1515064,1,0,0:0:0:0:
448,192,1515155,1,0,0:0:0:0:
64,192,1515246,1,0,0:0:0:0:
64,192,1515792,1,0,0:0:0:0:
192,192,1515882,1,0,0:0:0:0:
448,192,1515973,1,0,0:0:0:0:
64,192,1516155,1,0,0:0:0:0:
64,192,1516337,1,0,0:0:0:0:
64,192,1516519,1,0,0:0:0:0:
320,192,1516973,1,0,0:0:0:0:
448,192,1517064,1,0,0:0:0:0:
192,192,1517155,1,0,0:0:0:0:
320,192,1517428,1,0,0:0:0:0:
192,192,1517428,1,0,0:0:0:0:
448,192,1517519,1,0,0:0:0:0:
320,192,1517610,1,0,0:0:0:0:
320,192,1517792,1,0,0:0:0:0:
448,192,1517882,1,0,0:0:0:0:
320,192,1517973,1,0,0:0:0:0:
192,192,1518155,1,0,0:0:0:0:
64,192,1518337,1,0,0:0:0:0:
320,192,1518428,1,0,0:0:0:0:
192,192,1518519,1,0,0:0:0:0:
448,192,1518882,1,0,0:0:0:0:
448,192,1519064,1,0,0:0:0:0:
64,192,1519155,1,0,0:0:0:0:
320,192,1519246,1,0,0:0:0:0:
192,192,1519337,1,0,0:0:0:0:
448,192,1519337,1,0,0:0:0:0:
320,192,1519428,1,0,0:0:0:0:
448,192,1519519,1,0,0:0:0:0:
320,192,1519610,1,0,0:0:0:0:
64,192,1519701,1,0,0:0:0:0:
448,192,1519792,1,0,0:0:0:0:
320,192,1519882,1,0,0:0:0:0:
448,192,1519973,1,0,0:0:0:0:
192,192,1519973,1,0,0:0:0:0:
320,192,1520155,1,0,0:0:0:0:
192,192,1520246,1,0,0:0:0:0:
448,192,1520337,1,0,0:0:0:0:
192,192,1520428,1,0,0:0:0:0:
320,192,1520519,1,0,0:0:0:0:
64,192,1520610,1,0,0:0:0:0:
320,192,1520701,1,0,0:0:0:0:
320,192,1520882,1,0,0:0:0:0:
448,192,1521064,1,0,0:0:0:0:
192,192,1521246,1,0,0:0:0:0:
320,192,1521337,1,0,0:0:0:0:
64,192,1521610,1,0,0:0:0:0:
448,192,1521701,1,0,0:0:0:0:
320,192,1521792,1,0,0:0:0:0:
320,192,1521973,1,0,0:0:0:0:
64,192,1522155,1,0,0:0:0:0:
192,192,1522246,1,0,0:0:0:0:
64,192,1522337,1,0,0:0:0:0:
64,192,1522519,1,0,0:0:0:0:
192,192,1522610,1,0,0:0:0:0:
320,192,1522701,1,0,0:0:0:0:
192,192,1522792,1,0,0:0:0:0:
320,192,1522882,1,0,0:0:0:0:
320,192,1523064,1,0,0:0:0:0:
192,192,1523155,1,0,0:0:0:0:
64,192,1523246,1,0,0:0:0:0:
64,192,1523428,1,0,0:0:0:0:
448,192,1523519,1,0,0:0:0:0:
320,192,1523610,1,0,0:0:0:0:
320,192,1523792,1,0,0:0:0:0:
448,192,1523973,1,0,0:0:0:0:
320,192,1524064,1,0,0:0:0:0:
192,192,1524155,1,0,0:0:0:0:
448,192,1524337,1,0,0:0:0:0:
64,192,1524428,1,0,0:0:0:0:
192,192,1524519,1,0,0:0:0:0:
64,192,1524610,1,0,0:0:0:0:
320,192,1524610,1,0,0:0:0:0:
448,192,1524701,1,0,0:0:0:0:
64,192,1524792,1,0,0:0:0:0:
448,192,1524882,1,0,0:0:0:0:
64,192,1525064,1,0,0:0:0:0:
320,192,1525246,1,0,0:0:0:0:
64,192,1525337,1,0,0:0:0:0:
448,192,1525428,1,0,0:0:0:0:
192,192,1525519,1,0,0:0:0:0:
64,192,1525519,1,0,0:0:0:0:
320,192,1525610,1,0,0:0:0:0:
448,192,1525610,1,0,0:0:0:0:
192,192,1525973,1,0,0:0:0:0:
64,192,1526064,1,0,0:0:0:0:
448,192,1526155,1,0,0:0:0:0:
320,192,1526246,1,0,0:0:0:0:
192,192,1526337,1,0,0:0:0:0:
192,192,1526519,1,0,0:0:0:0:
64,192,1526701,1,0,0:0:0:0:
192,192,1526792,1,0,0:0:0:0:
192,192,1527064,1,0,0:0:0:0:
192,192,1527246,1,0,0:0:0:0:
448,192,1527246,1,0,0:0:0:0:
64,192,1527610,1,0,0:0:0:0:
320,192,1527701,1,0,0:0:0:0:
64,192,1527792,1,0,0:0:0:0:
64,192,1527973,1,0,0:0:0:0:
192,192,1528064,1,0,0:0:0:0:
448,192,1528155,1,0,0:0:0:0:
192,192,1528246,1,0,0:0:0:0:
448,192,1528428,1,0,0:0:0:0:
320,192,1528519,1,0,0:0:0:0:
64,192,1528610,1,0,0:0:0:0:
320,192,1528701,1,0,0:0:0:0:
64,192,1528882,1,0,0:0:0:0:
448,192,1529064,1,0,0:0:0:0:
320,192,1529155,1,0,0:0:0:0:
64,192,1529246,1,0,0:0:0:0:
448,192,1529337,1,0,0:0:0:0:
320,192,1529428,1,0,0:0:0:0:
192,192,1529519,1,0,0:0:0:0:
64,192,1529610,1,0,0:0:0:0:
192,192,1529701,1,0,0:0:0:0:
320,192,1529792,1,0,0:0:0:0:
448,192,1529882,1,0,0:0:0:0:
192,192,1529973,1,0,0:0:0:0:
448,192,1530155,1,0,0:0:0:0:
448,192,1530337,1,0,0:0:0:0:
192,192,1530337,1,0,0:0:0:0:
448,192,1530519,1,0,0:0:0:0:
64,192,1530610,1,0,0:0:0:0:
448,192,1530701,1,0,0:0:0:0:
64,192,1530792,1,0,0:0:0:0:
320,192,1530882,1,0,0:0:0:0:
192,192,1530882,1,0,0:0:0:0:
448,192,1530973,1,0,0:0:0:0:
320,192,1531064,1,0,0:0:0:0:
448,192,1531246,1,0,0:0:0:0:
192,192,1531337,1,0,0:0:0:0:
320,192,1531428,1,0,0:0:0:0:
320,192,1531610,1,0,0:0:0:0:
448,192,1531792,1,0,0:0:0:0:
192,192,1531973,1,0,0:0:0:0:
448,192,1532155,1,0,0:0:0:0:
320,192,1532246,1,0,0:0:0:0:
192,192,1532337,1,0,0:0:0:0:
320,192,1532428,1,0,0:0:0:0:
64,192,1532519,1,0,0:0:0:0:
320,192,1532610,1,0,0:0:0:0:
192,192,1532701,1,0,0:0:0:0:
64,192,1532792,1,0,0:0:0:0:
192,192,1533246,1,0,0:0:0:0:
448,192,1533428,1,0,0:0:0:0:
64,192,1533519,1,0,0:0:0:0:
192,192,1533610,1,0,0:0:0:0:
64,192,1533701,1,0,0:0:0:0:
192,192,1533792,1,0,0:0:0:0:
320,192,1533882,1,0,0:0:0:0:
192,192,1533973,1,0,0:0:0:0:
192,192,1534155,1,0,0:0:0:0:
448,192,1534246,1,0,0:0:0:0:
64,192,1534337,1,0,0:0:0:0:
320,192,1534337,1,0,0:0:0:0:
448,192,1534519,1,0,0:0:0:0:
320,192,1534701,1,0,0:0:0:0:
320,192,1534882,1,0,0:0:0:0:
448,192,1535064,1,0,0:0:0:0:
64,192,1535246,1,0,0:0:0:0:
320,192,1535337,1,0,0:0:0:0:
64,192,1535428,1,0,0:0:0:0:
192,192,1535610,1,0,0:0:0:0:
320,192,1535701,1,0,0:0:0:0:
192,192,1535792,1,0,0:0:0:0:
448,192,1535792,1,0,0:0:0:0:
64,192,1535882,1,0,0:0:0:0:
192,192,1536155,1,0,0:0:0:0:
192,192,1536337,1,0,0:0:0:0:
192,192,1536519,1,0,0:0:0:0:
320,192,1536610,1,0,0:0:0:0:
192,192,1536701,1,0,0:0:0:0:
64,192,1536701,1,0,0:0:0:0:
448,192,1536792,1,0,0:0:0:0:
320,192,1536882,1,0,0:0:0:0:
192,192,1536973,1,0,0:0:0:0:
320,192,1537155,1,0,0:0:0:0:
64,192,1537246,1,0,0:0:0:0:
192,192,1537337,1,0,0:0:0:0:
320,192,1537428,1,0,0:0:0:0:
192,192,1537610,1,0,0:0:0:0:
448,192,1537792,1,0,0:0:0:0:
192,192,1537882,1,0,0:0:0:0:
64,192,1537973,1,0,0:0:0:0:
192,192,1538064,1,0,0:0:0:0:
448,192,1538155,1,0,0:0:0:0:
448,192,1538337,1,0,0:0:0:0:
320,192,1538428,1,0,0:0:0:0:
64,192,1538519,1,0,0:0:0:0:
192,192,1538610,1,0,0:0:0:0:
320,192,1539064,1,0,0:0:0:0:
64,192,1539155,1,0,0:0:0:0:
192,192,1539246,1,0,0:0:0:0:
320,192,1539792,1,0,0:0:0:0:
64,192,1539973,1,0,0:0:0:0:
448,192,1540246,1,0,0:0:0:0:
64,192,1540337,1,0,0:0:0:0:
192,192,1540337,1,0,0:0:0:0:
448,192,1540428,1,0,0:0:0:0:
192,192,1540701,1,0,0:0:0:0:
192,192,1540882,1,0,0:0:0:0:
448,192,1541337,1,0,0:0:0:0:
192,192,1541428,1,0,0:0:0:0:
64,192,1541610,1,0,0:0:0:0:
448,192,1541792,1,0,0:0:0:0:
64,192,1542155,1,0,0:0:0:0:
192,192,1542337,1,0,0:0:0:0:
192,192,1542519,1,0,0:0:0:0:
64,192,1542701,1,0,0:0:0:0:
64,192,1542882,1,0,0:0:0:0:
320,192,1543155,1,0,0:0:0:0:
192,192,1543246,1,0,0:0:0:0:
320,192,1543428,1,0,0:0:0:0:
448,192,1543519,1,0,0:0:0:0:
192,192,1543610,1,0,0:0:0:0:
320,192,1543792,1,0,0:0:0:0:
192,192,1543792,1,0,0:0:0:0:
448,192,1543792,1,0,0:0:0:0:
192,192,1544337,1,0,0:0:0:0:
192,192,1544519,1,0,0:0:0:0:
192,192,1544882,1,0,0:0:0:0:
320,192,1545064,1,0,0:0:0:0:
64,192,1545428,1,0,0:0:0:0:
448,192,1545519,1,0,0:0:0:0:
192,192,1545610,1,0,0:0:0:0:
64,192,1545792,1,0,0:0:0:0:
448,192,1545973,1,0,0:0:0:0:
448,192,1546155,1,0,0:0:0:0:
192,192,1546246,1,0,0:0:0:0:
320,192,1546519,1,0,0:0:0:0:
448,192,1546701,1,0,0:0:0:0:
192,192,1546792,1,0,0:0:0:0:
64,192,1547155,1,0,0:0:0:0:
192,192,1547246,1,0,0:0:0:0:
64,192,1547337,1,0,0:0:0:0:
448,192,1547428,1,0,0:0:0:0:
192,192,1547610,1,0,0:0:0:0:
448,192,1547792,1,0,0:0:0:0:
192,192,1547882,1,0,0:0:0:0:
320,192,1547973,1,0,0:0:0:0:
64,192,1547973,1,0,0:0:0:0:
192,192,1548155,1,0,0:0:0:0:
320,192,1548246,1,0,0:0:0:0:
192,192,1548337,1,0,0:0:0:0:
320,192,1548701,1,0,0:0:0:0:
320,192,1548882,1,0,0:0:0:0:
192,192,1548882,1,0,0:0:0:0:
64,192,1549064,1,0,0:0:0:0:
320,192,1549428,1,0,0:0:0:0:
192,192,1549792,1,0,0:0:0:0:
448,192,1549882,1,0,0:0:0:0:
320,192,1549973,1,0,0:0:0:0:
64,192,1550155,1,0,0:0:0:0:
64,192,1550337,1,0,0:0:0:0:
192,192,1553435,1,0,0:0:0:0:
64,192,1553747,1,0,0:0:0:0:
448,192,1554271,1,0,0:0:0:0:
320,192,1555110,1,0,0:0:0:0:
64,192,1555424,1,0,0:0:0:0:
192,192,1555634,1,0,0:0:0:0:
448,192,1555739,1,0,0:0:0:0:
448,192,1555949,1,0,0:0:0:0:
192,192,1556159,1,0,0:0:0:0:
320,192,1556788,1,0,0:0:0:0:
448,192,1557208,1,0,0:0:0:0:
320,192,1557627,1,0,0:0:0:0:
320,192,1557837,1,0,0:0:0:0:
448,192,1558047,1,0,0:0:0:0:
448,192,1558257,1,0,0:0:0:0:
320,192,1559096,1,0,0:0:0:0:
448,192,1559201,1,0,0:0:0:0:
192,192,1559515,1,0,0:0:0:0:
320,192,1559620,1,0,0:0:0:0:
448,192,1559725,1,0,0:0:0:0:
64,192,1559935,1,0,0:0:0:0:
320,192,1560040,1,0,0:0:0:0:
448,192,1560145,1,0,0:0:0:0:
64,192,1560250,1,0,0:0:0:0:
320,192,1560354,1,0,0:0:0:0:
448,192,1560669,1,0,0:0:0:0:
320,192,1560984,1,0,0:0:0:0:
320,192,1561194,1,0,0:0:0:0:
320,192,1561403,1,0,0:0:0:0:
448,192,1561823,1,0,0:0:0:0:
64,192,1561928,1,0,0:0:0:0:
192,192,1562138,1,0,0:0:0:0:
64,192,1562243,1,0,0:0:0:0:
192,192,1562557,1,0,0:0:0:0:
320,192,1562662,1,0,0:0:0:0:
192,192,1562872,1,0,0:0:0:0:
320,192,1563082,1,0,0:0:0:0:
320,192,1563501,1,0,0:0:0:0:
64,192,1563921,1,0,0:0:0:0:
448,192,1564236,1,0,0:0:0:0:
320,192,1564341,1,0,0:0:0:0:
448,192,1564445,1,0,0:0:0:0:
192,192,1564550,1,0,0:0:0:0:
448,192,1564760,1,0,0:0:0:0:
448,192,1564970,1,0,0:0:0:0:
320,192,1565180,1,0,0:0:0:0:
64,192,1565285,1,0,0:0:0:0:
192,192,1565389,1,0,0:0:0:0:
320,192,1565494,1,0,0:0:0:0:
192,192,1565599,1,0,0:0:0:0:
320,192,1565914,1,0,0:0:0:0:
448,192,1566019,1,0,0:0:0:0:
64,192,1566229,1,0,0:0:0:0:
320,192,1566334,1,0,0:0:0:0:
192,192,1566438,1,0,0:0:0:0:
448,192,1566543,1,0,0:0:0:0:
64,192,1566648,1,0,0:0:0:0:
320,192,1566753,1,0,0:0:0:0:
320,192,1566963,1,0,0:0:0:0:
64,192,1567487,1,0,0:0:0:0:
448,192,1567907,1,0,0:0:0:0:
192,192,1568117,1,0,0:0:0:0:
64,192,1568536,1,0,0:0:0:0:
64,192,1568851,1,0,0:0:0:0:
320,192,1569271,1,0,0:0:0:0:
448,192,1569690,1,0,0:0:0:0:
320,192,1569795,1,0,0:0:0:0:
192,192,1569795,1,0,0:0:0:0:
192,192,1570005,1,0,0:0:0:0:
448,192,1570215,1,0,0:0:0:0:
64,192,1570634,1,0,0:0:0:0:
320,192,1570739,1,0,0:0:0:0:
448,192,1570844,1,0,0:0:0:0:
64,192,1570949,1,0,0:0:0:0:
448,192,1571054,1,0,0:0:0:0:
192,192,1571054,1,0,0:0:0:0:
320,192,1571159,1,0,0:0:0:0:
192,192,1571264,1,0,0:0:0:0:
64,192,1571368,1,0,0:0:0:0:
320,192,1571473,1,0,0:0:0:0:
64,192,1571578,1,0,0:0:0:0:
192,192,1571683,1,0,0:0:0:0:
64,192,1571788,1,0,0:0:0:0:
448,192,1571893,1,0,0:0:0:0:
320,192,1571998,1,0,0:0:0:0:
192,192,1572103,1,0,0:0:0:0:
64,192,1572208,1,0,0:0:0:0:
192,192,1572313,1,0,0:0:0:0:
64,192,1572417,1,0,0:0:0:0:
192,192,1572522,1,0,0:0:0:0:
64,192,1572627,1,0,0:0:0:0:
320,192,1572732,1,0,0:0:0:0:
448,192,1572837,1,0,0:0:0:0:
320,192,1572942,1,0,0:0:0:0:
64,192,1573047,1,0,0:0:0:0:
320,192,1573152,1,0,0:0:0:0:
448,192,1573257,1,0,0:0:0:0:
320,192,1573361,1,0,0:0:0:0:
64,192,1573466,1,0,0:0:0:0:
448,192,1573571,1,0,0:0:0:0:
64,192,1573676,1,0,0:0:0:0:
448,192,1573781,1,0,0:0:0:0:
320,192,1574306,1,0,0:0:0:0:
448,192,1574410,1,0,0:0:0:0:
448,192,1574830,1,0,0:0:0:0:
320,192,1575250,1,0,0:0:0:0:
192,192,1576089,1,0,0:0:0:0:
320,192,1576508,1,0,0:0:0:0:
64,192,1577767,1,0,0:0:0:0:
448,192,1578187,1,0,0:0:0:0:
192,192,1578396,1,0,0:0:0:0:
64,192,1578501,1,0,0:0:0:0:
448,192,1578921,1,0,0:0:0:0:
320,192,1579026,1,0,0:0:0:0:
448,192,1579341,1,0,0:0:0:0:
448,192,1579655,1,0,0:0:0:0:
64,192,1579865,1,0,0:0:0:0:
448,192,1579970,1,0,0:0:0:0:
320,192,1580075,1,0,0:0:0:0:
320,192,1581124,1,0,0:0:0:0:
448,192,1581229,1,0,0:0:0:0:
192,192,1581334,1,0,0:0:0:0:
448,192,1581963,1,0,0:0:0:0:
64,192,1582382,1,0,0:0:0:0:
448,192,1582487,1,0,0:0:0:0:
64,192,1582592,1,0,0:0:0:0:
448,192,1582697,1,0,0:0:0:0:
192,192,1582802,1,0,0:0:0:0:
448,192,1582907,1,0,0:0:0:0:
192,192,1583012,1,0,0:0:0:0:
320,192,1583117,1,0,0:0:0:0:
64,192,1583222,1,0,0:0:0:0:
64,192,1583641,1,0,0:0:0:0:
192,192,1584375,1,0,0:0:0:0:
320,192,1584480,1,0,0:0:0:0:
64,192,1585110,1,0,0:0:0:0:
448,192,1585320,1,0,0:0:0:0:
448,192,1585529,1,0,0:0:0:0:
64,192,1585634,1,0,0:0:0:0:
192,192,1585739,1,0,0:0:0:0:
320,192,1586054,1,0,0:0:0:0:
64,192,1586159,1,0,0:0:0:0:
320,192,1586368,1,0,0:0:0:0:
192,192,1586473,1,0,0:0:0:0:
448,192,1586578,1,0,0:0:0:0:
192,192,1586683,1,0,0:0:0:0:
320,192,1586788,1,0,0:0:0:0:
448,192,1586893,1,0,0:0:0:0:
64,192,1586998,1,0,0:0:0:0:
192,192,1587208,1,0,0:0:0:0:
448,192,1587522,1,0,0:0:0:0:
320,192,1587837,1,0,0:0:0:0:
64,192,1588047,1,0,0:0:0:0:
64,192,1588361,1,0,0:0:0:0:
64,192,1588571,1,0,0:0:0:0:
320,192,1588676,1,0,0:0:0:0:
64,192,1588886,1,0,0:0:0:0:
64,192,1589096,1,0,0:0:0:0:
448,192,1589410,1,0,0:0:0:0:
192,192,1589515,1,0,0:0:0:0:
320,192,1589725,1,0,0:0:0:0:
64,192,1589830,1,0,0:0:0:0:
320,192,1589935,1,0,0:0:0:0:
320,192,1590354,1,0,0:0:0:0:
320,192,1590669,1,0,0:0:0:0:
64,192,1590774,1,0,0:0:0:0:
192,192,1591089,1,0,0:0:0:0:
320,192,1591194,1,0,0:0:0:0:
64,192,1591299,1,0,0:0:0:0:
64,192,1591508,1,0,0:0:0:0:
320,192,1591823,1,0,0:0:0:0:
64,192,1591928,1,0,0:0:0:0:
448,192,1592033,1,0,0:0:0:0:
192,192,1592138,1,0,0:0:0:0:
448,192,1592243,1,0,0:0:0:0:
64,192,1592348,1,0,0:0:0:0:
192,192,1592452,1,0,0:0:0:0:
320,192,1592557,1,0,0:0:0:0:
192,192,1592767,1,0,0:0:0:0:
320,192,1592767,1,0,0:0:0:0:
64,192,1592872,1,0,0:0:0:0:
192,192,1592977,1,0,0:0:0:0:
448,192,1593082,1,0,0:0:0:0:
448,192,1593292,1,0,0:0:0:0:
64,192,1593501,1,0,0:0:0:0:
320,192,1593606,1,0,0:0:0:0:
192,192,1593711,1,0,0:0:0:0:
320,192,1593816,1,0,0:0:0:0:
64,192,1593921,1,0,0:0:0:0:
192,192,1594131,1,0,0:0:0:0:
192,192,1594445,1,0,0:0:0:0:
320,192,1594550,1,0,0:0:0:0:
320,192,1594760,1,0,0:0:0:0:
192,192,1595389,1,0,0:0:0:0:
448,192,1595599,1,0,0:0:0:0:
320,192,1597068,1,0,0:0:0:0:
320,192,1597487,1,0,0:0:0:0:
320,192,1597907,1,0,0:0:0:0:
448,192,1598117,1,0,0:0:0:0:
192,192,1598536,1,0,0:0:0:0:
448,192,1598746,1,0,0:0:0:0:
64,192,1599061,1,0,0:0:0:0:
320,192,1599166,1,0,0:0:0:0:
320,192,1599375,1,0,0:0:0:0:
64,192,1599480,1,0,0:0:0:0:
320,192,1599585,1,0,0:0:0:0:
448,192,1599690,1,0,0:0:0:0:
64,192,1599795,1,0,0:0:0:0:
192,192,1599900,1,0,0:0:0:0:
64,192,1600005,1,0,0:0:0:0:
320,192,1600110,1,0,0:0:0:0:
448,192,1600215,1,0,0:0:0:0:
320,192,1600320,1,0,0:0:0:0:
192,192,1600424,1,0,0:0:0:0:
64,192,1600529,1,0,0:0:0:0:
448,192,1600634,1,0,0:0:0:0:
192,192,1600844,1,0,0:0:0:0:
320,192,1600949,1,0,0:0:0:0:
192,192,1601264,1,0,0:0:0:0:
320,192,1601473,1,0,0:0:0:0:
192,192,1601578,1,0,0:0:0:0:
320,192,1601998,1,0,0:0:0:0:
192,192,1602103,1,0,0:0:0:0:
64,192,1602208,1,0,0:0:0:0:
192,192,1602837,1,0,0:0:0:0:
320,192,1602942,1,0,0:0:0:0:
64,192,1603152,1,0,0:0:0:0:
320,192,1603361,1,0,0:0:0:0:
448,192,1603571,1,0,0:0:0:0:
448,192,1603781,1,0,0:0:0:0:
192,192,1603781,1,0,0:0:0:0:
192,192,1604201,1,0,0:0:0:0:
64,192,1604306,1,0,0:0:0:0:
192,192,1604620,1,0,0:0:0:0:
448,192,1604830,1,0,0:0:0:0:
64,192,1605145,1,0,0:0:0:0:
192,192,1605459,1,0,0:0:0:0:
192,192,1605774,1,0,0:0:0:0:
192,192,1605984,1,0,0:0:0:0:
64,192,1606089,1,0,0:0:0:0:
192,192,1606194,1,0,0:0:0:0:
448,192,1606194,1,0,0:0:0:0:
64,192,1606299,1,0,0:0:0:0:
192,192,1606403,1,0,0:0:0:0:
64,192,1606508,1,0,0:0:0:0:
192,192,1606613,1,0,0:0:0:0:
448,192,1606718,1,0,0:0:0:0:
320,192,1606928,1,0,0:0:0:0:
320,192,1607138,1,0,0:0:0:0:
448,192,1607557,1,0,0:0:0:0:
320,192,1607662,1,0,0:0:0:0:
64,192,1607872,1,0,0:0:0:0:
64,192,1608187,1,0,0:0:0:0:
448,192,1608292,1,0,0:0:0:0:
192,192,1608396,1,0,0:0:0:0:
64,192,1608396,1,0,0:0:0:0:
448,192,1608606,1,0,0:0:0:0:
64,192,1608816,1,0,0:0:0:0:
64,192,1609026,1,0,0:0:0:0:
64,192,1609236,1,0,0:0:0:0:
192,192,1609341,1,0,0:0:0:0:
64,192,1609550,1,0,0:0:0:0:
192,192,1609655,1,0,0:0:0:0:
320,192,1609760,1,0,0:0:0:0:
320,192,1610075,1,0,0:0:0:0:
192,192,1610180,1,0,0:0:0:0:
64,192,1610285,1,0,0:0:0:0:
320,192,1610389,1,0,0:0:0:0:
64,192,1610599,1,0,0:0:0:0:
448,192,1610704,1,0,0:0:0:0:
192,192,1610809,1,0,0:0:0:0:
64,192,1610914,1,0,0:0:0:0:
448,192,1611543,1,0,0:0:0:0:
64,192,1611648,1,0,0:0:0:0:
320,192,1611648,1,0,0:0:0:0:
192,192,1612173,1,0,0:0:0:0:
64,192,1612592,1,0,0:0:0:0:
192,192,1612697,1,0,0:0:0:0:
64,192,1612802,1,0,0:0:0:0:
320,192,1613012,1,0,0:0:0:0:
64,192,1613117,1,0,0:0:0:0:
320,192,1613431,1,0,0:0:0:0:
448,192,1613641,1,0,0:0:0:0:
320,192,1614166,1,0,0:0:0:0:
64,192,1614585,1,0,0:0:0:0:
192,192,1614690,1,0,0:0:0:0:
320,192,1614900,1,0,0:0:0:0:
192,192,1615005,1,0,0:0:0:0:
448,192,1615110,1,0,0:0:0:0:
192,192,1615215,1,0,0:0:0:0:
64,192,1615320,1,0,0:0:0:0:
320,192,1615424,1,0,0:0:0:0:
192,192,1615529,1,0,0:0:0:0:
320,192,1615739,1,0,0:0:0:0:
64,192,1615949,1,0,0:0:0:0:
192,192,1616054,1,0,0:0:0:0:
192,192,1616788,1,0,0:0:0:0:
448,192,1616893,1,0,0:0:0:0:
320,192,1617208,1,0,0:0:0:0:
448,192,1617313,1,0,0:0:0:0:
64,192,1617417,1,0,0:0:0:0:
320,192,1617522,1,0,0:0:0:0:
64,192,1617627,1,0,0:0:0:0:
448,192,1617942,1,0,0:0:0:0:
192,192,1618047,1,0,0:0:0:0:
448,192,1618257,1,0,0:0:0:0:
64,192,1618361,1,0,0:0:0:0:
320,192,1618886,1,0,0:0:0:0:
192,192,1618991,1,0,0:0:0:0:
448,192,1619096,1,0,0:0:0:0:
320,192,1619201,1,0,0:0:0:0:
320,192,1619410,1,0,0:0:0:0:
64,192,1619620,1,0,0:0:0:0:
320,192,1619725,1,0,0:0:0:0:
192,192,1620145,1,0,0:0:0:0:
320,192,1620250,1,0,0:0:0:0:
448,192,1620354,1,0,0:0:0:0:
192,192,1620459,1,0,0:0:0:0:
448,192,1620564,1,0,0:0:0:0:
192,192,1620669,1,0,0:0:0:0:
64,192,1620879,1,0,0:0:0:0:
320,192,1620984,1,0,0:0:0:0:
64,192,1621089,1,0,0:0:0:0:
64,192,1621299,1,0,0:0:0:0:
64,192,1621613,1,0,0:0:0:0:
448,192,1621718,1,0,0:0:0:0:
64,192,1621823,1,0,0:0:0:0:
448,192,1622033,1,0,0:0:0:0:
192,192,1622243,1,0,0:0:0:0:
320,192,1622348,1,0,0:0:0:0:
448,192,1622767,1,0,0:0:0:0:
320,192,1623082,1,0,0:0:0:0:
320,192,1623292,1,0,0:0:0:0:
448,192,1623711,1,0,0:0:0:0:
448,192,1623921,1,0,0:0:0:0:
64,192,1624131,1,0,0:0:0:0:
448,192,1624236,1,0,0:0:0:0:
320,192,1624970,1,0,0:0:0:0:
192,192,1625599,1,0,0:0:0:0:
320,192,1625809,1,0,0:0:0:0:
320,192,1626019,1,0,0:0:0:0:
320,192,1626229,1,0,0:0:0:0:
320,192,1626438,1,0,0:0:0:0:
448,192,1626543,1,0,0:0:0:0:
320,192,1626648,1,0,0:0:0:0:
448,192,1626753,1,0,0:0:0:0:
192,192,1627068,1,0,0:0:0:0:
64,192,1627173,1,0,0:0:0:0:
448,192,1627278,1,0,0:0:0:0:
192,192,1627382,1,0,0:0:0:0:
320,192,1627487,1,0,0:0:0:0:
64,192,1627697,1,0,0:0:0:0:
320,192,1627802,1,0,0:0:0:0:
64,192,1627907,1,0,0:0:0:0:
64,192,1628117,1,0,0:0:0:0:
448,192,1628222,1,0,0:0:0:0:
64,192,1628327,1,0,0:0:0:0:
448,192,1628431,1,0,0:0:0:0:
448,192,1628851,1,0,0:0:0:0:
192,192,1629061,1,0,0:0:0:0:
448,192,1629271,1,0,0:0:0:0:
448,192,1629690,1,0,0:0:0:0:
192,192,1629795,1,0,0:0:0:0:
448,192,1630005,1,0,0:0:0:0:
448,192,1630424,1,0,0:0:0:0:
192,192,1630634,1,0,0:0:0:0:
320,192,1630844,1,0,0:0:0:0:
448,192,1631054,1,0,0:0:0:0:
320,192,1631264,1,0,0:0:0:0:
448,192,1631368,1,0,0:0:0:0:
320,192,1631683,1,0,0:0:0:0:
448,192,1631788,1,0,0:0:0:0:
448,192,1632522,1,0,0:0:0:0:
192,192,1632732,1,0,0:0:0:0:
64,192,1632942,1,0,0:0:0:0:
448,192,1633152,1,0,0:0:0:0:
448,192,1633781,1,0,0:0:0:0:
64,192,1633886,1,0,0:0:0:0:
320,192,1633991,1,0,0:0:0:0:
192,192,1634096,1,0,0:0:0:0:
448,192,1634306,1,0,0:0:0:0:
64,192,1634410,1,0,0:0:0:0:
320,192,1634515,1,0,0:0:0:0:
192,192,1635040,1,0,0:0:0:0:
64,192,1635145,1,0,0:0:0:0:
320,192,1635250,1,0,0:0:0:0:
192,192,1635459,1,0,0:0:0:0:
448,192,1635564,1,0,0:0:0:0:
192,192,1636403,1,0,0:0:0:0:
320,192,1636508,1,0,0:0:0:0:
320,192,1636718,1,0,0:0:0:0:
192,192,1636928,1,0,0:0:0:0:
448,192,1637033,1,0,0:0:0:0:
320,192,1637348,1,0,0:0:0:0:
448,192,1637348,1,0,0:0:0:0:
192,192,1637452,1,0,0:0:0:0:
64,192,1637662,1,0,0:0:0:0:
64,192,1638187,1,0,0:0:0:0:
448,192,1638396,1,0,0:0:0:0:
320,192,1638396,1,0,0:0:0:0:
64,192,1638501,1,0,0:0:0:0:
320,192,1638606,1,0,0:0:0:0:
192,192,1638606,1,0,0:0:0:0:
448,192,1638711,1,0,0:0:0:0:
320,192,1639026,1,0,0:0:0:0:
192,192,1639445,1,0,0:0:0:0:
64,192,1639655,1,0,0:0:0:0:
64,192,1639865,1,0,0:0:0:0:
448,192,1640075,1,0,0:0:0:0:
64,192,1640285,1,0,0:0:0:0:
448,192,1640285,1,0,0:0:0:0:
64,192,1640494,1,0,0:0:0:0:
448,192,1640599,1,0,0:0:0:0:
320,192,1640704,1,0,0:0:0:0:
320,192,1640914,1,0,0:0:0:0:
64,192,1641543,1,0,0:0:0:0:
64,192,1641753,1,0,0:0:0:0:
320,192,1641858,1,0,0:0:0:0:
64,192,1641963,1,0,0:0:0:0:
448,192,1641963,1,0,0:0:0:0:
448,192,1642173,1,0,0:0:0:0:
448,192,1642802,1,0,0:0:0:0:
448,192,1643641,1,0,0:0:0:0:
448,192,1644061,1,0,0:0:0:0:
192,192,1644166,1,0,0:0:0:0:
64,192,1644271,1,0,0:0:0:0:
192,192,1644375,1,0,0:0:0:0:
320,192,1644375,1,0,0:0:0:0:
64,192,1644480,1,0,0:0:0:0:
320,192,1644585,1,0,0:0:0:0:
64,192,1644690,1,0,0:0:0:0:
320,192,1644795,1,0,0:0:0:0:
448,192,1644900,1,0,0:0:0:0:
64,192,1645110,1,0,0:0:0:0:
320,192,1645320,1,0,0:0:0:0:
448,192,1645529,1,0,0:0:0:0:
64,192,1645739,1,0,0:0:0:0:
64,192,1645949,1,0,0:0:0:0:
320,192,1646054,1,0,0:0:0:0:
448,192,1646159,1,0,0:0:0:0:
192,192,1646264,1,0,0:0:0:0:
448,192,1646473,1,0,0:0:0:0:
320,192,1646788,1,0,0:0:0:0:
192,192,1646893,1,0,0:0:0:0:
448,192,1646998,1,0,0:0:0:0:
320,192,1647103,1,0,0:0:0:0:
64,192,1647208,1,0,0:0:0:0:
320,192,1647313,1,0,0:0:0:0:
64,192,1647417,1,0,0:0:0:0:
192,192,1647522,1,0,0:0:0:0:
64,192,1647627,1,0,0:0:0:0:
320,192,1647732,1,0,0:0:0:0:
192,192,1647942,1,0,0:0:0:0:
320,192,1648676,1,0,0:0:0:0:
448,192,1648781,1,0,0:0:0:0:
192,192,1648991,1,0,0:0:0:0:
448,192,1649620,1,0,0:0:0:0:
192,192,1649935,1,0,0:0:0:0:
64,192,1650040,1,0,0:0:0:0:
192,192,1650145,1,0,0:0:0:0:
448,192,1650250,1,0,0:0:0:0:
320,192,1650354,1,0,0:0:0:0:
448,192,1650459,1,0,0:0:0:0:
448,192,1650774,1,0,0:0:0:0:
192,192,1651089,1,0,0:0:0:0:
448,192,1651613,1,0,0:0:0:0:
64,192,1651823,1,0,0:0:0:0:
64,192,1652033,1,0,0:0:0:0:
192,192,1652243,1,0,0:0:0:0:
448,192,1652348,1,0,0:0:0:0:
192,192,1652452,1,0,0:0:0:0:
64,192,1652767,1,0,0:0:0:0:
64,192,1652977,1,0,0:0:0:0:
320,192,1653082,1,0,0:0:0:0:
192,192,1653292,1,0,0:0:0:0:
320,192,1653396,1,0,0:0:0:0:
192,192,1653501,1,0,0:0:0:0:
448,192,1653921,1,0,0:0:0:0:
192,192,1654131,1,0,0:0:0:0:
320,192,1654550,1,0,0:0:0:0:
320,192,1654865,1,0,0:0:0:0:
192,192,1654970,1,0,0:0:0:0:
320,192,1655180,1,0,0:0:0:0:
64,192,1655389,1,0,0:0:0:0:
320,192,1655809,1,0,0:0:0:0:
192,192,1656229,1,0,0:0:0:0:
448,192,1657068,1,0,0:0:0:0:
192,192,1657173,1,0,0:0:0:0:
448,192,1657487,1,0,0:0:0:0:
448,192,1657802,1,0,0:0:0:0:
64,192,1657907,1,0,0:0:0:0:
192,192,1658327,1,0,0:0:0:0:
320,192,1658536,1,0,0:0:0:0:
192,192,1659166,1,0,0:0:0:0:
64,192,1659480,1,0,0:0:0:0:
448,192,1659900,1,0,0:0:0:0:
64,192,1660005,1,0,0:0:0:0:
192,192,1660215,1,0,0:0:0:0:
64,192,1660424,1,0,0:0:0:0:
64,192,1660634,1,0,0:0:0:0:
320,192,1660739,1,0,0:0:0:0:
64,192,1660844,1,0,0:0:0:0:
320,192,1660949,1,0,0:0:0:0:
192,192,1661473,1,0,0:0:0:0:
320,192,1662103,1,0,0:0:0:0:
320,192,1663361,1,0,0:0:0:0:
448,192,1663466,1,0,0:0:0:0:
320,192,1663781,1,0,0:0:0:0:
192,192,1663991,1,0,0:0:0:0:
192,192,1664201,1,0,0:0:0:0:
64,192,1664306,1,0,0:0:0:0:
448,192,1664620,1,0,0:0:0:0:
448,192,1664830,1,0,0:0:0:0:
64,192,1665040,1,0,0:0:0:0:
192,192,1665145,1,0,0:0:0:0:
64,192,1665250,1,0,0:0:0:0:
64,192,1665459,1,0,0:0:0:0:
320,192,1665669,1,0,0:0:0:0:
192,192,1665774,1,0,0:0:0:0:
448,192,1665879,1,0,0:0:0:0:
320,192,1666089,1,0,0:0:0:0:
192,192,1666718,1,0,0:0:0:0:
64,192,1666823,1,0,0:0:0:0:
64,192,1667138,1,0,0:0:0:0:
448,192,1667348,1,0,0:0:0:0:
64,192,1667557,1,0,0:0:0:0:
320,192,1667662,1,0,0:0:0:0:
64,192,1669026,1,0,0:0:0:0:
320,192,1669236,1,0,0:0:0:0:
64,192,1670075,1,0,0:0:0:0:
448,192,1670285,1,0,0:0:0:0:
448,192,1670494,1,0,0:0:0:0:
192,192,1670704,1,0,0:0:0:0:
64,192,1670914,1,0,0:0:0:0:
320,192,1671019,1,0,0:0:0:0:
448,192,1671543,1,0,0:0:0:0:
192,192,1671648,1,0,0:0:0:0:
64,192,1671753,1,0,0:0:0:0:
192,192,1671858,1,0,0:0:0:0:
448,192,1671963,1,0,0:0:0:0:
448,192,1672382,1,0,0:0:0:0:
192,192,1672592,1,0,0:0:0:0:
192,192,1672802,1,0,0:0:0:0:
448,192,1673012,1,0,0:0:0:0:
320,192,1673117,1,0,0:0:0:0:
320,192,1673431,1,0,0:0:0:0:
448,192,1673851,1,0,0:0:0:0:
320,192,1674061,1,0,0:0:0:0:
320,192,1674271,1,0,0:0:0:0:
64,192,1674271,1,0,0:0:0:0:
448,192,1674375,1,0,0:0:0:0:
64,192,1674585,1,0,0:0:0:0:
320,192,1674900,1,0,0:0:0:0:
64,192,1675320,1,0,0:0:0:0:
448,192,1675424,1,0,0:0:0:0:
320,192,1675529,1,0,0:0:0:0:
448,192,1675949,1,0,0:0:0:0:
64,192,1676159,1,0,0:0:0:0:
320,192,1676998,1,0,0:0:0:0:
448,192,1677208,1,0,0:0:0:0:
64,192,1677417,1,0,0:0:0:0:
64,192,1677627,1,0,0:0:0:0:
448,192,1678152,1,0,0:0:0:0:
192,192,1678257,1,0,0:0:0:0:
448,192,1678466,1,0,0:0:0:0:
448,192,1678676,1,0,0:0:0:0:
320,192,1678781,1,0,0:0:0:0:
448,192,1678886,1,0,0:0:0:0:
64,192,1678991,1,0,0:0:0:0:
320,192,1679306,1,0,0:0:0:0:
64,192,1679515,1,0,0:0:0:0:
320,192,1679620,1,0,0:0:0:0:
448,192,1679725,1,0,0:0:0:0:
64,192,1680250,1,0,0:0:0:0:
448,192,1680354,1,0,0:0:0:0:
448,192,1680564,1,0,0:0:0:0:
320,192,1680774,1,0,0:0:0:0:
64,192,1680984,1,0,0:0:0:0:
192,192,1681194,1,0,0:0:0:0:
320,192,1681299,1,0,0:0:0:0:
448,192,1681299,1,0,0:0:0:0:
64,192,1681613,1,0,0:0:0:0:
192,192,1681718,1,0,0:0:0:0:
64,192,1681928,1,0,0:0:0:0:
448,192,1682033,1,0,0:0:0:0:
320,192,1682033,1,0,0:0:0:0:
192,192,1682138,1,0,0:0:0:0:
320,192,1682243,1,0,0:0:0:0:
448,192,1682662,1,0,0:0:0:0:
320,192,1682767,1,0,0:0:0:0:
320,192,1683711,1,0,0:0:0:0:
448,192,1683816,1,0,0:0:0:0:
64,192,1683921,1,0,0:0:0:0:
320,192,1684341,1,0,0:0:0:0:
64,192,1684655,1,0,0:0:0:0:
320,192,1684760,1,0,0:0:0:0:
192,192,1684970,1,0,0:0:0:0:
320,192,1685180,1,0,0:0:0:0:
448,192,1685285,1,0,0:0:0:0:
192,192,1685389,1,0,0:0:0:0:
64,192,1685599,1,0,0:0:0:0:
448,192,1685914,1,0,0:0:0:0:
192,192,1686019,1,0,0:0:0:0:
64,192,1686019,1,0,0:0:0:0:
320,192,1686124,1,0,0:0:0:0:
64,192,1686334,1,0,0:0:0:0:
320,192,1686438,1,0,0:0:0:0:
320,192,1686648,1,0,0:0:0:0:
448,192,1686963,1,0,0:0:0:0:
192,192,1687068,1,0,0:0:0:0:
448,192,1687173,1,0,0:0:0:0:
192,192,1687487,1,0,0:0:0:0:
448,192,1687592,1,0,0:0:0:0:
192,192,1687802,1,0,0:0:0:0:
320,192,1688012,1,0,0:0:0:0:
192,192,1689795,1,0,0:0:0:0:
448,192,1689900,1,0,0:0:0:0:
320,192,1690215,1,0,0:0:0:0:
448,192,1690529,1,0,0:0:0:0:
320,192,1690634,1,0,0:0:0:0:
320,192,1690844,1,0,0:0:0:0:
448,192,1691054,1,0,0:0:0:0:
64,192,1691159,1,0,0:0:0:0:
192,192,1691368,1,0,0:0:0:0:
192,192,1691683,1,0,0:0:0:0:
320,192,1691788,1,0,0:0:0:0:
192,192,1691893,1,0,0:0:0:0:
448,192,1691998,1,0,0:0:0:0:
320,192,1692103,1,0,0:0:0:0:
192,192,1692208,1,0,0:0:0:0:
448,192,1692313,1,0,0:0:0:0:
192,192,1692522,1,0,0:0:0:0:
320,192,1692942,1,0,0:0:0:0:
64,192,1693152,1,0,0:0:0:0:
192,192,1693361,1,0,0:0:0:0:
320,192,1693466,1,0,0:0:0:0:
448,192,1693571,1,0,0:0:0:0:
64,192,1693676,1,0,0:0:0:0:
320,192,1693781,1,0,0:0:0:0:
64,192,1693886,1,0,0:0:0:0:
192,192,1693991,1,0,0:0:0:0:
448,192,1694201,1,0,0:0:0:0:
448,192,1694410,1,0,0:0:0:0:
64,192,1694725,1,0,0:0:0:0:
192,192,1694725,1,0,0:0:0:0:
192,192,1695145,1,0,0:0:0:0:
320,192,1695250,1,0,0:0:0:0:
192,192,1695879,1,0,0:0:0:0:
320,192,1696089,1,0,0:0:0:0:
64,192,1696299,1,0,0:0:0:0:
64,192,1696508,1,0,0:0:0:0:
448,192,1696718,1,0,0:0:0:0:
192,192,1696928,1,0,0:0:0:0:
320,192,1697138,1,0,0:0:0:0:
448,192,1697243,1,0,0:0:0:0:
192,192,1697348,1,0,0:0:0:0:
192,192,1697557,1,0,0:0:0:0:
448,192,1697767,1,0,0:0:0:0:
448,192,1698082,1,0,0:0:0:0:
192,192,1698501,1,0,0:0:0:0:
320,192,1698606,1,0,0:0:0:0:
448,192,1698711,1,0,0:0:0:0:
320,192,1698816,1,0,0:0:0:0:
64,192,1699026,1,0,0:0:0:0:
64,192,1699236,1,0,0:0:0:0:
320,192,1699655,1,0,0:0:0:0:
320,192,1700075,1,0,0:0:0:0:
448,192,1700180,1,0,0:0:0:0:
320,192,1700285,1,0,0:0:0:0:
448,192,1700599,1,0,0:0:0:0:
320,192,1700914,1,0,0:0:0:0:
64,192,1701124,1,0,0:0:0:0:
448,192,1701438,1,0,0:0:0:0:
64,192,1701648,1,0,0:0:0:0:
192,192,1701963,1,0,0:0:0:0:
320,192,1702068,1,0,0:0:0:0:
192,192,1702802,1,0,0:0:0:0:
448,192,1703222,1,0,0:0:0:0:
320,192,1703327,1,0,0:0:0:0:
192,192,1703431,1,0,0:0:0:0:
192,192,1703641,1,0,0:0:0:0:
64,192,1703746,1,0,0:0:0:0:
448,192,1703851,1,0,0:0:0:0:
320,192,1703956,1,0,0:0:0:0:
448,192,1704061,1,0,0:0:0:0:
448,192,1704480,1,0,0:0:0:0:
192,192,1704900,1,0,0:0:0:0:
448,192,1705110,1,0,0:0:0:0:
64,192,1705215,1,0,0:0:0:0:
192,192,1705320,1,0,0:0:0:0:
192,192,1705529,1,0,0:0:0:0:
64,192,1705739,1,0,0:0:0:0:
448,192,1705949,1,0,0:0:0:0:
64,192,1706054,1,0,0:0:0:0:
192,192,1706159,1,0,0:0:0:0:
64,192,1706368,1,0,0:0:0:0:
320,192,1706578,1,0,0:0:0:0:
64,192,1706893,1,0,0:0:0:0:
192,192,1706998,1,0,0:0:0:0:
448,192,1707103,1,0,0:0:0:0:
192,192,1707208,1,0,0:0:0:0:
448,192,1707313,1,0,0:0:0:0:
64,192,1707417,1,0,0:0:0:0:
448,192,1707627,1,0,0:0:0:0:
192,192,1707732,1,0,0:0:0:0:
448,192,1707837,1,0,0:0:0:0:
64,192,1707942,1,0,0:0:0:0:
320,192,1708047,1,0,0:0:0:0:
448,192,1708257,1,0,0:0:0:0:
320,192,1708361,1,0,0:0:0:0:
320,192,1708676,1,0,0:0:0:0:
320,192,1709201,1,0,0:0:0:0:
64,192,1709410,1,0,0:0:0:0:
320,192,1709515,1,0,0:0:0:0:
192,192,1709935,1,0,0:0:0:0:
192,192,1710145,1,0,0:0:0:0:
320,192,1710354,1,0,0:0:0:0:
192,192,1710564,1,0,0:0:0:0:
64,192,1710774,1,0,0:0:0:0:
448,192,1711508,1,0,0:0:0:0:
320,192,1711928,1,0,0:0:0:0:
64,192,1712033,1,0,0:0:0:0:
192,192,1712138,1,0,0:0:0:0:
320,192,1712243,1,0,0:0:0:0:
320,192,1712452,1,0,0:0:0:0:
320,192,1712662,1,0,0:0:0:0:
64,192,1712767,1,0,0:0:0:0:
448,192,1712872,1,0,0:0:0:0:
320,192,1712977,1,0,0:0:0:0:
448,192,1713082,1,0,0:0:0:0:
192,192,1713187,1,0,0:0:0:0:
192,192,1713396,1,0,0:0:0:0:
192,192,1713711,1,0,0:0:0:0:
448,192,1713816,1,0,0:0:0:0:
448,192,1714131,1,0,0:0:0:0:
64,192,1714236,1,0,0:0:0:0:
320,192,1714341,1,0,0:0:0:0:
448,192,1714445,1,0,0:0:0:0:
64,192,1714550,1,0,0:0:0:0:
448,192,1714655,1,0,0:0:0:0:
320,192,1714760,1,0,0:0:0:0:
448,192,1716229,1,0,0:0:0:0:
192,192,1718327,1,0,0:0:0:0:
448,192,1718536,1,0,0:0:0:0:
192,192,1718746,1,0,0:0:0:0:
64,192,1718851,1,0,0:0:0:0:
448,192,1718956,1,0,0:0:0:0:
64,192,1719061,1,0,0:0:0:0:
192,192,1719166,1,0,0:0:0:0:
64,192,1719271,1,0,0:0:0:0:
448,192,1719375,1,0,0:0:0:0:
448,192,1719585,1,0,0:0:0:0:
64,192,1719690,1,0,0:0:0:0:
448,192,1719795,1,0,0:0:0:0:
64,192,1719900,1,0,0:0:0:0:
320,192,1720215,1,0,0:0:0:0:
448,192,1720320,1,0,0:0:0:0:
448,192,1720529,1,0,0:0:0:0:
320,192,1720634,1,0,0:0:0:0:
448,192,1720844,1,0,0:0:0:0:
448,192,1721054,1,0,0:0:0:0:
320,192,1721159,1,0,0:0:0:0:
64,192,1721264,1,0,0:0:0:0:
448,192,1721368,1,0,0:0:0:0:
192,192,1721368,1,0,0:0:0:0:
320,192,1721473,1,0,0:0:0:0:
192,192,1721578,1,0,0:0:0:0:
64,192,1721683,1,0,0:0:0:0:
448,192,1721788,1,0,0:0:0:0:
192,192,1722313,1,0,0:0:0:0:
320,192,1722732,1,0,0:0:0:0:
448,192,1722942,1,0,0:0:0:0:
64,192,1723257,1,0,0:0:0:0:
64,192,1723886,1,0,0:0:0:0:
192,192,1724201,1,0,0:0:0:0:
320,192,1724935,1,0,0:0:0:0:
64,192,1725040,1,0,0:0:0:0:
448,192,1725145,1,0,0:0:0:0:
64,192,1725250,1,0,0:0:0:0:
320,192,1725564,1,0,0:0:0:0:
192,192,1725669,1,0,0:0:0:0:
320,192,1725774,1,0,0:0:0:0:
192,192,1726089,1,0,0:0:0:0:
192,192,1726403,1,0,0:0:0:0:
64,192,1726613,1,0,0:0:0:0:
448,192,1726823,1,0,0:0:0:0:
320,192,1726928,1,0,0:0:0:0:
64,192,1727033,1,0,0:0:0:0:
192,192,1727033,1,0,0:0:0:0:
320,192,1727138,1,0,0:0:0:0:
192,192,1727243,1,0,0:0:0:0:
64,192,1727452,1,0,0:0:0:0:
448,192,1727557,1,0,0:0:0:0:
192,192,1727662,1,0,0:0:0:0:
448,192,1727767,1,0,0:0:0:0:
64,192,1727872,1,0,0:0:0:0:
320,192,1727977,1,0,0:0:0:0:
448,192,1728082,1,0,0:0:0:0:
320,192,1728187,1,0,0:0:0:0:
448,192,1728396,1,0,0:0:0:0:
320,192,1728501,1,0,0:0:0:0:
448,192,1729026,1,0,0:0:0:0:
192,192,1729236,1,0,0:0:0:0:
192,192,1729865,1,0,0:0:0:0:
320,192,1730285,1,0,0:0:0:0:
64,192,1731019,1,0,0:0:0:0:
192,192,1731334,1,0,0:0:0:0:
64,192,1731543,1,0,0:0:0:0:
320,192,1732173,1,0,0:0:0:0:
192,192,1732592,1,0,0:0:0:0:
64,192,1733431,1,0,0:0:0:0:
64,192,1733641,1,0,0:0:0:0:
64,192,1734690,1,0,0:0:0:0:
448,192,1734900,1,0,0:0:0:0:
192,192,1735005,1,0,0:0:0:0:
192,192,1735844,1,0,0:0:0:0:
64,192,1736054,1,0,0:0:0:0:
192,192,1736264,1,0,0:0:0:0:
64,192,1736473,1,0,0:0:0:0:
448,192,1736683,1,0,0:0:0:0:
64,192,1737522,1,0,0:0:0:0:
320,192,1738886,1,0,0:0:0:0:
64,192,1739830,1,0,0:0:0:0:
448,192,1740145,1,0,0:0:0:0:
320,192,1740564,1,0,0:0:0:0:
320,192,1740984,1,0,0:0:0:0:
448,192,1741089,1,0,0:0:0:0:
192,192,1741194,1,0,0:0:0:0:
448,192,1741508,1,0,0:0:0:0:
64,192,1741613,1,0,0:0:0:0:
64,192,1742243,1,0,0:0:0:0:
64,192,1743501,1,0,0:0:0:0:
64,192,1743816,1,0,0:0:0:0:
64,192,1744760,1,0,0:0:0:0:
64,192,1744970,1,0,0:0:0:0:
320,192,1745389,1,0,0:0:0:0:
320,192,1746229,1,0,0:0:0:0:
448,192,1746334,1,0,0:0:0:0:
320,192,1746438,1,0,0:0:0:0:
64,192,1746543,1,0,0:0:0:0:
64,192,1746858,1,0,0:0:0:0:
448,192,1747068,1,0,0:0:0:0:
192,192,1747173,1,0,0:0:0:0:
192,192,1747382,1,0,0:0:0:0:
320,192,1747487,1,0,0:0:0:0:
448,192,1748117,1,0,0:0:0:0:
320,192,1748327,1,0,0:0:0:0:
192,192,1748746,1,0,0:0:0:0:
320,192,1748851,1,0,0:0:0:0:
64,192,1748956,1,0,0:0:0:0:
320,192,1749585,1,0,0:0:0:0:
448,192,1749795,1,0,0:0:0:0:
320,192,1750215,1,0,0:0:0:0:
320,192,1750424,1,0,0:0:0:0:
64,192,1751473,1,0,0:0:0:0:
320,192,1751683,1,0,0:0:0:0:
64,192,1751998,1,0,0:0:0:0:
192,192,1752732,1,0,0:0:0:0:
320,192,1753781,1,0,0:0:0:0:
192,192,1753886,1,0,0:0:0:0:
64,192,1753991,1,0,0:0:0:0:
192,192,1754096,1,0,0:0:0:0:
320,192,1754410,1,0,0:0:0:0:
320,192,1754830,1,0,0:0:0:0:
192,192,1755040,1,0,0:0:0:0:
192,192,1755250,1,0,0:0:0:0:
192,192,1756508,1,0,0:0:0:0:
448,192,1756928,1,0,0:0:0:0:
320,192,1757033,1,0,0:0:0:0:
448,192,1757138,1,0,0:0:0:0:
192,192,1757243,1,0,0:0:0:0:
64,192,1757348,1,0,0:0:0:0:
192,192,1757452,1,0,0:0:0:0:
64,192,1757557,1,0,0:0:0:0:
448,192,1757662,1,0,0:0:0:0:
64,192,1757767,1,0,0:0:0:0:
192,192,1758606,1,0,0:0:0:0:
64,192,1758711,1,0,0:0:0:0:
192,192,1758921,1,0,0:0:0:0:
320,192,1759026,1,0,0:0:0:0:
64,192,1759236,1,0,0:0:0:0:
64,192,1759445,1,0,0:0:0:0:
192,192,1759655,1,0,0:0:0:0:
448,192,1760285,1,0,0:0:0:0:
320,192,1760704,1,0,0:0:0:0:
320,192,1760914,1,0,0:0:0:0:
320,192,1761124,1,0,0:0:0:0:
448,192,1761648,1,0,0:0:0:0:
64,192,1761753,1,0,0:0:0:0:
448,192,1762068,1,0,0:0:0:0:
192,192,1762802,1,0,0:0:0:0:
320,192,1762907,1,0,0:0:0:0:
192,192,1763012,1,0,0:0:0:0:
320,192,1763117,1,0,0:0:0:0:
448,192,1763222,1,0,0:0:0:0:
192,192,1763641,1,0,0:0:0:0:
448,192,1763851,1,0,0:0:0:0:
64,192,1764480,1,0,0:0:0:0:
320,192,1765215,1,0,0:0:0:0:
448,192,1765529,1,0,0:0:0:0:
192,192,1765634,1,0,0:0:0:0:
448,192,1765739,1,0,0:0:0:0:
320,192,1765949,1,0,0:0:0:0:
192,192,1766159,1,0,0:0:0:0:
448,192,1766264,1,0,0:0:0:0:
192,192,1766368,1,0,0:0:0:0:
448,192,1766578,1,0,0:0:0:0:
448,192,1766788,1,0,0:0:0:0:
320,192,1766998,1,0,0:0:0:0:
64,192,1767103,1,0,0:0:0:0:
448,192,1767313,1,0,0:0:0:0:
320,192,1767417,1,0,0:0:0:0:
192,192,1767522,1,0,0:0:0:0:
320,192,1767627,1,0,0:0:0:0:
64,192,1767837,1,0,0:0:0:0:
320,192,1768047,1,0,0:0:0:0:
64,192,1768152,1,0,0:0:0:0:
448,192,1768361,1,0,0:0:0:0:
64,192,1768466,1,0,0:0:0:0:
64,192,1768676,1,0,0:0:0:0:
192,192,1768781,1,0,0:0:0:0:
320,192,1769935,1,0,0:0:0:0:
192,192,1771089,1,0,0:0:0:0:
448,192,1771613,1,0,0:0:0:0:
64,192,1774550,1,0,0:0:0:0:
448,192,1774760,1,0,0:0:0:0:
320,192,1774865,1,0,0:0:0:0:
64,192,1774970,1,0,0:0:0:0:
448,192,1775075,1,0,0:0:0:0:
64,192,1775180,1,0,0:0:0:0:
320,192,1776019,1,0,0:0:0:0:
320,192,1776648,1,0,0:0:0:0:
320,192,1777697,1,0,0:0:0:0:
448,192,1778431,1,0,0:0:0:0:
64,192,1779375,1,0,0:0:0:0:
320,192,1780005,1,0,0:0:0:0:
192,192,1780110,1,0,0:0:0:0:
320,192,1780739,1,0,0:0:0:0:
448,192,1781473,1,0,0:0:0:0:
192,192,1781578,1,0,0:0:0:0:
192,192,1781788,1,0,0:0:0:0:
64,192,1781788,1,0,0:0:0:0:
448,192,1781893,1,0,0:0:0:0:
320,192,1782732,1,0,0:0:0:0:
448,192,1783361,1,0,0:0:0:0:
192,192,1787662,1,0,0:0:0:0:
192,192,1787872,1,0,0:0:0:0:
64,192,1787977,1,0,0:0:0:0:
64,192,1788187,1,0,0:0:0:0:
320,192,1788292,1,0,0:0:0:0:
448,192,1788396,1,0,0:0:0:0:
320,192,1788501,1,0,0:0:0:0:
192,192,1788606,1,0,0:0:0:0:
64,192,1788816,1,0,0:0:0:0:
192,192,1788921,1,0,0:0:0:0:
448,192,1789445,1,0,0:0:0:0:
64,192,1789865,1,0,0:0:0:0:
320,192,1790075,1,0,0:0:0:0:
320,192,1790704,1,0,0:0:0:0:
192,192,1790914,1,0,0:0:0:0:
320,192,1791124,1,0,0:0:0:0:
64,192,1792382,1,0,0:0:0:0:
320,192,1792592,1,0,0:0:0:0:
192,192,1792802,1,0,0:0:0:0:
448,192,1792907,1,0,0:0:0:0:
64,192,1793222,1,0,0:0:0:0:
192,192,1793431,1,0,0:0:0:0:
192,192,1793641,1,0,0:0:0:0:
448,192,1794166,1,0,0:0:0:0:
192,192,1794585,1,0,0:0:0:0:
64,192,1794690,1,0,0:0:0:0:
320,192,1794900,1,0,0:0:0:0:
192,192,1795005,1,0,0:0:0:0:
64,192,1795320,1,0,0:0:0:0:
448,192,1795424,1,0,0:0:0:0:
64,192,1795529,1,0,0:0:0:0:
320,192,1796853,1,0,0:0:0:0:
320,192,1798352,1,0,0:0:0:0:
64,192,1798352,1,0,0:0:0:0:
320,192,1801449,1,0,0:0:0:0:
64,192,1801449,1,0,0:0:0:0:
64,192,1802804,1,0,0:0:0:0:
320,192,1802997,1,0,0:0:0:0:
448,192,1803384,1,0,0:0:0:0:
448,192,1803578,1,0,0:0:0:0:
64,192,1803771,1,0,0:0:0:0:
448,192,1804158,1,0,0:0:0:0:
64,192,1804352,1,0,0:0:0:0:
448,192,1804449,1,0,0:0:0:0:
192,192,1804546,1,0,0:0:0:0:
448,192,1805320,1,0,0:0:0:0:
320,192,1807642,1,0,0:0:0:0:
448,192,1807642,1,0,0:0:0:0:
192,192,1809675,1,0,0:0:0:0:
448,192,1809771,1,0,0:0:0:0:
192,192,1809965,1,0,0:0:0:0:
192,192,1810352,1,0,0:0:0:0:
448,192,1810642,1,0,0:0:0:0:
64,192,1810739,1,0,0:0:0:0:
64,192,1813836,1,0,0:0:0:0:
320,192,1813836,1,0,0:0:0:0:
448,192,1815384,1,0,0:0:0:0:
320,192,1815868,1,0,0:0:0:0:
192,192,1815965,1,0,0:0:0:0:
448,192,1816158,1,0,0:0:0:0:
192,192,1816546,1,0,0:0:0:0:
448,192,1816739,1,0,0:0:0:0:
192,192,1816836,1,0,0:0:0:0:
320,192,1816933,1,0,0:0:0:0:
320,192,1817707,1,0,0:0:0:0:
448,192,1819546,1,0,0:0:0:0:
192,192,1819642,1,0,0:0:0:0:
320,192,1820029,1,0,0:0:0:0:
64,192,1820029,1,0,0:0:0:0:
320,192,1821384,1,0,0:0:0:0:
448,192,1821578,1,0,0:0:0:0:
192,192,1822352,1,0,0:0:0:0:
64,192,1822739,1,0,0:0:0:0:
64,192,1822933,1,0,0:0:0:0:
448,192,1823029,1,0,0:0:0:0:
192,192,1823126,1,0,0:0:0:0:
192,192,1824578,1,0,0:0:0:0:
64,192,1825739,1,0,0:0:0:0:
448,192,1826029,1,0,0:0:0:0:
448,192,1826223,1,0,0:0:0:0:
192,192,1826223,1,0,0:0:0:0:
64,192,1827578,1,0,0:0:0:0:
448,192,1827771,1,0,0:0:0:0:
192,192,1828158,1,0,0:0:0:0:
448,192,1828352,1,0,0:0:0:0:
64,192,1828546,1,0,0:0:0:0:
448,192,1828933,1,0,0:0:0:0:
64,192,1829126,1,0,0:0:0:0:
320,192,1829126,1,0,0:0:0:0:
448,192,1829223,1,0,0:0:0:0:
64,192,1829320,1,0,0:0:0:0:
64,192,1830094,1,0,0:0:0:0:
192,192,1830287,1,0,0:0:0:0:
448,192,1831933,1,0,0:0:0:0:
64,192,1832029,1,0,0:0:0:0:
192,192,1832320,1,0,0:0:0:0:
320,192,1832417,1,0,0:0:0:0:
320,192,1833965,1,0,0:0:0:0:
64,192,1834546,1,0,0:0:0:0:
320,192,1834642,1,0,0:0:0:0:
64,192,1834739,1,0,0:0:0:0:
192,192,1835029,1,0,0:0:0:0:
448,192,1835126,1,0,0:0:0:0:
192,192,1835417,1,0,0:0:0:0:
448,192,1835513,1,0,0:0:0:0:
192,192,1838610,1,0,0:0:0:0:
448,192,1840158,1,0,0:0:0:0:
192,192,1840546,1,0,0:0:0:0:
448,192,1840642,1,0,0:0:0:0:
64,192,1840739,1,0,0:0:0:0:
320,192,1840933,1,0,0:0:0:0:
448,192,1841320,1,0,0:0:0:0:
320,192,1841513,1,0,0:0:0:0:
64,192,1841610,1,0,0:0:0:0:
448,192,1841707,1,0,0:0:0:0:
64,192,1843255,1,0,0:0:0:0:
192,192,1844417,1,0,0:0:0:0:
448,192,1844804,1,0,0:0:0:0:
64,192,1844804,1,0,0:0:0:0:
448,192,1846255,1,0,0:0:0:0:
448,192,1847126,1,0,0:0:0:0:
192,192,1847417,1,0,0:0:0:0:
320,192,1847513,1,0,0:0:0:0:
192,192,1847804,1,0,0:0:0:0:
64,192,1847900,1,0,0:0:0:0:
320,192,1852546,1,0,0:0:0:0:
320,192,1853320,1,0,0:0:0:0:
448,192,1853707,1,0,0:0:0:0:
64,192,1853900,1,0,0:0:0:0:
448,192,1853997,1,0,0:0:0:0:
192,192,1853997,1,0,0:0:0:0:
64,192,1854094,1,0,0:0:0:0:
320,192,1854868,1,0,0:0:0:0:
192,192,1856804,1,0,0:0:0:0:
64,192,1859513,1,0,0:0:0:0:
320,192,1859900,1,0,0:0:0:0:
64,192,1860094,1,0,0:0:0:0:
448,192,1860191,1,0,0:0:0:0:
64,192,1860287,1,0,0:0:0:0:
192,192,1860384,1,0,0:0:0:0:
320,192,1862707,1,0,0:0:0:0:
320,192,1862900,1,0,0:0:0:0:
192,192,1863191,1,0,0:0:0:0:
320,192,1864933,1,0,0:0:0:0:
448,192,1865707,1,0,0:0:0:0:
448,192,1865997,1,0,0:0:0:0:
192,192,1866094,1,0,0:0:0:0:
448,192,1866287,1,0,0:0:0:0:
64,192,1866384,1,0,0:0:0:0:
448,192,1866481,1,0,0:0:0:0:
320,192,1867255,1,0,0:0:0:0:
448,192,1869191,1,0,0:0:0:0:
64,192,1872287,1,0,0:0:0:0:
320,192,1872481,1,0,0:0:0:0:
448,192,1872578,1,0,0:0:0:0:
64,192,1872675,1,0,0:0:0:0:
320,192,1872868,1,0,0:0:0:0:
448,192,1873062,1,0,0:0:0:0:
448,192,1873255,1,0,0:0:0:0:
448,192,1873836,1,0,0:0:0:0:
64,192,1874029,1,0,0:0:0:0:
192,192,1874610,1,0,0:0:0:0:
192,192,1875384,1,0,0:0:0:0:
320,192,1878094,1,0,0:0:0:0:
448,192,1878481,1,0,0:0:0:0:
448,192,1878675,1,0,0:0:0:0:
320,192,1878771,1,0,0:0:0:0:
64,192,1878771,1,0,0:0:0:0:
192,192,1878868,1,0,0:0:0:0:
320,192,1881191,1,0,0:0:0:0:
320,192,1881868,1,0,0:0:0:0:
64,192,1882158,1,0,0:0:0:0:
192,192,1882352,1,0,0:0:0:0:
64,192,1882546,1,0,0:0:0:0:
64,192,1883900,1,0,0:0:0:0:
64,192,1884094,1,0,0:0:0:0:
192,192,1884287,1,0,0:0:0:0:
320,192,1884675,1,0,0:0:0:0:
192,192,1884868,1,0,0:0:0:0:
64,192,1884965,1,0,0:0:0:0:
320,192,1884965,1,0,0:0:0:0:
192,192,1885062,1,0,0:0:0:0:
448,192,1885255,1,0,0:0:0:0:
320,192,1885449,1,0,0:0:0:0:
192,192,1885642,1,0,0:0:0:0:
320,192,1886223,1,0,0:0:0:0:
192,192,1886417,1,0,0:0:0:0:
448,192,1886997,1,0,0:0:0:0:
320,192,1887384,1,0,0:0:0:0:
320,192,1887771,1,0,0:0:0:0:
320,192,1888546,1,0,0:0:0:0:
64,192,1888739,1,0,0:0:0:0:
320,192,1890868,1,0,0:0:0:0:
64,192,1891062,1,0,0:0:0:0:
448,192,1891158,1,0,0:0:0:0:
320,192,1891255,1,0,0:0:0:0:
320,192,1891933,1,0,0:0:0:0:
448,192,1893965,1,0,0:0:0:0:
192,192,1894352,1,0,0:0:0:0:
448,192,1896675,1,0,0:0:0:0:
192,192,1897062,1,0,0:0:0:0:
320,192,1897255,1,0,0:0:0:0:
448,192,1897352,1,0,0:0:0:0:
64,192,1897352,1,0,0:0:0:0:
320,192,1897449,1,0,0:0:0:0:
64,192,1897836,1,0,0:0:0:0:
64,192,1898029,1,0,0:0:0:0:
448,192,1898223,1,0,0:0:0:0:
320,192,1898417,1,0,0:0:0:0:
448,192,1898610,1,0,0:0:0:0:
64,192,1898610,1,0,0:0:0:0:
448,192,1898804,1,0,0:0:0:0:
320,192,1898900,1,0,0:0:0:0:
192,192,1898997,1,0,0:0:0:0:
320,192,1899094,1,0,0:0:0:0:
320,192,1899384,1,0,0:0:0:0:
64,192,1899578,1,0,0:0:0:0:
64,192,1899771,1,0,0:0:0:0:
192,192,1899771,1,0,0:0:0:0:
320,192,1899771,1,0,0:0:0:0:
448,192,1899965,1,0,0:0:0:0:
448,192,1900158,1,0,0:0:0:0:
192,192,1900158,1,0,0:0:0:0:
448,192,1900352,1,0,0:0:0:0:
64,192,1900352,1,0,0:0:0:0:
64,192,1900546,1,0,0:0:0:0:
64,192,1900933,1,0,0:0:0:0:
320,192,1901126,1,0,0:0:0:0:
320,192,1901320,1,0,0:0:0:0:
320,192,1901513,1,0,0:0:0:0:
64,192,1901513,1,0,0:0:0:0:
192,192,1901707,1,0,0:0:0:0:
64,192,1901707,1,0,0:0:0:0:
448,192,1901900,1,0,0:0:0:0:
320,192,1901997,1,0,0:0:0:0:
448,192,1902094,1,0,0:0:0:0:
192,192,1902287,1,0,0:0:0:0:
448,192,1902481,1,0,0:0:0:0:
320,192,1902481,1,0,0:0:0:0:
448,192,1902675,1,0,0:0:0:0:
192,192,1902868,1,0,0:0:0:0:
64,192,1902868,1,0,0:0:0:0:
448,192,1903062,1,0,0:0:0:0:
192,192,1903158,1,0,0:0:0:0:
448,192,1903255,1,0,0:0:0:0:
448,192,1903449,1,0,0:0:0:0:
320,192,1903449,1,0,0:0:0:0:
320,192,1903642,1,0,0:0:0:0:
448,192,1904029,1,0,0:0:0:0:
64,192,1904029,1,0,0:0:0:0:
320,192,1904223,1,0,0:0:0:0:
448,192,1904417,1,0,0:0:0:0:
192,192,1904610,1,0,0:0:0:0:
320,192,1904804,1,0,0:0:0:0:
64,192,1904804,1,0,0:0:0:0:
192,192,1904997,1,0,0:0:0:0:
64,192,1905191,1,0,0:0:0:0:
448,192,1905384,1,0,0:0:0:0:
320,192,1905578,1,0,0:0:0:0:
320,192,1905771,1,0,0:0:0:0:
64,192,1905771,1,0,0:0:0:0:
448,192,1905868,1,0,0:0:0:0:
192,192,1905965,1,0,0:0:0:0:
448,192,1906158,1,0,0:0:0:0:
320,192,1906352,1,0,0:0:0:0:
448,192,1906352,1,0,0:0:0:0:
64,192,1906546,1,0,0:0:0:0:
320,192,1906546,1,0,0:0:0:0:
192,192,1906546,1,0,0:0:0:0:
320,192,1906739,1,0,0:0:0:0:
64,192,1907126,1,0,0:0:0:0:
192,192,1907126,1,0,0:0:0:0:
320,192,1907320,1,0,0:0:0:0:
64,192,1907320,1,0,0:0:0:0:
64,192,1907707,1,0,0:0:0:0:
192,192,1907707,1,0,0:0:0:0:
64,192,1907900,1,0,0:0:0:0:
192,192,1908094,1,0,0:0:0:0:
448,192,1908287,1,0,0:0:0:0:
192,192,1908481,1,0,0:0:0:0:
320,192,1908675,1,0,0:0:0:0:
192,192,1908868,1,0,0:0:0:0:
448,192,1909062,1,0,0:0:0:0:
64,192,1909062,1,0,0:0:0:0:
192,192,1909255,1,0,0:0:0:0:
64,192,1909352,1,0,0:0:0:0:
320,192,1909449,1,0,0:0:0:0:
64,192,1909642,1,0,0:0:0:0:
320,192,1909642,1,0,0:0:0:0:
64,192,1909836,1,0,0:0:0:0:
64,192,1910029,1,0,0:0:0:0:
448,192,1910223,1,0,0:0:0:0:
192,192,1910417,1,0,0:0:0:0:
448,192,1910610,1,0,0:0:0:0:
320,192,1910804,1,0,0:0:0:0:
448,192,1910804,1,0,0:0:0:0:
64,192,1910997,1,0,0:0:0:0:
448,192,1910997,1,0,0:0:0:0:
192,192,1911191,1,0,0:0:0:0:
64,192,1911287,1,0,0:0:0:0:
192,192,1911384,1,0,0:0:0:0:
192,192,1911771,1,0,0:0:0:0:
192,192,1911965,1,0,0:0:0:0:
448,192,1911965,1,0,0:0:0:0:
320,192,1912158,1,0,0:0:0:0:
448,192,1912158,1,0,0:0:0:0:
64,192,1912255,1,0,0:0:0:0:
448,192,1912352,1,0,0:0:0:0:
320,192,1912546,1,0,0:0:0:0:
192,192,1912546,1,0,0:0:0:0:
320,192,1912739,1,0,0:0:0:0:
64,192,1912739,1,0,0:0:0:0:
64,192,1912933,1,0,0:0:0:0:
192,192,1913320,1,0,0:0:0:0:
448,192,1913320,1,0,0:0:0:0:
192,192,1913513,1,0,0:0:0:0:
320,192,1913707,1,0,0:0:0:0:
192,192,1913900,1,0,0:0:0:0:
64,192,1914094,1,0,0:0:0:0:
320,192,1914094,1,0,0:0:0:0:
320,192,1914287,1,0,0:0:0:0:
192,192,1914384,1,0,0:0:0:0:
320,192,1914481,1,0,0:0:0:0:
192,192,1914578,1,0,0:0:0:0:
448,192,1914868,1,0,0:0:0:0:
64,192,1914868,1,0,0:0:0:0:
320,192,1915062,1,0,0:0:0:0:
64,192,1915255,1,0,0:0:0:0:
320,192,1915255,1,0,0:0:0:0:
192,192,1915255,1,0,0:0:0:0:
320,192,1915449,1,0,0:0:0:0:
64,192,1915546,1,0,0:0:0:0:
192,192,1915642,1,0,0:0:0:0:
320,192,1915642,1,0,0:0:0:0:
448,192,1915836,1,0,0:0:0:0:
320,192,1915836,1,0,0:0:0:0:
448,192,1916029,1,0,0:0:0:0:
192,192,1916029,1,0,0:0:0:0:
192,192,1916417,1,0,0:0:0:0:
192,192,1916610,1,0,0:0:0:0:
64,192,1916804,1,0,0:0:0:0:
192,192,1916900,1,0,0:0:0:0:
320,192,1916997,1,0,0:0:0:0:
320,192,1917191,1,0,0:0:0:0:
64,192,1917191,1,0,0:0:0:0:
64,192,1917384,1,0,0:0:0:0:
64,192,1917578,1,0,0:0:0:0:
320,192,1917771,1,0,0:0:0:0:
448,192,1917965,1,0,0:0:0:0:
64,192,1918062,1,0,0:0:0:0:
320,192,1918158,1,0,0:0:0:0:
192,192,1918352,1,0,0:0:0:0:
64,192,1918352,1,0,0:0:0:0:
192,192,1918546,1,0,0:0:0:0:
64,192,1918546,1,0,0:0:0:0:
64,192,1918739,1,0,0:0:0:0:
448,192,1918933,1,0,0:0:0:0:
320,192,1918933,1,0,0:0:0:0:
64,192,1919126,1,0,0:0:0:0:
64,192,1919513,1,0,0:0:0:0:
448,192,1919707,1,0,0:0:0:0:
64,192,1920094,1,0,0:0:0:0:
320,192,1920094,1,0,0:0:0:0:
448,192,1920094,1,0,0:0:0:0:
192,192,1920287,1,0,0:0:0:0:
448,192,1920287,1,0,0:0:0:0:
320,192,1920481,1,0,0:0:0:0:
64,192,1920578,1,0,0:0:0:0:
448,192,1920675,1,0,0:0:0:0:
320,192,1920868,1,0,0:0:0:0:
448,192,1920965,1,0,0:0:0:0:
320,192,1921062,1,0,0:0:0:0:
192,192,1921255,1,0,0:0:0:0:
320,192,1921352,1,0,0:0:0:0:
192,192,1921449,1,0,0:0:0:0:
320,192,1921546,1,0,0:0:0:0:
192,192,1921642,1,0,0:0:0:0:
448,192,1921739,1,0,0:0:0:0:
64,192,1921836,1,0,0:0:0:0:
320,192,1922029,1,0,0:0:0:0:
192,192,1922029,1,0,0:0:0:0:
448,192,1922223,1,0,0:0:0:0:
64,192,1922320,1,0,0:0:0:0:
64,192,1922707,1,0,0:0:0:0:
320,192,1923481,1,0,0:0:0:0:
448,192,1923675,1,0,0:0:0:0:
64,192,1923771,1,0,0:0:0:0:
192,192,1923771,1,0,0:0:0:0:
448,192,1926094,1,0,0:0:0:0:
448,192,1926287,1,0,0:0:0:0:
192,192,1926675,1,0,0:0:0:0:
64,192,1926771,1,0,0:0:0:0:
448,192,1926868,1,0,0:0:0:0:
192,192,1926868,1,0,0:0:0:0:
192,192,1928029,1,0,0:0:0:0:
448,192,1928223,1,0,0:0:0:0:
192,192,1928417,1,0,0:0:0:0:
192,192,1928804,1,0,0:0:0:0:
192,192,1929191,1,0,0:0:0:0:
64,192,1929384,1,0,0:0:0:0:
192,192,1929868,1,0,0:0:0:0:
64,192,1929965,1,0,0:0:0:0:
320,192,1929965,1,0,0:0:0:0:
192,192,1930158,1,0,0:0:0:0:
320,192,1930352,1,0,0:0:0:0:
64,192,1930933,1,0,0:0:0:0:
448,192,1931126,1,0,0:0:0:0:
448,192,1931513,1,0,0:0:0:0:
64,192,1932094,1,0,0:0:0:0:
64,192,1932287,1,0,0:0:0:0:
192,192,1932481,1,0,0:0:0:0:
320,192,1932675,1,0,0:0:0:0:
448,192,1932771,1,0,0:0:0:0:
192,192,1932965,1,0,0:0:0:0:
448,192,1933062,1,0,0:0:0:0:
320,192,1933062,1,0,0:0:0:0:
64,192,1933062,1,0,0:0:0:0:
448,192,1933255,1,0,0:0:0:0:
64,192,1933449,1,0,0:0:0:0:
192,192,1933642,1,0,0:0:0:0:
192,192,1933836,1,0,0:0:0:0:
320,192,1934029,1,0,0:0:0:0:
64,192,1934126,1,0,0:0:0:0:
448,192,1934126,1,0,0:0:0:0:
320,192,1934223,1,0,0:0:0:0:
448,192,1934417,1,0,0:0:0:0:
448,192,1934610,1,0,0:0:0:0:
320,192,1934707,1,0,0:0:0:0:
64,192,1935675,1,0,0:0:0:0:
320,192,1935965,1,0,0:0:0:0:
448,192,1936062,1,0,0:0:0:0:
192,192,1936158,1,0,0:0:0:0:
64,192,1936158,1,0,0:0:0:0:
320,192,1936158,1,0,0:0:0:0:
320,192,1936546,1,0,0:0:0:0:
448,192,1936642,1,0,0:0:0:0:
320,192,1936739,1,0,0:0:0:0:
192,192,1937126,1,0,0:0:0:0:
64,192,1937126,1,0,0:0:0:0:
192,192,1937320,1,0,0:0:0:0:
192,192,1937707,1,0,0:0:0:0:
64,192,1938094,1,0,0:0:0:0:
448,192,1938287,1,0,0:0:0:0:
320,192,1938481,1,0,0:0:0:0:
320,192,1938675,1,0,0:0:0:0:
448,192,1938868,1,0,0:0:0:0:
320,192,1939255,1,0,0:0:0:0:
448,192,1939255,1,0,0:0:0:0:
192,192,1939255,1,0,0:0:0:0:
64,192,1939449,1,0,0:0:0:0:
320,192,1939546,1,0,0:0:0:0:
448,192,1939836,1,0,0:0:0:0:
448,192,1940417,1,0,0:0:0:0:
64,192,1940610,1,0,0:0:0:0:
192,192,1940804,1,0,0:0:0:0:
64,192,1940900,1,0,0:0:0:0:
448,192,1940997,1,0,0:0:0:0:
192,192,1941578,1,0,0:0:0:0:
320,192,1941965,1,0,0:0:0:0:
448,192,1942158,1,0,0:0:0:0:
64,192,1942255,1,0,0:0:0:0:
448,192,1942352,1,0,0:0:0:0:
320,192,1942352,1,0,0:0:0:0:
192,192,1942546,1,0,0:0:0:0:
64,192,1942739,1,0,0:0:0:0:
448,192,1942836,1,0,0:0:0:0:
192,192,1943320,1,0,0:0:0:0:
320,192,1943417,1,0,0:0:0:0:
192,192,1943513,1,0,0:0:0:0:
192,192,1943707,1,0,0:0:0:0:
448,192,1944094,1,0,0:0:0:0:
448,192,1944287,1,0,0:0:0:0:
64,192,1944675,1,0,0:0:0:0:
192,192,1944868,1,0,0:0:0:0:
192,192,1945062,1,0,0:0:0:0:
320,192,1945352,1,0,0:0:0:0:
192,192,1945449,1,0,0:0:0:0:
64,192,1945449,1,0,0:0:0:0:
320,192,1945739,1,0,0:0:0:0:
320,192,1945933,1,0,0:0:0:0:
192,192,1946029,1,0,0:0:0:0:
320,192,1946223,1,0,0:0:0:0:
64,192,1946610,1,0,0:0:0:0:
192,192,1946707,1,0,0:0:0:0:
448,192,1946804,1,0,0:0:0:0:
320,192,1946997,1,0,0:0:0:0:
192,192,1947094,1,0,0:0:0:0:
448,192,1947384,1,0,0:0:0:0:
192,192,1947578,1,0,0:0:0:0:
64,192,1947578,1,0,0:0:0:0:
320,192,1947771,1,0,0:0:0:0:
64,192,1947868,1,0,0:0:0:0:
320,192,1947965,1,0,0:0:0:0:
192,192,1948062,1,0,0:0:0:0:
448,192,1948158,1,0,0:0:0:0:
320,192,1948158,1,0,0:0:0:0:
192,192,1948352,1,0,0:0:0:0:
448,192,1948449,1,0,0:0:0:0:
320,192,1948546,1,0,0:0:0:0:
64,192,1948933,1,0,0:0:0:0:
448,192,1949126,1,0,0:0:0:0:
192,192,1949126,1,0,0:0:0:0:
320,192,1949320,1,0,0:0:0:0:
192,192,1949513,1,0,0:0:0:0:
448,192,1949707,1,0,0:0:0:0:
64,192,1949707,1,0,0:0:0:0:
448,192,1949900,1,0,0:0:0:0:
192,192,1949997,1,0,0:0:0:0:
448,192,1950094,1,0,0:0:0:0:
320,192,1950481,1,0,0:0:0:0:
448,192,1950675,1,0,0:0:0:0:
192,192,1950675,1,0,0:0:0:0:
320,192,1950868,1,0,0:0:0:0:
448,192,1951062,1,0,0:0:0:0:
320,192,1951255,1,0,0:0:0:0:
448,192,1951255,1,0,0:0:0:0:
320,192,1951449,1,0,0:0:0:0:
64,192,1951546,1,0,0:0:0:0:
192,192,1951642,1,0,0:0:0:0:
64,192,1952029,1,0,0:0:0:0:
320,192,1952223,1,0,0:0:0:0:
448,192,1952223,1,0,0:0:0:0:
192,192,1952320,1,0,0:0:0:0:
64,192,1952417,1,0,0:0:0:0:
448,192,1952610,1,0,0:0:0:0:
320,192,1952804,1,0,0:0:0:0:
192,192,1952804,1,0,0:0:0:0:
64,192,1952997,1,0,0:0:0:0:
320,192,1953094,1,0,0:0:0:0:
192,192,1953191,1,0,0:0:0:0:
192,192,1953578,1,0,0:0:0:0:
192,192,1953771,1,0,0:0:0:0:
64,192,1953771,1,0,0:0:0:0:
320,192,1953965,1,0,0:0:0:0:
192,192,1954062,1,0,0:0:0:0:
448,192,1954352,1,0,0:0:0:0:
320,192,1954352,1,0,0:0:0:0:
192,192,1954546,1,0,0:0:0:0:
192,192,1954739,1,0,0:0:0:0:
64,192,1954933,1,0,0:0:0:0:
64,192,1955126,1,0,0:0:0:0:
448,192,1955320,1,0,0:0:0:0:
320,192,1955320,1,0,0:0:0:0:
192,192,1955513,1,0,0:0:0:0:
448,192,1955707,1,0,0:0:0:0:
320,192,1955804,1,0,0:0:0:0:
192,192,1955900,1,0,0:0:0:0:
448,192,1955900,1,0,0:0:0:0:
64,192,1956094,1,0,0:0:0:0:
192,192,1956191,1,0,0:0:0:0:
448,192,1956287,1,0,0:0:0:0:
320,192,1956675,1,0,0:0:0:0:
320,192,1956868,1,0,0:0:0:0:
192,192,1956868,1,0,0:0:0:0:
64,192,1956868,1,0,0:0:0:0:
448,192,1956965,1,0,0:0:0:0:
320,192,1957062,1,0,0:0:0:0:
448,192,1957158,1,0,0:0:0:0:
64,192,1957255,1,0,0:0:0:0:
64,192,1957449,1,0,0:0:0:0:
192,192,1957449,1,0,0:0:0:0:
320,192,1957449,1,0,0:0:0:0:
448,192,1957642,1,0,0:0:0:0:
192,192,1957836,1,0,0:0:0:0:
320,192,1958029,1,0,0:0:0:0:
192,192,1958223,1,0,0:0:0:0:
448,192,1958417,1,0,0:0:0:0:
320,192,1958417,1,0,0:0:0:0:
64,192,1958513,1,0,0:0:0:0:
448,192,1958610,1,0,0:0:0:0:
448,192,1958804,1,0,0:0:0:0:
320,192,1958997,1,0,0:0:0:0:
192,192,1958997,1,0,0:0:0:0:
192,192,1959191,1,0,0:0:0:0:
64,192,1959384,1,0,0:0:0:0:
192,192,1959771,1,0,0:0:0:0:
320,192,1959965,1,0,0:0:0:0:
64,192,1960062,1,0,0:0:0:0:
448,192,1960158,1,0,0:0:0:0:
192,192,1960255,1,0,0:0:0:0:
64,192,1960352,1,0,0:0:0:0:
448,192,1960449,1,0,0:0:0:0:
64,192,1960546,1,0,0:0:0:0:
192,192,1960546,1,0,0:0:0:0:
448,192,1960739,1,0,0:0:0:0:
320,192,1960836,1,0,0:0:0:0:
192,192,1960933,1,0,0:0:0:0:
64,192,1961126,1,0,0:0:0:0:
192,192,1961320,1,0,0:0:0:0:
320,192,1961417,1,0,0:0:0:0:
64,192,1961513,1,0,0:0:0:0:
320,192,1961707,1,0,0:0:0:0:
448,192,1961707,1,0,0:0:0:0:
192,192,1961900,1,0,0:0:0:0:
192,192,1962094,1,0,0:0:0:0:
448,192,1962191,1,0,0:0:0:0:
64,192,1962287,1,0,0:0:0:0:
192,192,1962287,1,0,0:0:0:0:
64,192,1962481,1,0,0:0:0:0:
192,192,1962675,1,0,0:0:0:0:
192,192,1962868,1,0,0:0:0:0:
320,192,1962868,1,0,0:0:0:0:
320,192,1963062,1,0,0:0:0:0:
64,192,1963449,1,0,0:0:0:0:
448,192,1963449,1,0,0:0:0:0:
448,192,1963642,1,0,0:0:0:0:
320,192,1963836,1,0,0:0:0:0:
448,192,1963933,1,0,0:0:0:0:
192,192,1964029,1,0,0:0:0:0:
192,192,1964417,1,0,0:0:0:0:
448,192,1964610,1,0,0:0:0:0:
320,192,1964804,1,0,0:0:0:0:
64,192,1964804,1,0,0:0:0:0:
64,192,1964997,1,0,0:0:0:0:
320,192,1965094,1,0,0:0:0:0:
64,192,1965191,1,0,0:0:0:0:
192,192,1965287,1,0,0:0:0:0:
448,192,1965384,1,0,0:0:0:0:
320,192,1965384,1,0,0:0:0:0:
320,192,1965578,1,0,0:0:0:0:
448,192,1965578,1,0,0:0:0:0:
64,192,1965675,1,0,0:0:0:0:
192,192,1965868,1,0,0:0:0:0:
320,192,1965965,1,0,0:0:0:0:
448,192,1965965,1,0,0:0:0:0:
320,192,1966158,1,0,0:0:0:0:
64,192,1966158,1,0,0:0:0:0:
320,192,1966352,1,0,0:0:0:0:
192,192,1966449,1,0,0:0:0:0:
448,192,1966546,1,0,0:0:0:0:
320,192,1966642,1,0,0:0:0:0:
64,192,1966739,1,0,0:0:0:0:
448,192,1966739,1,0,0:0:0:0:
64,192,1966933,1,0,0:0:0:0:
320,192,1967029,1,0,0:0:0:0:
64,192,1967126,1,0,0:0:0:0:
192,192,1967320,1,0,0:0:0:0:
448,192,1967513,1,0,0:0:0:0:
448,192,1967707,1,0,0:0:0:0:
192,192,1967707,1,0,0:0:0:0:
192,192,1967900,1,0,0:0:0:0:
64,192,1967900,1,0,0:0:0:0:
448,192,1967997,1,0,0:0:0:0:
64,192,1968094,1,0,0:0:0:0:
320,192,1968191,1,0,0:0:0:0:
192,192,1968287,1,0,0:0:0:0:
64,192,1968287,1,0,0:0:0:0:
320,192,1968384,1,0,0:0:0:0:
192,192,1968481,1,0,0:0:0:0:
448,192,1968481,1,0,0:0:0:0:
448,192,1968675,1,0,0:0:0:0:
64,192,1968771,1,0,0:0:0:0:
192,192,1969062,1,0,0:0:0:0:
320,192,1969255,1,0,0:0:0:0:
448,192,1969255,1,0,0:0:0:0:
192,192,1969352,1,0,0:0:0:0:
320,192,1969449,1,0,0:0:0:0:
192,192,1969546,1,0,0:0:0:0:
448,192,1969642,1,0,0:0:0:0:
64,192,1969836,1,0,0:0:0:0:
192,192,1969836,1,0,0:0:0:0:
448,192,1969933,1,0,0:0:0:0:
320,192,1970029,1,0,0:0:0:0:
64,192,1970126,1,0,0:0:0:0:
448,192,1970223,1,0,0:0:0:0:
192,192,1970417,1,0,0:0:0:0:
320,192,1970513,1,0,0:0:0:0:
64,192,1970610,1,0,0:0:0:0:
448,192,1970804,1,0,0:0:0:0:
320,192,1970900,1,0,0:0:0:0:
448,192,1970997,1,0,0:0:0:0:
64,192,1971191,1,0,0:0:0:0:
320,192,1971384,1,0,0:0:0:0:
192,192,1971384,1,0,0:0:0:0:
192,192,1971578,1,0,0:0:0:0:
192,192,1971771,1,0,0:0:0:0:
320,192,1971868,1,0,0:0:0:0:
192,192,1972062,1,0,0:0:0:0:
64,192,1972449,1,0,0:0:0:0:
448,192,1972836,1,0,0:0:0:0:
64,192,1973029,1,0,0:0:0:0:
64,192,1973223,1,0,0:0:0:0:
192,192,1973320,1,0,0:0:0:0:
448,192,1973320,1,0,0:0:0:0:
448,192,1974094,1,0,0:0:0:0:
64,192,1974578,1,0,0:0:0:0:
192,192,1974675,1,0,0:0:0:0:
64,192,1974771,1,0,0:0:0:0:
448,192,1974868,1,0,0:0:0:0:
64,192,1975449,1,0,0:0:0:0:
192,192,1975739,1,0,0:0:0:0:
448,192,1975836,1,0,0:0:0:0:
192,192,1976029,1,0,0:0:0:0:
320,192,1976223,1,0,0:0:0:0:
64,192,1976320,1,0,0:0:0:0:
192,192,1976417,1,0,0:0:0:0:
448,192,1976417,1,0,0:0:0:0:
192,192,1976610,1,0,0:0:0:0:
320,192,1976804,1,0,0:0:0:0:
192,192,1976997,1,0,0:0:0:0:
64,192,1976997,1,0,0:0:0:0:
448,192,1977191,1,0,0:0:0:0:
64,192,1977384,1,0,0:0:0:0:
192,192,1977578,1,0,0:0:0:0:
64,192,1977578,1,0,0:0:0:0:
448,192,1977771,1,0,0:0:0:0:
192,192,1977868,1,0,0:0:0:0:
64,192,1977965,1,0,0:0:0:0:
192,192,1978062,1,0,0:0:0:0:
64,192,1978158,1,0,0:0:0:0:
192,192,1978255,1,0,0:0:0:0:
320,192,1978352,1,0,0:0:0:0:
64,192,1978352,1,0,0:0:0:0:
192,192,1978933,1,0,0:0:0:0:
192,192,1979126,1,0,0:0:0:0:
320,192,1979223,1,0,0:0:0:0:
448,192,1979320,1,0,0:0:0:0:
192,192,1979320,1,0,0:0:0:0:
64,192,1979320,1,0,0:0:0:0:
320,192,1979513,1,0,0:0:0:0:
192,192,1979513,1,0,0:0:0:0:
448,192,1979610,1,0,0:0:0:0:
320,192,1979707,1,0,0:0:0:0:
448,192,1979804,1,0,0:0:0:0:
320,192,1979900,1,0,0:0:0:0:
64,192,1979900,1,0,0:0:0:0:
448,192,1980094,1,0,0:0:0:0:
64,192,1980287,1,0,0:0:0:0:
192,192,1980384,1,0,0:0:0:0:
448,192,1980481,1,0,0:0:0:0:
320,192,1980481,1,0,0:0:0:0:
192,192,1980675,1,0,0:0:0:0:
64,192,1980771,1,0,0:0:0:0:
192,192,1980868,1,0,0:0:0:0:
448,192,1980868,1,0,0:0:0:0:
192,192,1981062,1,0,0:0:0:0:
192,192,1981449,1,0,0:0:0:0:
320,192,1981642,1,0,0:0:0:0:
192,192,1981642,1,0,0:0:0:0:
320,192,1981836,1,0,0:0:0:0:
448,192,1981836,1,0,0:0:0:0:
192,192,1981836,1,0,0:0:0:0:
64,192,1982029,1,0,0:0:0:0:
448,192,1982126,1,0,0:0:0:0:
192,192,1982223,1,0,0:0:0:0:
64,192,1982223,1,0,0:0:0:0:
448,192,1982320,1,0,0:0:0:0:
192,192,1982417,1,0,0:0:0:0:
64,192,1982417,1,0,0:0:0:0:
320,192,1982417,1,0,0:0:0:0:
448,192,1982610,1,0,0:0:0:0:
448,192,1982804,1,0,0:0:0:0:
320,192,1982804,1,0,0:0:0:0:
448,192,1982997,1,0,0:0:0:0:
64,192,1983094,1,0,0:0:0:0:
192,192,1983191,1,0,0:0:0:0:
192,192,1983384,1,0,0:0:0:0:
64,192,1983384,1,0,0:0:0:0:
448,192,1983578,1,0,0:0:0:0:
64,192,1983675,1,0,0:0:0:0:
448,192,1983771,1,0,0:0:0:0:
192,192,1983868,1,0,0:0:0:0:
64,192,1983965,1,0,0:0:0:0:
320,192,1983965,1,0,0:0:0:0:
64,192,1984158,1,0,0:0:0:0:
320,192,1984546,1,0,0:0:0:0:
448,192,1984739,1,0,0:0:0:0:
448,192,1984933,1,0,0:0:0:0:
320,192,1984933,1,0,0:0:0:0:
320,192,1985320,1,0,0:0:0:0:
192,192,1985513,1,0,0:0:0:0:
320,192,1985513,1,0,0:0:0:0:
448,192,1985610,1,0,0:0:0:0:
64,192,1985900,1,0,0:0:0:0:
448,192,1985900,1,0,0:0:0:0:
320,192,1986094,1,0,0:0:0:0:
64,192,1986287,1,0,0:0:0:0:
192,192,1986481,1,0,0:0:0:0:
64,192,1986481,1,0,0:0:0:0:
192,192,1986675,1,0,0:0:0:0:
320,192,1986868,1,0,0:0:0:0:
448,192,1986965,1,0,0:0:0:0:
192,192,1987062,1,0,0:0:0:0:
320,192,1987062,1,0,0:0:0:0:
448,192,1987158,1,0,0:0:0:0:
192,192,1987255,1,0,0:0:0:0:
192,192,1987449,1,0,0:0:0:0:
192,192,1987642,1,0,0:0:0:0:
448,192,1987836,1,0,0:0:0:0:
64,192,1988029,1,0,0:0:0:0:
64,192,1988223,1,0,0:0:0:0:
320,192,1988417,1,0,0:0:0:0:
192,192,1988610,1,0,0:0:0:0:
320,192,1988610,1,0,0:0:0:0:
64,192,1988707,1,0,0:0:0:0:
448,192,1988804,1,0,0:0:0:0:
448,192,1988997,1,0,0:0:0:0:
64,192,1988997,1,0,0:0:0:0:
192,192,1988997,1,0,0:0:0:0:
64,192,1989191,1,0,0:0:0:0:
192,192,1989384,1,0,0:0:0:0:
448,192,1989481,1,0,0:0:0:0:
192,192,1989578,1,0,0:0:0:0:
64,192,1989578,1,0,0:0:0:0:
320,192,1989578,1,0,0:0:0:0:
64,192,1989771,1,0,0:0:0:0:
448,192,1989965,1,0,0:0:0:0:
64,192,1990158,1,0,0:0:0:0:
192,192,1990158,1,0,0:0:0:0:
320,192,1990255,1,0,0:0:0:0:
192,192,1990352,1,0,0:0:0:0:
64,192,1990352,1,0,0:0:0:0:
64,192,1990546,1,0,0:0:0:0:
320,192,1990642,1,0,0:0:0:0:
448,192,1990739,1,0,0:0:0:0:
64,192,1990739,1,0,0:0:0:0:
192,192,1990739,1,0,0:0:0:0:
192,192,1990933,1,0,0:0:0:0:
448,192,1991126,1,0,0:0:0:0:
64,192,1991223,1,0,0:0:0:0:
448,192,1991320,1,0,0:0:0:0:
448,192,1991513,1,0,0:0:0:0:
192,192,1991610,1,0,0:0:0:0:
320,192,1991707,1,0,0:0:0:0:
448,192,1991707,1,0,0:0:0:0:
64,192,1991900,1,0,0:0:0:0:
192,192,1992094,1,0,0:0:0:0:
448,192,1992191,1,0,0:0:0:0:
192,192,1992287,1,0,0:0:0:0:
64,192,1992287,1,0,0:0:0:0:
64,192,1992481,1,0,0:0:0:0:
448,192,1992675,1,0,0:0:0:0:
192,192,1992771,1,0,0:0:0:0:
448,192,1992868,1,0,0:0:0:0:
320,192,1992868,1,0,0:0:0:0:
64,192,1992965,1,0,0:0:0:0:
448,192,1993062,1,0,0:0:0:0:
192,192,1993158,1,0,0:0:0:0:
448,192,1993255,1,0,0:0:0:0:
320,192,1993255,1,0,0:0:0:0:
320,192,1993449,1,0,0:0:0:0:
64,192,1993449,1,0,0:0:0:0:
64,192,1993642,1,0,0:0:0:0:
448,192,1993739,1,0,0:0:0:0:
64,192,1994029,1,0,0:0:0:0:
192,192,1994029,1,0,0:0:0:0:
448,192,1994223,1,0,0:0:0:0:
64,192,1994223,1,0,0:0:0:0:
320,192,1994417,1,0,0:0:0:0:
64,192,1994513,1,0,0:0:0:0:
448,192,1994513,1,0,0:0:0:0:
320,192,1994610,1,0,0:0:0:0:
192,192,1994610,1,0,0:0:0:0:
64,192,1994707,1,0,0:0:0:0:
192,192,1994804,1,0,0:0:0:0:
320,192,1994804,1,0,0:0:0:0:
320,192,1994997,1,0,0:0:0:0:
64,192,1995094,1,0,0:0:0:0:
192,192,1995191,1,0,0:0:0:0:
320,192,1995191,1,0,0:0:0:0:
448,192,1995287,1,0,0:0:0:0:
192,192,1995384,1,0,0:0:0:0:
64,192,1995578,1,0,0:0:0:0:
192,192,1995771,1,0,0:0:0:0:
320,192,1995771,1,0,0:0:0:0:
64,192,1995868,1,0,0:0:0:0:
192,192,1995965,1,0,0:0:0:0:
320,192,1996158,1,0,0:0:0:0:
192,192,1996255,1,0,0:0:0:0:
320,192,1996352,1,0,0:0:0:0:
448,192,1996352,1,0,0:0:0:0:
64,192,1996546,1,0,0:0:0:0:
320,192,1996642,1,0,0:0:0:0:
448,192,1997126,1,0,0:0:0:0:
192,192,1997417,1,0,0:0:0:0:
64,192,1997707,1,0,0:0:0:0:
64,192,1997900,1,0,0:0:0:0:
320,192,1997997,1,0,0:0:0:0:
64,192,1998481,1,0,0:0:0:0:
320,192,1998578,1,0,0:0:0:0:
192,192,1998675,1,0,0:0:0:0:
448,192,1998771,1,0,0:0:0:0:
64,192,1998965,1,0,0:0:0:0:
192,192,1999062,1,0,0:0:0:0:
320,192,1999158,1,0,0:0:0:0:
192,192,1999449,1,0,0:0:0:0:
64,192,2000417,1,0,0:0:0:0:
320,192,2001094,1,0,0:0:0:0:
64,192,2001965,1,0,0:0:0:0:
320,192,2002352,1,0,0:0:0:0:
64,192,2002546,1,0,0:0:0:0:
64,192,2002739,1,0,0:0:0:0:
192,192,2003900,1,0,0:0:0:0:
64,192,2004965,1,0,0:0:0:0:
320,192,2005062,1,0,0:0:0:0:
192,192,2005449,1,0,0:0:0:0:
320,192,2005546,1,0,0:0:0:0:
192,192,2005642,1,0,0:0:0:0:
64,192,2005739,1,0,0:0:0:0:
192,192,2006029,1,0,0:0:0:0:
192,192,2008158,1,0,0:0:0:0:
448,192,2008449,1,0,0:0:0:0:
320,192,2008546,1,0,0:0:0:0:
320,192,2008739,1,0,0:0:0:0:
64,192,2008933,1,0,0:0:0:0:
320,192,2009707,1,0,0:0:0:0:
192,192,2009900,1,0,0:0:0:0:
64,192,2010094,1,0,0:0:0:0:
320,192,2010287,1,0,0:0:0:0:
192,192,2010384,1,0,0:0:0:0:
64,192,2010868,1,0,0:0:0:0:
448,192,2010965,1,0,0:0:0:0:
64,192,2011255,1,0,0:0:0:0:
320,192,2011352,1,0,0:0:0:0:
64,192,2011449,1,0,0:0:0:0:
192,192,2011546,1,0,0:0:0:0:
64,192,2011836,1,0,0:0:0:0:
320,192,2011836,1,0,0:0:0:0:
448,192,2012804,1,0,0:0:0:0:
448,192,2014739,1,0,0:0:0:0:
64,192,2014933,1,0,0:0:0:0:
64,192,2015320,1,0,0:0:0:0:
320,192,2015417,1,0,0:0:0:0:
192,192,2015513,1,0,0:0:0:0:
448,192,2015900,1,0,0:0:0:0:
192,192,2016868,1,0,0:0:0:0:
64,192,2017062,1,0,0:0:0:0:
448,192,2017255,1,0,0:0:0:0:
192,192,2017546,1,0,0:0:0:0:
448,192,2017642,1,0,0:0:0:0:
320,192,2017739,1,0,0:0:0:0:
64,192,2017933,1,0,0:0:0:0:
320,192,2018223,1,0,0:0:0:0:
192,192,2018320,1,0,0:0:0:0:
448,192,2018900,1,0,0:0:0:0:
320,192,2019481,1,0,0:0:0:0:
448,192,2019675,1,0,0:0:0:0:
320,192,2019771,1,0,0:0:0:0:
448,192,2019868,1,0,0:0:0:0:
192,192,2019965,1,0,0:0:0:0:
192,192,2020352,1,0,0:0:0:0:
192,192,2020546,1,0,0:0:0:0:
64,192,2020546,1,0,0:0:0:0:
320,192,2020836,1,0,0:0:0:0:
192,192,2021029,1,0,0:0:0:0:
64,192,2021029,1,0,0:0:0:0:
448,192,2021223,1,0,0:0:0:0:
320,192,2021320,1,0,0:0:0:0:
64,192,2021417,1,0,0:0:0:0:
64,192,2022481,1,0,0:0:0:0:
448,192,2022771,1,0,0:0:0:0:
64,192,2024223,1,0,0:0:0:0:
320,192,2024320,1,0,0:0:0:0:
320,192,2026352,1,0,0:0:0:0:
448,192,2026352,1,0,0:0:0:0:
320,192,2026739,1,0,0:0:0:0:
64,192,2027126,1,0,0:0:0:0:
320,192,2027513,1,0,0:0:0:0:
448,192,2028675,1,0,0:0:0:0:
320,192,2029062,1,0,0:0:0:0:
320,192,2029255,1,0,0:0:0:0:
320,192,2029546,1,0,0:0:0:0:
192,192,2029836,1,0,0:0:0:0:
448,192,2030029,1,0,0:0:0:0:
192,192,2030223,1,0,0:0:0:0:
64,192,2030320,1,0,0:0:0:0:
320,192,2030417,1,0,0:0:0:0:
448,192,2030513,1,0,0:0:0:0:
320,192,2030610,1,0,0:0:0:0:
320,192,2030900,1,0,0:0:0:0:
448,192,2031771,1,0,0:0:0:0:
192,192,2032739,1,0,0:0:0:0:
320,192,2033126,1,0,0:0:0:0:
192,192,2033223,1,0,0:0:0:0:
448,192,2033320,1,0,0:0:0:0:
448,192,2033513,1,0,0:0:0:0:
448,192,2033707,1,0,0:0:0:0:
192,192,2034094,1,0,0:0:0:0:
64,192,2034287,1,0,0:0:0:0:
320,192,2034481,1,0,0:0:0:0:
448,192,2034771,1,0,0:0:0:0:
192,192,2034868,1,0,0:0:0:0:
320,192,2034868,1,0,0:0:0:0:
64,192,2034965,1,0,0:0:0:0:
320,192,2035255,1,0,0:0:0:0:
64,192,2035352,1,0,0:0:0:0:
320,192,2035642,1,0,0:0:0:0:
192,192,2036029,1,0,0:0:0:0:
448,192,2036223,1,0,0:0:0:0:
64,192,2036417,1,0,0:0:0:0:
192,192,2036513,1,0,0:0:0:0:
320,192,2036610,1,0,0:0:0:0:
64,192,2036804,1,0,0:0:0:0:
448,192,2036900,1,0,0:0:0:0:
448,192,2037384,1,0,0:0:0:0:
448,192,2037578,1,0,0:0:0:0:
192,192,2037965,1,0,0:0:0:0:
192,192,2038158,1,0,0:0:0:0:
64,192,2038352,1,0,0:0:0:0:
64,192,2038739,1,0,0:0:0:0:
320,192,2039320,1,0,0:0:0:0:
448,192,2039513,1,0,0:0:0:0:
64,192,2039707,1,0,0:0:0:0:
192,192,2039900,1,0,0:0:0:0:
320,192,2039900,1,0,0:0:0:0:
64,192,2040094,1,0,0:0:0:0:
448,192,2040287,1,0,0:0:0:0:
64,192,2040481,1,0,0:0:0:0:
64,192,2041062,1,0,0:0:0:0:
64,192,2041255,1,0,0:0:0:0:
320,192,2041449,1,0,0:0:0:0:
64,192,2041642,1,0,0:0:0:0:
64,192,2041836,1,0,0:0:0:0:
448,192,2042320,1,0,0:0:0:0:
320,192,2042417,1,0,0:0:0:0:
64,192,2042513,1,0,0:0:0:0:
192,192,2042610,1,0,0:0:0:0:
448,192,2042804,1,0,0:0:0:0:
320,192,2042804,1,0,0:0:0:0:
320,192,2042997,1,0,0:0:0:0:
448,192,2043384,1,0,0:0:0:0:
192,192,2043578,1,0,0:0:0:0:
192,192,2043771,1,0,0:0:0:0:
320,192,2043965,1,0,0:0:0:0:
448,192,2044158,1,0,0:0:0:0:
64,192,2044255,1,0,0:0:0:0:
192,192,2044352,1,0,0:0:0:0:
448,192,2044546,1,0,0:0:0:0:
448,192,2044739,1,0,0:0:0:0:
64,192,2044933,1,0,0:0:0:0:
448,192,2045223,1,0,0:0:0:0:
192,192,2045320,1,0,0:0:0:0:
320,192,2045513,1,0,0:0:0:0:
192,192,2045513,1,0,0:0:0:0:
448,192,2045610,1,0,0:0:0:0:
192,192,2045707,1,0,0:0:0:0:
320,192,2045804,1,0,0:0:0:0:
192,192,2045900,1,0,0:0:0:0:
448,192,2046094,1,0,0:0:0:0:
64,192,2046384,1,0,0:0:0:0:
448,192,2046675,1,0,0:0:0:0:
320,192,2046675,1,0,0:0:0:0:
64,192,2046771,1,0,0:0:0:0:
192,192,2046771,1,0,0:0:0:0:
320,192,2046868,1,0,0:0:0:0:
448,192,2046868,1,0,0:0:0:0:
192,192,2046965,1,0,0:0:0:0:
448,192,2047062,1,0,0:0:0:0:
64,192,2047062,1,0,0:0:0:0:
320,192,2047255,1,0,0:0:0:0:
192,192,2047352,1,0,0:0:0:0:
320,192,2047449,1,0,0:0:0:0:
448,192,2047546,1,0,0:0:0:0:
320,192,2047739,1,0,0:0:0:0:
448,192,2047836,1,0,0:0:0:0:
448,192,2048126,1,0,0:0:0:0:
192,192,2048223,1,0,0:0:0:0:
64,192,2048417,1,0,0:0:0:0:
192,192,2048707,1,0,0:0:0:0:
64,192,2048804,1,0,0:0:0:0:
192,192,2048997,1,0,0:0:0:0:
320,192,2048997,1,0,0:0:0:0:
448,192,2049094,1,0,0:0:0:0:
64,192,2049191,1,0,0:0:0:0:
64,192,2049384,1,0,0:0:0:0:
320,192,2049481,1,0,0:0:0:0:
192,192,2049481,1,0,0:0:0:0:
448,192,2049578,1,0,0:0:0:0:
448,192,2049771,1,0,0:0:0:0:
64,192,2049771,1,0,0:0:0:0:
64,192,2049965,1,0,0:0:0:0:
192,192,2049965,1,0,0:0:0:0:
320,192,2050062,1,0,0:0:0:0:
64,192,2050158,1,0,0:0:0:0:
320,192,2050352,1,0,0:0:0:0:
320,192,2050642,1,0,0:0:0:0:
64,192,2050933,1,0,0:0:0:0:
448,192,2051126,1,0,0:0:0:0:
64,192,2051223,1,0,0:0:0:0:
192,192,2051320,1,0,0:0:0:0:
192,192,2051513,1,0,0:0:0:0:
64,192,2051513,1,0,0:0:0:0:
448,192,2051900,1,0,0:0:0:0:
320,192,2051900,1,0,0:0:0:0:
448,192,2052287,1,0,0:0:0:0:
192,192,2052578,1,0,0:0:0:0:
320,192,2052675,1,0,0:0:0:0:
64,192,2052771,1,0,0:0:0:0:
320,192,2052868,1,0,0:0:0:0:
192,192,2052868,1,0,0:0:0:0:
64,192,2052965,1,0,0:0:0:0:
320,192,2053062,1,0,0:0:0:0:
192,192,2053062,1,0,0:0:0:0:
448,192,2053255,1,0,0:0:0:0:
192,192,2053255,1,0,0:0:0:0:
64,192,2053352,1,0,0:0:0:0:
320,192,2053642,1,0,0:0:0:0:
192,192,2053836,1,0,0:0:0:0:
448,192,2054126,1,0,0:0:0:0:
192,192,2054320,1,0,0:0:0:0:
448,192,2054417,1,0,0:0:0:0:
64,192,2054417,1,0,0:0:0:0:
192,192,2054610,1,0,0:0:0:0:
320,192,2054610,1,0,0:0:0:0:
448,192,2054707,1,0,0:0:0:0:
320,192,2054997,1,0,0:0:0:0:
320,192,2055191,1,0,0:0:0:0:
64,192,2055191,1,0,0:0:0:0:
192,192,2055287,1,0,0:0:0:0:
320,192,2055384,1,0,0:0:0:0:
320,192,2055675,1,0,0:0:0:0:
192,192,2055675,1,0,0:0:0:0:
64,192,2055771,1,0,0:0:0:0:
320,192,2055965,1,0,0:0:0:0:
448,192,2055965,1,0,0:0:0:0:
192,192,2056062,1,0,0:0:0:0:
320,192,2056158,1,0,0:0:0:0:
448,192,2056158,1,0,0:0:0:0:
320,192,2056449,1,0,0:0:0:0:
64,192,2056546,1,0,0:0:0:0:
320,192,2056642,1,0,0:0:0:0:
448,192,2056739,1,0,0:0:0:0:
320,192,2056836,1,0,0:0:0:0:
192,192,2057126,1,0,0:0:0:0:
320,192,2057513,1,0,0:0:0:0:
192,192,2057707,1,0,0:0:0:0:
64,192,2057804,1,0,0:0:0:0:
448,192,2057900,1,0,0:0:0:0:
192,192,2058481,1,0,0:0:0:0:
64,192,2058481,1,0,0:0:0:0:
320,192,2058578,1,0,0:0:0:0:
64,192,2058771,1,0,0:0:0:0:
448,192,2058868,1,0,0:0:0:0:
192,192,2058868,1,0,0:0:0:0:
64,192,2058965,1,0,0:0:0:0:
448,192,2059062,1,0,0:0:0:0:
192,192,2059062,1,0,0:0:0:0:
192,192,2059255,1,0,0:0:0:0:
64,192,2059255,1,0,0:0:0:0:
448,192,2059449,1,0,0:0:0:0:
192,192,2059449,1,0,0:0:0:0:
448,192,2059642,1,0,0:0:0:0:
320,192,2059836,1,0,0:0:0:0:
192,192,2060029,1,0,0:0:0:0:
448,192,2060126,1,0,0:0:0:0:
320,192,2060223,1,0,0:0:0:0:
64,192,2060417,1,0,0:0:0:0:
448,192,2060513,1,0,0:0:0:0:
320,192,2060707,1,0,0:0:0:0:
192,192,2060804,1,0,0:0:0:0:
64,192,2060997,1,0,0:0:0:0:
192,192,2061191,1,0,0:0:0:0:
64,192,2061384,1,0,0:0:0:0:
192,192,2061481,1,0,0:0:0:0:
320,192,2061578,1,0,0:0:0:0:
192,192,2061868,1,0,0:0:0:0:
64,192,2061965,1,0,0:0:0:0:
448,192,2062062,1,0,0:0:0:0:
64,192,2062158,1,0,0:0:0:0:
320,192,2062158,1,0,0:0:0:0:
448,192,2062352,1,0,0:0:0:0:
192,192,2062352,1,0,0:0:0:0:
64,192,2062449,1,0,0:0:0:0:
448,192,2062546,1,0,0:0:0:0:
192,192,2062739,1,0,0:0:0:0:
448,192,2062933,1,0,0:0:0:0:
320,192,2063029,1,0,0:0:0:0:
448,192,2063126,1,0,0:0:0:0:
64,192,2063320,1,0,0:0:0:0:
320,192,2063320,1,0,0:0:0:0:
448,192,2063417,1,0,0:0:0:0:
64,192,2063513,1,0,0:0:0:0:
320,192,2063707,1,0,0:0:0:0:
448,192,2063900,1,0,0:0:0:0:
64,192,2063900,1,0,0:0:0:0:
320,192,2064094,1,0,0:0:0:0:
448,192,2064287,1,0,0:0:0:0:
64,192,2064287,1,0,0:0:0:0:
448,192,2064675,1,0,0:0:0:0:
320,192,2064675,1,0,0:0:0:0:
320,192,2064868,1,0,0:0:0:0:
320,192,2065062,1,0,0:0:0:0:
64,192,2065255,1,0,0:0:0:0:
448,192,2065449,1,0,0:0:0:0:
192,192,2065642,1,0,0:0:0:0:
64,192,2065836,1,0,0:0:0:0:
320,192,2065836,1,0,0:0:0:0:
448,192,2066029,1,0,0:0:0:0:
64,192,2066417,1,0,0:0:0:0:
192,192,2066513,1,0,0:0:0:0:
320,192,2066610,1,0,0:0:0:0:
320,192,2066997,1,0,0:0:0:0:
192,192,2067094,1,0,0:0:0:0:
448,192,2067191,1,0,0:0:0:0:
448,192,2067384,1,0,0:0:0:0:
320,192,2067481,1,0,0:0:0:0:
448,192,2067578,1,0,0:0:0:0:
192,192,2067771,1,0,0:0:0:0:
192,192,2068158,1,0,0:0:0:0:
64,192,2068352,1,0,0:0:0:0:
192,192,2068546,1,0,0:0:0:0:
64,192,2068739,1,0,0:0:0:0:
320,192,2068739,1,0,0:0:0:0:
64,192,2068933,1,0,0:0:0:0:
192,192,2069320,1,0,0:0:0:0:
64,192,2069513,1,0,0:0:0:0:
448,192,2069707,1,0,0:0:0:0:
64,192,2069900,1,0,0:0:0:0:
192,192,2070094,1,0,0:0:0:0:
320,192,2070287,1,0,0:0:0:0:
64,192,2070481,1,0,0:0:0:0:
320,192,2070578,1,0,0:0:0:0:
448,192,2070675,1,0,0:0:0:0:
192,192,2070675,1,0,0:0:0:0:
448,192,2070868,1,0,0:0:0:0:
64,192,2070965,1,0,0:0:0:0:
192,192,2071158,1,0,0:0:0:0:
320,192,2071255,1,0,0:0:0:0:
448,192,2071449,1,0,0:0:0:0:
64,192,2071449,1,0,0:0:0:0:
320,192,2071546,1,0,0:0:0:0:
448,192,2071642,1,0,0:0:0:0:
192,192,2071642,1,0,0:0:0:0:
64,192,2071739,1,0,0:0:0:0:
448,192,2071836,1,0,0:0:0:0:
192,192,2071836,1,0,0:0:0:0:
448,192,2072029,1,0,0:0:0:0:
192,192,2072126,1,0,0:0:0:0:
320,192,2072223,1,0,0:0:0:0:
448,192,2072320,1,0,0:0:0:0:
320,192,2072417,1,0,0:0:0:0:
192,192,2072610,1,0,0:0:0:0:
64,192,2072707,1,0,0:0:0:0:
192,192,2072804,1,0,0:0:0:0:
64,192,2072900,1,0,0:0:0:0:
320,192,2072997,1,0,0:0:0:0:
192,192,2073191,1,0,0:0:0:0:
64,192,2073287,1,0,0:0:0:0:
448,192,2073384,1,0,0:0:0:0:
64,192,2073481,1,0,0:0:0:0:
448,192,2073578,1,0,0:0:0:0:
320,192,2073771,1,0,0:0:0:0:
64,192,2073771,1,0,0:0:0:0:
192,192,2073771,1,0,0:0:0:0:
320,192,2073965,1,0,0:0:0:0:
64,192,2074158,1,0,0:0:0:0:
192,192,2074255,1,0,0:0:0:0:
448,192,2074352,1,0,0:0:0:0:
320,192,2074449,1,0,0:0:0:0:
448,192,2074546,1,0,0:0:0:0:
192,192,2074546,1,0,0:0:0:0:
64,192,2074739,1,0,0:0:0:0:
448,192,2074836,1,0,0:0:0:0:
192,192,2074933,1,0,0:0:0:0:
64,192,2075029,1,0,0:0:0:0:
448,192,2075029,1,0,0:0:0:0:
320,192,2075126,1,0,0:0:0:0:
192,192,2075223,1,0,0:0:0:0:
448,192,2075320,1,0,0:0:0:0:
320,192,2075417,1,0,0:0:0:0:
64,192,2075513,1,0,0:0:0:0:
192,192,2075707,1,0,0:0:0:0:
320,192,2075804,1,0,0:0:0:0:
64,192,2075900,1,0,0:0:0:0:
320,192,2075997,1,0,0:0:0:0:
192,192,2076094,1,0,0:0:0:0:
448,192,2076287,1,0,0:0:0:0:
320,192,2076384,1,0,0:0:0:0:
448,192,2076481,1,0,0:0:0:0:
64,192,2076578,1,0,0:0:0:0:
320,192,2076675,1,0,0:0:0:0:
448,192,2076675,1,0,0:0:0:0:
448,192,2077062,1,0,0:0:0:0:
192,192,2077158,1,0,0:0:0:0:
64,192,2077255,1,0,0:0:0:0:
192,192,2077352,1,0,0:0:0:0:
448,192,2077352,1,0,0:0:0:0:
64,192,2077449,1,0,0:0:0:0:
448,192,2077546,1,0,0:0:0:0:
320,192,2077642,1,0,0:0:0:0:
192,192,2077642,1,0,0:0:0:0:
448,192,2077739,1,0,0:0:0:0:
64,192,2077739,1,0,0:0:0:0:
320,192,2077836,1,0,0:0:0:0:
192,192,2077836,1,0,0:0:0:0:
192,192,2078029,1,0,0:0:0:0:
448,192,2078029,1,0,0:0:0:0:
448,192,2078223,1,0,0:0:0:0:
320,192,2078320,1,0,0:0:0:0:
64,192,2078417,1,0,0:0:0:0:
192,192,2078513,1,0,0:0:0:0:
320,192,2078610,1,0,0:0:0:0:
320,192,2078804,1,0,0:0:0:0:
192,192,2078804,1,0,0:0:0:0:
448,192,2078900,1,0,0:0:0:0:
192,192,2079094,1,0,0:0:0:0:
64,192,2079191,1,0,0:0:0:0:
448,192,2079191,1,0,0:0:0:0:
320,192,2079384,1,0,0:0:0:0:
448,192,2079481,1,0,0:0:0:0:
192,192,2079578,1,0,0:0:0:0:
64,192,2079578,1,0,0:0:0:0:
320,192,2079675,1,0,0:0:0:0:
64,192,2079771,1,0,0:0:0:0:
320,192,2079868,1,0,0:0:0:0:
192,192,2079965,1,0,0:0:0:0:
64,192,2079965,1,0,0:0:0:0:
448,192,2080062,1,0,0:0:0:0:
192,192,2080158,1,0,0:0:0:0:
448,192,2080352,1,0,0:0:0:0:
320,192,2080449,1,0,0:0:0:0:
192,192,2080449,1,0,0:0:0:0:
64,192,2080546,1,0,0:0:0:0:
320,192,2080642,1,0,0:0:0:0:
192,192,2080739,1,0,0:0:0:0:
448,192,2080739,1,0,0:0:0:0:
64,192,2080836,1,0,0:0:0:0:
192,192,2080933,1,0,0:0:0:0:
64,192,2081126,1,0,0:0:0:0:
192,192,2081223,1,0,0:0:0:0:
448,192,2081320,1,0,0:0:0:0:
192,192,2081417,1,0,0:0:0:0:
320,192,2081513,1,0,0:0:0:0:
448,192,2081513,1,0,0:0:0:0:
64,192,2081610,1,0,0:0:0:0:
320,192,2081707,1,0,0:0:0:0:
448,192,2081900,1,0,0:0:0:0:
64,192,2081997,1,0,0:0:0:0:
192,192,2082094,1,0,0:0:0:0:
320,192,2082191,1,0,0:0:0:0:
448,192,2082287,1,0,0:0:0:0:
64,192,2082481,1,0,0:0:0:0:
448,192,2082675,1,0,0:0:0:0:
320,192,2082675,1,0,0:0:0:0:
64,192,2082771,1,0,0:0:0:0:
320,192,2082868,1,0,0:0:0:0:
192,192,2082868,1,0,0:0:0:0:
448,192,2082965,1,0,0:0:0:0:
64,192,2082965,1,0,0:0:0:0:
192,192,2083062,1,0,0:0:0:0:
320,192,2083158,1,0,0:0:0:0:
448,192,2083255,1,0,0:0:0:0:
192,192,2083352,1,0,0:0:0:0:
192,192,2083642,1,0,0:0:0:0:
64,192,2083836,1,0,0:0:0:0:
448,192,2083836,1,0,0:0:0:0:
320,192,2083933,1,0,0:0:0:0:
192,192,2084029,1,0,0:0:0:0:
448,192,2084126,1,0,0:0:0:0:
320,192,2084223,1,0,0:0:0:0:
64,192,2084223,1,0,0:0:0:0:
320,192,2084417,1,0,0:0:0:0:
64,192,2084513,1,0,0:0:0:0:
320,192,2084610,1,0,0:0:0:0:
192,192,2084707,1,0,0:0:0:0:
320,192,2084804,1,0,0:0:0:0:
320,192,2084997,1,0,0:0:0:0:
448,192,2085094,1,0,0:0:0:0:
64,192,2085191,1,0,0:0:0:0:
320,192,2085287,1,0,0:0:0:0:
64,192,2085384,1,0,0:0:0:0:
64,192,2085578,1,0,0:0:0:0:
192,192,2085675,1,0,0:0:0:0:
64,192,2085771,1,0,0:0:0:0:
448,192,2085868,1,0,0:0:0:0:
192,192,2085965,1,0,0:0:0:0:
448,192,2086062,1,0,0:0:0:0:
64,192,2086158,1,0,0:0:0:0:
192,192,2086158,1,0,0:0:0:0:
320,192,2086158,1,0,0:0:0:0:
448,192,2086352,1,0,0:0:0:0:
448,192,2086642,1,0,0:0:0:0:
320,192,2086739,1,0,0:0:0:0:
64,192,2086836,1,0,0:0:0:0:
448,192,2086933,1,0,0:0:0:0:
320,192,2086933,1,0,0:0:0:0:
192,192,2087223,1,0,0:0:0:0:
448,192,2087320,1,0,0:0:0:0:
64,192,2087417,1,0,0:0:0:0:
448,192,2087513,1,0,0:0:0:0:
320,192,2087610,1,0,0:0:0:0:
192,192,2087804,1,0,0:0:0:0:
320,192,2087900,1,0,0:0:0:0:
320,192,2088094,1,0,0:0:0:0:
64,192,2088094,1,0,0:0:0:0:
448,192,2088191,1,0,0:0:0:0:
320,192,2088287,1,0,0:0:0:0:
64,192,2088384,1,0,0:0:0:0:
320,192,2088481,1,0,0:0:0:0:
64,192,2088578,1,0,0:0:0:0:
448,192,2088675,1,0,0:0:0:0:
64,192,2088771,1,0,0:0:0:0:
192,192,2088868,1,0,0:0:0:0:
64,192,2088965,1,0,0:0:0:0:
448,192,2089062,1,0,0:0:0:0:
64,192,2089449,1,0,0:0:0:0:
448,192,2089546,1,0,0:0:0:0:
320,192,2089739,1,0,0:0:0:0:
192,192,2089836,1,0,0:0:0:0:
320,192,2089933,1,0,0:0:0:0:
448,192,2090029,1,0,0:0:0:0:
192,192,2090029,1,0,0:0:0:0:
64,192,2090126,1,0,0:0:0:0:
192,192,2090320,1,0,0:0:0:0:
448,192,2090417,1,0,0:0:0:0:
320,192,2090417,1,0,0:0:0:0:
64,192,2090610,1,0,0:0:0:0:
192,192,2090707,1,0,0:0:0:0:
64,192,2090804,1,0,0:0:0:0:
448,192,2090900,1,0,0:0:0:0:
320,192,2090997,1,0,0:0:0:0:
192,192,2090997,1,0,0:0:0:0:
320,192,2091191,1,0,0:0:0:0:
192,192,2091287,1,0,0:0:0:0:
64,192,2091384,1,0,0:0:0:0:
320,192,2091481,1,0,0:0:0:0:
64,192,2091578,1,0,0:0:0:0:
192,192,2091771,1,0,0:0:0:0:
448,192,2091868,1,0,0:0:0:0:
64,192,2091965,1,0,0:0:0:0:
320,192,2092062,1,0,0:0:0:0:
64,192,2092158,1,0,0:0:0:0:
192,192,2092255,1,0,0:0:0:0:
64,192,2092352,1,0,0:0:0:0:
320,192,2092352,1,0,0:0:0:0:
320,192,2092546,1,0,0:0:0:0:
192,192,2092836,1,0,0:0:0:0:
448,192,2092933,1,0,0:0:0:0:
320,192,2093126,1,0,0:0:0:0:
192,192,2093126,1,0,0:0:0:0:
448,192,2093223,1,0,0:0:0:0:
192,192,2093320,1,0,0:0:0:0:
320,192,2093417,1,0,0:0:0:0:
448,192,2093513,1,0,0:0:0:0:
320,192,2093610,1,0,0:0:0:0:
64,192,2093610,1,0,0:0:0:0:
64,192,2093804,1,0,0:0:0:0:
320,192,2093900,1,0,0:0:0:0:
192,192,2093900,1,0,0:0:0:0:
64,192,2093997,1,0,0:0:0:0:
192,192,2094094,1,0,0:0:0:0:
64,192,2094191,1,0,0:0:0:0:
448,192,2094287,1,0,0:0:0:0:
64,192,2094384,1,0,0:0:0:0:
192,192,2094481,1,0,0:0:0:0:
320,192,2094481,1,0,0:0:0:0:
448,192,2094675,1,0,0:0:0:0:
320,192,2094771,1,0,0:0:0:0:
448,192,2094868,1,0,0:0:0:0:
320,192,2094965,1,0,0:0:0:0:
448,192,2095062,1,0,0:0:0:0:
192,192,2095062,1,0,0:0:0:0:
320,192,2095158,1,0,0:0:0:0:
64,192,2095158,1,0,0:0:0:0:
192,192,2095255,1,0,0:0:0:0:
448,192,2095352,1,0,0:0:0:0:
320,192,2095449,1,0,0:0:0:0:
448,192,2095546,1,0,0:0:0:0:
64,192,2095739,1,0,0:0:0:0:
320,192,2099417,1,0,0:0:0:0:
448,192,2100965,1,0,0:0:0:0:
320,192,2101642,1,0,0:0:0:0:
448,192,2101933,1,0,0:0:0:0:
192,192,2104158,1,0,0:0:0:0:
448,192,2104255,1,0,0:0:0:0:
192,192,2104933,1,0,0:0:0:0:
320,192,2105029,1,0,0:0:0:0:
192,192,2105513,1,0,0:0:0:0:
320,192,2106191,1,0,0:0:0:0:
192,192,2106481,1,0,0:0:0:0:
64,192,2106578,1,0,0:0:0:0:
64,192,2107255,1,0,0:0:0:0:
320,192,2107352,1,0,0:0:0:0:
320,192,2107642,1,0,0:0:0:0:
448,192,2107739,1,0,0:0:0:0:
320,192,2107836,1,0,0:0:0:0:
64,192,2108029,1,0,0:0:0:0:
192,192,2110352,1,0,0:0:0:0:
64,192,2112675,1,0,0:0:0:0:
320,192,2113642,1,0,0:0:0:0:
320,192,2113836,1,0,0:0:0:0:
64,192,2113933,1,0,0:0:0:0:
448,192,2114029,1,0,0:0:0:0:
64,192,2114126,1,0,0:0:0:0:
448,192,2114223,1,0,0:0:0:0:
64,192,2114417,1,0,0:0:0:0:
192,192,2116352,1,0,0:0:0:0:
192,192,2116739,1,0,0:0:0:0:
64,192,2117223,1,0,0:0:0:0:
64,192,2117707,1,0,0:0:0:0:
192,192,2120513,1,0,0:0:0:0:
192,192,2123320,1,0,0:0:0:0:
448,192,2128305,1,0,0:0:0:0:
192,192,2129870,1,0,0:0:0:0:
64,192,2130392,1,0,0:0:0:0:
320,192,2132479,1,0,0:0:0:0:
192,192,2134044,1,0,0:0:0:0:
320,192,2134566,1,0,0:0:0:0:
448,192,2136131,1,0,0:0:0:0:
192,192,2136522,1,0,0:0:0:0:
320,192,2136653,1,0,0:0:0:0:
64,192,2138218,1,0,0:0:0:0:
192,192,2138479,1,0,0:0:0:0:
192,192,2138740,1,0,0:0:0:0:
320,192,2139131,1,0,0:0:0:0:
192,192,2140305,1,0,0:0:0:0:
64,192,2141218,1,0,0:0:0:0:
192,192,2142392,1,0,0:0:0:0:
64,192,2142653,1,0,0:0:0:0:
64,192,2142913,1,0,0:0:0:0:
448,192,2142913,1,0,0:0:0:0:
192,192,2143044,1,0,0:0:0:0:
448,192,2143175,1,0,0:0:0:0:
448,192,2143436,1,0,0:0:0:0:
64,192,2143567,1,0,0:0:0:0:
192,192,2143829,1,0,0:0:0:0:
448,192,2144221,1,0,0:0:0:0:
64,192,2144352,1,0,0:0:0:0:
320,192,2144483,1,0,0:0:0:0:
64,192,2144875,1,0,0:0:0:0:
320,192,2145791,1,0,0:0:0:0:
320,192,2146576,1,0,0:0:0:0:
192,192,2147100,1,0,0:0:0:0:
64,192,2148670,1,0,0:0:0:0:
448,192,2148800,1,0,0:0:0:0:
320,192,2148931,1,0,0:0:0:0:
320,192,2149193,1,0,0:0:0:0:
64,192,2149193,1,0,0:0:0:0:
64,192,2150763,1,0,0:0:0:0:
448,192,2150763,1,0,0:0:0:0:
320,192,2150894,1,0,0:0:0:0:
192,192,2151155,1,0,0:0:0:0:
320,192,2151286,1,0,0:0:0:0:
448,192,2151679,1,0,0:0:0:0:
448,192,2151940,1,0,0:0:0:0:
448,192,2152202,1,0,0:0:0:0:
192,192,2152725,1,0,0:0:0:0:
64,192,2152856,1,0,0:0:0:0:
192,192,2152987,1,0,0:0:0:0:
448,192,2153249,1,0,0:0:0:0:
64,192,2154165,1,0,0:0:0:0:
320,192,2154950,1,0,0:0:0:0:
64,192,2155342,1,0,0:0:0:0:
192,192,2155473,1,0,0:0:0:0:
192,192,2156258,1,0,0:0:0:0:
64,192,2157043,1,0,0:0:0:0:
448,192,2157435,1,0,0:0:0:0:
192,192,2157566,1,0,0:0:0:0:
320,192,2157566,1,0,0:0:0:0:
64,192,2157828,1,0,0:0:0:0:
448,192,2157959,1,0,0:0:0:0:
64,192,2158613,1,0,0:0:0:0:
320,192,2159136,1,0,0:0:0:0:
64,192,2159136,1,0,0:0:0:0:
320,192,2159529,1,0,0:0:0:0:
448,192,2159529,1,0,0:0:0:0:
64,192,2159660,1,0,0:0:0:0:
192,192,2159921,1,0,0:0:0:0:
320,192,2160183,1,0,0:0:0:0:
320,192,2160575,1,0,0:0:0:0:
64,192,2161099,1,0,0:0:0:0:
192,192,2161230,1,0,0:0:0:0:
64,192,2161360,1,0,0:0:0:0:
64,192,2161622,1,0,0:0:0:0:
448,192,2162015,1,0,0:0:0:0:
448,192,2163323,1,0,0:0:0:0:
64,192,2163715,1,0,0:0:0:0:
320,192,2163846,1,0,0:0:0:0:
448,192,2163846,1,0,0:0:0:0:
64,192,2164108,1,0,0:0:0:0:
320,192,2164631,1,0,0:0:0:0:
192,192,2165416,1,0,0:0:0:0:
448,192,2165809,1,0,0:0:0:0:
192,192,2165940,1,0,0:0:0:0:
320,192,2165940,1,0,0:0:0:0:
64,192,2165940,1,0,0:0:0:0:
320,192,2166463,1,0,0:0:0:0:
448,192,2166725,1,0,0:0:0:0:
192,192,2167510,1,0,0:0:0:0:
64,192,2168033,1,0,0:0:0:0:
192,192,2168033,1,0,0:0:0:0:
448,192,2168295,1,0,0:0:0:0:
64,192,2168425,1,0,0:0:0:0:
448,192,2168556,1,0,0:0:0:0:
320,192,2168687,1,0,0:0:0:0:
448,192,2168949,1,0,0:0:0:0:
192,192,2169080,1,0,0:0:0:0:
192,192,2169341,1,0,0:0:0:0:
192,192,2169603,1,0,0:0:0:0:
192,192,2169995,1,0,0:0:0:0:
64,192,2170388,1,0,0:0:0:0:
448,192,2170519,1,0,0:0:0:0:
192,192,2170911,1,0,0:0:0:0:
64,192,2171696,1,0,0:0:0:0:
192,192,2171958,1,0,0:0:0:0:
192,192,2172220,1,0,0:0:0:0:
64,192,2172220,1,0,0:0:0:0:
64,192,2172481,1,0,0:0:0:0:
64,192,2173005,1,0,0:0:0:0:
320,192,2173790,1,0,0:0:0:0:
64,192,2174182,1,0,0:0:0:0:
320,192,2174313,1,0,0:0:0:0:
192,192,2174313,1,0,0:0:0:0:
448,192,2174705,1,0,0:0:0:0:
320,192,2174836,1,0,0:0:0:0:
320,192,2175883,1,0,0:0:0:0:
64,192,2176275,1,0,0:0:0:0:
448,192,2177976,1,0,0:0:0:0:
448,192,2178500,1,0,0:0:0:0:
448,192,2180070,1,0,0:0:0:0:
320,192,2180593,1,0,0:0:0:0:
192,192,2180855,1,0,0:0:0:0:
320,192,2180985,1,0,0:0:0:0:
64,192,2182163,1,0,0:0:0:0:
320,192,2182686,1,0,0:0:0:0:
64,192,2182686,1,0,0:0:0:0:
192,192,2182686,1,0,0:0:0:0:
448,192,2184256,1,0,0:0:0:0:
192,192,2184780,1,0,0:0:0:0:
64,192,2184780,1,0,0:0:0:0:
192,192,2185172,1,0,0:0:0:0:
448,192,2185303,1,0,0:0:0:0:
192,192,2186350,1,0,0:0:0:0:
448,192,2186742,1,0,0:0:0:0:
64,192,2188443,1,0,0:0:0:0:
64,192,2188966,1,0,0:0:0:0:
192,192,2188966,1,0,0:0:0:0:
64,192,2190536,1,0,0:0:0:0:
448,192,2191060,1,0,0:0:0:0:
192,192,2191060,1,0,0:0:0:0:
320,192,2191190,1,0,0:0:0:0:
448,192,2191452,1,0,0:0:0:0:
64,192,2192630,1,0,0:0:0:0:
448,192,2193153,1,0,0:0:0:0:
192,192,2193284,1,0,0:0:0:0:
448,192,2193676,1,0,0:0:0:0:
192,192,2194330,1,0,0:0:0:0:
320,192,2194592,1,0,0:0:0:0:
448,192,2194723,1,0,0:0:0:0:
448,192,2195115,1,0,0:0:0:0:
320,192,2195508,1,0,0:0:0:0:
448,192,2196816,1,0,0:0:0:0:
64,192,2197340,1,0,0:0:0:0:
192,192,2197470,1,0,0:0:0:0:
64,192,2197601,1,0,0:0:0:0:
320,192,2198910,1,0,0:0:0:0:
64,192,2199302,1,0,0:0:0:0:
192,192,2199433,1,0,0:0:0:0:
320,192,2199825,1,0,0:0:0:0:
448,192,2199956,1,0,0:0:0:0:
448,192,2200349,1,0,0:0:0:0:
448,192,2201003,1,0,0:0:0:0:
448,192,2201526,1,0,0:0:0:0:
64,192,2201657,1,0,0:0:0:0:
192,192,2201788,1,0,0:0:0:0:
448,192,2201919,1,0,0:0:0:0:
64,192,2202180,1,0,0:0:0:0:
64,192,2202442,1,0,0:0:0:0:
192,192,2202573,1,0,0:0:0:0:
448,192,2202965,1,0,0:0:0:0:
192,192,2203096,1,0,0:0:0:0:
320,192,2203489,1,0,0:0:0:0:
448,192,2203619,1,0,0:0:0:0:
64,192,2204404,1,0,0:0:0:0:
448,192,2205582,1,0,0:0:0:0:
192,192,2205713,1,0,0:0:0:0:
64,192,2206105,1,0,0:0:0:0:
64,192,2206367,1,0,0:0:0:0:
448,192,2206498,1,0,0:0:0:0:
320,192,2206759,1,0,0:0:0:0:
192,192,2207283,1,0,0:0:0:0:
448,192,2207675,1,0,0:0:0:0:
320,192,2207806,1,0,0:0:0:0:
192,192,2207937,1,0,0:0:0:0:
64,192,2208329,1,0,0:0:0:0:
192,192,2209376,1,0,0:0:0:0:
64,192,2209769,1,0,0:0:0:0:
320,192,2209899,1,0,0:0:0:0:
448,192,2210343,1,0,0:0:0:0:
64,192,2210899,1,0,0:0:0:0:
320,192,2211677,1,0,0:0:0:0:
320,192,2212232,1,0,0:0:0:0:
64,192,2212788,1,0,0:0:0:0:
192,192,2213454,1,0,0:0:0:0:
64,192,2213454,1,0,0:0:0:0:
448,192,2213790,1,0,0:0:0:0:
320,192,2213902,1,0,0:0:0:0:
448,192,2214014,1,0,0:0:0:0:
64,192,2214238,1,0,0:0:0:0:
64,192,2214461,1,0,0:0:0:0:
320,192,2214573,1,0,0:0:0:0:
64,192,2216364,1,0,0:0:0:0:
320,192,2216700,1,0,0:0:0:0:
320,192,2217036,1,0,0:0:0:0:
64,192,2217036,1,0,0:0:0:0:
320,192,2217260,1,0,0:0:0:0:
320,192,2217484,1,0,0:0:0:0:
192,192,2217596,1,0,0:0:0:0:
448,192,2218827,1,0,0:0:0:0:
448,192,2219947,1,0,0:0:0:0:
64,192,2220282,1,0,0:0:0:0:
64,192,2220506,1,0,0:0:0:0:
192,192,2220618,1,0,0:0:0:0:
320,192,2220618,1,0,0:0:0:0:
448,192,2220730,1,0,0:0:0:0:
320,192,2220954,1,0,0:0:0:0:
448,192,2221178,1,0,0:0:0:0:
192,192,2221290,1,0,0:0:0:0:
448,192,2221514,1,0,0:0:0:0:
64,192,2221626,1,0,0:0:0:0:
320,192,2222409,1,0,0:0:0:0:
448,192,2222969,1,0,0:0:0:0:
448,192,2224200,1,0,0:0:0:0:
448,192,2225096,1,0,0:0:0:0:
192,192,2225208,1,0,0:0:0:0:
64,192,2225879,1,0,0:0:0:0:
192,192,2225991,1,0,0:0:0:0:
192,192,2226551,1,0,0:0:0:0:
320,192,2227782,1,0,0:0:0:0:
192,192,2228671,1,0,0:0:0:0:
320,192,2228893,1,0,0:0:0:0:
64,192,2229115,1,0,0:0:0:0:
448,192,2229226,1,0,0:0:0:0:
192,192,2230671,1,0,0:0:0:0:
192,192,2231004,1,0,0:0:0:0:
448,192,2231338,1,0,0:0:0:0:
448,192,2231671,1,0,0:0:0:0:
192,192,2231782,1,0,0:0:0:0:
64,192,2231893,1,0,0:0:0:0:
448,192,2232226,1,0,0:0:0:0:
320,192,2232449,1,0,0:0:0:0:
192,192,2233115,1,0,0:0:0:0:
64,192,2233226,1,0,0:0:0:0:
64,192,2233671,1,0,0:0:0:0:
320,192,2233782,1,0,0:0:0:0:
192,192,2234004,1,0,0:0:0:0:
320,192,2234226,1,0,0:0:0:0:
320,192,2234893,1,0,0:0:0:0:
320,192,2235115,1,0,0:0:0:0:
64,192,2235449,1,0,0:0:0:0:
448,192,2236004,1,0,0:0:0:0:
320,192,2237226,1,0,0:0:0:0:
64,192,2237893,1,0,0:0:0:0:
448,192,2238115,1,0,0:0:0:0:
320,192,2238448,1,0,0:0:0:0:
448,192,2238711,1,0,0:0:0:0:
320,192,2238843,1,0,0:0:0:0:
64,192,2238974,1,0,0:0:0:0:
320,192,2239106,1,0,0:0:0:0:
320,192,2239501,1,0,0:0:0:0:
64,192,2239632,1,0,0:0:0:0:
448,192,2239764,1,0,0:0:0:0:
64,192,2242527,1,0,0:0:0:0:
320,192,2242658,1,0,0:0:0:0:
192,192,2244226,1,0,0:0:0:0:
448,192,2244749,1,0,0:0:0:0:
320,192,2244749,1,0,0:0:0:0:
448,192,2245533,1,0,0:0:0:0:
320,192,2246317,1,0,0:0:0:0:
448,192,2246317,1,0,0:0:0:0:
320,192,2246970,1,0,0:0:0:0:
192,192,2247231,1,0,0:0:0:0:
192,192,2247492,1,0,0:0:0:0:
64,192,2247754,1,0,0:0:0:0:
192,192,2247884,1,0,0:0:0:0:
320,192,2248276,1,0,0:0:0:0:
192,192,2250890,1,0,0:0:0:0:
64,192,2251020,1,0,0:0:0:0:
64,192,2252066,1,0,0:0:0:0:
192,192,2252588,1,0,0:0:0:0:
320,192,2253111,1,0,0:0:0:0:
192,192,2253372,1,0,0:0:0:0:
192,192,2254679,1,0,0:0:0:0:
64,192,2254679,1,0,0:0:0:0:
320,192,2254810,1,0,0:0:0:0:
448,192,2255201,1,0,0:0:0:0:
192,192,2255201,1,0,0:0:0:0:
64,192,2255201,1,0,0:0:0:0:
64,192,2256116,1,0,0:0:0:0:
