osu file format v14

[General]
AudioFilename: audio.mp3
AudioLeadIn: 0
PreviewTime: 102696
Countdown: 1
SampleSet: Normal
StackLeniency: 0.7
Mode: 3
LetterboxInBreaks: 0
SpecialStyle: 0
WidescreenStoryboard: 0

[Editor]
DistanceSpacing: 1
BeatDivisor: 4
GridSize: 4
TimelineZoom: 2.4

[Metadata]
Title:Bug Thief
TitleUnicode:Bug Thief
Artist:Iglooghost
ArtistUnicode:Iglooghost
Creator:Toaph Daddy
Version:Swarm
Source:
Tags:
BeatmapID:1886737
BeatmapSetID:903834

[Difficulty]
HPDrainRate:8
CircleSize:4
OverallDifficulty:8
ApproachRate:5
SliderMultiplier:1.4
SliderTickRate:1

[Events]
//Background and Video events
0,0,"fdsf.jpg",0,0
//Break Periods
//Storyboard Layer 0 (Background)
//Storyboard Layer 1 (Fail)
//Storyboard Layer 2 (Pass)
//Storyboard Layer 3 (Foreground)
//Storyboard Sound Samples

[TimingPoints]
103,320.855614973262,4,1,0,100,1,0
102778,-100,4,1,0,100,0,1
123313,-100,4,1,0,100,0,0

[HitObjects]
192,192,44,5,0,0:0:0:0:
320,192,103,1,0,0:0:0:0:
64,192,2569,1,0,0:0:0:0:
192,192,2629,1,0,0:0:0:0:
448,192,2669,1,0,0:0:0:0:
448,192,5236,128,0,5316:0:0:0:0:
192,192,5236,1,0,0:0:0:0:
320,192,6840,128,0,6921:0:0:0:0:
192,192,7322,128,0,7402:0:0:0:0:
320,192,7803,128,0,7883:0:0:0:0:
192,192,7803,1,0,0:0:0:0:
64,192,7963,128,0,8044:0:0:0:0:
448,192,8445,128,0,8525:0:0:0:0:
320,192,8605,128,0,8685:0:0:0:0:
448,192,9086,128,0,9167:0:0:0:0:
192,192,9247,128,0,9327:0:0:0:0:
320,192,9568,1,0,0:0:0:0:
192,192,9648,1,0,0:0:0:0:
448,192,9728,128,0,9808:0:0:0:0:
320,192,9808,1,0,0:0:0:0:
64,192,9889,128,0,9969:0:0:0:0:
320,192,9969,1,0,0:0:0:0:
448,192,10049,1,0,0:0:0:0:
64,192,10049,1,0,0:0:0:0:
320,192,10209,128,0,10370:0:0:0:0:
192,192,10370,1,0,0:0:0:0:
64,192,10370,1,0,0:0:0:0:
192,192,10611,128,0,10691:0:0:0:0:
192,192,10771,128,0,11092:0:0:0:0:
192,192,11172,128,0,11493:0:0:0:0:
320,192,11332,128,0,11493:0:0:0:0:
64,192,11493,128,0,11653:0:0:0:0:
192,192,11653,128,0,11734:0:0:0:0:
192,192,11974,128,0,12375:0:0:0:0:
448,192,12295,128,0,12375:0:0:0:0:
192,192,12455,128,0,12536:0:0:0:0:
448,192,12455,128,0,12536:0:0:0:0:
192,192,12616,128,0,12937:0:0:0:0:
448,192,12616,128,0,12857:0:0:0:0:
320,192,12937,1,0,0:0:0:0:
448,192,12937,1,0,0:0:0:0:
64,192,13097,1,0,0:0:0:0:
192,192,13258,128,0,13338:0:0:0:0:
448,192,13258,128,0,13338:0:0:0:0:
192,192,13899,128,0,13980:0:0:0:0:
448,192,13899,128,0,13980:0:0:0:0:
320,192,14060,128,0,15343:0:0:0:0:
192,192,14541,128,0,14621:0:0:0:0:
448,192,14541,128,0,14621:0:0:0:0:
192,192,15183,128,0,15263:0:0:0:0:
448,192,15183,128,0,15263:0:0:0:0:
448,192,15343,1,0,0:0:0:0:
192,192,15343,128,0,15423:0:0:0:0:
448,192,15423,1,0,0:0:0:0:
192,192,15504,1,0,0:0:0:0:
64,192,15504,128,0,16546:0:0:0:0:
320,192,15504,128,0,16386:0:0:0:0:
192,192,15744,128,0,15824:0:0:0:0:
192,192,15905,128,0,16225:0:0:0:0:
448,192,16145,1,0,0:0:0:0:
192,192,16306,128,0,16627:0:0:0:0:
320,192,16466,128,0,17990:0:0:0:0:
64,192,16627,128,0,17509:0:0:0:0:
192,192,16787,128,0,16867:0:0:0:0:
192,192,17108,128,0,17429:0:0:0:0:
448,192,17429,1,0,0:0:0:0:
64,192,17589,128,0,18070:0:0:0:0:
448,192,17589,1,0,0:0:0:0:
448,192,17750,1,0,0:0:0:0:
320,192,18070,1,0,0:0:0:0:
448,192,18070,128,0,18471:0:0:0:0:
320,192,18231,128,0,18311:0:0:0:0:
192,192,18391,128,0,18471:0:0:0:0:
448,192,18552,128,0,18792:0:0:0:0:
64,192,18712,128,0,18792:0:0:0:0:
448,192,18873,128,0,19274:0:0:0:0:
192,192,19033,128,0,19113:0:0:0:0:
320,192,19193,128,0,19274:0:0:0:0:
448,192,19354,128,0,19434:0:0:0:0:
448,192,19675,128,0,19755:0:0:0:0:
192,192,19996,128,0,20076:0:0:0:0:
320,192,20156,128,0,20236:0:0:0:0:
64,192,20316,128,0,20397:0:0:0:0:
192,192,20477,128,0,20557:0:0:0:0:
320,192,20637,1,0,0:0:0:0:
448,192,20637,1,0,0:0:0:0:
64,192,21119,1,0,0:0:0:0:
448,192,21119,128,0,21199:0:0:0:0:
320,192,21439,128,0,21520:0:0:0:0:
64,192,21600,1,0,0:0:0:0:
192,192,21600,128,0,21680:0:0:0:0:
320,192,21921,128,0,22001:0:0:0:0:
64,192,22242,1,0,0:0:0:0:
448,192,22242,128,0,22322:0:0:0:0:
192,192,22562,128,0,22643:0:0:0:0:
64,192,22723,1,0,0:0:0:0:
320,192,22883,128,0,22963:0:0:0:0:
64,192,23044,1,0,0:0:0:0:
448,192,23044,128,0,23124:0:0:0:0:
192,192,23204,1,0,0:0:0:0:
64,192,23204,128,0,23284:0:0:0:0:
64,192,23685,1,0,0:0:0:0:
448,192,23685,128,0,23766:0:0:0:0:
192,192,23846,128,0,23926:0:0:0:0:
320,192,24006,128,0,24086:0:0:0:0:
64,192,24167,1,0,0:0:0:0:
192,192,24167,128,0,24247:0:0:0:0:
448,192,24488,128,0,24568:0:0:0:0:
64,192,24808,1,0,0:0:0:0:
192,192,24808,128,0,24889:0:0:0:0:
320,192,24969,128,0,25049:0:0:0:0:
64,192,25290,1,0,0:0:0:0:
448,192,25290,1,0,0:0:0:0:
448,192,25450,1,0,0:0:0:0:
64,192,25611,1,0,0:0:0:0:
448,192,25611,128,0,25691:0:0:0:0:
320,192,25771,1,0,0:0:0:0:
192,192,25771,1,0,0:0:0:0:
64,192,25771,128,0,26172:0:0:0:0:
448,192,26252,128,0,26332:0:0:0:0:
64,192,26252,128,0,26653:0:0:0:0:
320,192,26573,128,0,26653:0:0:0:0:
192,192,26734,128,0,26814:0:0:0:0:
64,192,26734,128,0,27054:0:0:0:0:
320,192,27054,128,0,27135:0:0:0:0:
192,192,27054,128,0,27295:0:0:0:0:
64,192,27375,1,0,0:0:0:0:
192,192,27375,128,0,28338:0:0:0:0:
448,192,27375,128,0,27455:0:0:0:0:
448,192,27696,128,0,27776:0:0:0:0:
64,192,27857,1,0,0:0:0:0:
320,192,27857,128,0,27937:0:0:0:0:
320,192,28017,128,0,28097:0:0:0:0:
64,192,28177,1,0,0:0:0:0:
448,192,28177,128,0,28258:0:0:0:0:
320,192,28338,1,0,0:0:0:0:
448,192,28338,128,0,28899:0:0:0:0:
320,192,28659,1,0,0:0:0:0:
64,192,28819,1,0,0:0:0:0:
448,192,28980,128,0,29541:0:0:0:0:
192,192,28980,1,0,0:0:0:0:
320,192,29140,128,0,29220:0:0:0:0:
64,192,29300,1,0,0:0:0:0:
448,192,29621,128,0,30343:0:0:0:0:
192,192,29782,128,0,29862:0:0:0:0:
64,192,29942,1,0,0:0:0:0:
320,192,30263,128,0,30343:0:0:0:0:
64,192,30423,1,0,0:0:0:0:
448,192,30423,128,0,30504:0:0:0:0:
192,192,30423,128,0,30504:0:0:0:0:
448,192,30584,128,0,30664:0:0:0:0:
64,192,30744,1,0,0:0:0:0:
448,192,30744,128,0,30824:0:0:0:0:
448,192,30905,128,0,31546:0:0:0:0:
320,192,30905,1,0,0:0:0:0:
64,192,31386,1,0,0:0:0:0:
192,192,31386,128,0,31466:0:0:0:0:
192,192,31707,128,0,31787:0:0:0:0:
64,192,31867,1,0,0:0:0:0:
192,192,31867,128,0,32429:0:0:0:0:
320,192,31867,128,0,31947:0:0:0:0:
448,192,32188,128,0,32268:0:0:0:0:
64,192,32509,1,0,0:0:0:0:
192,192,32509,128,0,33151:0:0:0:0:
320,192,32509,128,0,32589:0:0:0:0:
64,192,32990,1,0,0:0:0:0:
320,192,32990,128,0,33070:0:0:0:0:
64,192,33311,1,0,0:0:0:0:
320,192,33311,128,0,33391:0:0:0:0:
320,192,33471,1,0,0:0:0:0:
448,192,33471,128,0,34113:0:0:0:0:
192,192,33953,128,0,34033:0:0:0:0:
320,192,33953,1,0,0:0:0:0:
192,192,34274,128,0,34354:0:0:0:0:
64,192,34434,1,0,0:0:0:0:
192,192,34434,128,0,34996:0:0:0:0:
320,192,34434,128,0,34514:0:0:0:0:
448,192,34755,128,0,34835:0:0:0:0:
64,192,35076,1,0,0:0:0:0:
192,192,35076,128,0,35717:0:0:0:0:
320,192,35076,128,0,35156:0:0:0:0:
64,192,35557,1,0,0:0:0:0:
448,192,35557,1,0,0:0:0:0:
320,192,35557,128,0,35637:0:0:0:0:
448,192,35717,1,0,0:0:0:0:
448,192,35878,1,0,0:0:0:0:
64,192,35878,1,0,0:0:0:0:
320,192,35878,128,0,35958:0:0:0:0:
320,192,36038,128,0,36680:0:0:0:0:
448,192,36038,128,0,36119:0:0:0:0:
448,192,36199,128,0,36279:0:0:0:0:
448,192,36359,128,0,36439:0:0:0:0:
448,192,36520,128,0,36600:0:0:0:0:
192,192,36520,128,0,36600:0:0:0:0:
448,192,36680,128,0,36760:0:0:0:0:
64,192,36680,128,0,37322:0:0:0:0:
448,192,36840,128,0,36921:0:0:0:0:
192,192,36840,128,0,36921:0:0:0:0:
448,192,37001,128,0,37081:0:0:0:0:
192,192,37001,128,0,37562:0:0:0:0:
448,192,37161,128,0,37242:0:0:0:0:
448,192,37322,128,0,37402:0:0:0:0:
320,192,37322,128,0,37562:0:0:0:0:
448,192,37482,128,0,37562:0:0:0:0:
448,192,37643,128,0,37723:0:0:0:0:
192,192,37643,128,0,38284:0:0:0:0:
320,192,37643,128,0,37723:0:0:0:0:
448,192,37803,128,0,37883:0:0:0:0:
448,192,37963,128,0,38044:0:0:0:0:
448,192,38124,128,0,38204:0:0:0:0:
64,192,38124,128,0,38204:0:0:0:0:
448,192,38284,128,0,38365:0:0:0:0:
448,192,38445,128,0,38525:0:0:0:0:
192,192,38445,128,0,38525:0:0:0:0:
448,192,38605,128,0,38685:0:0:0:0:
320,192,38605,128,0,39889:0:0:0:0:
448,192,38766,128,0,38846:0:0:0:0:
192,192,38766,128,0,38846:0:0:0:0:
448,192,38926,128,0,39006:0:0:0:0:
64,192,38926,128,0,39006:0:0:0:0:
448,192,39086,128,0,39167:0:0:0:0:
448,192,39247,128,0,39327:0:0:0:0:
192,192,39247,128,0,39327:0:0:0:0:
448,192,39407,128,0,39488:0:0:0:0:
448,192,39568,128,0,39648:0:0:0:0:
64,192,39568,128,0,39648:0:0:0:0:
448,192,39728,128,0,39808:0:0:0:0:
192,192,39728,128,0,39808:0:0:0:0:
64,192,39889,128,0,39969:0:0:0:0:
448,192,39889,1,0,0:0:0:0:
192,192,40049,1,0,0:0:0:0:
320,192,40209,1,0,0:0:0:0:
64,192,40370,128,0,40450:0:0:0:0:
320,192,40530,1,0,0:0:0:0:
448,192,40691,1,0,0:0:0:0:
64,192,40851,128,0,40931:0:0:0:0:
448,192,41012,128,0,41092:0:0:0:0:
64,192,41172,1,0,0:0:0:0:
192,192,41172,128,0,41252:0:0:0:0:
192,192,41413,128,0,41493:0:0:0:0:
192,192,41573,128,0,41894:0:0:0:0:
320,192,41653,1,0,0:0:0:0:
448,192,41653,1,0,0:0:0:0:
192,192,41974,128,0,42295:0:0:0:0:
448,192,41974,1,0,0:0:0:0:
320,192,42135,128,0,42295:0:0:0:0:
64,192,42135,1,0,0:0:0:0:
64,192,42295,128,0,42455:0:0:0:0:
320,192,42455,128,0,42536:0:0:0:0:
448,192,42455,1,0,0:0:0:0:
192,192,42776,128,0,43097:0:0:0:0:
448,192,42937,1,0,0:0:0:0:
320,192,42937,1,0,0:0:0:0:
192,192,43258,128,0,43338:0:0:0:0:
192,192,43418,128,0,43659:0:0:0:0:
448,192,43418,1,0,0:0:0:0:
448,192,43578,1,0,0:0:0:0:
64,192,43739,128,0,43819:0:0:0:0:
192,192,43739,1,0,0:0:0:0:
320,192,43899,128,0,43980:0:0:0:0:
192,192,44060,128,0,44140:0:0:0:0:
448,192,44220,128,0,44300:0:0:0:0:
320,192,44220,1,0,0:0:0:0:
320,192,44381,128,0,44461:0:0:0:0:
448,192,44541,128,0,44621:0:0:0:0:
64,192,44701,128,0,44782:0:0:0:0:
320,192,44701,1,0,0:0:0:0:
192,192,44862,128,0,44942:0:0:0:0:
64,192,45022,128,0,45102:0:0:0:0:
192,192,45022,1,0,0:0:0:0:
320,192,45183,128,0,45263:0:0:0:0:
192,192,45343,128,0,45423:0:0:0:0:
448,192,45504,128,0,45584:0:0:0:0:
320,192,45504,1,0,0:0:0:0:
320,192,45664,128,0,45744:0:0:0:0:
448,192,45824,128,0,45905:0:0:0:0:
320,192,45824,1,0,0:0:0:0:
64,192,45985,128,0,46065:0:0:0:0:
448,192,45985,1,0,0:0:0:0:
448,192,46145,128,0,46225:0:0:0:0:
320,192,46145,1,0,0:0:0:0:
192,192,46306,128,0,46386:0:0:0:0:
64,192,46306,1,0,0:0:0:0:
64,192,46466,128,0,46546:0:0:0:0:
192,192,46627,1,0,0:0:0:0:
320,192,46787,128,0,46867:0:0:0:0:
448,192,46787,1,0,0:0:0:0:
64,192,46947,128,0,47028:0:0:0:0:
192,192,47108,1,0,0:0:0:0:
448,192,47268,128,0,47348:0:0:0:0:
64,192,47268,1,0,0:0:0:0:
192,192,47429,128,0,47509:0:0:0:0:
320,192,47589,1,0,0:0:0:0:
448,192,47589,1,0,0:0:0:0:
64,192,47750,1,0,0:0:0:0:
448,192,47830,1,0,0:0:0:0:
192,192,47910,128,0,47990:0:0:0:0:
320,192,48070,128,0,48151:0:0:0:0:
448,192,48070,1,0,0:0:0:0:
448,192,48231,128,0,48311:0:0:0:0:
64,192,48311,1,0,0:0:0:0:
320,192,48391,1,0,0:0:0:0:
448,192,48552,1,0,0:0:0:0:
64,192,48552,1,0,0:0:0:0:
448,192,48712,128,0,48792:0:0:0:0:
64,192,48873,128,0,49755:0:0:0:0:
192,192,48873,128,0,49113:0:0:0:0:
448,192,49033,1,0,0:0:0:0:
192,192,49193,128,0,50076:0:0:0:0:
448,192,49354,1,0,0:0:0:0:
320,192,49354,1,0,0:0:0:0:
320,192,49514,128,0,49594:0:0:0:0:
320,192,49675,1,0,0:0:0:0:
448,192,49835,128,0,49915:0:0:0:0:
64,192,49835,128,0,50076:0:0:0:0:
320,192,49996,1,0,0:0:0:0:
192,192,50156,128,0,50717:0:0:0:0:
64,192,50156,128,0,50397:0:0:0:0:
448,192,50316,1,0,0:0:0:0:
64,192,50477,128,0,50958:0:0:0:0:
320,192,50637,128,0,50717:0:0:0:0:
448,192,50637,1,0,0:0:0:0:
192,192,50798,128,0,50878:0:0:0:0:
448,192,50958,128,0,51038:0:0:0:0:
320,192,50958,1,0,0:0:0:0:
192,192,51038,1,0,0:0:0:0:
320,192,51119,1,0,0:0:0:0:
64,192,51119,1,0,0:0:0:0:
448,192,51199,1,0,0:0:0:0:
192,192,51279,1,0,0:0:0:0:
64,192,51359,1,0,0:0:0:0:
448,192,51439,1,0,0:0:0:0:
320,192,51439,1,0,0:0:0:0:
192,192,51480,1,0,0:0:0:0:
64,192,51520,1,0,0:0:0:0:
448,192,51600,1,0,0:0:0:0:
192,192,51680,1,0,0:0:0:0:
448,192,51760,1,0,0:0:0:0:
192,192,51840,1,0,0:0:0:0:
448,192,51921,1,0,0:0:0:0:
320,192,51921,1,0,0:0:0:0:
192,192,51961,1,0,0:0:0:0:
64,192,52001,1,0,0:0:0:0:
448,192,52081,1,0,0:0:0:0:
64,192,52161,1,0,0:0:0:0:
448,192,52242,1,0,0:0:0:0:
64,192,52322,1,0,0:0:0:0:
448,192,52402,1,0,0:0:0:0:
192,192,52402,1,0,0:0:0:0:
64,192,52442,1,0,0:0:0:0:
320,192,52482,1,0,0:0:0:0:
192,192,52562,1,0,0:0:0:0:
320,192,52643,1,0,0:0:0:0:
192,192,52723,1,0,0:0:0:0:
320,192,52803,1,0,0:0:0:0:
192,192,52883,1,0,0:0:0:0:
320,192,52963,1,0,0:0:0:0:
192,192,53044,1,0,0:0:0:0:
64,192,53044,1,0,0:0:0:0:
448,192,53084,1,0,0:0:0:0:
320,192,53124,1,0,0:0:0:0:
64,192,53204,1,0,0:0:0:0:
320,192,53284,1,0,0:0:0:0:
448,192,53365,1,0,0:0:0:0:
64,192,53365,1,0,0:0:0:0:
320,192,53405,1,0,0:0:0:0:
192,192,53445,1,0,0:0:0:0:
320,192,53525,1,0,0:0:0:0:
64,192,53605,1,0,0:0:0:0:
192,192,53685,1,0,0:0:0:0:
64,192,53766,1,0,0:0:0:0:
448,192,53846,1,0,0:0:0:0:
320,192,53846,1,0,0:0:0:0:
192,192,53886,1,0,0:0:0:0:
64,192,53926,1,0,0:0:0:0:
448,192,54006,1,0,0:0:0:0:
320,192,54006,1,0,0:0:0:0:
192,192,54046,1,0,0:0:0:0:
64,192,54086,1,0,0:0:0:0:
448,192,54167,1,0,0:0:0:0:
320,192,54247,1,0,0:0:0:0:
448,192,54327,1,0,0:0:0:0:
320,192,54407,1,0,0:0:0:0:
192,192,54488,1,0,0:0:0:0:
64,192,54488,1,0,0:0:0:0:
448,192,54528,1,0,0:0:0:0:
320,192,54568,1,0,0:0:0:0:
192,192,54648,1,0,0:0:0:0:
448,192,54728,1,0,0:0:0:0:
192,192,54808,1,0,0:0:0:0:
448,192,54889,1,0,0:0:0:0:
320,192,54969,1,0,0:0:0:0:
64,192,54969,1,0,0:0:0:0:
192,192,55009,1,0,0:0:0:0:
448,192,55049,1,0,0:0:0:0:
320,192,55129,1,0,0:0:0:0:
64,192,55209,1,0,0:0:0:0:
448,192,55290,1,0,0:0:0:0:
320,192,55290,1,0,0:0:0:0:
192,192,55330,1,0,0:0:0:0:
64,192,55370,1,0,0:0:0:0:
448,192,55450,1,0,0:0:0:0:
64,192,55530,1,0,0:0:0:0:
448,192,55611,1,0,0:0:0:0:
320,192,55651,1,0,0:0:0:0:
192,192,55691,1,0,0:0:0:0:
448,192,55771,1,0,0:0:0:0:
320,192,55771,1,0,0:0:0:0:
192,192,55851,1,0,0:0:0:0:
320,192,55931,1,0,0:0:0:0:
192,192,55971,1,0,0:0:0:0:
64,192,56012,1,0,0:0:0:0:
448,192,56092,1,0,0:0:0:0:
320,192,56092,1,0,0:0:0:0:
64,192,56172,1,0,0:0:0:0:
448,192,56252,1,0,0:0:0:0:
192,192,56252,1,0,0:0:0:0:
320,192,56292,1,0,0:0:0:0:
64,192,56332,1,0,0:0:0:0:
448,192,56413,1,0,0:0:0:0:
320,192,56413,1,0,0:0:0:0:
64,192,56493,1,0,0:0:0:0:
448,192,56573,128,0,56653:0:0:0:0:
320,192,56573,128,0,56734:0:0:0:0:
64,192,56734,1,0,0:0:0:0:
64,192,56894,1,0,0:0:0:0:
320,192,57054,128,0,57135:0:0:0:0:
448,192,57054,128,0,57215:0:0:0:0:
64,192,57215,1,0,0:0:0:0:
64,192,57375,1,0,0:0:0:0:
192,192,57536,128,0,57616:0:0:0:0:
448,192,57536,128,0,57696:0:0:0:0:
64,192,57696,1,0,0:0:0:0:
320,192,57857,1,0,0:0:0:0:
448,192,57857,1,0,0:0:0:0:
192,192,58017,1,0,0:0:0:0:
448,192,58097,128,0,58338:0:0:0:0:
64,192,58177,128,0,58258:0:0:0:0:
192,192,58338,1,0,0:0:0:0:
64,192,58338,1,0,0:0:0:0:
320,192,58498,128,0,58578:0:0:0:0:
64,192,58578,128,0,58739:0:0:0:0:
448,192,58659,128,0,58739:0:0:0:0:
320,192,58819,1,0,0:0:0:0:
64,192,58819,1,0,0:0:0:0:
320,192,58980,128,0,59140:0:0:0:0:
192,192,59140,128,0,59381:0:0:0:0:
64,192,59140,128,0,59300:0:0:0:0:
448,192,59140,128,0,59220:0:0:0:0:
320,192,59300,1,0,0:0:0:0:
64,192,59381,128,0,59541:0:0:0:0:
192,192,59461,128,0,59541:0:0:0:0:
448,192,59541,1,0,0:0:0:0:
192,192,59621,128,0,59862:0:0:0:0:
64,192,59621,128,0,60022:0:0:0:0:
320,192,59782,128,0,59862:0:0:0:0:
192,192,59942,128,0,60183:0:0:0:0:
448,192,60102,1,0,0:0:0:0:
64,192,60102,128,0,60504:0:0:0:0:
192,192,60263,128,0,61145:0:0:0:0:
448,192,60423,128,0,60504:0:0:0:0:
320,192,60423,1,0,0:0:0:0:
64,192,60584,128,0,60985:0:0:0:0:
320,192,60744,1,0,0:0:0:0:
320,192,61065,128,0,61145:0:0:0:0:
64,192,61065,128,0,61306:0:0:0:0:
192,192,61225,128,0,61707:0:0:0:0:
448,192,61386,1,0,0:0:0:0:
64,192,61386,128,0,61546:0:0:0:0:
320,192,61546,1,0,0:0:0:0:
64,192,61627,128,0,61707:0:0:0:0:
320,192,61707,128,0,61787:0:0:0:0:
448,192,61707,1,0,0:0:0:0:
192,192,61867,1,0,0:0:0:0:
64,192,61947,1,0,0:0:0:0:
192,192,62028,1,0,0:0:0:0:
320,192,62188,1,0,0:0:0:0:
448,192,62188,1,0,0:0:0:0:
192,192,62348,1,0,0:0:0:0:
64,192,62429,1,0,0:0:0:0:
192,192,62509,1,0,0:0:0:0:
448,192,62669,1,0,0:0:0:0:
64,192,62669,1,0,0:0:0:0:
320,192,62830,1,0,0:0:0:0:
192,192,62990,1,0,0:0:0:0:
448,192,63231,1,0,0:0:0:0:
192,192,63311,1,0,0:0:0:0:
64,192,63311,1,0,0:0:0:0:
320,192,63471,1,0,0:0:0:0:
448,192,63632,1,0,0:0:0:0:
64,192,63632,1,0,0:0:0:0:
192,192,63792,1,0,0:0:0:0:
64,192,63792,1,0,0:0:0:0:
448,192,63953,1,0,0:0:0:0:
320,192,64033,1,0,0:0:0:0:
448,192,64113,128,0,64274:0:0:0:0:
64,192,64274,128,0,65156:0:0:0:0:
192,192,64274,128,0,64514:0:0:0:0:
320,192,64434,128,0,64514:0:0:0:0:
192,192,64594,128,0,65316:0:0:0:0:
448,192,64755,128,0,64835:0:0:0:0:
320,192,64755,1,0,0:0:0:0:
320,192,64915,128,0,64996:0:0:0:0:
448,192,65076,128,0,65156:0:0:0:0:
64,192,65236,128,0,65477:0:0:0:0:
320,192,65236,1,0,0:0:0:0:
192,192,65397,128,0,65477:0:0:0:0:
320,192,65557,128,0,65637:0:0:0:0:
192,192,65557,128,0,65798:0:0:0:0:
320,192,65717,128,0,65958:0:0:0:0:
64,192,65798,1,0,0:0:0:0:
192,192,65878,128,0,66760:0:0:0:0:
448,192,66038,128,0,66119:0:0:0:0:
64,192,66038,128,0,66439:0:0:0:0:
320,192,66199,128,0,66279:0:0:0:0:
448,192,66359,128,0,66439:0:0:0:0:
320,192,66359,1,0,0:0:0:0:
64,192,66520,128,0,66760:0:0:0:0:
448,192,66520,1,0,0:0:0:0:
448,192,66680,128,0,66760:0:0:0:0:
320,192,66680,1,0,0:0:0:0:
192,192,66840,128,0,66921:0:0:0:0:
64,192,66840,1,0,0:0:0:0:
320,192,66881,1,0,0:0:0:0:
448,192,66921,1,0,0:0:0:0:
64,192,67001,128,0,67081:0:0:0:0:
192,192,67081,1,0,0:0:0:0:
64,192,67161,1,0,0:0:0:0:
192,192,67242,1,0,0:0:0:0:
320,192,67322,128,0,67402:0:0:0:0:
448,192,67322,1,0,0:0:0:0:
64,192,67362,1,0,0:0:0:0:
192,192,67402,1,0,0:0:0:0:
64,192,67482,128,0,67562:0:0:0:0:
320,192,67562,1,0,0:0:0:0:
64,192,67643,1,0,0:0:0:0:
320,192,67723,1,0,0:0:0:0:
448,192,67803,128,0,67883:0:0:0:0:
64,192,67803,1,0,0:0:0:0:
192,192,67843,1,0,0:0:0:0:
320,192,67883,1,0,0:0:0:0:
192,192,67963,128,0,68044:0:0:0:0:
192,192,68124,1,0,0:0:0:0:
64,192,68124,1,0,0:0:0:0:
320,192,68164,1,0,0:0:0:0:
448,192,68204,1,0,0:0:0:0:
192,192,68284,1,0,0:0:0:0:
448,192,68365,1,0,0:0:0:0:
64,192,68445,128,0,68525:0:0:0:0:
320,192,68445,1,0,0:0:0:0:
192,192,68605,128,0,68685:0:0:0:0:
64,192,68605,1,0,0:0:0:0:
448,192,68645,1,0,0:0:0:0:
320,192,68685,1,0,0:0:0:0:
448,192,68766,128,0,68846:0:0:0:0:
192,192,68846,1,0,0:0:0:0:
448,192,68926,1,0,0:0:0:0:
192,192,69006,1,0,0:0:0:0:
448,192,69086,1,0,0:0:0:0:
64,192,69086,1,0,0:0:0:0:
192,192,69127,1,0,0:0:0:0:
320,192,69167,1,0,0:0:0:0:
448,192,69247,128,0,69327:0:0:0:0:
320,192,69327,1,0,0:0:0:0:
64,192,69407,128,0,70290:0:0:0:0:
192,192,69407,128,0,69648:0:0:0:0:
448,192,69568,1,0,0:0:0:0:
192,192,69728,128,0,70931:0:0:0:0:
320,192,69889,1,0,0:0:0:0:
448,192,69889,1,0,0:0:0:0:
320,192,70049,128,0,70129:0:0:0:0:
448,192,70209,1,0,0:0:0:0:
448,192,70370,128,0,70450:0:0:0:0:
64,192,70370,128,0,70771:0:0:0:0:
448,192,70530,1,0,0:0:0:0:
320,192,70691,128,0,70771:0:0:0:0:
448,192,70691,1,0,0:0:0:0:
64,192,70851,128,0,71573:0:0:0:0:
192,192,71012,128,0,71413:0:0:0:0:
448,192,71172,128,0,71252:0:0:0:0:
320,192,71172,1,0,0:0:0:0:
320,192,71332,128,0,71413:0:0:0:0:
192,192,71493,128,0,71734:0:0:0:0:
320,192,71573,1,0,0:0:0:0:
64,192,71653,128,0,71734:0:0:0:0:
448,192,71653,1,0,0:0:0:0:
320,192,71734,1,0,0:0:0:0:
192,192,71814,1,0,0:0:0:0:
64,192,71814,1,0,0:0:0:0:
448,192,71894,1,0,0:0:0:0:
192,192,71974,1,0,0:0:0:0:
64,192,71974,1,0,0:0:0:0:
320,192,72054,1,0,0:0:0:0:
448,192,72135,1,0,0:0:0:0:
320,192,72215,1,0,0:0:0:0:
192,192,72295,1,0,0:0:0:0:
320,192,72375,1,0,0:0:0:0:
192,192,72455,1,0,0:0:0:0:
64,192,72536,1,0,0:0:0:0:
320,192,72616,1,0,0:0:0:0:
448,192,72696,1,0,0:0:0:0:
192,192,72776,1,0,0:0:0:0:
320,192,72857,1,0,0:0:0:0:
64,192,72937,1,0,0:0:0:0:
192,192,72937,1,0,0:0:0:0:
448,192,73017,1,0,0:0:0:0:
192,192,73097,1,0,0:0:0:0:
64,192,73097,1,0,0:0:0:0:
320,192,73177,1,0,0:0:0:0:
448,192,73258,1,0,0:0:0:0:
64,192,73258,1,0,0:0:0:0:
320,192,73338,1,0,0:0:0:0:
192,192,73418,1,0,0:0:0:0:
320,192,73498,1,0,0:0:0:0:
64,192,73578,1,0,0:0:0:0:
192,192,73659,1,0,0:0:0:0:
448,192,73739,1,0,0:0:0:0:
320,192,73739,1,0,0:0:0:0:
192,192,73819,1,0,0:0:0:0:
64,192,73899,1,0,0:0:0:0:
320,192,73980,1,0,0:0:0:0:
192,192,74060,1,0,0:0:0:0:
64,192,74060,1,0,0:0:0:0:
448,192,74140,1,0,0:0:0:0:
64,192,74220,1,0,0:0:0:0:
320,192,74220,1,0,0:0:0:0:
448,192,74300,1,0,0:0:0:0:
192,192,74381,1,0,0:0:0:0:
64,192,74381,1,0,0:0:0:0:
320,192,74461,1,0,0:0:0:0:
64,192,74541,128,0,74621:0:0:0:0:
192,192,74541,1,0,0:0:0:0:
448,192,74621,1,0,0:0:0:0:
320,192,74701,128,0,74782:0:0:0:0:
64,192,74782,1,0,0:0:0:0:
192,192,74862,128,0,74942:0:0:0:0:
64,192,74942,1,0,0:0:0:0:
448,192,75022,128,0,75102:0:0:0:0:
320,192,75022,1,0,0:0:0:0:
192,192,75102,1,0,0:0:0:0:
320,192,75183,128,0,75263:0:0:0:0:
64,192,75263,1,0,0:0:0:0:
448,192,75343,128,0,75423:0:0:0:0:
192,192,75423,1,0,0:0:0:0:
64,192,75504,128,0,75584:0:0:0:0:
448,192,75504,1,0,0:0:0:0:
320,192,75584,1,0,0:0:0:0:
192,192,75664,128,0,75744:0:0:0:0:
448,192,75744,1,0,0:0:0:0:
64,192,75824,128,0,75985:0:0:0:0:
192,192,75824,128,0,76065:0:0:0:0:
448,192,75905,1,0,0:0:0:0:
320,192,75985,128,0,76065:0:0:0:0:
64,192,76065,128,0,76145:0:0:0:0:
192,192,76145,128,0,76386:0:0:0:0:
64,192,76225,128,0,76306:0:0:0:0:
448,192,76306,128,0,76386:0:0:0:0:
320,192,76306,1,0,0:0:0:0:
64,192,76386,1,0,0:0:0:0:
320,192,76466,128,0,76546:0:0:0:0:
192,192,76546,1,0,0:0:0:0:
448,192,76627,128,0,76707:0:0:0:0:
320,192,76627,1,0,0:0:0:0:
192,192,76707,1,0,0:0:0:0:
64,192,76787,128,0,76867:0:0:0:0:
448,192,76787,1,0,0:0:0:0:
192,192,76867,1,0,0:0:0:0:
448,192,76947,128,0,77028:0:0:0:0:
320,192,76947,1,0,0:0:0:0:
192,192,77108,128,0,77188:0:0:0:0:
64,192,77108,128,0,77268:0:0:0:0:
320,192,77188,1,0,0:0:0:0:
448,192,77268,1,0,0:0:0:0:
64,192,77348,1,0,0:0:0:0:
448,192,77429,1,0,0:0:0:0:
64,192,77509,1,0,0:0:0:0:
192,192,77589,128,0,77669:0:0:0:0:
320,192,77589,128,0,77750:0:0:0:0:
448,192,77669,1,0,0:0:0:0:
64,192,77750,1,0,0:0:0:0:
320,192,77830,1,0,0:0:0:0:
192,192,77910,1,0,0:0:0:0:
320,192,77990,1,0,0:0:0:0:
448,192,78070,128,0,78231:0:0:0:0:
192,192,78070,128,0,78151:0:0:0:0:
64,192,78151,1,0,0:0:0:0:
320,192,78231,1,0,0:0:0:0:
448,192,78311,1,0,0:0:0:0:
192,192,78391,1,0,0:0:0:0:
64,192,78391,1,0,0:0:0:0:
448,192,78471,1,0,0:0:0:0:
320,192,78552,1,0,0:0:0:0:
192,192,78632,1,0,0:0:0:0:
320,192,78712,128,0,78792:0:0:0:0:
64,192,78712,128,0,78873:0:0:0:0:
192,192,78792,1,0,0:0:0:0:
448,192,78873,1,0,0:0:0:0:
320,192,78873,1,0,0:0:0:0:
192,192,79033,128,0,79113:0:0:0:0:
448,192,79033,128,0,79113:0:0:0:0:
320,192,79113,1,0,0:0:0:0:
64,192,79193,128,0,79274:0:0:0:0:
448,192,79193,128,0,79274:0:0:0:0:
448,192,79354,1,0,0:0:0:0:
192,192,79354,1,0,0:0:0:0:
192,192,79514,128,0,79594:0:0:0:0:
64,192,79514,128,0,79594:0:0:0:0:
448,192,79675,128,0,80076:0:0:0:0:
320,192,79675,128,0,79835:0:0:0:0:
192,192,79755,1,0,0:0:0:0:
64,192,79835,1,0,0:0:0:0:
320,192,79915,128,0,80076:0:0:0:0:
64,192,79996,128,0,80076:0:0:0:0:
192,192,80076,1,0,0:0:0:0:
320,192,80156,128,0,80397:0:0:0:0:
448,192,80156,128,0,80316:0:0:0:0:
64,192,80236,1,0,0:0:0:0:
192,192,80316,128,0,80397:0:0:0:0:
448,192,80397,128,0,80637:0:0:0:0:
320,192,80477,128,0,80557:0:0:0:0:
192,192,80557,1,0,0:0:0:0:
320,192,80637,128,0,80958:0:0:0:0:
64,192,80637,1,0,0:0:0:0:
448,192,80717,128,0,80878:0:0:0:0:
192,192,80798,1,0,0:0:0:0:
64,192,80878,1,0,0:0:0:0:
448,192,80958,128,0,81038:0:0:0:0:
192,192,81038,1,0,0:0:0:0:
320,192,81119,1,0,0:0:0:0:
64,192,81199,1,0,0:0:0:0:
448,192,81279,1,0,0:0:0:0:
64,192,81359,1,0,0:0:0:0:
320,192,81439,128,0,81520:0:0:0:0:
192,192,81520,1,0,0:0:0:0:
448,192,81600,1,0,0:0:0:0:
320,192,81680,1,0,0:0:0:0:
192,192,81760,1,0,0:0:0:0:
448,192,81840,1,0,0:0:0:0:
64,192,81921,128,0,82001:0:0:0:0:
320,192,82001,1,0,0:0:0:0:
448,192,82081,1,0,0:0:0:0:
192,192,82161,1,0,0:0:0:0:
64,192,82242,128,0,82402:0:0:0:0:
320,192,82242,128,0,82402:0:0:0:0:
448,192,82242,128,0,82402:0:0:0:0:
192,192,82562,128,0,82643:0:0:0:0:
64,192,82723,128,0,82803:0:0:0:0:
320,192,82723,1,0,0:0:0:0:
448,192,82723,1,0,0:0:0:0:
192,192,82883,128,0,82963:0:0:0:0:
192,192,83044,128,0,83124:0:0:0:0:
448,192,83204,1,0,0:0:0:0:
64,192,83204,1,0,0:0:0:0:
192,192,83365,128,0,83445:0:0:0:0:
64,192,83525,128,0,83605:0:0:0:0:
64,192,83846,128,0,83926:0:0:0:0:
448,192,83846,1,0,0:0:0:0:
320,192,83846,1,0,0:0:0:0:
192,192,84006,128,0,84086:0:0:0:0:
64,192,84167,128,0,84247:0:0:0:0:
448,192,84167,1,0,0:0:0:0:
64,192,84327,128,0,84407:0:0:0:0:
320,192,84327,1,0,0:0:0:0:
448,192,84327,1,0,0:0:0:0:
64,192,84648,128,0,84728:0:0:0:0:
320,192,84648,1,0,0:0:0:0:
448,192,84648,1,0,0:0:0:0:
64,192,84808,128,0,84889:0:0:0:0:
320,192,84808,128,0,84889:0:0:0:0:
448,192,84808,128,0,85049:0:0:0:0:
320,192,84969,128,0,85209:0:0:0:0:
192,192,85049,128,0,85129:0:0:0:0:
448,192,85129,128,0,85209:0:0:0:0:
192,192,85290,128,0,85370:0:0:0:0:
320,192,85290,128,0,85530:0:0:0:0:
448,192,85290,128,0,85370:0:0:0:0:
64,192,85450,128,0,85530:0:0:0:0:
448,192,85450,128,0,85691:0:0:0:0:
192,192,85611,128,0,85691:0:0:0:0:
320,192,85611,128,0,86172:0:0:0:0:
64,192,85771,1,0,0:0:0:0:
448,192,85771,128,0,85851:0:0:0:0:
192,192,85931,128,0,86012:0:0:0:0:
448,192,85931,128,0,86012:0:0:0:0:
192,192,86092,128,0,86413:0:0:0:0:
448,192,86092,128,0,86332:0:0:0:0:
320,192,86252,128,0,86332:0:0:0:0:
64,192,86413,128,0,86493:0:0:0:0:
320,192,86413,128,0,86653:0:0:0:0:
448,192,86413,128,0,86493:0:0:0:0:
192,192,86573,128,0,86653:0:0:0:0:
448,192,86573,128,0,86814:0:0:0:0:
64,192,86734,1,0,0:0:0:0:
320,192,86734,128,0,86814:0:0:0:0:
320,192,86894,128,0,86974:0:0:0:0:
448,192,86894,128,0,86974:0:0:0:0:
64,192,87054,128,0,87135:0:0:0:0:
320,192,87054,128,0,87295:0:0:0:0:
448,192,87054,128,0,87135:0:0:0:0:
192,192,87215,128,0,87295:0:0:0:0:
448,192,87215,128,0,87295:0:0:0:0:
448,192,87375,1,0,0:0:0:0:
320,192,87375,1,0,0:0:0:0:
64,192,87375,128,0,87455:0:0:0:0:
448,192,87536,1,0,0:0:0:0:
192,192,87696,128,0,87776:0:0:0:0:
64,192,87857,128,0,87937:0:0:0:0:
320,192,87857,1,0,0:0:0:0:
448,192,87857,1,0,0:0:0:0:
192,192,88017,128,0,88097:0:0:0:0:
192,192,88177,128,0,88258:0:0:0:0:
64,192,88338,1,0,0:0:0:0:
320,192,88338,128,0,88498:0:0:0:0:
192,192,88498,128,0,88578:0:0:0:0:
448,192,88659,128,0,88819:0:0:0:0:
192,192,88980,128,0,89060:0:0:0:0:
320,192,88980,1,0,0:0:0:0:
448,192,88980,1,0,0:0:0:0:
64,192,89140,128,0,89220:0:0:0:0:
64,192,89300,128,0,89942:0:0:0:0:
448,192,89300,1,0,0:0:0:0:
320,192,89461,1,0,0:0:0:0:
448,192,89461,1,0,0:0:0:0:
320,192,89782,1,0,0:0:0:0:
448,192,89782,1,0,0:0:0:0:
320,192,89942,128,0,90183:0:0:0:0:
448,192,89942,128,0,90022:0:0:0:0:
448,192,90102,128,0,90343:0:0:0:0:
192,192,90183,128,0,90263:0:0:0:0:
320,192,90263,128,0,90343:0:0:0:0:
192,192,90423,128,0,90504:0:0:0:0:
320,192,90423,128,0,90985:0:0:0:0:
448,192,90423,128,0,90824:0:0:0:0:
192,192,90584,128,0,90664:0:0:0:0:
192,192,90744,128,0,90824:0:0:0:0:
192,192,90905,128,0,90985:0:0:0:0:
448,192,90905,128,0,91306:0:0:0:0:
192,192,91065,128,0,91145:0:0:0:0:
320,192,91065,128,0,91145:0:0:0:0:
192,192,91225,128,0,91306:0:0:0:0:
320,192,91225,128,0,91466:0:0:0:0:
64,192,91386,1,0,0:0:0:0:
448,192,91386,128,0,91466:0:0:0:0:
320,192,91546,128,0,91947:0:0:0:0:
448,192,91546,128,0,91787:0:0:0:0:
192,192,91707,128,0,91787:0:0:0:0:
64,192,91867,1,0,0:0:0:0:
448,192,91867,128,0,91947:0:0:0:0:
320,192,92028,128,0,92108:0:0:0:0:
448,192,92028,128,0,92108:0:0:0:0:
192,192,92108,1,0,0:0:0:0:
448,192,92188,128,0,92348:0:0:0:0:
320,192,92188,128,0,92268:0:0:0:0:
64,192,92268,1,0,0:0:0:0:
192,192,92348,1,0,0:0:0:0:
320,192,92348,128,0,92509:0:0:0:0:
448,192,92429,128,0,92509:0:0:0:0:
192,192,92509,1,0,0:0:0:0:
64,192,92509,1,0,0:0:0:0:
64,192,92669,1,0,0:0:0:0:
192,192,92830,1,0,0:0:0:0:
320,192,92990,1,0,0:0:0:0:
448,192,93070,1,0,0:0:0:0:
64,192,93151,1,0,0:0:0:0:
320,192,93231,1,0,0:0:0:0:
192,192,93311,1,0,0:0:0:0:
320,192,93391,1,0,0:0:0:0:
448,192,93471,1,0,0:0:0:0:
64,192,93632,1,0,0:0:0:0:
320,192,93792,1,0,0:0:0:0:
448,192,93953,5,0,0:0:0:0:
192,192,94033,1,0,0:0:0:0:
320,192,94113,1,0,0:0:0:0:
448,192,94193,1,0,0:0:0:0:
192,192,94274,1,0,0:0:0:0:
320,192,94354,1,0,0:0:0:0:
64,192,94434,1,0,0:0:0:0:
192,192,94514,1,0,0:0:0:0:
448,192,94594,1,0,0:0:0:0:
320,192,94675,1,0,0:0:0:0:
192,192,94755,1,0,0:0:0:0:
320,192,94915,1,0,0:0:0:0:
64,192,95076,128,0,95156:0:0:0:0:
192,192,95076,1,0,0:0:0:0:
320,192,95236,128,0,95316:0:0:0:0:
64,192,95316,1,0,0:0:0:0:
192,192,95397,128,0,95477:0:0:0:0:
320,192,95477,1,0,0:0:0:0:
448,192,95557,128,0,95637:0:0:0:0:
64,192,95637,1,0,0:0:0:0:
320,192,95717,128,0,95798:0:0:0:0:
448,192,95878,128,0,95958:0:0:0:0:
64,192,96038,128,0,96119:0:0:0:0:
192,192,96199,128,0,96279:0:0:0:0:
64,192,96359,128,0,96439:0:0:0:0:
448,192,96439,1,0,0:0:0:0:
320,192,96520,128,0,96600:0:0:0:0:
64,192,96600,1,0,0:0:0:0:
192,192,96680,128,0,96760:0:0:0:0:
320,192,96760,1,0,0:0:0:0:
448,192,96840,128,0,96921:0:0:0:0:
192,192,96921,1,0,0:0:0:0:
320,192,97001,128,0,97081:0:0:0:0:
64,192,97081,1,0,0:0:0:0:
448,192,97161,128,0,97242:0:0:0:0:
320,192,97242,1,0,0:0:0:0:
64,192,97322,128,0,97402:0:0:0:0:
192,192,97402,1,0,0:0:0:0:
448,192,97482,128,0,97562:0:0:0:0:
64,192,97562,1,0,0:0:0:0:
448,192,97643,128,0,100129:0:0:0:0:
320,192,97643,128,0,97723:0:0:0:0:
320,192,97803,128,0,97883:0:0:0:0:
192,192,97883,128,0,97963:0:0:0:0:
320,192,97963,128,0,98044:0:0:0:0:
192,192,98044,128,0,98525:0:0:0:0:
320,192,98124,128,0,98204:0:0:0:0:
320,192,98284,128,0,98365:0:0:0:0:
320,192,98445,128,0,98525:0:0:0:0:
320,192,98605,128,0,98685:0:0:0:0:
192,192,98605,128,0,98846:0:0:0:0:
320,192,98766,128,0,98846:0:0:0:0:
192,192,98926,128,0,99167:0:0:0:0:
320,192,98926,128,0,99006:0:0:0:0:
320,192,99086,128,0,99167:0:0:0:0:
192,192,99247,128,0,99969:0:0:0:0:
320,192,99247,128,0,99327:0:0:0:0:
320,192,99407,128,0,99488:0:0:0:0:
320,192,99568,128,0,99648:0:0:0:0:
64,192,99728,128,0,99808:0:0:0:0:
320,192,99728,128,0,99808:0:0:0:0:
64,192,99889,128,0,99969:0:0:0:0:
320,192,99889,128,0,99969:0:0:0:0:
192,192,100049,128,0,100209:0:0:0:0:
64,192,100049,128,0,100129:0:0:0:0:
320,192,100049,128,0,100129:0:0:0:0:
64,192,100209,128,0,100771:0:0:0:0:
320,192,100209,128,0,100771:0:0:0:0:
448,192,100209,128,0,100290:0:0:0:0:
448,192,100370,128,0,100450:0:0:0:0:
192,192,100530,128,0,101252:0:0:0:0:
448,192,100530,128,0,100611:0:0:0:0:
448,192,100691,128,0,100771:0:0:0:0:
320,192,100851,128,0,101493:0:0:0:0:
448,192,100851,128,0,100931:0:0:0:0:
64,192,100851,128,0,101413:0:0:0:0:
448,192,101012,128,0,101092:0:0:0:0:
448,192,101172,128,0,101252:0:0:0:0:
192,192,101332,128,0,101493:0:0:0:0:
448,192,101332,128,0,101413:0:0:0:0:
64,192,101493,128,0,101894:0:0:0:0:
448,192,101493,128,0,101573:0:0:0:0:
320,192,101734,128,0,101814:0:0:0:0:
64,192,101974,128,0,102215:0:0:0:0:
192,192,101974,128,0,102054:0:0:0:0:
320,192,102135,128,0,102215:0:0:0:0:
64,192,102295,128,0,102375:0:0:0:0:
192,192,102295,128,0,102375:0:0:0:0:
64,192,102455,128,0,102616:0:0:0:0:
448,192,102455,128,0,102536:0:0:0:0:
448,192,102616,128,0,102696:0:0:0:0:
320,192,102616,1,0,0:0:0:0:
448,192,102776,128,0,103017:0:0:0:0:
320,192,102776,1,0,0:0:0:0:
192,192,102857,1,0,0:0:0:0:
64,192,102937,1,0,0:0:0:0:
320,192,103017,1,0,0:0:0:0:
64,192,103097,1,0,0:0:0:0:
448,192,103097,128,0,103338:0:0:0:0:
320,192,103177,1,0,0:0:0:0:
64,192,103258,1,0,0:0:0:0:
192,192,103338,1,0,0:0:0:0:
448,192,103418,128,0,103498:0:0:0:0:
64,192,103498,1,0,0:0:0:0:
320,192,103578,1,0,0:0:0:0:
448,192,103578,128,0,103659:0:0:0:0:
64,192,103659,1,0,0:0:0:0:
192,192,103739,1,0,0:0:0:0:
448,192,103739,128,0,103819:0:0:0:0:
64,192,103899,1,0,0:0:0:0:
64,192,103980,1,0,0:0:0:0:
320,192,104060,1,0,0:0:0:0:
448,192,104060,1,0,0:0:0:0:
320,192,104140,1,0,0:0:0:0:
192,192,104220,1,0,0:0:0:0:
192,192,104300,1,0,0:0:0:0:
64,192,104381,1,0,0:0:0:0:
448,192,104381,128,0,104701:0:0:0:0:
320,192,104541,1,0,0:0:0:0:
192,192,104621,1,0,0:0:0:0:
64,192,104701,1,0,0:0:0:0:
64,192,104862,1,0,0:0:0:0:
192,192,104862,1,0,0:0:0:0:
320,192,104942,1,0,0:0:0:0:
64,192,105022,1,0,0:0:0:0:
448,192,105022,128,0,105102:0:0:0:0:
448,192,105183,128,0,105263:0:0:0:0:
64,192,105343,128,0,105423:0:0:0:0:
192,192,105343,128,0,105504:0:0:0:0:
320,192,105504,128,0,105584:0:0:0:0:
192,192,105584,128,0,105905:0:0:0:0:
448,192,105664,1,0,0:0:0:0:
64,192,105664,128,0,105744:0:0:0:0:
320,192,105824,128,0,105905:0:0:0:0:
64,192,105905,1,0,0:0:0:0:
192,192,105985,128,0,106065:0:0:0:0:
64,192,106065,128,0,106306:0:0:0:0:
448,192,106145,128,0,106225:0:0:0:0:
320,192,106225,1,0,0:0:0:0:
192,192,106306,128,0,106386:0:0:0:0:
448,192,106306,1,0,0:0:0:0:
64,192,106386,128,0,106546:0:0:0:0:
448,192,106466,128,0,106546:0:0:0:0:
320,192,106466,1,0,0:0:0:0:
64,192,106627,128,0,106947:0:0:0:0:
192,192,106627,1,0,0:0:0:0:
448,192,106707,1,0,0:0:0:0:
320,192,106787,128,0,106867:0:0:0:0:
448,192,106867,1,0,0:0:0:0:
192,192,106947,128,0,107028:0:0:0:0:
320,192,106947,1,0,0:0:0:0:
64,192,107028,128,0,107108:0:0:0:0:
448,192,107108,128,0,107188:0:0:0:0:
320,192,107108,1,0,0:0:0:0:
64,192,107188,128,0,107348:0:0:0:0:
320,192,107268,128,0,107348:0:0:0:0:
192,192,107348,1,0,0:0:0:0:
448,192,107429,128,0,107509:0:0:0:0:
64,192,107429,128,0,107509:0:0:0:0:
320,192,107509,1,0,0:0:0:0:
64,192,107589,128,0,107750:0:0:0:0:
192,192,107589,1,0,0:0:0:0:
320,192,107669,1,0,0:0:0:0:
448,192,107750,128,0,107830:0:0:0:0:
320,192,107830,1,0,0:0:0:0:
192,192,107910,128,0,107990:0:0:0:0:
64,192,107910,1,0,0:0:0:0:
448,192,107990,1,0,0:0:0:0:
192,192,108070,128,0,108231:0:0:0:0:
320,192,108151,1,0,0:0:0:0:
64,192,108231,1,0,0:0:0:0:
192,192,108311,128,0,108471:0:0:0:0:
448,192,108391,1,0,0:0:0:0:
320,192,108391,1,0,0:0:0:0:
448,192,108552,1,0,0:0:0:0:
192,192,108552,128,0,108712:0:0:0:0:
320,192,108632,1,0,0:0:0:0:
64,192,108712,1,0,0:0:0:0:
192,192,108792,128,0,108873:0:0:0:0:
320,192,108873,1,0,0:0:0:0:
448,192,108873,128,0,109033:0:0:0:0:
64,192,108953,1,0,0:0:0:0:
192,192,109033,1,0,0:0:0:0:
448,192,109113,128,0,109274:0:0:0:0:
64,192,109193,1,0,0:0:0:0:
320,192,109274,1,0,0:0:0:0:
448,192,109354,128,0,109434:0:0:0:0:
64,192,109434,1,0,0:0:0:0:
320,192,109514,1,0,0:0:0:0:
448,192,109514,128,0,109594:0:0:0:0:
192,192,109594,1,0,0:0:0:0:
320,192,109675,1,0,0:0:0:0:
448,192,109675,128,0,109755:0:0:0:0:
192,192,109755,1,0,0:0:0:0:
64,192,109835,1,0,0:0:0:0:
448,192,109835,128,0,109996:0:0:0:0:
192,192,109996,1,0,0:0:0:0:
320,192,110076,1,0,0:0:0:0:
448,192,110076,128,0,110236:0:0:0:0:
192,192,110156,1,0,0:0:0:0:
64,192,110316,1,0,0:0:0:0:
448,192,110316,128,0,110477:0:0:0:0:
64,192,110477,128,0,110557:0:0:0:0:
320,192,110477,128,0,110557:0:0:0:0:
448,192,110717,1,0,0:0:0:0:
192,192,110798,1,0,0:0:0:0:
192,192,110958,128,0,111038:0:0:0:0:
320,192,110958,128,0,111038:0:0:0:0:
448,192,111119,1,0,0:0:0:0:
192,192,111119,128,0,111680:0:0:0:0:
64,192,111279,1,0,0:0:0:0:
320,192,111439,128,0,111520:0:0:0:0:
448,192,111439,128,0,111520:0:0:0:0:
448,192,111600,1,0,0:0:0:0:
320,192,111680,1,0,0:0:0:0:
192,192,111760,1,0,0:0:0:0:
64,192,111760,1,0,0:0:0:0:
192,192,111921,128,0,112001:0:0:0:0:
320,192,111921,128,0,112001:0:0:0:0:
64,192,112081,1,0,0:0:0:0:
192,192,112161,1,0,0:0:0:0:
448,192,112242,1,0,0:0:0:0:
320,192,112242,1,0,0:0:0:0:
192,192,112322,1,0,0:0:0:0:
64,192,112402,128,0,112482:0:0:0:0:
320,192,112402,128,0,112482:0:0:0:0:
448,192,112562,1,0,0:0:0:0:
320,192,112643,1,0,0:0:0:0:
192,192,112723,1,0,0:0:0:0:
64,192,112723,1,0,0:0:0:0:
64,192,112883,128,0,112963:0:0:0:0:
320,192,112883,128,0,112963:0:0:0:0:
64,192,113044,128,0,113204:0:0:0:0:
448,192,113044,128,0,113124:0:0:0:0:
192,192,113284,1,0,0:0:0:0:
64,192,113365,128,0,113525:0:0:0:0:
448,192,113365,1,0,0:0:0:0:
320,192,113525,128,0,113605:0:0:0:0:
64,192,113685,1,0,0:0:0:0:
448,192,113685,128,0,113846:0:0:0:0:
320,192,113846,1,0,0:0:0:0:
192,192,113926,1,0,0:0:0:0:
64,192,114006,128,0,114086:0:0:0:0:
448,192,114006,128,0,114167:0:0:0:0:
192,192,114167,1,0,0:0:0:0:
192,192,114247,1,0,0:0:0:0:
448,192,114327,1,0,0:0:0:0:
64,192,114327,128,0,114488:0:0:0:0:
320,192,114407,1,0,0:0:0:0:
320,192,114488,1,0,0:0:0:0:
192,192,114568,1,0,0:0:0:0:
64,192,114648,128,0,114728:0:0:0:0:
448,192,114648,128,0,114889:0:0:0:0:
320,192,114728,1,0,0:0:0:0:
192,192,114808,1,0,0:0:0:0:
320,192,114889,1,0,0:0:0:0:
64,192,114969,1,0,0:0:0:0:
448,192,114969,128,0,115129:0:0:0:0:
64,192,115129,128,0,115209:0:0:0:0:
192,192,115129,1,0,0:0:0:0:
192,192,115209,1,0,0:0:0:0:
448,192,115290,1,0,0:0:0:0:
64,192,115290,128,0,115450:0:0:0:0:
448,192,115450,128,0,115530:0:0:0:0:
320,192,115611,128,0,115691:0:0:0:0:
448,192,115611,128,0,115851:0:0:0:0:
192,192,115771,128,0,115851:0:0:0:0:
320,192,115851,1,0,0:0:0:0:
64,192,115931,128,0,116012:0:0:0:0:
448,192,115931,128,0,116092:0:0:0:0:
320,192,116012,1,0,0:0:0:0:
192,192,116092,128,0,116172:0:0:0:0:
448,192,116172,128,0,116252:0:0:0:0:
320,192,116252,128,0,116493:0:0:0:0:
64,192,116332,1,0,0:0:0:0:
448,192,116413,128,0,116493:0:0:0:0:
64,192,116493,1,0,0:0:0:0:
320,192,116573,128,0,116653:0:0:0:0:
192,192,116573,1,0,0:0:0:0:
448,192,116734,128,0,116814:0:0:0:0:
320,192,116734,128,0,116974:0:0:0:0:
64,192,116894,128,0,116974:0:0:0:0:
192,192,116894,1,0,0:0:0:0:
448,192,116974,1,0,0:0:0:0:
320,192,117054,128,0,117135:0:0:0:0:
448,192,117135,1,0,0:0:0:0:
192,192,117215,128,0,117295:0:0:0:0:
320,192,117215,128,0,117295:0:0:0:0:
448,192,117375,128,0,117455:0:0:0:0:
320,192,117375,128,0,117455:0:0:0:0:
320,192,117536,128,0,117696:0:0:0:0:
448,192,117696,128,0,117776:0:0:0:0:
192,192,117696,1,0,0:0:0:0:
320,192,117776,128,0,117937:0:0:0:0:
64,192,117857,128,0,117937:0:0:0:0:
192,192,117857,1,0,0:0:0:0:
448,192,118017,128,0,118097:0:0:0:0:
320,192,118017,128,0,118177:0:0:0:0:
192,192,118177,128,0,118258:0:0:0:0:
64,192,118177,128,0,118659:0:0:0:0:
448,192,118258,1,0,0:0:0:0:
320,192,118338,1,0,0:0:0:0:
448,192,118418,1,0,0:0:0:0:
192,192,118498,1,0,0:0:0:0:
448,192,118578,1,0,0:0:0:0:
192,192,118659,128,0,118739:0:0:0:0:
320,192,118659,128,0,118739:0:0:0:0:
64,192,118739,128,0,118819:0:0:0:0:
192,192,118819,1,0,0:0:0:0:
448,192,118819,1,0,0:0:0:0:
64,192,118899,128,0,118980:0:0:0:0:
320,192,118980,1,0,0:0:0:0:
64,192,119060,128,0,119140:0:0:0:0:
320,192,119140,128,0,119220:0:0:0:0:
448,192,119140,128,0,119461:0:0:0:0:
192,192,119220,1,0,0:0:0:0:
64,192,119300,1,0,0:0:0:0:
320,192,119381,1,0,0:0:0:0:
64,192,119461,1,0,0:0:0:0:
448,192,119541,128,0,119701:0:0:0:0:
192,192,119621,128,0,119701:0:0:0:0:
320,192,119621,128,0,119701:0:0:0:0:
64,192,119701,128,0,119782:0:0:0:0:
448,192,119782,1,0,0:0:0:0:
320,192,119782,1,0,0:0:0:0:
64,192,119862,128,0,120022:0:0:0:0:
448,192,119942,1,0,0:0:0:0:
192,192,120022,1,0,0:0:0:0:
64,192,120102,128,0,120343:0:0:0:0:
320,192,120102,128,0,120183:0:0:0:0:
448,192,120183,1,0,0:0:0:0:
192,192,120263,1,0,0:0:0:0:
320,192,120343,1,0,0:0:0:0:
64,192,120423,128,0,120504:0:0:0:0:
448,192,120504,1,0,0:0:0:0:
192,192,120584,1,0,0:0:0:0:
64,192,120584,128,0,120664:0:0:0:0:
320,192,120664,1,0,0:0:0:0:
64,192,120744,128,0,120905:0:0:0:0:
192,192,120744,128,0,120905:0:0:0:0:
320,192,120985,1,0,0:0:0:0:
192,192,121065,128,0,121145:0:0:0:0:
64,192,121065,1,0,0:0:0:0:
448,192,121225,1,0,0:0:0:0:
64,192,121306,1,0,0:0:0:0:
320,192,121386,128,0,121466:0:0:0:0:
448,192,121386,128,0,121627:0:0:0:0:
192,192,121466,1,0,0:0:0:0:
64,192,121546,1,0,0:0:0:0:
192,192,121627,1,0,0:0:0:0:
320,192,121707,1,0,0:0:0:0:
448,192,121707,128,0,121947:0:0:0:0:
64,192,121867,1,0,0:0:0:0:
320,192,122028,128,0,122108:0:0:0:0:
448,192,122028,1,0,0:0:0:0:
448,192,122188,1,0,0:0:0:0:
192,192,122348,128,0,122429:0:0:0:0:
64,192,122348,1,0,0:0:0:0:
320,192,122509,1,0,0:0:0:0:
448,192,122589,128,0,122830:0:0:0:0:
64,192,122669,128,0,122750:0:0:0:0:
192,192,122669,1,0,0:0:0:0:
64,192,122830,1,0,0:0:0:0:
320,192,122910,1,0,0:0:0:0:
448,192,122910,1,0,0:0:0:0:
192,192,122990,128,0,123070:0:0:0:0:
448,192,123151,128,0,123231:0:0:0:0:
320,192,123151,1,0,0:0:0:0:
320,192,123311,128,0,123471:0:0:0:0:
448,192,123311,128,0,123471:0:0:0:0:
64,192,123311,128,0,123471:0:0:0:0:
192,192,123632,128,0,123712:0:0:0:0:
64,192,123792,128,0,123873:0:0:0:0:
192,192,123953,128,0,124033:0:0:0:0:
192,192,124113,128,0,124193:0:0:0:0:
192,192,124274,128,0,124354:0:0:0:0:
192,192,124434,128,0,124514:0:0:0:0:
64,192,124594,128,0,124675:0:0:0:0:
192,192,124915,128,0,124996:0:0:0:0:
64,192,125076,128,0,125717:0:0:0:0:
192,192,125717,128,0,125798:0:0:0:0:
320,192,125878,128,0,126038:0:0:0:0:
448,192,125878,128,0,126038:0:0:0:0:
64,192,125878,128,0,125958:0:0:0:0:
192,192,126119,128,0,126199:0:0:0:0:
320,192,126199,128,0,126279:0:0:0:0:
320,192,126359,128,0,126520:0:0:0:0:
448,192,126359,128,0,126520:0:0:0:0:
64,192,126359,128,0,126439:0:0:0:0:
192,192,126520,128,0,126600:0:0:0:0:
64,192,126680,128,0,126760:0:0:0:0:
192,192,126840,128,0,126921:0:0:0:0:
320,192,126840,128,0,127001:0:0:0:0:
64,192,127001,128,0,127081:0:0:0:0:
192,192,127161,128,0,127242:0:0:0:0:
64,192,127482,128,0,127562:0:0:0:0:
320,192,127482,128,0,127643:0:0:0:0:
448,192,127482,128,0,127643:0:0:0:0:
192,192,127643,128,0,127723:0:0:0:0:
64,192,127803,128,0,127883:0:0:0:0:
448,192,127803,1,0,0:0:0:0:
192,192,127963,128,0,128044:0:0:0:0:
320,192,127963,128,0,128044:0:0:0:0:
448,192,127963,128,0,128044:0:0:0:0:
192,192,128124,128,0,128204:0:0:0:0:
320,192,128124,128,0,128204:0:0:0:0:
448,192,128124,128,0,128204:0:0:0:0:
192,192,128284,128,0,128365:0:0:0:0:
448,192,128284,128,0,128365:0:0:0:0:
448,192,128445,128,0,128846:0:0:0:0:
320,192,128445,128,0,128605:0:0:0:0:
192,192,128445,128,0,128525:0:0:0:0:
64,192,128766,128,0,128846:0:0:0:0:
320,192,128926,128,0,129086:0:0:0:0:
448,192,128926,128,0,129086:0:0:0:0:
192,192,129086,128,0,129167:0:0:0:0:
64,192,129247,128,0,129327:0:0:0:0:
192,192,129407,128,0,129488:0:0:0:0:
448,192,129407,128,0,129568:0:0:0:0:
192,192,129568,128,0,129648:0:0:0:0:
192,192,129728,128,0,129808:0:0:0:0:
448,192,129889,1,0,0:0:0:0:
192,192,130049,128,0,130129:0:0:0:0:
320,192,130049,128,0,130209:0:0:0:0:
448,192,130049,128,0,130209:0:0:0:0:
64,192,130209,128,0,130851:0:0:0:0:
448,192,130370,1,0,0:0:0:0:
192,192,130370,1,0,0:0:0:0:
320,192,130530,128,0,130691:0:0:0:0:
448,192,130530,128,0,130691:0:0:0:0:
320,192,130851,128,0,130931:0:0:0:0:
448,192,130851,128,0,130931:0:0:0:0:
192,192,131012,128,0,131092:0:0:0:0:
320,192,131012,128,0,131252:0:0:0:0:
448,192,131012,128,0,131413:0:0:0:0:
192,192,131252,128,0,131332:0:0:0:0:
320,192,131332,128,0,131413:0:0:0:0:
320,192,131493,128,0,132536:0:0:0:0:
448,192,131493,128,0,131894:0:0:0:0:
64,192,131653,128,0,131734:0:0:0:0:
192,192,131814,128,0,131894:0:0:0:0:
64,192,131974,128,0,132054:0:0:0:0:
448,192,131974,128,0,132375:0:0:0:0:
64,192,132135,128,0,132215:0:0:0:0:
192,192,132295,128,0,132375:0:0:0:0:
64,192,132455,1,0,0:0:0:0:
448,192,132455,128,0,132536:0:0:0:0:
64,192,132616,128,0,132696:0:0:0:0:
448,192,132616,128,0,132857:0:0:0:0:
320,192,132616,128,0,133017:0:0:0:0:
192,192,132776,128,0,132857:0:0:0:0:
64,192,132937,1,0,0:0:0:0:
448,192,132937,128,0,133017:0:0:0:0:
64,192,133097,128,0,133177:0:0:0:0:
320,192,133097,128,0,133177:0:0:0:0:
448,192,133097,128,0,133177:0:0:0:0:
192,192,133258,128,0,133338:0:0:0:0:
448,192,133258,128,0,133338:0:0:0:0:
320,192,133258,128,0,133498:0:0:0:0:
192,192,133418,128,0,133498:0:0:0:0:
448,192,133418,128,0,133498:0:0:0:0:
320,192,133578,128,0,133739:0:0:0:0:
448,192,133578,128,0,133739:0:0:0:0:
64,192,133578,128,0,133739:0:0:0:0:
192,192,133899,128,0,133980:0:0:0:0:
320,192,134060,128,0,134220:0:0:0:0:
448,192,134060,128,0,134220:0:0:0:0:
64,192,134220,128,0,134300:0:0:0:0:
192,192,134381,128,0,134461:0:0:0:0:
192,192,134541,128,0,134621:0:0:0:0:
448,192,134541,128,0,135102:0:0:0:0:
192,192,134701,128,0,134782:0:0:0:0:
64,192,134862,128,0,134942:0:0:0:0:
320,192,135183,128,0,135343:0:0:0:0:
448,192,135183,128,0,135343:0:0:0:0:
192,192,135183,128,0,135263:0:0:0:0:
64,192,135343,128,0,135824:0:0:0:0:
320,192,135664,128,0,135824:0:0:0:0:
448,192,135664,128,0,135824:0:0:0:0:
320,192,135985,128,0,136065:0:0:0:0:
448,192,135985,128,0,136065:0:0:0:0:
320,192,136145,128,0,136306:0:0:0:0:
448,192,136145,128,0,136306:0:0:0:0:
192,192,136386,128,0,136466:0:0:0:0:
320,192,136466,1,0,0:0:0:0:
320,192,136627,128,0,136787:0:0:0:0:
448,192,136627,128,0,136787:0:0:0:0:
64,192,136787,128,0,136867:0:0:0:0:
192,192,136947,128,0,137028:0:0:0:0:
192,192,137108,128,0,137188:0:0:0:0:
448,192,137108,128,0,137268:0:0:0:0:
320,192,137268,128,0,137429:0:0:0:0:
64,192,137268,128,0,137348:0:0:0:0:
192,192,137429,128,0,137509:0:0:0:0:
320,192,137750,128,0,137910:0:0:0:0:
448,192,137750,128,0,137910:0:0:0:0:
64,192,137750,128,0,137830:0:0:0:0:
192,192,137910,128,0,137990:0:0:0:0:
448,192,138070,1,0,0:0:0:0:
64,192,138070,1,0,0:0:0:0:
320,192,138231,128,0,138311:0:0:0:0:
448,192,138231,128,0,138311:0:0:0:0:
64,192,138231,128,0,138311:0:0:0:0:
320,192,138391,128,0,138471:0:0:0:0:
448,192,138391,128,0,138471:0:0:0:0:
192,192,138391,128,0,138471:0:0:0:0:
192,192,138552,128,0,138632:0:0:0:0:
448,192,138552,1,0,0:0:0:0:
64,192,138712,128,0,138792:0:0:0:0:
320,192,138712,128,0,138873:0:0:0:0:
448,192,138712,128,0,138873:0:0:0:0:
192,192,139033,128,0,139113:0:0:0:0:
320,192,139193,128,0,139354:0:0:0:0:
448,192,139193,128,0,139354:0:0:0:0:
64,192,139193,128,0,139274:0:0:0:0:
192,192,139354,128,0,139434:0:0:0:0:
192,192,139514,128,0,139594:0:0:0:0:
64,192,139675,128,0,139755:0:0:0:0:
448,192,139675,128,0,139835:0:0:0:0:
192,192,139835,128,0,139915:0:0:0:0:
64,192,139996,128,0,140076:0:0:0:0:
320,192,140156,1,0,0:0:0:0:
320,192,140316,128,0,140477:0:0:0:0:
448,192,140316,128,0,140477:0:0:0:0:
192,192,140316,128,0,140397:0:0:0:0:
192,192,140477,128,0,140557:0:0:0:0:
64,192,140637,128,0,141119:0:0:0:0:
448,192,140637,1,0,0:0:0:0:
320,192,140798,128,0,140958:0:0:0:0:
448,192,140798,128,0,140958:0:0:0:0:
320,192,141119,128,0,141199:0:0:0:0:
448,192,141119,128,0,141199:0:0:0:0:
64,192,141279,128,0,141359:0:0:0:0:
320,192,141279,128,0,141680:0:0:0:0:
448,192,141279,128,0,141359:0:0:0:0:
448,192,141439,128,0,141680:0:0:0:0:
192,192,141520,128,0,141600:0:0:0:0:
64,192,141600,1,0,0:0:0:0:
320,192,141760,128,0,142803:0:0:0:0:
448,192,141760,128,0,142161:0:0:0:0:
64,192,141921,128,0,142001:0:0:0:0:
192,192,142081,128,0,142161:0:0:0:0:
64,192,142242,128,0,142322:0:0:0:0:
448,192,142242,128,0,142643:0:0:0:0:
64,192,142402,128,0,142482:0:0:0:0:
64,192,142562,128,0,142643:0:0:0:0:
192,192,142723,1,0,0:0:0:0:
448,192,142723,128,0,142803:0:0:0:0:
64,192,142883,128,0,142963:0:0:0:0:
320,192,142883,128,0,143284:0:0:0:0:
448,192,142883,128,0,143124:0:0:0:0:
192,192,143044,128,0,143124:0:0:0:0:
64,192,143204,1,0,0:0:0:0:
448,192,143204,128,0,143284:0:0:0:0:
64,192,143365,128,0,143445:0:0:0:0:
320,192,143365,128,0,143766:0:0:0:0:
448,192,143365,128,0,143605:0:0:0:0:
192,192,143525,128,0,143605:0:0:0:0:
448,192,143685,128,0,143766:0:0:0:0:
320,192,143846,1,0,0:0:0:0:
448,192,143846,128,0,143926:0:0:0:0:
64,192,144006,1,0,0:0:0:0:
448,192,144167,128,0,144247:0:0:0:0:
320,192,144327,128,0,144407:0:0:0:0:
320,192,144488,128,0,144568:0:0:0:0:
448,192,144648,128,0,144728:0:0:0:0:
448,192,144808,128,0,144889:0:0:0:0:
192,192,144808,1,0,0:0:0:0:
64,192,144808,1,0,0:0:0:0:
448,192,144969,128,0,145049:0:0:0:0:
320,192,145129,128,0,145209:0:0:0:0:
192,192,145290,1,0,0:0:0:0:
448,192,145450,128,0,146413:0:0:0:0:
192,192,145450,1,0,0:0:0:0:
64,192,145450,1,0,0:0:0:0:
320,192,145611,128,0,146413:0:0:0:0:
192,192,145931,1,0,0:0:0:0:
64,192,145931,1,0,0:0:0:0:
192,192,146252,1,0,0:0:0:0:
64,192,146252,1,0,0:0:0:0:
64,192,146413,128,0,146493:0:0:0:0:
192,192,146413,1,0,0:0:0:0:
448,192,146493,1,0,0:0:0:0:
320,192,146573,128,0,146653:0:0:0:0:
448,192,146653,1,0,0:0:0:0:
192,192,146734,128,0,146814:0:0:0:0:
64,192,146814,1,0,0:0:0:0:
448,192,146894,128,0,146974:0:0:0:0:
64,192,146974,1,0,0:0:0:0:
320,192,147054,128,0,147135:0:0:0:0:
192,192,147054,1,0,0:0:0:0:
448,192,147215,128,0,147295:0:0:0:0:
64,192,147375,128,0,147455:0:0:0:0:
192,192,147375,1,0,0:0:0:0:
192,192,147536,128,0,147616:0:0:0:0:
448,192,147536,1,0,0:0:0:0:
64,192,147696,128,0,147776:0:0:0:0:
320,192,147857,128,0,147937:0:0:0:0:
192,192,148017,128,0,148097:0:0:0:0:
64,192,148017,1,0,0:0:0:0:
320,192,148097,1,0,0:0:0:0:
448,192,148177,128,0,148258:0:0:0:0:
192,192,148258,1,0,0:0:0:0:
320,192,148338,128,0,148418:0:0:0:0:
64,192,148338,1,0,0:0:0:0:
448,192,148498,128,0,148578:0:0:0:0:
320,192,148498,1,0,0:0:0:0:
64,192,148659,128,0,148739:0:0:0:0:
192,192,148739,1,0,0:0:0:0:
448,192,148819,128,0,148899:0:0:0:0:
320,192,148819,1,0,0:0:0:0:
192,192,148980,128,0,149060:0:0:0:0:
64,192,148980,1,0,0:0:0:0:
64,192,149140,128,0,149220:0:0:0:0:
448,192,149300,1,0,0:0:0:0:
320,192,149461,128,0,149541:0:0:0:0:
64,192,149621,128,0,149701:0:0:0:0:
448,192,149621,1,0,0:0:0:0:
320,192,149675,1,0,0:0:0:0:
192,192,149728,1,0,0:0:0:0:
448,192,149782,1,0,0:0:0:0:
64,192,149835,1,0,0:0:0:0:
192,192,149889,1,0,0:0:0:0:
448,192,149942,128,0,150022:0:0:0:0:
320,192,149942,1,0,0:0:0:0:
192,192,150102,128,0,150183:0:0:0:0:
320,192,150102,1,0,0:0:0:0:
448,192,150156,1,0,0:0:0:0:
64,192,150209,1,0,0:0:0:0:
192,192,150263,1,0,0:0:0:0:
192,192,150423,1,0,0:0:0:0:
64,192,150423,1,0,0:0:0:0:
192,192,150584,128,0,150664:0:0:0:0:
64,192,150584,1,0,0:0:0:0:
320,192,150744,128,0,150824:0:0:0:0:
448,192,150744,1,0,0:0:0:0:
64,192,150905,1,0,0:0:0:0:
448,192,150905,128,0,150985:0:0:0:0:
192,192,150958,1,0,0:0:0:0:
320,192,151012,1,0,0:0:0:0:
192,192,151065,1,0,0:0:0:0:
64,192,151065,1,0,0:0:0:0:
64,192,151225,1,0,0:0:0:0:
192,192,151225,1,0,0:0:0:0:
448,192,151386,128,0,151466:0:0:0:0:
64,192,151386,1,0,0:0:0:0:
192,192,151439,1,0,0:0:0:0:
320,192,151493,1,0,0:0:0:0:
64,192,151546,128,0,151707:0:0:0:0:
192,192,151546,1,0,0:0:0:0:
320,192,151627,1,0,0:0:0:0:
448,192,151707,1,0,0:0:0:0:
64,192,151787,128,0,152028:0:0:0:0:
192,192,151867,128,0,151947:0:0:0:0:
448,192,151947,1,0,0:0:0:0:
320,192,152028,1,0,0:0:0:0:
64,192,152108,128,0,152188:0:0:0:0:
320,192,152188,128,0,152268:0:0:0:0:
192,192,152188,1,0,0:0:0:0:
64,192,152268,128,0,152509:0:0:0:0:
320,192,152348,1,0,0:0:0:0:
192,192,152429,1,0,0:0:0:0:
448,192,152509,128,0,152589:0:0:0:0:
320,192,152509,1,0,0:0:0:0:
64,192,152589,128,0,152669:0:0:0:0:
448,192,152669,1,0,0:0:0:0:
192,192,152669,1,0,0:0:0:0:
64,192,152750,128,0,152910:0:0:0:0:
320,192,152830,128,0,152910:0:0:0:0:
448,192,152910,1,0,0:0:0:0:
64,192,152990,128,0,153070:0:0:0:0:
320,192,153070,1,0,0:0:0:0:
192,192,153151,128,0,153231:0:0:0:0:
64,192,153151,128,0,153391:0:0:0:0:
320,192,153231,1,0,0:0:0:0:
448,192,153311,128,0,153391:0:0:0:0:
192,192,153391,1,0,0:0:0:0:
448,192,153471,1,0,0:0:0:0:
64,192,153471,128,0,153632:0:0:0:0:
320,192,153552,1,0,0:0:0:0:
192,192,153632,1,0,0:0:0:0:
64,192,153712,128,0,154033:0:0:0:0:
448,192,153792,128,0,153873:0:0:0:0:
320,192,153873,1,0,0:0:0:0:
192,192,153953,1,0,0:0:0:0:
320,192,154033,1,0,0:0:0:0:
64,192,154113,1,0,0:0:0:0:
192,192,154113,128,0,156921:0:0:0:0:
320,192,154274,1,0,0:0:0:0:
448,192,154434,1,0,0:0:0:0:
64,192,154594,1,0,0:0:0:0:
448,192,154755,1,0,0:0:0:0:
64,192,154915,1,0,0:0:0:0:
320,192,155076,1,0,0:0:0:0:
448,192,155236,1,0,0:0:0:0:
64,192,155397,1,0,0:0:0:0:
448,192,155557,1,0,0:0:0:0:
320,192,155717,1,0,0:0:0:0:
64,192,155878,1,0,0:0:0:0:
448,192,156038,1,0,0:0:0:0:
64,192,156199,1,0,0:0:0:0:
448,192,156359,1,0,0:0:0:0:
320,192,156520,1,0,0:0:0:0:
64,192,156680,128,0,156760:0:0:0:0:
448,192,156760,1,0,0:0:0:0:
320,192,156840,128,0,156921:0:0:0:0:
448,192,156921,1,0,0:0:0:0:
192,192,157001,128,0,157723:0:0:0:0:
64,192,157081,1,0,0:0:0:0:
448,192,157161,128,0,157242:0:0:0:0:
64,192,157242,1,0,0:0:0:0:
320,192,157322,128,0,157402:0:0:0:0:
64,192,157402,1,0,0:0:0:0:
448,192,157482,128,0,157562:0:0:0:0:
320,192,157562,1,0,0:0:0:0:
64,192,157643,128,0,157723:0:0:0:0:
320,192,157723,1,0,0:0:0:0:
192,192,157803,128,0,158204:0:0:0:0:
448,192,157883,1,0,0:0:0:0:
64,192,157963,128,0,158044:0:0:0:0:
448,192,158044,1,0,0:0:0:0:
320,192,158124,128,0,158204:0:0:0:0:
64,192,158204,1,0,0:0:0:0:
192,192,158284,128,0,158605:0:0:0:0:
64,192,158365,1,0,0:0:0:0:
448,192,158445,128,0,158525:0:0:0:0:
64,192,158525,128,0,158846:0:0:0:0:
320,192,158605,128,0,158685:0:0:0:0:
192,192,158685,1,0,0:0:0:0:
448,192,158766,128,0,158846:0:0:0:0:
192,192,158846,1,0,0:0:0:0:
64,192,158926,128,0,159247:0:0:0:0:
320,192,159006,1,0,0:0:0:0:
448,192,159086,128,0,159167:0:0:0:0:
192,192,159167,1,0,0:0:0:0:
320,192,159247,1,0,0:0:0:0:
448,192,159247,128,0,160530:0:0:0:0:
64,192,159407,1,0,0:0:0:0:
64,192,159568,1,0,0:0:0:0:
192,192,159728,1,0,0:0:0:0:
320,192,159808,128,0,159889:0:0:0:0:
64,192,159889,1,0,0:0:0:0:
192,192,160049,1,0,0:0:0:0:
320,192,160209,1,0,0:0:0:0:
64,192,160370,128,0,160450:0:0:0:0:
192,192,160530,128,0,160611:0:0:0:0:
320,192,160691,1,0,0:0:0:0:
64,192,160851,128,0,160931:0:0:0:0:
192,192,161012,128,0,161092:0:0:0:0:
448,192,161172,128,0,161252:0:0:0:0:
64,192,161332,1,0,0:0:0:0:
64,192,161493,1,0,0:0:0:0:
448,192,161653,128,0,161734:0:0:0:0:
192,192,161814,128,0,161894:0:0:0:0:
320,192,161894,1,0,0:0:0:0:
192,192,161974,1,0,0:0:0:0:
320,192,162054,1,0,0:0:0:0:
64,192,162135,1,0,0:0:0:0:
192,192,162215,1,0,0:0:0:0:
448,192,162295,1,0,0:0:0:0:
192,192,162375,1,0,0:0:0:0:
64,192,162455,1,0,0:0:0:0:
320,192,162536,1,0,0:0:0:0:
192,192,162616,1,0,0:0:0:0:
448,192,162696,1,0,0:0:0:0:
192,192,162776,1,0,0:0:0:0:
64,192,162857,1,0,0:0:0:0:
320,192,162937,1,0,0:0:0:0:
192,192,163017,1,0,0:0:0:0:
64,192,163097,128,0,163177:0:0:0:0:
320,192,163177,1,0,0:0:0:0:
192,192,163258,128,0,163338:0:0:0:0:
320,192,163338,1,0,0:0:0:0:
448,192,163418,128,0,163498:0:0:0:0:
192,192,163498,1,0,0:0:0:0:
64,192,163578,128,0,163659:0:0:0:0:
448,192,163659,1,0,0:0:0:0:
192,192,163739,128,0,163819:0:0:0:0:
448,192,163819,1,0,0:0:0:0:
320,192,163899,128,0,163980:0:0:0:0:
192,192,163980,128,0,164060:0:0:0:0:
448,192,164060,1,0,0:0:0:0:
64,192,164140,128,0,164220:0:0:0:0:
192,192,164220,128,0,164300:0:0:0:0:
448,192,164300,128,0,164381:0:0:0:0:
192,192,164381,1,0,0:0:0:0:
64,192,164381,128,0,165022:0:0:0:0:
320,192,164541,1,0,0:0:0:0:
192,192,164701,1,0,0:0:0:0:
448,192,164862,1,0,0:0:0:0:
192,192,165022,128,0,165664:0:0:0:0:
448,192,165343,5,0,0:0:0:0:
320,192,165664,128,0,166306:0:0:0:0:
448,192,165985,1,0,0:0:0:0:
192,192,166145,1,0,0:0:0:0:
448,192,166306,128,0,166947:0:0:0:0:
64,192,166466,1,0,0:0:0:0:
320,192,166627,1,0,0:0:0:0:
64,192,166787,1,0,0:0:0:0:
192,192,166947,128,0,167589:0:0:0:0:
64,192,166947,128,0,167429:0:0:0:0:
448,192,167429,128,0,167830:0:0:0:0:
320,192,167589,128,0,168231:0:0:0:0:
448,192,167910,128,0,168471:0:0:0:0:
64,192,168231,128,0,168873:0:0:0:0:
448,192,168552,128,0,168792:0:0:0:0:
448,192,168873,128,0,169514:0:0:0:0:
64,192,169033,1,0,0:0:0:0:
320,192,169033,1,0,0:0:0:0:
64,192,169193,1,0,0:0:0:0:
320,192,169193,1,0,0:0:0:0:
64,192,169354,1,0,0:0:0:0:
320,192,169354,1,0,0:0:0:0:
192,192,169514,128,0,170156:0:0:0:0:
64,192,169514,128,0,169915:0:0:0:0:
64,192,169996,128,0,170236:0:0:0:0:
448,192,170156,128,0,170798:0:0:0:0:
64,192,170316,128,0,170717:0:0:0:0:
320,192,170477,128,0,170557:0:0:0:0:
192,192,170798,128,0,171439:0:0:0:0:
64,192,170798,128,0,171038:0:0:0:0:
64,192,171119,128,0,171359:0:0:0:0:
448,192,171439,128,0,172081:0:0:0:0:
64,192,171439,128,0,171680:0:0:0:0:
64,192,171760,128,0,171840:0:0:0:0:
64,192,171921,128,0,172001:0:0:0:0:
192,192,172081,128,0,172723:0:0:0:0:
64,192,172081,1,0,0:0:0:0:
320,192,172081,128,0,172322:0:0:0:0:
448,192,172242,1,0,0:0:0:0:
320,192,172402,128,0,172803:0:0:0:0:
64,192,172562,1,0,0:0:0:0:
448,192,172723,128,0,173204:0:0:0:0:
320,192,172883,128,0,173284:0:0:0:0:
64,192,173044,1,0,0:0:0:0:
192,192,173204,128,0,173365:0:0:0:0:
320,192,173365,128,0,174086:0:0:0:0:
448,192,173525,5,0,0:0:0:0:
192,192,173685,1,0,0:0:0:0:
64,192,173846,5,0,0:0:0:0:
448,192,173926,1,0,0:0:0:0:
64,192,174006,128,0,174648:0:0:0:0:
192,192,174086,1,0,0:0:0:0:
320,192,174167,128,0,174488:0:0:0:0:
448,192,174247,1,0,0:0:0:0:
192,192,174327,1,0,0:0:0:0:
448,192,174407,1,0,0:0:0:0:
192,192,174488,1,0,0:0:0:0:
320,192,174568,128,0,174648:0:0:0:0:
448,192,174648,128,0,174728:0:0:0:0:
192,192,174728,1,0,0:0:0:0:
320,192,174808,1,0,0:0:0:0:
64,192,174889,1,0,0:0:0:0:
192,192,174969,1,0,0:0:0:0:
320,192,175129,128,0,175209:0:0:0:0:
448,192,175290,1,0,0:0:0:0:
320,192,175450,1,0,0:0:0:0:
192,192,175611,128,0,175691:0:0:0:0:
448,192,175771,1,0,0:0:0:0:
64,192,175931,1,0,0:0:0:0:
192,192,176092,1,0,0:0:0:0:
320,192,176252,1,0,0:0:0:0:
320,192,176413,1,0,0:0:0:0:
448,192,176573,1,0,0:0:0:0:
320,192,176734,1,0,0:0:0:0:
192,192,176894,1,0,0:0:0:0:
320,192,177054,1,0,0:0:0:0:
64,192,177215,128,0,177295:0:0:0:0:
320,192,177375,128,0,177455:0:0:0:0:
192,192,177536,128,0,177616:0:0:0:0:
448,192,177696,128,0,177776:0:0:0:0:
320,192,177857,128,0,177937:0:0:0:0:
448,192,178017,128,0,178097:0:0:0:0:
64,192,178177,128,0,178258:0:0:0:0:
192,192,178338,128,0,178418:0:0:0:0:
64,192,178498,128,0,178578:0:0:0:0:
320,192,178659,128,0,178739:0:0:0:0:
192,192,178819,128,0,178899:0:0:0:0:
448,192,178980,128,0,179060:0:0:0:0:
320,192,179140,128,0,179220:0:0:0:0:
448,192,179300,128,0,179381:0:0:0:0:
64,192,179461,128,0,179541:0:0:0:0:
448,192,179621,128,0,179701:0:0:0:0:
192,192,179782,1,0,0:0:0:0:
64,192,179942,1,0,0:0:0:0:
192,192,180022,1,0,0:0:0:0:
320,192,180102,1,0,0:0:0:0:
192,192,180263,1,0,0:0:0:0:
448,192,180423,1,0,0:0:0:0:
64,192,180584,1,0,0:0:0:0:
320,192,180744,1,0,0:0:0:0:
320,192,180905,1,0,0:0:0:0:
448,192,181065,1,0,0:0:0:0:
192,192,181225,1,0,0:0:0:0:
320,192,181386,1,0,0:0:0:0:
64,192,181546,1,0,0:0:0:0:
448,192,181707,128,0,181787:0:0:0:0:
320,192,181867,1,0,0:0:0:0:
64,192,182028,1,0,0:0:0:0:
192,192,182188,128,0,182268:0:0:0:0:
64,192,182348,128,0,182429:0:0:0:0:
320,192,182509,1,0,0:0:0:0:
192,192,182669,128,0,182750:0:0:0:0:
448,192,182830,1,0,0:0:0:0:
320,192,182990,128,0,183070:0:0:0:0:
64,192,183151,1,0,0:0:0:0:
448,192,183311,128,0,183391:0:0:0:0:
320,192,183471,1,0,0:0:0:0:
192,192,183632,128,0,183712:0:0:0:0:
64,192,183792,1,0,0:0:0:0:
448,192,183953,128,0,184033:0:0:0:0:
192,192,183953,128,0,184033:0:0:0:0:
320,192,184113,128,0,184193:0:0:0:0:
64,192,184113,128,0,184193:0:0:0:0:
192,192,184274,1,0,0:0:0:0:
320,192,184434,128,0,184514:0:0:0:0:
192,192,184594,128,0,184675:0:0:0:0:
448,192,184594,1,0,0:0:0:0:
448,192,184701,1,0,0:0:0:0:
192,192,184755,128,0,184835:0:0:0:0:
448,192,184808,1,0,0:0:0:0:
192,192,184915,1,0,0:0:0:0:
64,192,184915,128,0,184996:0:0:0:0:
448,192,185076,1,0,0:0:0:0:
448,192,185236,1,0,0:0:0:0:
192,192,185397,128,0,185477:0:0:0:0:
448,192,185557,1,0,0:0:0:0:
64,192,185717,1,0,0:0:0:0:
320,192,185878,128,0,185958:0:0:0:0:
192,192,186038,1,0,0:0:0:0:
320,192,186199,1,0,0:0:0:0:
64,192,186359,1,0,0:0:0:0:
192,192,186520,1,0,0:0:0:0:
448,192,186680,1,0,0:0:0:0:
320,192,186840,1,0,0:0:0:0:
64,192,187001,1,0,0:0:0:0:
192,192,187161,1,0,0:0:0:0:
320,192,187322,1,0,0:0:0:0:
64,192,187482,128,0,187562:0:0:0:0:
320,192,187643,1,0,0:0:0:0:
192,192,187803,128,0,187883:0:0:0:0:
64,192,187963,1,0,0:0:0:0:
320,192,188124,128,0,188204:0:0:0:0:
192,192,188284,1,0,0:0:0:0:
448,192,188445,128,0,188525:0:0:0:0:
320,192,188605,1,0,0:0:0:0:
192,192,188766,128,0,188846:0:0:0:0:
320,192,188926,1,0,0:0:0:0:
448,192,189086,128,0,189167:0:0:0:0:
320,192,189247,128,0,189327:0:0:0:0:
64,192,189407,1,0,0:0:0:0:
320,192,189568,128,0,189648:0:0:0:0:
192,192,189728,128,0,189808:0:0:0:0:
192,192,189889,128,0,189969:0:0:0:0:
64,192,190049,1,0,0:0:0:0:
192,192,190370,1,0,0:0:0:0:
192,192,190530,1,0,0:0:0:0:
320,192,190691,1,0,0:0:0:0:
192,192,190851,1,0,0:0:0:0:
320,192,191012,1,0,0:0:0:0:
64,192,191172,1,0,0:0:0:0:
192,192,191332,1,0,0:0:0:0:
320,192,191493,1,0,0:0:0:0:
448,192,191653,1,0,0:0:0:0:
192,192,191814,1,0,0:0:0:0:
448,192,191974,128,0,192054:0:0:0:0:
192,192,192135,1,0,0:0:0:0:
320,192,192295,1,0,0:0:0:0:
64,192,192455,128,0,192536:0:0:0:0:
192,192,192616,128,0,192696:0:0:0:0:
448,192,192776,1,0,0:0:0:0:
192,192,192937,1,0,0:0:0:0:
320,192,193097,1,0,0:0:0:0:
64,192,193258,1,0,0:0:0:0:
192,192,193418,1,0,0:0:0:0:
320,192,193578,128,0,193659:0:0:0:0:
64,192,193739,1,0,0:0:0:0:
320,192,193899,1,0,0:0:0:0:
192,192,194060,1,0,0:0:0:0:
448,192,194220,128,0,194300:0:0:0:0:
320,192,194381,128,0,194461:0:0:0:0:
64,192,194541,1,0,0:0:0:0:
64,192,194648,1,0,0:0:0:0:
64,192,194755,1,0,0:0:0:0:
192,192,194862,128,0,194942:0:0:0:0:
448,192,194862,1,0,0:0:0:0:
448,192,194969,1,0,0:0:0:0:
64,192,195022,128,0,195102:0:0:0:0:
448,192,195076,1,0,0:0:0:0:
192,192,195183,1,0,0:0:0:0:
320,192,195183,1,0,0:0:0:0:
64,192,195183,1,0,0:0:0:0:
