osu file format v14

[General]
AudioFilename: audio.mp3
AudioLeadIn: 0
PreviewTime: 101405
Countdown: 0
SampleSet: Normal
StackLeniency: 0.7
Mode: 1
LetterboxInBreaks: 0
WidescreenStoryboard: 1

[Editor]
DistanceSpacing: 1.3
BeatDivisor: 4
GridSize: 32
TimelineZoom: 2.4

[Metadata]
Title:Bug Thief
TitleUnicode:Bug Thief
Artist:Iglooghost
ArtistUnicode:Iglooghost
Creator:D3kuu
Version:Oni
Source:
Tags:Neō electronic instrumental experimental neo wax bloom
BeatmapID:2620661
BeatmapSetID:1259868

[Difficulty]
HPDrainRate:5.5
CircleSize:5
OverallDifficulty:5.5
ApproachRate:5
SliderMultiplier:1
SliderTickRate:1

[Events]
//Background and Video events
0,0,"i.jpg",0,0
//Break Periods
2,159359,163093
//Storyboard Layer 0 (Background)
//Storyboard Layer 1 (Fail)
//Storyboard Layer 2 (Pass)
//Storyboard Layer 3 (Foreground)
//Storyboard Layer 4 (Overlay)
//Storyboard Sound Samples

[TimingPoints]
15,320.855614973262,4,1,0,30,1,0
15,-142.857142857143,4,1,0,30,0,0
5068,-142.857142857143,4,1,0,60,0,0
5228,-142.857142857143,4,1,0,40,0,0
7234,-142.857142857143,4,1,0,40,0,0
7635,-125,4,1,0,60,0,0
7795,-125,4,1,0,40,0,0
8357,-100,4,1,0,40,0,0
8517,-102.040816326531,4,1,0,50,0,0
8597,-103.092783505155,4,1,0,50,0,0
8678,-104.166666666667,4,1,0,50,0,0
8758,-105.263157894737,4,1,0,50,0,0
8838,-106.382978723404,4,1,0,50,0,0
8918,-107.52688172043,4,1,0,50,0,0
8998,-108.695652173913,4,1,0,50,0,0
9159,-111.111111111111,4,1,0,50,0,0
9319,-113.636363636364,4,1,0,50,0,0
9480,-116.279069767442,4,1,0,50,0,0
9640,-119.047619047619,4,1,0,50,0,0
9720,-120.481927710843,4,1,0,50,0,0
9801,-121.951219512195,4,1,0,50,0,0
9881,-123.456790123457,4,1,0,50,0,0
9961,-125,4,1,0,50,0,0
10121,-126.582278481013,4,1,0,50,0,0
10282,-100.103206405804,4,1,0,60,0,0
10362,-142.857142857143,4,1,0,40,0,0
12849,-100,4,1,0,60,0,0
12929,-142.857142857143,4,1,0,50,0,0
15416,-100,4,1,0,60,0,0
15496,-142.857142857143,4,1,0,50,0,0
17982,-125,4,1,0,50,0,0
18143,-128.205128205128,4,1,0,50,0,0
18303,-131.578947368421,4,1,0,50,0,0
18624,-142.857142857143,4,1,0,50,0,0
18945,-151.515151515152,4,1,0,50,0,0
19105,-156.25,4,1,0,50,0,0
19266,-161.290322580645,4,1,0,50,0,0
19587,-172.413793103448,4,1,0,50,0,0
19908,-185.185185185185,4,1,0,50,0,0
20068,-192.307692307692,4,1,0,50,0,0
20228,-200,4,1,0,50,0,0
20389,-208.333333333333,4,1,0,50,0,0
20549,-100,4,1,0,60,0,0
20710,-166.666666666667,4,1,0,50,0,0
23116,-100,4,1,0,60,0,0
23437,-166.666666666667,4,1,0,50,0,0
25683,-100,4,1,0,60,0,0
26004,-111.111111111111,4,1,0,50,0,0
28250,-83.3333333333333,4,1,0,60,0,0
28571,-111.111111111111,4,1,0,50,0,0
29533,-113.636363636364,4,1,0,50,0,0
29694,-116.279069767442,4,1,0,50,0,0
29854,-119.047619047619,4,1,0,50,0,0
30014,-121.951219512195,4,1,0,50,0,0
30175,-125,4,1,0,50,0,0
30335,-128.205128205128,4,1,0,50,0,0
30496,-131.578947368421,4,1,0,50,0,0
30656,-135.135135135135,4,1,0,50,0,0
30817,-100,4,1,0,60,0,0
31137,-166.666666666667,4,1,0,50,0,0
33383,-100,4,1,0,60,0,0
33704,-166.666666666667,4,1,0,50,0,0
35950,-83.3333333333333,4,1,0,60,0,0
36271,-83.3333333333333,4,1,0,60,0,0
36432,-84.0569233484916,4,1,0,60,0,0
36592,-84.7931894110265,4,1,0,60,0,0
36913,-86.3051058100597,4,1,0,60,0,0
37073,-87.0814647102364,4,1,0,60,0,0
37234,-87.8719178924799,4,1,0,60,0,0
37394,-88.6768526811446,4,1,0,60,0,0
37555,-89.4966707238491,4,1,0,60,0,0
37715,-90.3317886597473,4,1,0,60,0,0
37875,-91.1826388255676,4,1,0,60,0,0
38517,-83.3333333333333,4,1,0,60,0,0
38678,-105.814507168933,4,1,0,60,0,0
38838,-106.983909619993,4,1,0,60,0,0
39159,-109.402008620878,4,1,0,60,0,0
39480,-111.931945377211,4,1,0,60,0,0
39640,-113.24130589874,4,1,0,60,0,0
39801,-114.581662350758,4,1,0,60,0,0
39961,-115.954128546747,4,1,0,60,0,0
40121,-117.359872312459,4,1,0,60,0,0
40282,-118.800118800119,4,1,0,60,0,0
40603,-121.789328819009,4,1,0,60,0,0
40763,-123.341062706596,4,1,0,60,0,0
40924,-124.93284859388,4,1,0,60,0,0
41084,-111.111111111111,4,1,0,60,0,0
41325,-125,4,1,0,50,0,0
43651,-125,4,1,0,50,0,0
43972,-123.081770605119,4,1,0,50,0,0
44132,-122.144714614982,4,1,0,50,0,0
44293,-121.221672010522,4,1,0,50,0,0
44613,-119.416816037201,4,1,0,50,0,0
44774,-118.534533851092,4,1,0,50,0,0
44934,-117.665054655418,4,1,0,50,0,0
45095,-116.808238251427,4,1,0,50,0,0
45255,-115.963810014171,4,1,0,50,0,0
45416,-115.131635755741,4,1,0,50,0,0
45576,-114.31118935077,4,1,0,50,0,0
45897,-112.704883389892,4,1,0,50,0,0
46057,-111.918666466705,4,1,0,50,0,0
46218,-111.1432191522,4,1,0,50,0,0
48785,-83.3333333333333,4,1,0,70,0,0
51351,-76.9230769230769,4,1,0,70,0,0
59293,-83.3333333333333,4,1,0,70,0,0
59373,-84.7457627118644,4,1,0,70,0,0
59453,-86.2068965517241,4,1,0,70,0,0
59533,-87.719298245614,4,1,0,70,0,0
59613,-89.2857142857143,4,1,0,70,0,0
59694,-90.9090909090909,4,1,0,70,0,0
60977,-90.9090909090909,4,1,0,70,0,0
61137,-93.000935589412,4,1,0,70,0,0
61218,-94.0833785717579,4,1,0,70,0,0
61298,-95.1914061198555,4,1,0,70,0,0
61458,-97.4874558016247,4,1,0,70,0,0
61619,-99.8970061866216,4,1,0,50,0,0
64186,-100,4,1,0,60,0,0
64346,-98.7654320987654,4,1,0,60,0,0
64506,-97.5609756097561,4,1,0,60,0,0
64667,-96.3855421686747,4,1,0,60,0,0
64827,-95.2380952380952,4,1,0,60,0,0
64988,-94.1176470588235,4,1,0,60,0,0
65148,-93.0232558139535,4,1,0,60,0,0
65309,-91.9540229885058,4,1,0,60,0,0
65469,-90.9090909090909,4,1,0,60,0,0
65629,-89.8876404494382,4,1,0,60,0,0
65710,-89.3854748603352,4,1,0,60,0,0
65790,-88.8888888888889,4,1,0,60,0,0
65950,-87.9120879120879,4,1,0,60,0,0
66111,-86.9565217391304,4,1,0,60,0,0
66271,-86.0215053763441,4,1,0,60,0,0
66432,-85.1063829787234,4,1,0,60,0,0
66592,-84.2105263157895,4,1,0,60,0,0
66752,-83.3333333333333,4,1,0,60,0,0
69319,-76.9230769230769,4,1,0,70,0,0
72047,-76.9230769230769,4,1,0,65,0,0
72127,-77.9220981615839,4,1,0,65,0,0
72207,-78.9473476454348,4,1,0,65,0,0
72287,-80,4,1,0,65,0,0
72367,-81.0811029948927,4,1,0,65,0,0
72448,-82.1917583036279,4,1,0,65,0,0
72528,-83.3333333333333,4,1,0,65,0,0
72608,-84.5070660583285,4,1,0,65,0,0
72688,-85.7142612244968,4,1,0,65,0,0
72769,-86.9565217391304,4,1,0,65,0,0
72849,-88.2353200692118,4,1,0,65,0,0
73009,-90.9090909090909,4,1,0,65,0,0
73170,-76.9230769230769,4,1,0,65,0,0
73250,-77.6699029126214,4,1,0,65,0,0
73330,-78.4313725490196,4,1,0,65,0,0
73410,-79.2079207920792,4,1,0,65,0,0
73490,-80,4,1,0,65,0,0
73571,-80.8080808080808,4,1,0,65,0,0
73651,-81.6326530612245,4,1,0,65,0,0
73731,-82.4742268041237,4,1,0,65,0,0
73811,-83.3333333333333,4,1,0,65,0,0
73892,-84.2105263157895,4,1,0,65,0,0
73972,-85.1063829787234,4,1,0,65,0,0
74052,-86.0215053763441,4,1,0,65,0,0
74132,-86.9565217391304,4,1,0,65,0,0
74212,-87.9120879120879,4,1,0,65,0,0
74293,-88.8888888888889,4,1,0,65,0,0
74373,-89.8876404494382,4,1,0,65,0,0
74453,-90.9090909090909,4,1,0,65,0,0
74613,-90.3967876597537,4,1,0,65,0,0
74774,-89.8902260559405,4,1,0,65,0,0
74934,-89.3893900157415,4,1,0,65,0,0
75095,-88.8940249881104,4,1,0,65,0,0
75255,-88.4041199856078,4,1,0,65,0,0
75416,-87.9195852305647,4,1,0,65,0,0
75576,-87.4404093610205,4,1,0,65,0,0
75736,-86.9663527181334,4,1,0,65,0,0
75897,-86.4974085376402,4,1,0,65,0,0
75977,-86.2648278455963,4,1,0,65,0,0
76057,-86.0334945601021,4,1,0,65,0,0
76218,-85.5746035114683,4,1,0,65,0,0
76378,-85.120509361128,4,1,0,65,0,0
76539,-84.6712089947919,4,1,0,65,0,0
76619,-84.4483328210135,4,1,0,65,0,0
76699,-84.2266269004685,4,1,0,65,0,0
76779,-84.0060820403397,4,1,0,65,0,0
76859,-83.7867593459941,4,1,0,65,0,0
76940,-83.5685090458733,4,1,0,65,0,0
77020,-83.3513928017737,4,1,0,65,0,0
79587,-76.9384646160001,4,1,0,70,0,0
80870,-71.4418391987083,4,1,0,70,0,0
81351,-66.6782242255324,4,1,0,70,0,0
81833,-62.5101579006589,4,1,0,70,0,0
81993,-54.054054054054,4,1,0,70,0,0
82154,-50,4,1,0,80,0,0
82474,-83.3333333333333,4,1,0,70,0,0
84560,-83.3333333333333,4,1,0,80,0,0
84720,-82.3586869060394,4,1,0,80,0,0
84881,-81.4065753719059,4,1,0,80,0,0
84961,-80.9386946045457,4,1,0,80,0,0
85041,-80.4761613514845,4,1,0,80,0,0
85202,-79.5668381332029,4,1,0,80,0,0
85362,-78.6778347230461,4,1,0,80,0,0
85523,-77.8084775448624,4,1,0,80,0,0
85683,-76.9581224680778,4,1,0,80,0,0
86004,-76.9230769230769,4,1,0,80,0,0
86164,-77.6699029126214,4,1,0,80,0,0
86325,-78.4313725490196,4,1,0,80,0,0
86485,-79.2079207920792,4,1,0,80,0,0
86646,-80,4,1,0,80,0,0
86806,-80.8080808080808,4,1,0,80,0,0
86966,-81.6326530612245,4,1,0,80,0,0
87127,-82.4742268041237,4,1,0,80,0,0
87287,-62.5,4,1,0,80,0,0
87608,-83.3333333333333,4,1,0,70,0,0
88571,-50,4,1,0,100,0,0
88892,-83.3333333333333,4,1,0,70,0,0
92020,-81.9672131147541,4,1,0,70,0,0
92100,-80.6451612903226,4,1,0,70,0,0
92180,-79.3650793650794,4,1,0,70,0,0
92260,-78.125,4,1,0,70,0,0
92341,-76.9230769230769,4,1,0,70,0,0
92421,-66.6666666666667,4,1,0,70,0,0
92742,-111.111111111111,4,1,0,60,0,0
92902,-107.142895408177,4,1,0,70,0,0
93063,-103.448240190262,4,1,0,70,0,0
93223,-100,4,1,0,70,0,0
93383,-96.774224765879,4,1,0,70,0,0
93544,-93.7499707031342,4,1,0,70,0,0
93704,-90.9090909090909,4,1,0,70,0,0
94025,-90.9090909090909,4,1,0,70,0,0
94186,-93.7297602299004,4,1,0,70,0,0
94346,-96.7311637823046,4,1,0,70,0,0
94506,-99.9310475771717,4,1,0,70,0,0
94667,-103.349986461152,4,1,0,70,0,0
94827,-107.011042469472,4,1,0,70,0,0
94988,-66.6054340709441,4,1,0,70,0,0
95309,-111.111111111111,4,1,0,70,0,0
95469,-109.380110102019,4,1,0,70,0,0
95629,-107.702100298658,4,1,0,70,0,0
95790,-106.074910101514,4,1,0,70,0,0
95950,-104.496156108898,4,1,0,70,0,0
96111,-102.963601337291,4,1,0,70,0,0
96271,-101.475453087898,4,1,0,70,0,0
96432,-100.029708823521,4,1,0,70,0,0
96592,-98.6244843172276,4,1,0,70,0,0
96752,-97.2582888376662,4,1,0,70,0,0
96913,-95.9294266394099,4,1,0,70,0,0
97073,-94.6362985093837,4,1,0,70,0,0
97234,-93.3776565943301,4,1,0,70,0,0
97394,-92.1520545761328,4,1,0,70,0,0
97555,-66.6930326455726,4,1,0,80,0,0
97795,-90.958125607714,4,1,0,70,0,0
100121,-66.6930326455726,4,1,0,75,0,0
100442,-76.9581816936495,4,1,0,70,0,0
101405,-76.9230769230769,4,1,0,50,0,0
101646,-80.8999308305591,4,1,0,50,0,0
101886,-85.3104746760121,4,1,0,50,0,0
102047,-88.5280093768868,4,1,0,50,0,0
102207,-91.9978435705467,4,1,0,50,0,0
102367,-95.750680547962,4,1,0,50,0,0
102528,-99.8228145042549,4,1,0,50,0,0
102688,-71.4285714285714,4,1,0,70,0,1
102769,-72.1605369898521,4,1,0,80,0,1
102849,-72.9076595328952,4,1,0,80,0,1
102929,-73.6704690451423,4,1,0,80,0,1
103009,-74.449353965731,4,1,0,80,0,1
103170,-76.0575999415878,4,1,0,80,0,1
103330,-77.7368622759332,4,1,0,80,0,1
103410,-78.6046727333753,4,1,0,80,0,1
103490,-79.4920142322502,4,1,0,80,0,1
103571,-80.3996182626125,4,1,0,80,0,1
103651,-81.3281868856672,4,1,0,80,0,1
103811,-83.2512614647394,4,1,0,80,0,1
103972,-71.4285714285714,4,1,0,80,0,1
104052,-72.1605369898521,4,1,0,80,0,1
104132,-72.9076595328952,4,1,0,80,0,1
104212,-73.6704690451423,4,1,0,80,0,1
104293,-74.449353965731,4,1,0,80,0,1
104453,-76.0575999415878,4,1,0,80,0,1
104533,-76.8880632819516,4,1,0,80,0,1
104613,-77.7368622759332,4,1,0,80,0,1
104774,-79.4920142322502,4,1,0,80,0,1
104854,-80.3996182626125,4,1,0,80,0,1
104934,-81.3281868856672,4,1,0,80,0,1
105095,-83.2512614647394,4,1,0,80,0,1
105255,-83.3333333333333,4,1,0,80,0,1
105416,-82.4764035009584,4,1,0,80,0,1
105496,-82.0545810662336,4,1,0,80,0,1
105576,-81.6369848196027,4,1,0,80,0,1
105736,-80.8144153521528,4,1,0,80,0,1
105817,-80.4093802366609,4,1,0,80,0,1
105897,-80.00832086537,4,1,0,80,0,1
105977,-79.6112423812041,4,1,0,80,0,1
106057,-79.2180858058618,4,1,0,80,0,1
106218,-78.4433697702786,4,1,0,80,0,1
106378,-77.6835993608194,4,1,0,80,0,1
106539,-76.9384646160001,4,1,0,80,0,1
106699,-76.2074305293063,4,1,0,80,0,1
106779,-75.8470983175597,4,1,0,80,0,1
106859,-75.4902145809349,4,1,0,80,0,1
107020,-74.7863167963337,4,1,0,80,0,1
107180,-74.0954794347997,4,1,0,80,0,1
107341,-73.4172345489759,4,1,0,80,0,1
107501,-72.7513468093078,4,1,0,80,0,1
107581,-72.4228859216428,4,1,0,80,0,1
107662,-72.0973776020845,4,1,0,80,0,1
107822,-71.4285714285714,4,1,0,80,0,1
107982,-71.7480552689619,4,1,0,80,0,1
108143,-72.0704099076634,4,1,0,80,0,1
108223,-72.2326237200379,4,1,0,80,0,1
108303,-72.3956218023759,4,1,0,80,0,1
108383,-72.5593571821428,4,1,0,80,0,1
108464,-72.7238348732605,4,1,0,80,0,1
108624,-73.0550374735815,4,1,0,80,0,1
108704,-73.2217726405382,4,1,0,80,0,1
108785,-73.3892706354116,4,1,0,80,0,1
108945,-73.7265217891363,4,1,0,80,0,1
109025,-73.896339692606,4,1,0,80,0,1
109105,-74.0669417019102,4,1,0,80,0,1
109266,-74.410519861656,4,1,0,80,0,1
109346,-74.5835070507518,4,1,0,80,0,1
109426,-74.7573004241729,4,1,0,80,0,1
109506,-74.931905630758,4,1,0,80,0,1
109587,-75.1072719611786,4,1,0,80,0,1
109667,-75.2835177277628,4,1,0,80,0,1
109747,-75.4605925920336,4,1,0,80,0,1
109908,-75.8172531257558,4,1,0,80,0,1
109988,-75.9968506905074,4,1,0,80,0,1
110068,-76.1773011448687,4,1,0,80,0,1
110228,-76.5407265551927,4,1,0,80,0,1
110389,-76.9076953840001,4,1,0,80,0,1
110629,-71.4153085855484,4,1,0,80,0,1
112956,-62.4898454001225,4,1,0,80,0,1
113196,-76.9076953840001,4,1,0,80,0,1
115523,-76.9076953840001,4,1,0,80,0,1
115843,-66.6666666666667,4,1,0,80,0,1
115924,-67.3344448005688,4,1,0,80,0,1
116004,-68.0157361207089,4,1,0,80,0,1
116084,-68.7109549998213,4,1,0,80,0,1
116164,-69.4205329275472,4,1,0,80,0,1
116244,-70.1449194034876,4,1,0,80,0,1
116325,-70.8845828867605,4,1,0,80,0,1
116405,-71.6400118062739,4,1,0,80,0,1
116485,-72.4117156362962,4,1,0,80,0,1
116646,-74.0060981024836,4,1,0,80,0,1
116806,-71.4285714285714,4,1,0,80,0,1
116886,-72.3981900452489,4,1,0,80,0,1
116966,-73.394495412844,4,1,0,80,0,1
117047,-74.4186046511628,4,1,0,80,0,1
117127,-75.4716981132076,4,1,0,80,0,1
117287,-77.6699029126214,4,1,0,80,0,1
117448,-80,4,1,0,80,0,1
117608,-82.4742268041237,4,1,0,80,0,1
117769,-85.1063829787234,4,1,0,80,0,1
117929,-87.9120879120879,4,1,0,80,0,1
118009,-89.3854748603352,4,1,0,80,0,1
118089,-90.9090909090909,4,1,0,80,0,1
118410,-80,4,1,0,80,0,1
118571,-81.6277220804621,4,1,0,80,0,1
118731,-83.3230568229918,4,1,0,80,0,1
118892,-85.0902339385802,4,1,0,80,0,1
118972,-86.0022704599401,4,1,0,80,0,1
119052,-86.9340700705992,4,1,0,80,0,1
119212,-88.8595849724224,4,1,0,80,0,1
119293,-89.8546870001833,4,1,0,80,0,1
119373,-90.8723289214818,4,1,0,80,0,1
119533,-92.9783667234145,4,1,0,80,0,1
119613,-94.0684216071402,4,1,0,80,0,1
119694,-95.1843387496395,4,1,0,80,0,1
119774,-96.3269568098824,4,1,0,80,0,1
119854,-97.497435817438,4,1,0,80,0,1
119934,-98.696709945174,4,1,0,80,0,1
120014,-99.9258550155784,4,1,0,80,0,1
120175,-102.478336079753,4,1,0,80,0,1
120255,-103.804109189466,4,1,0,80,0,1
120335,-105.164635236463,4,1,0,80,0,1
120496,-107.995559222605,4,1,0,80,0,1
120656,-71.3756005364591,4,1,0,80,0,1
123223,-50,4,1,0,80,0,0
123303,-50,4,1,0,50,0,0
124506,-142.857142857143,4,1,0,50,0,0
130924,-82.6446280991736,4,1,0,60,0,0
131084,-84.7457627118644,4,1,0,60,0,0
131244,-86.9565217391304,4,1,0,60,0,0
131405,-89.2857142857143,4,1,0,60,0,0
131565,-91.743119266055,4,1,0,60,0,0
131726,-94.3396226415094,4,1,0,60,0,0
131886,-97.0873786407767,4,1,0,60,0,0
132047,-100,4,1,0,60,0,0
132207,-103.092783505155,4,1,0,60,0,0
132528,-109.89010989011,4,1,0,60,0,0
132688,-113.636363636364,4,1,0,60,0,0
132849,-117.647058823529,4,1,0,60,0,0
133009,-121.951219512195,4,1,0,60,0,0
133170,-126.582278481013,4,1,0,60,0,0
133330,-131.578947368421,4,1,0,60,0,0
133490,-136.986301369863,4,1,0,50,0,0
133811,-142.857142857143,4,1,0,50,0,0
141191,-83.3333333333333,4,1,0,60,0,0
142795,-84.7457627118644,4,1,0,60,0,0
142956,-86.9565217391304,4,1,0,60,0,0
143116,-89.2857142857143,4,1,0,60,0,0
143437,-94.3396226415094,4,1,0,60,0,0
143597,-97.0873786407767,4,1,0,60,0,0
143758,-62.5,4,1,0,60,0,0
144079,-83.3333333333333,4,1,0,60,0,0
144239,-84.4156118232506,4,1,0,60,0,0
144400,-85.5262989092831,4,1,0,60,0,0
144560,-86.6666782222238,4,1,0,60,0,0
144720,-87.837802227918,4,1,0,60,0,0
144881,-89.0410897917062,4,1,0,60,0,0
145041,-90.2778028549453,4,1,0,60,0,0
145362,-92.8571494897964,4,1,0,60,0,0
145523,-94.2029395085244,4,1,0,60,0,0
145843,-97.0149470928986,4,1,0,60,0,0
146164,-100,4,1,0,60,0,0
146325,-83.3333333333333,4,1,0,60,0,0
146405,-84.5070660583285,4,1,0,60,0,0
146485,-85.7142612244968,4,1,0,60,0,0
146565,-86.9565217391304,4,1,0,60,0,0
146646,-88.2353200692118,4,1,0,60,0,0
146726,-89.5522120739665,4,1,0,60,0,0
146806,-90.9090909090909,4,1,0,60,0,0
146886,-92.3077207100679,4,1,0,60,0,0
146966,-93.7499707031342,4,1,0,60,0,0
147127,-96.774224765879,4,1,0,60,0,0
147287,-100,4,1,0,60,0,0
147608,-100,4,1,0,60,0,0
147769,-97.5733507664387,4,1,0,60,0,0
147929,-95.261593097726,4,1,0,60,0,0
148009,-94.1463561594312,4,1,0,60,0,0
148089,-93.0569294377221,4,1,0,60,0,0
148170,-91.9923425574055,4,1,0,60,0,0
148250,-90.9519209955233,4,1,0,60,0,0
148410,-88.9401183970856,4,1,0,60,0,0
148571,-87.0153138250801,4,1,0,60,0,0
148651,-86.0838560058124,4,1,0,60,0,0
148731,-85.1721286133211,4,1,0,60,0,0
148811,-84.2795113136816,4,1,0,60,0,0
148892,-83.4053399434845,4,1,0,60,0,0
149212,-85.227296939573,4,1,0,50,0,0
149373,-86.2068965517241,4,1,0,50,0,0
149533,-87.2092769740474,4,1,0,50,0,0
149694,-88.2353200692118,4,1,0,50,0,0
149854,-89.2857142857143,4,1,0,50,0,0
150014,-90.3614185658378,4,1,0,50,0,0
150175,-91.4634425193422,4,1,0,50,0,0
150496,-93.7499707031342,4,1,0,50,0,0
150656,-94.9367389040313,4,1,0,50,0,0
150817,-96.1538461538461,4,1,0,50,0,0
150977,-97.4025657783877,4,1,0,50,0,0
151137,-98.6842429882378,4,1,0,50,0,0
151298,-100,4,1,0,50,0,0
151458,-83.3333333333333,4,1,0,60,0,0
151539,-84.4988541955371,4,1,0,60,0,0
151619,-85.6973666056216,4,1,0,60,0,0
151699,-86.9304426063485,4,1,0,60,0,0
151779,-88.1995214293967,4,1,0,60,0,0
151859,-89.5062032274147,4,1,0,60,0,0
151940,-90.8521018633766,4,1,0,60,0,0
152020,-92.2391798830038,4,1,0,60,0,0
152100,-93.6692687989539,4,1,0,60,0,0
152260,-96.6666441111164,4,1,0,60,0,0
152421,-99.8622899022248,4,1,0,60,0,0
152742,-100,4,1,0,60,0,0
152902,-97.5609756097561,4,1,0,60,0,0
153063,-95.2380952380952,4,1,0,60,0,0
153143,-94.1176470588235,4,1,0,60,0,0
153223,-93.0232558139535,4,1,0,60,0,0
153303,-91.9540229885058,4,1,0,60,0,0
153383,-90.9090909090909,4,1,0,60,0,0
153544,-88.8888888888889,4,1,0,60,0,0
153704,-86.9565217391304,4,1,0,60,0,0
153785,-86.0215053763441,4,1,0,60,0,0
153865,-85.1063829787234,4,1,0,60,0,0
153945,-84.2105263157895,4,1,0,60,0,0
154025,-62.5,4,1,0,70,0,0
154186,-142.857142857143,4,1,0,30,0,0
164293,-125,4,1,0,40,0,0
164934,-128,4,1,0,40,0,0
165576,-131.147540983607,4,1,0,40,0,0
166218,-134.453781512605,4,1,0,40,0,0
166859,-137.931034482759,4,1,0,40,0,0
167501,-141.592920353982,4,1,0,40,0,0
168143,-145.454545454545,4,1,0,40,0,0
168785,-149.532710280374,4,1,0,40,0,0
169426,-153.846153846154,4,1,0,40,0,0
170068,-158.415841584158,4,1,0,40,0,0
170710,-163.265306122449,4,1,0,40,0,0
171351,-168.421052631579,4,1,0,40,0,0
171993,-173.913043478261,4,1,0,40,0,0
172635,-179.775280898876,4,1,0,40,0,0
173116,-184.437870259025,4,1,0,40,0,0
173277,-186.046511627907,4,1,0,40,0,0
173918,-192.771084337349,4,1,0,40,0,0
174560,-200,4,1,0,40,0,0

[HitObjects]
325,166,15,5,0,0:0:0:0:
385,148,2581,1,8,0:0:0:0:
417,158,5148,1,12,0:0:0:0:
346,159,6752,1,8,0:0:0:0:
346,159,7234,1,8,0:0:0:0:
503,122,7715,1,12,0:0:0:0:
495,152,8357,1,8,0:0:0:0:
432,151,8517,1,0,0:0:0:0:
286,160,8678,1,0,0:0:0:0:
286,160,8758,1,0,0:0:0:0:
286,160,8838,1,0,0:0:0:0:
286,160,8918,1,0,0:0:0:0:
470,144,8998,1,8,0:0:0:0:
393,136,9319,1,8,0:0:0:0:
430,131,9640,1,0,0:0:0:0:
419,126,9801,1,8,0:0:0:0:
473,153,9881,1,0,0:0:0:0:
379,128,9961,1,8,0:0:0:0:
370,66,10121,1,8,0:0:0:0:
468,105,10282,1,4,0:0:0:0:
422,145,12849,1,4,0:0:0:0:
484,104,15416,1,4,0:0:0:0:
450,142,17982,1,8,0:0:0:0:
450,142,18143,1,8,0:0:0:0:
450,142,18303,1,0,0:0:0:0:
472,153,18624,1,8,0:0:0:0:
368,382,18945,5,0,0:0:0:0:
152,188,19105,1,0,0:0:0:0:
407,160,19266,1,0,0:0:0:0:
422,120,19587,1,0,0:0:0:0:
385,109,19908,1,0,0:0:0:0:
328,127,20068,1,8,0:0:0:0:
489,138,20228,1,0,0:0:0:0:
339,139,20389,1,8,0:0:0:0:
484,109,20549,1,4,0:0:0:0:
417,131,21031,1,8,0:0:0:0:
359,107,21351,1,0,0:0:0:0:
353,104,21512,1,0,0:0:0:0:
334,120,21833,1,8,0:0:0:0:
353,140,22154,1,0,0:0:0:0:
353,140,22474,1,0,0:0:0:0:
419,162,22795,1,8,0:0:0:0:
466,126,23116,1,4,0:0:0:0:
462,133,23597,1,8,0:0:0:0:
425,140,23758,1,0,0:0:0:0:
444,146,23918,1,8,0:0:0:0:
425,140,24079,1,0,0:0:0:0:
343,147,24400,1,8,0:0:0:0:
463,138,24720,1,0,0:0:0:0:
454,141,24881,1,8,0:0:0:0:
457,151,25202,1,0,0:0:0:0:
451,151,25362,1,0,0:0:0:0:
463,138,25683,1,4,0:0:0:0:
375,126,26164,1,0,0:0:0:0:
375,126,26485,1,0,0:0:0:0:
359,125,26646,1,0,0:0:0:0:
430,117,26966,1,8,0:0:0:0:
471,151,27287,1,0,0:0:0:0:
361,177,27608,1,8,0:0:0:0:
462,148,27929,1,0,0:0:0:0:
434,116,28250,1,12,0:0:0:0:
447,121,28571,1,0,0:0:0:0:
398,137,28892,1,8,0:0:0:0:
492,151,29052,1,0,0:0:0:0:
396,153,29373,1,8,0:0:0:0:
440,144,29533,1,0,0:0:0:0:
440,144,29694,1,0,0:0:0:0:
489,159,29854,1,8,0:0:0:0:
496,152,30175,1,0,0:0:0:0:
499,144,30335,1,8,0:0:0:0:
499,144,30496,1,8,0:0:0:0:
482,147,30656,1,8,0:0:0:0:
448,115,30817,1,4,0:0:0:0:
455,157,31298,1,8,0:0:0:0:
425,168,31619,1,0,0:0:0:0:
433,153,31779,1,8,0:0:0:0:
436,139,32100,1,8,0:0:0:0:
366,151,32421,1,0,0:0:0:0:
360,151,32742,1,0,0:0:0:0:
470,144,32902,1,8,0:0:0:0:
434,132,33223,1,0,0:0:0:0:
430,106,33383,1,12,0:0:0:0:
459,132,33865,1,8,0:0:0:0:
411,156,34186,1,0,0:0:0:0:
411,156,34346,1,0,0:0:0:0:
303,106,34667,1,8,0:0:0:0:
237,55,34988,1,0,0:0:0:0:
237,55,35309,1,0,0:0:0:0:
239,59,35469,1,0,0:0:0:0:
381,116,35629,1,8,0:0:0:0:
392,104,35950,1,4,0:0:0:0:
410,126,36592,1,8,0:0:0:0:
422,137,37234,1,8,0:0:0:0:
403,135,37555,1,0,0:0:0:0:
402,133,37715,1,0,0:0:0:0:
412,142,37875,1,8,0:0:0:0:
439,117,38517,1,12,0:0:0:0:
341,144,38838,1,0,0:0:0:0:
363,172,39159,1,0,0:0:0:0:
363,172,39480,1,0,0:0:0:0:
337,147,39640,1,8,0:0:0:0:
378,118,39801,1,0,0:0:0:0:
401,137,40121,1,8,0:0:0:0:
406,137,40282,1,0,0:0:0:0:
369,137,40603,1,8,0:0:0:0:
415,151,40763,1,0,0:0:0:0:
462,158,40924,1,8,0:0:0:0:
416,162,41084,1,4,0:0:0:0:
423,135,41325,1,8,0:0:0:0:
421,133,41485,1,8,0:0:0:0:
421,133,41565,1,0,0:0:0:0:
410,140,41726,1,8,0:0:0:0:
390,140,42047,1,8,0:0:0:0:
326,155,42207,1,0,0:0:0:0:
345,155,42367,1,8,0:0:0:0:
428,159,42688,1,0,0:0:0:0:
428,168,43009,1,8,0:0:0:0:
480,192,43170,1,0,0:0:0:0:
448,160,43330,1,8,0:0:0:0:
448,160,43490,1,8,0:0:0:0:
448,160,43651,1,0,0:0:0:0:
407,144,43972,1,0,0:0:0:0:
393,135,44132,1,8,0:0:0:0:
386,134,44293,1,0,0:0:0:0:
425,158,44613,1,0,0:0:0:0:
410,155,44774,1,8,0:0:0:0:
410,155,44934,1,8,0:0:0:0:
439,149,45095,1,0,0:0:0:0:
445,149,45255,1,8,0:0:0:0:
445,149,45416,1,8,0:0:0:0:
425,158,45576,1,0,0:0:0:0:
426,157,45897,1,8,0:0:0:0:
426,157,46057,1,8,0:0:0:0:
433,140,46218,1,0,0:0:0:0:
425,158,46378,1,8,0:0:0:0:
470,155,46699,1,0,0:0:0:0:
395,163,46859,1,8,0:0:0:0:
438,150,47180,1,8,0:0:0:0:
405,154,47341,1,0,0:0:0:0:
310,160,47501,1,0,0:0:0:0:
441,134,47822,1,0,0:0:0:0:
120,185,47982,1,8,0:0:0:0:
408,117,48143,1,8,0:0:0:0:
275,98,48464,1,0,0:0:0:0:
386,133,48624,1,8,0:0:0:0:
408,117,48785,1,0,0:0:0:0:
408,117,49105,1,0,0:0:0:0:
395,118,49266,1,0,0:0:0:0:
444,146,49426,1,8,0:0:0:0:
450,149,49747,1,8,0:0:0:0:
444,146,49908,1,8,0:0:0:0:
421,162,50068,1,0,0:0:0:0:
419,146,50228,1,8,0:0:0:0:
419,146,50389,1,8,0:0:0:0:
428,144,50549,1,0,0:0:0:0:
384,137,50710,1,8,0:0:0:0:
409,153,50870,5,0,0:0:0:0:
409,153,50950,1,0,0:0:0:0:
448,153,51031,1,8,0:0:0:0:
434,117,51351,1,8,0:0:0:0:
420,146,51512,1,0,0:0:0:0:
420,146,51592,1,0,0:0:0:0:
420,146,51672,1,0,0:0:0:0:
453,155,51833,1,8,0:0:0:0:
436,162,51993,1,0,0:0:0:0:
436,162,52154,1,0,0:0:0:0:
435,160,52314,1,8,0:0:0:0:
425,151,52474,1,0,0:0:0:0:
425,151,52555,1,0,0:0:0:0:
425,151,52635,1,0,0:0:0:0:
417,148,52795,1,0,0:0:0:0:
478,158,52956,1,8,0:0:0:0:
479,162,53116,1,0,0:0:0:0:
299,104,53196,1,0,0:0:0:0:
463,155,53277,1,8,0:0:0:0:
441,155,53437,1,0,0:0:0:0:
440,111,53597,1,0,0:0:0:0:
440,111,53678,1,0,0:0:0:0:
440,111,53758,1,8,0:0:0:0:
463,137,53918,1,8,0:0:0:0:
426,135,54079,1,0,0:0:0:0:
426,135,54159,1,0,0:0:0:0:
426,135,54239,1,0,0:0:0:0:
354,139,54400,1,8,0:0:0:0:
459,153,54560,1,0,0:0:0:0:
459,153,54640,1,0,0:0:0:0:
459,153,54720,1,0,0:0:0:0:
487,158,54881,1,8,0:0:0:0:
454,152,55041,1,0,0:0:0:0:
454,152,55121,1,0,0:0:0:0:
416,128,55202,1,8,0:0:0:0:
498,157,55362,1,0,0:0:0:0:
130,141,55442,1,0,0:0:0:0:
416,128,55523,1,8,0:0:0:0:
498,157,55683,1,0,0:0:0:0:
416,128,55843,1,8,0:0:0:0:
498,157,56004,1,0,0:0:0:0:
498,157,56084,1,0,0:0:0:0:
384,128,56164,1,8,0:0:0:0:
504,158,56325,1,0,0:0:0:0:
500,156,56485,1,8,0:0:0:0:
269,179,56806,1,0,0:0:0:0:
269,179,56966,1,8,0:0:0:0:
305,209,57127,1,0,0:0:0:0:
345,166,57448,1,8,0:0:0:0:
358,178,57769,1,0,0:0:0:0:
434,154,58089,1,0,0:0:0:0:
424,159,58250,1,8,0:0:0:0:
440,156,58410,1,0,0:0:0:0:
440,156,58490,1,0,0:0:0:0:
378,146,58571,1,8,0:0:0:0:
378,146,58731,1,8,0:0:0:0:
352,169,58892,1,8,0:0:0:0:
416,160,59052,1,0,0:0:0:0:
463,164,59293,1,8,0:0:0:0:
468,157,59373,1,0,0:0:0:0:
456,151,59453,1,8,0:0:0:0:
447,153,59533,1,0,0:0:0:0:
415,148,59694,1,8,0:0:0:0:
448,146,59854,1,0,0:0:0:0:
425,148,60014,1,8,0:0:0:0:
423,148,60175,1,8,0:0:0:0:
442,140,60335,1,0,0:0:0:0:
392,156,60656,1,8,0:0:0:0:
430,171,60977,1,0,0:0:0:0:
421,171,61137,1,0,0:0:0:0:
420,171,61218,1,0,0:0:0:0:
406,152,61298,1,8,0:0:0:0:
406,152,61458,1,8,0:0:0:0:
379,155,61619,1,0,0:0:0:0:
434,138,61940,1,8,0:0:0:0:
492,149,62100,1,0,0:0:0:0:
450,155,62260,1,8,0:0:0:0:
450,155,62341,1,8,0:0:0:0:
454,158,62421,1,0,0:0:0:0:
448,158,62581,1,8,0:0:0:0:
479,149,62742,1,0,0:0:0:0:
436,152,62902,1,8,0:0:0:0:
379,141,63223,1,0,0:0:0:0:
347,127,63383,1,8,0:0:0:0:
347,127,63544,1,8,0:0:0:0:
345,149,63704,1,0,0:0:0:0:
464,142,63865,1,8,0:0:0:0:
464,142,63945,1,8,0:0:0:0:
446,138,64025,1,0,0:0:0:0:
379,175,64186,1,0,0:0:0:0:
339,160,64506,1,0,0:0:0:0:
480,149,64667,1,0,0:0:0:0:
462,160,64827,1,0,0:0:0:0:
464,162,65148,1,0,0:0:0:0:
490,156,65309,1,8,0:0:0:0:
434,163,65469,1,0,0:0:0:0:
455,162,65629,1,8,0:0:0:0:
481,157,65710,1,0,0:0:0:0:
476,152,65790,1,8,0:0:0:0:
492,151,65950,1,0,0:0:0:0:
479,149,66111,1,8,0:0:0:0:
479,149,66271,1,8,0:0:0:0:
448,151,66432,1,0,0:0:0:0:
426,129,66592,1,0,0:0:0:0:
372,165,66752,1,8,0:0:0:0:
450,155,66913,1,0,0:0:0:0:
459,135,67234,1,8,0:0:0:0:
448,133,67394,1,0,0:0:0:0:
457,146,67555,1,8,0:0:0:0:
477,146,67635,1,0,0:0:0:0:
425,142,67715,1,8,0:0:0:0:
468,135,67875,1,0,0:0:0:0:
466,126,68036,1,0,0:0:0:0:
332,141,68116,1,0,0:0:0:0:
485,144,68196,1,8,0:0:0:0:
483,146,68357,1,0,0:0:0:0:
405,91,68517,1,0,0:0:0:0:
432,126,68678,1,8,0:0:0:0:
432,126,68758,1,8,0:0:0:0:
416,133,68838,1,0,0:0:0:0:
424,133,68998,1,8,0:0:0:0:
419,131,69159,1,8,0:0:0:0:
375,142,69319,1,0,0:0:0:0:
447,138,69640,1,0,0:0:0:0:
438,135,69801,1,0,0:0:0:0:
463,144,69961,1,8,0:0:0:0:
465,150,70282,1,8,0:0:0:0:
443,118,70442,1,8,0:0:0:0:
466,149,70603,1,0,0:0:0:0:
475,144,70763,1,8,0:0:0:0:
444,100,70924,1,8,0:0:0:0:
484,149,71084,1,0,0:0:0:0:
474,145,71244,1,8,0:0:0:0:
453,138,71565,1,8,0:0:0:0:
454,120,71726,1,8,0:0:0:0:
454,120,71806,1,8,0:0:0:0:
406,130,71886,1,0,0:0:0:0:
348,150,72047,1,8,0:0:0:0:
281,78,72207,1,0,0:0:0:0:
479,156,72287,1,0,0:0:0:0:
466,155,72367,1,8,0:0:0:0:
466,155,72528,1,8,0:0:0:0:
466,155,72688,1,8,0:0:0:0:
295,117,72849,5,0,0:0:0:0:
501,155,73009,1,0,0:0:0:0:
419,170,73170,1,8,0:0:0:0:
425,157,73490,1,8,0:0:0:0:
255,113,73651,1,0,0:0:0:0:
254,107,73731,1,0,0:0:0:0:
425,157,73811,1,8,0:0:0:0:
425,157,73972,1,8,0:0:0:0:
425,157,74132,1,8,0:0:0:0:
425,157,74293,1,0,0:0:0:0:
425,157,74453,1,8,0:0:0:0:
448,153,74774,1,0,0:0:0:0:
472,159,74934,1,8,0:0:0:0:
455,158,75095,1,0,0:0:0:0:
478,166,75416,1,0,0:0:0:0:
477,165,75576,1,8,0:0:0:0:
454,165,75736,1,0,0:0:0:0:
378,156,75897,1,8,0:0:0:0:
378,156,75977,1,8,0:0:0:0:
378,156,76057,1,8,0:0:0:0:
378,156,76218,1,8,0:0:0:0:
378,156,76378,1,8,0:0:0:0:
414,171,76539,1,0,0:0:0:0:
414,171,76619,1,0,0:0:0:0:
448,153,76699,1,8,0:0:0:0:
460,152,76859,1,8,0:0:0:0:
403,164,77020,1,0,0:0:0:0:
432,139,77341,1,0,0:0:0:0:
415,137,77501,1,0,0:0:0:0:
474,158,77822,1,8,0:0:0:0:
449,151,77982,1,0,0:0:0:0:
446,184,78143,1,0,0:0:0:0:
432,139,78303,1,8,0:0:0:0:
469,144,78383,1,0,0:0:0:0:
448,133,78464,1,8,0:0:0:0:
368,126,78624,1,0,0:0:0:0:
403,170,78785,1,0,0:0:0:0:
428,131,78945,1,8,0:0:0:0:
461,149,79105,1,0,0:0:0:0:
434,148,79266,1,8,0:0:0:0:
430,146,79426,1,8,0:0:0:0:
372,159,79587,1,0,0:0:0:0:
406,164,79908,1,8,0:0:0:0:
312,75,80068,1,0,0:0:0:0:
349,140,80228,1,8,0:0:0:0:
473,171,80389,1,0,0:0:0:0:
473,171,80469,1,0,0:0:0:0:
413,146,80549,1,8,0:0:0:0:
408,156,80710,1,0,0:0:0:0:
347,158,80870,1,8,0:0:0:0:
205,49,81351,1,0,0:0:0:0:
225,62,81833,1,0,0:0:0:0:
288,126,81993,1,8,0:0:0:0:
435,127,82154,1,4,0:0:0:0:
473,154,82474,1,8,0:0:0:0:
464,148,82795,1,0,0:0:0:0:
434,137,82956,1,8,0:0:0:0:
286,134,83277,1,0,0:0:0:0:
286,134,83437,1,0,0:0:0:0:
322,124,83758,1,0,0:0:0:0:
410,157,84079,1,8,0:0:0:0:
438,148,84239,1,0,0:0:0:0:
438,148,84560,1,0,0:0:0:0:
423,153,84720,1,8,0:0:0:0:
406,142,85041,1,8,0:0:0:0:
405,140,85202,1,8,0:0:0:0:
405,140,85362,1,8,0:0:0:0:
438,157,85523,1,0,0:0:0:0:
437,166,85683,1,0,0:0:0:0:
376,171,86004,1,8,0:0:0:0:
461,145,86164,1,8,0:0:0:0:
425,143,86325,1,0,0:0:0:0:
424,142,86485,1,8,0:0:0:0:
385,146,86806,1,0,0:0:0:0:
417,157,86966,1,8,0:0:0:0:
412,155,87127,1,8,0:0:0:0:
230,57,87287,1,4,0:0:0:0:
345,156,87608,1,8,0:0:0:0:
382,128,87769,1,0,0:0:0:0:
382,128,87929,1,0,0:0:0:0:
385,138,88089,1,8,0:0:0:0:
250,85,88410,1,0,0:0:0:0:
413,121,88571,1,12,0:0:0:0:
367,153,88892,1,0,0:0:0:0:
428,159,89212,1,8,0:0:0:0:
420,163,89373,1,0,0:0:0:0:
420,163,89694,1,0,0:0:0:0:
379,152,89854,1,8,0:0:0:0:
472,149,90095,1,8,0:0:0:0:
445,157,90175,1,0,0:0:0:0:
445,157,90335,1,0,0:0:0:0:
403,160,90496,1,8,0:0:0:0:
488,164,90656,1,0,0:0:0:0:
445,157,90817,1,8,0:0:0:0:
401,143,91137,1,0,0:0:0:0:
488,164,91298,1,8,0:0:0:0:
432,168,91458,1,0,0:0:0:0:
432,168,91619,1,0,0:0:0:0:
437,163,91779,1,8,0:0:0:0:
461,173,91940,1,0,0:0:0:0:
461,173,92020,1,0,0:0:0:0:
495,153,92100,1,8,0:0:0:0:
496,155,92260,1,8,0:0:0:0:
458,143,92421,1,4,0:0:0:0:
474,164,92742,1,8,0:0:0:0:
447,157,92902,1,0,0:0:0:0:
446,157,93063,1,0,0:0:0:0:
461,156,93223,1,8,0:0:0:0:
459,156,93383,1,8,0:0:0:0:
447,157,93544,1,0,0:0:0:0:
432,157,93704,1,0,0:0:0:0:
337,116,94025,1,0,0:0:0:0:
425,146,94186,1,8,0:0:0:0:
425,146,94346,1,8,0:0:0:0:
474,160,94506,1,0,0:0:0:0:
474,160,94667,1,0,0:0:0:0:
494,168,94827,1,8,0:0:0:0:
450,178,94988,1,4,0:0:0:0:
435,108,95309,1,0,0:0:0:0:
441,155,95469,1,8,0:0:0:0:
454,160,95629,1,0,0:0:0:0:
476,166,95790,1,8,0:0:0:0:
451,169,95950,1,0,0:0:0:0:
482,153,96271,1,8,0:0:0:0:
482,153,96432,1,8,0:0:0:0:
364,151,96592,1,0,0:0:0:0:
439,126,96752,1,8,0:0:0:0:
439,126,96913,1,8,0:0:0:0:
460,148,97073,1,0,0:0:0:0:
461,148,97234,1,8,0:0:0:0:
414,142,97555,1,4,0:0:0:0:
339,97,97795,1,0,0:0:0:0:
450,158,97875,1,8,0:0:0:0:
450,149,98036,1,0,0:0:0:0:
428,157,98196,1,8,0:0:0:0:
494,157,98357,1,0,0:0:0:0:
170,22,98517,5,8,0:0:0:0:
441,157,98838,1,0,0:0:0:0:
454,158,98998,1,8,0:0:0:0:
454,158,99079,1,8,0:0:0:0:
441,161,99159,1,0,0:0:0:0:
428,157,99319,1,0,0:0:0:0:
405,164,99480,1,8,0:0:0:0:
441,157,99801,1,0,0:0:0:0:
441,157,99961,1,0,0:0:0:0:
423,169,100121,1,12,0:0:0:0:
213,148,100442,1,0,0:0:0:0:
334,148,100763,1,0,0:0:0:0:
421,150,100924,1,8,0:0:0:0:
494,156,101084,1,0,0:0:0:0:
494,156,101244,1,0,0:0:0:0:
421,150,101405,1,8,0:0:0:0:
495,160,101646,1,0,0:0:0:0:
464,173,101886,1,8,0:0:0:0:
346,164,102047,1,0,0:0:0:0:
507,153,102207,1,8,0:0:0:0:
460,151,102367,1,0,0:0:0:0:
336,184,102688,1,8,0:0:0:0:
224,183,102769,1,0,0:0:0:0:
488,148,102849,1,8,0:0:0:0:
499,157,103009,1,8,0:0:0:0:
394,144,103170,1,0,0:0:0:0:
394,144,103330,1,0,0:0:0:0:
394,144,103410,1,0,0:0:0:0:
394,144,103490,1,0,0:0:0:0:
339,138,103651,1,8,0:0:0:0:
419,191,103811,1,0,0:0:0:0:
435,156,103972,1,8,0:0:0:0:
463,165,104052,1,0,0:0:0:0:
463,165,104132,1,0,0:0:0:0:
463,165,104212,1,0,0:0:0:0:
336,153,104293,1,8,0:0:0:0:
385,155,104453,1,0,0:0:0:0:
385,146,104774,1,8,0:0:0:0:
432,149,104934,1,8,0:0:0:0:
458,163,105255,1,8,0:0:0:0:
459,133,105416,1,0,0:0:0:0:
472,143,105496,1,8,0:0:0:0:
395,130,105576,1,0,0:0:0:0:
417,151,105736,1,8,0:0:0:0:
434,155,105897,1,0,0:0:0:0:
434,155,105977,1,0,0:0:0:0:
441,153,106057,1,8,0:0:0:0:
412,160,106218,1,0,0:0:0:0:
313,135,106378,1,8,0:0:0:0:
313,135,106539,1,8,0:0:0:0:
422,127,106699,1,8,0:0:0:0:
422,127,106779,1,8,0:0:0:0:
471,146,106859,1,0,0:0:0:0:
446,150,107020,1,8,0:0:0:0:
445,141,107341,1,8,0:0:0:0:
455,156,107501,1,0,0:0:0:0:
472,161,107822,1,0,0:0:0:0:
486,150,107982,1,8,0:0:0:0:
461,146,108143,1,0,0:0:0:0:
458,144,108223,1,0,0:0:0:0:
470,154,108303,1,8,0:0:0:0:
455,156,108464,1,8,0:0:0:0:
386,144,108624,1,0,0:0:0:0:
386,144,108704,1,0,0:0:0:0:
386,144,108785,1,0,0:0:0:0:
434,164,108945,1,8,0:0:0:0:
422,155,109105,1,8,0:0:0:0:
433,103,109266,1,8,0:0:0:0:
487,141,109346,1,0,0:0:0:0:
492,152,109426,1,8,0:0:0:0:
465,154,109587,1,0,0:0:0:0:
429,151,109747,1,8,0:0:0:0:
414,154,109988,1,0,0:0:0:0:
360,168,110228,1,8,0:0:0:0:
194,151,110389,1,0,0:0:0:0:
445,151,110710,1,0,0:0:0:0:
445,151,110870,1,0,0:0:0:0:
401,142,111031,1,8,0:0:0:0:
383,146,111351,1,8,0:0:0:0:
401,142,111512,1,8,0:0:0:0:
323,168,111672,1,0,0:0:0:0:
447,144,111833,1,8,0:0:0:0:
447,144,111993,1,0,0:0:0:0:
451,154,112073,1,8,0:0:0:0:
436,153,112154,1,0,0:0:0:0:
428,143,112314,1,8,0:0:0:0:
417,119,112474,1,8,0:0:0:0:
485,152,112555,1,0,0:0:0:0:
464,157,112635,1,8,0:0:0:0:
458,154,112795,1,8,0:0:0:0:
450,158,112956,1,4,0:0:0:0:
467,152,113277,1,0,0:0:0:0:
472,161,113437,1,8,0:0:0:0:
428,169,113597,1,0,0:0:0:0:
179,150,113758,1,0,0:0:0:0:
414,161,113838,1,8,0:0:0:0:
445,154,113918,1,0,0:0:0:0:
440,161,114079,1,8,0:0:0:0:
190,208,114239,1,0,0:0:0:0:
429,153,114560,1,0,0:0:0:0:
424,157,114720,1,8,0:0:0:0:
192,49,114881,1,0,0:0:0:0:
474,157,115041,1,8,0:0:0:0:
474,157,115121,1,8,0:0:0:0:
505,158,115202,1,0,0:0:0:0:
465,152,115362,1,8,0:0:0:0:
438,153,115523,1,0,0:0:0:0:
466,159,115843,1,8,0:0:0:0:
485,169,116004,1,0,0:0:0:0:
485,169,116084,1,0,0:0:0:0:
437,171,116164,1,8,0:0:0:0:
445,146,116325,1,0,0:0:0:0:
430,139,116485,1,8,0:0:0:0:
443,151,116646,1,0,0:0:0:0:
408,144,116806,1,8,0:0:0:0:
503,157,116886,1,0,0:0:0:0:
492,162,116966,1,8,0:0:0:0:
434,137,117127,1,0,0:0:0:0:
399,129,117287,1,8,0:0:0:0:
399,128,117448,1,8,0:0:0:0:
261,124,117608,1,8,0:0:0:0:
416,156,117769,1,0,0:0:0:0:
492,162,117929,1,8,0:0:0:0:
494,160,118009,1,8,0:0:0:0:
475,154,118089,1,0,0:0:0:0:
394,143,118410,1,0,0:0:0:0:
417,148,118571,1,0,0:0:0:0:
424,157,118731,1,8,0:0:0:0:
383,152,118892,1,0,0:0:0:0:
383,152,118972,1,0,0:0:0:0:
315,138,119052,1,8,0:0:0:0:
418,159,119212,1,8,0:0:0:0:
341,133,119533,1,8,0:0:0:0:
479,156,119694,1,8,0:0:0:0:
481,156,119854,1,8,0:0:0:0:
474,153,119934,1,8,0:0:0:0:
408,128,120014,1,0,0:0:0:0:
402,177,120175,1,0,0:0:0:0:
463,155,120335,1,8,0:0:0:0:
463,155,120496,1,8,0:0:0:0:
402,160,120656,1,0,0:0:0:0:
443,155,120977,1,0,0:0:0:0:
443,144,121137,1,8,0:0:0:0:
414,140,121298,1,0,0:0:0:0:
409,126,121458,1,8,0:0:0:0:
465,148,121619,1,0,0:0:0:0:
463,148,121699,1,0,0:0:0:0:
439,145,121779,1,8,0:0:0:0:
477,155,121859,1,8,0:0:0:0:
423,151,121940,1,0,0:0:0:0:
485,158,122100,1,8,0:0:0:0:
402,151,122260,1,0,0:0:0:0:
493,150,122581,1,0,0:0:0:0:
487,150,122742,1,8,0:0:0:0:
487,150,122822,1,8,0:0:0:0:
480,153,122902,1,0,0:0:0:0:
495,136,123063,1,0,0:0:0:0:
485,132,123223,1,4,0:0:0:0:
395,137,125790,1,0,0:0:0:0:
293,128,126031,1,8,0:0:0:0:
248,64,126271,1,8,0:0:0:0:
366,164,126432,1,0,0:0:0:0:
447,157,126592,1,8,0:0:0:0:
447,157,126752,1,8,0:0:0:0:
457,157,126913,1,0,0:0:0:0:
418,166,127073,1,8,0:0:0:0:
417,149,127394,1,0,0:0:0:0:
418,166,127715,1,8,0:0:0:0:
431,155,127875,1,0,0:0:0:0:
427,153,128036,1,0,0:0:0:0:
240,103,128196,1,0,0:0:0:0:
296,146,128357,1,8,0:0:0:0:
289,151,128678,1,0,0:0:0:0:
289,151,128998,1,0,0:0:0:0:
453,138,129159,1,8,0:0:0:0:
468,147,129319,1,0,0:0:0:0:
467,147,129480,1,0,0:0:0:0:
433,149,129640,1,8,0:0:0:0:
439,151,129961,1,0,0:0:0:0:
452,160,130121,1,8,0:0:0:0:
436,152,130282,1,0,0:0:0:0:
436,152,130442,1,0,0:0:0:0:
437,115,130763,1,0,0:0:0:0:
408,158,130924,1,8,0:0:0:0:
462,120,131244,1,8,0:0:0:0:
458,120,131405,1,8,0:0:0:0:
492,149,131565,1,0,0:0:0:0:
481,157,131726,1,8,0:0:0:0:
480,152,131886,1,0,0:0:0:0:
479,150,132047,1,0,0:0:0:0:
479,148,132207,1,8,0:0:0:0:
417,94,132528,1,0,0:0:0:0:
417,94,132688,1,0,0:0:0:0:
413,138,132849,1,8,0:0:0:0:
223,43,133009,1,0,0:0:0:0:
228,44,133170,1,0,0:0:0:0:
440,157,133330,1,8,0:0:0:0:
462,166,133490,1,0,0:0:0:0:
263,126,133811,1,8,0:0:0:0:
377,146,134132,1,0,0:0:0:0:
448,154,134293,1,8,0:0:0:0:
446,154,134453,1,8,0:0:0:0:
401,142,134613,1,0,0:0:0:0:
397,142,134774,1,0,0:0:0:0:
339,122,135095,1,0,0:0:0:0:
427,164,135416,1,8,0:0:0:0:
381,158,135576,1,0,0:0:0:0:
394,113,135897,1,0,0:0:0:0:
394,113,136057,1,0,0:0:0:0:
405,126,136298,1,8,0:0:0:0:
405,126,136539,1,8,0:0:0:0:
340,135,136699,1,0,0:0:0:0:
478,143,136859,1,8,0:0:0:0:
473,139,137020,1,8,0:0:0:0:
458,149,137180,1,0,0:0:0:0:
443,156,137341,1,8,0:0:0:0:
392,109,137662,1,0,0:0:0:0:
455,135,137822,1,8,0:0:0:0:
470,149,138143,1,0,0:0:0:0:
463,148,138303,1,0,0:0:0:0:
470,160,138464,1,8,0:0:0:0:
445,153,138624,1,0,0:0:0:0:
399,95,138945,1,8,0:0:0:0:
399,95,139266,1,8,0:0:0:0:
428,128,139426,1,0,0:0:0:0:
428,128,139587,1,0,0:0:0:0:
428,128,139747,1,0,0:0:0:0:
410,144,139908,1,8,0:0:0:0:
386,144,140228,1,0,0:0:0:0:
411,160,140549,1,8,0:0:0:0:
432,149,140710,1,0,0:0:0:0:
182,203,141031,1,0,0:0:0:0:
355,155,141191,1,8,0:0:0:0:
428,149,141512,1,0,0:0:0:0:
439,158,141672,1,8,0:0:0:0:
416,158,141833,1,0,0:0:0:0:
402,153,142154,1,0,0:0:0:0:
360,154,142314,1,8,0:0:0:0:
360,154,142474,1,8,0:0:0:0:
404,158,142795,1,0,0:0:0:0:
360,154,143116,1,8,0:0:0:0:
436,131,143437,1,0,0:0:0:0:
442,151,143597,1,8,0:0:0:0:
386,148,143758,1,4,0:0:0:0:
476,163,144079,1,8,0:0:0:0:
430,162,144400,1,0,0:0:0:0:
438,156,144560,1,8,0:0:0:0:
438,156,144720,1,8,0:0:0:0:
438,156,144881,1,8,0:0:0:0:
367,164,145041,1,0,0:0:0:0:
454,177,145362,1,0,0:0:0:0:
388,157,145523,1,8,0:0:0:0:
425,160,145843,1,0,0:0:0:0:
381,155,146164,1,0,0:0:0:0:
401,170,146325,1,8,0:0:0:0:
414,157,146485,1,0,0:0:0:0:
414,157,146565,1,0,0:0:0:0:
445,152,146646,1,8,0:0:0:0:
348,135,146806,1,8,0:0:0:0:
374,157,146966,1,0,0:0:0:0:
458,149,147127,1,8,0:0:0:0:
430,151,147287,1,0,0:0:0:0:
434,148,147608,1,8,0:0:0:0:
483,158,147769,1,0,0:0:0:0:
448,157,147929,1,8,0:0:0:0:
448,157,148009,1,8,0:0:0:0:
421,149,148089,1,8,0:0:0:0:
281,144,148250,1,8,0:0:0:0:
470,164,148410,1,0,0:0:0:0:
438,174,148571,1,8,0:0:0:0:
459,169,148731,1,0,0:0:0:0:
459,169,148811,1,0,0:0:0:0:
390,162,148892,1,8,0:0:0:0:
390,162,149212,1,8,0:0:0:0:
198,74,149373,1,0,0:0:0:0:
432,148,149533,1,8,0:0:0:0:
459,157,149694,1,0,0:0:0:0:
446,157,149854,1,8,0:0:0:0:
446,157,150014,1,8,0:0:0:0:
412,169,150175,1,0,0:0:0:0:
335,111,150496,1,0,0:0:0:0:
439,139,150656,1,8,0:0:0:0:
439,139,150817,1,8,0:0:0:0:
449,142,150977,1,0,0:0:0:0:
458,144,151137,1,8,0:0:0:0:
458,144,151298,1,8,0:0:0:0:
448,152,151458,1,0,0:0:0:0:
409,103,151539,1,0,0:0:0:0:
494,162,151619,1,8,0:0:0:0:
485,165,151779,1,8,0:0:0:0:
472,160,151940,1,0,0:0:0:0:
469,149,152020,1,8,0:0:0:0:
461,153,152100,1,0,0:0:0:0:
421,121,152260,1,8,0:0:0:0:
435,154,152421,1,0,0:0:0:0:
441,166,152742,1,0,0:0:0:0:
500,155,152902,1,8,0:0:0:0:
461,153,153063,1,0,0:0:0:0:
488,168,153143,1,8,0:0:0:0:
443,163,153223,1,0,0:0:0:0:
484,162,153383,1,8,0:0:0:0:
431,166,153544,1,0,0:0:0:0:
361,142,153704,1,8,0:0:0:0:
441,168,153785,1,0,0:0:0:0:
441,168,153865,1,0,0:0:0:0:
430,178,154025,1,4,0:0:0:0:
299,143,156592,1,8,0:0:0:0:
265,134,157073,1,8,0:0:0:0:
296,241,159159,1,8,0:0:0:0:
339,271,164293,5,8,0:0:0:0:
187,51,164934,5,0,0:0:0:0:
441,170,165576,1,8,0:0:0:0:
331,204,166218,1,0,0:0:0:0:
394,166,166859,1,0,0:0:0:0:
436,157,167501,1,8,0:0:0:0:
436,157,168143,1,8,0:0:0:0:
458,162,168785,1,0,0:0:0:0:
424,158,169426,1,0,0:0:0:0:
454,160,170068,1,8,0:0:0:0:
452,154,170710,1,0,0:0:0:0:
424,164,171351,1,8,0:0:0:0:
343,98,171993,1,8,0:0:0:0:
344,153,172635,1,0,0:0:0:0:
497,154,173116,1,0,0:0:0:0:
416,161,173277,1,8,0:0:0:0:
425,158,173918,1,0,0:0:0:0:
412,137,174560,1,8,0:0:0:0:
