osu file format v14

[General]
AudioFilename: audio.mp3
AudioLeadIn: 0
PreviewTime: 101406
Countdown: 0
SampleSet: Normal
StackLeniency: 0.7
Mode: 3
LetterboxInBreaks: 0
SpecialStyle: 0
WidescreenStoryboard: 0

[Editor]
DistanceSpacing: 1
BeatDivisor: 8
GridSize: 4
TimelineZoom: 2.4

[Metadata]
Title:Bug Thief
TitleUnicode:Bug Thief
Artist:Iglooghost
ArtistUnicode:Iglooghost
Creator:BringoBrango
Version:Toaph's Swarm
Source:
Tags:LN long note jumpstream TheToaphster Toaph Daddy Neo Wax Bloom electronic drum and bass dnb idm experimental
BeatmapID:2033667
BeatmapSetID:887787

[Difficulty]
HPDrainRate:8
CircleSize:4
OverallDifficulty:8
ApproachRate:5
SliderMultiplier:1.4
SliderTickRate:1

[Events]
//Background and Video events
0,0,"fdsf3.jpg",0,0
//Break Periods
//Storyboard Layer 0 (Background)
//Storyboard Layer 1 (Fail)
//Storyboard Layer 2 (Pass)
//Storyboard Layer 3 (Foreground)
//Storyboard Layer 4 (Overlay)
//Storyboard Sound Samples

[TimingPoints]
16,320.855614973262,4,1,1,50,1,0
102689,-100,4,1,1,50,0,1
123224,-100,4,1,1,50,0,0

[HitObjects]
192,192,16,5,0,0:0:0:0:
320,192,42,1,0,0:0:0:0:
64,192,2482,1,0,0:0:0:0:
192,192,2542,1,0,0:0:0:0:
448,192,2582,1,0,0:0:0:0:
192,192,5149,1,4,0:0:0:0:
448,192,5149,128,0,5229:0:0:0:0:
320,192,6753,128,0,6834:0:0:0:0:
192,192,7235,128,0,7315:0:0:0:0:
192,192,7716,1,4,0:0:0:0:
320,192,7716,128,0,7796:0:0:0:0:
64,192,7876,128,0,7957:0:0:0:0:
448,192,8358,128,0,8438:0:0:0:0:
320,192,8518,128,0,8598:0:0:0:0:
448,192,8999,128,4,9080:3:0:0:0:
192,192,9160,128,0,9240:0:0:0:0:
320,192,9481,1,4,3:0:0:0:
192,192,9561,1,0,0:0:0:0:
448,192,9641,128,0,9721:0:0:0:0:
320,192,9721,1,0,0:0:0:0:
64,192,9802,128,0,9882:0:0:0:0:
320,192,9882,1,0,0:0:0:0:
64,192,9962,1,4,3:0:0:0:
448,192,9962,1,0,0:0:0:0:
320,192,10122,128,0,10283:0:0:0:0:
64,192,10283,1,8,0:0:0:0:
192,192,10283,1,0,0:0:0:0:
192,192,10524,128,0,10604:0:0:0:0:
192,192,10684,128,0,11005:0:0:0:0:
192,192,11085,128,0,11406:0:0:0:0:
320,192,11245,128,0,11406:0:0:0:0:
64,192,11406,128,0,11566:0:0:0:0:
192,192,11566,128,0,11647:0:0:0:0:
192,192,11887,128,0,12288:0:0:0:0:
448,192,12208,128,0,12288:0:0:0:0:
192,192,12368,128,0,12449:0:0:0:0:
448,192,12368,128,0,12449:0:0:0:0:
192,192,12529,128,0,12850:0:0:0:0:
448,192,12529,128,0,12770:0:0:0:0:
320,192,12850,1,8,0:0:0:0:
448,192,12850,1,0,0:0:0:0:
64,192,13010,1,0,0:0:0:0:
192,192,13171,128,0,13251:0:0:0:0:
448,192,13171,128,0,13251:0:0:0:0:
192,192,13812,128,0,13893:0:0:0:0:
448,192,13812,128,0,13893:0:0:0:0:
320,192,13973,128,0,15256:0:0:0:0:
192,192,14454,128,0,14534:0:0:0:0:
448,192,14454,128,0,14534:0:0:0:0:
192,192,15096,128,0,15176:0:0:0:0:
448,192,15096,128,0,15176:0:0:0:0:
192,192,15256,128,0,15336:0:0:0:0:
448,192,15256,1,0,0:0:0:0:
448,192,15336,1,0,0:0:0:0:
64,192,15417,128,8,16459:0:0:0:0:
192,192,15417,1,0,0:0:0:0:
320,192,15417,128,0,16299:0:0:0:0:
192,192,15657,128,0,15737:0:0:0:0:
192,192,15818,128,0,16138:0:0:0:0:
448,192,16058,1,0,0:0:0:0:
192,192,16219,128,0,16540:0:0:0:0:
320,192,16379,128,0,17903:0:0:0:0:
64,192,16540,128,0,17422:0:0:0:0:
192,192,16700,128,0,16780:0:0:0:0:
192,192,17021,128,0,17342:0:0:0:0:
448,192,17342,1,0,0:0:0:0:
64,192,17502,128,0,17983:0:0:0:0:
448,192,17502,1,0,0:0:0:0:
448,192,17663,1,0,0:0:0:0:
320,192,17983,1,8,0:0:0:0:
448,192,17983,128,0,18384:0:0:0:0:
320,192,18144,128,0,18224:0:0:0:0:
192,192,18304,128,0,18384:0:0:0:0:
448,192,18465,128,0,18705:0:0:0:0:
64,192,18625,128,0,18705:0:0:0:0:
448,192,18786,128,0,19187:0:0:0:0:
192,192,18946,128,0,19026:0:0:0:0:
320,192,19106,128,0,19187:0:0:0:0:
448,192,19267,128,0,19347:0:0:0:0:
448,192,19588,128,0,19668:0:0:0:0:
192,192,19909,128,0,19989:0:0:0:0:
320,192,20069,128,0,20149:0:0:0:0:
64,192,20229,128,0,20310:0:0:0:0:
192,192,20390,128,0,20470:0:0:0:0:
320,192,20550,1,8,0:0:0:0:
448,192,20550,1,0,0:0:0:0:
64,192,21032,1,8,3:0:0:0:
448,192,21032,128,0,21112:0:0:0:0:
320,192,21352,128,0,21433:0:0:0:0:
64,192,21513,1,8,3:0:0:0:
192,192,21513,128,0,21593:0:0:0:0:
320,192,21834,128,0,21914:0:0:0:0:
64,192,22155,1,8,3:0:0:0:
448,192,22155,128,0,22235:0:0:0:0:
192,192,22475,128,0,22556:0:0:0:0:
64,192,22636,1,8,3:0:0:0:
320,192,22796,128,0,22876:0:0:0:0:
64,192,22957,1,8,3:0:0:0:
448,192,22957,128,0,23037:0:0:0:0:
64,192,23117,128,8,23197:3:0:0:0:
192,192,23117,1,8,0:0:0:0:
64,192,23598,1,8,3:0:0:0:
448,192,23598,128,0,23679:0:0:0:0:
192,192,23759,128,0,23839:0:0:0:0:
320,192,23919,128,0,23999:0:0:0:0:
64,192,24080,1,8,3:0:0:0:
192,192,24080,128,0,24160:0:0:0:0:
448,192,24401,128,0,24481:0:0:0:0:
64,192,24721,1,8,3:0:0:0:
192,192,24721,128,0,24802:0:0:0:0:
320,192,24882,128,0,24962:0:0:0:0:
64,192,25203,1,8,3:0:0:0:
448,192,25203,1,4,3:0:0:0:
448,192,25363,1,4,3:0:0:0:
64,192,25524,1,8,3:0:0:0:
448,192,25524,128,4,25604:3:0:0:0:
64,192,25684,128,8,26085:3:0:0:0:
192,192,25684,1,8,0:0:0:0:
320,192,25684,1,0,0:0:0:0:
64,192,26165,128,8,26566:3:0:0:0:
448,192,26165,128,0,26245:0:0:0:0:
320,192,26486,128,0,26566:0:0:0:0:
64,192,26647,128,8,26967:3:0:0:0:
448,192,26647,128,0,26727:0:0:0:0:
192,192,26967,128,0,27208:0:0:0:0:
320,192,26967,128,0,27048:0:0:0:0:
64,192,27288,1,8,3:0:0:0:
192,192,27288,128,0,28251:0:0:0:0:
448,192,27288,128,0,27368:0:0:0:0:
448,192,27609,128,0,27689:0:0:0:0:
64,192,27770,1,8,3:0:0:0:
320,192,27770,128,0,27850:0:0:0:0:
320,192,27930,128,0,28010:0:0:0:0:
64,192,28090,1,8,3:0:0:0:
448,192,28090,128,0,28171:0:0:0:0:
320,192,28251,1,8,3:0:0:0:
448,192,28251,128,8,28812:0:0:0:0:
320,192,28572,1,0,0:0:0:0:
64,192,28732,1,8,3:0:0:0:
192,192,28893,1,0,0:0:0:0:
448,192,28893,128,0,29454:0:0:0:0:
320,192,29053,128,0,29133:0:0:0:0:
64,192,29213,1,8,3:0:0:0:
448,192,29534,128,0,30256:0:0:0:0:
192,192,29695,128,0,29775:0:0:0:0:
64,192,29855,1,8,3:0:0:0:
320,192,30176,128,0,30256:0:0:0:0:
64,192,30336,1,8,3:0:0:0:
192,192,30336,128,4,30417:3:0:0:0:
448,192,30336,128,0,30417:0:0:0:0:
448,192,30497,128,4,30577:3:0:0:0:
64,192,30657,1,8,3:0:0:0:
448,192,30657,128,4,30737:3:0:0:0:
320,192,30818,1,8,3:0:0:0:
448,192,30818,128,8,31459:0:0:0:0:
64,192,31299,1,8,3:0:0:0:
192,192,31299,128,0,31379:0:0:0:0:
192,192,31620,128,0,31700:0:0:0:0:
64,192,31780,1,8,3:0:0:0:
192,192,31780,128,0,32342:0:0:0:0:
320,192,31780,128,0,31860:0:0:0:0:
448,192,32101,128,0,32181:0:0:0:0:
64,192,32422,1,8,3:0:0:0:
192,192,32422,128,0,33064:0:0:0:0:
320,192,32422,128,0,32502:0:0:0:0:
64,192,32903,1,8,3:0:0:0:
320,192,32903,128,0,32983:0:0:0:0:
64,192,33224,1,8,3:0:0:0:
320,192,33224,128,0,33304:0:0:0:0:
320,192,33384,1,8,3:0:0:0:
448,192,33384,128,8,34026:0:0:0:0:
64,192,33866,1,8,3:0:0:0:
192,192,33866,128,0,33946:0:0:0:0:
192,192,34187,128,0,34267:0:0:0:0:
64,192,34347,1,8,3:0:0:0:
192,192,34347,128,0,34909:0:0:0:0:
320,192,34347,128,0,34427:0:0:0:0:
448,192,34668,128,0,34748:0:0:0:0:
64,192,34989,1,8,3:0:0:0:
192,192,34989,128,0,35630:0:0:0:0:
320,192,34989,128,0,35069:0:0:0:0:
64,192,35470,1,8,3:0:0:0:
320,192,35470,128,4,35550:3:0:0:0:
448,192,35470,1,0,0:0:0:0:
448,192,35630,1,4,3:0:0:0:
64,192,35791,1,8,3:0:0:0:
320,192,35791,128,4,35871:3:0:0:0:
448,192,35791,1,0,0:0:0:0:
320,192,35951,128,8,36593:3:0:0:0:
448,192,35951,128,8,36032:0:0:0:0:
448,192,36112,128,0,36192:0:0:0:0:
448,192,36272,128,0,36352:0:0:0:0:
192,192,36433,128,8,36513:3:0:0:0:
448,192,36433,128,0,36513:0:0:0:0:
64,192,36593,128,0,37235:0:0:0:0:
448,192,36593,128,0,36673:0:0:0:0:
192,192,36753,128,0,36834:0:0:0:0:
448,192,36753,128,0,36834:0:0:0:0:
192,192,36914,128,8,37475:3:0:0:0:
448,192,36914,128,0,36994:0:0:0:0:
448,192,37074,128,0,37155:0:0:0:0:
320,192,37235,128,0,37475:0:0:0:0:
448,192,37235,128,0,37315:0:0:0:0:
448,192,37395,128,0,37475:0:0:0:0:
192,192,37556,128,8,38197:3:0:0:0:
320,192,37556,128,0,37636:0:0:0:0:
448,192,37556,128,0,37636:0:0:0:0:
448,192,37716,128,0,37796:0:0:0:0:
448,192,37876,128,0,37957:0:0:0:0:
64,192,38037,128,8,38117:3:0:0:0:
448,192,38037,128,0,38117:0:0:0:0:
448,192,38197,128,0,38278:0:0:0:0:
192,192,38358,128,8,38438:3:0:0:0:
448,192,38358,128,0,38438:0:0:0:0:
320,192,38518,128,8,39802:3:0:0:0:
448,192,38518,128,8,38598:0:0:0:0:
192,192,38679,128,0,38759:0:0:0:0:
448,192,38679,128,0,38759:0:0:0:0:
64,192,38839,128,0,38919:0:0:0:0:
448,192,38839,128,0,38919:0:0:0:0:
448,192,38999,128,8,39080:3:0:0:0:
192,192,39160,128,0,39240:0:0:0:0:
448,192,39160,128,0,39240:0:0:0:0:
448,192,39320,128,0,39401:0:0:0:0:
64,192,39481,128,8,39561:3:0:0:0:
448,192,39481,128,0,39561:0:0:0:0:
192,192,39641,128,0,39721:0:0:0:0:
448,192,39641,128,0,39721:0:0:0:0:
64,192,39802,128,0,39882:0:0:0:0:
448,192,39802,1,0,0:0:0:0:
192,192,39962,1,0,0:0:0:0:
320,192,40122,1,0,0:0:0:0:
64,192,40283,128,0,40363:0:0:0:0:
320,192,40443,1,0,0:0:0:0:
448,192,40604,1,0,0:0:0:0:
64,192,40764,128,0,40844:0:0:0:0:
448,192,40925,128,0,41005:0:0:0:0:
64,192,41085,1,8,0:0:0:0:
192,192,41085,128,0,41165:0:0:0:0:
192,192,41326,128,0,41406:0:0:0:0:
192,192,41486,128,0,41807:0:0:0:0:
320,192,41566,1,8,0:0:0:0:
448,192,41566,1,0,0:0:0:0:
192,192,41887,128,4,42208:3:0:0:0:
448,192,41887,1,0,0:0:0:0:
64,192,42048,1,4,0:0:0:0:
320,192,42048,128,0,42208:0:0:0:0:
64,192,42208,128,4,42368:3:0:0:0:
320,192,42368,128,8,42449:0:0:0:0:
448,192,42368,1,0,0:0:0:0:
192,192,42689,128,4,43010:3:0:0:0:
320,192,42850,1,8,0:0:0:0:
448,192,42850,1,0,0:0:0:0:
192,192,43171,128,4,43251:3:0:0:0:
192,192,43331,128,4,43572:0:0:0:0:
448,192,43331,1,0,0:0:0:0:
448,192,43491,1,4,0:0:0:0:
64,192,43652,128,8,43732:0:0:0:0:
192,192,43652,1,0,0:0:0:0:
320,192,43812,128,0,43893:0:0:0:0:
192,192,43973,128,4,44053:3:0:0:0:
320,192,44133,1,8,0:0:0:0:
448,192,44133,128,0,44213:0:0:0:0:
320,192,44294,128,0,44374:0:0:0:0:
448,192,44454,128,4,44534:3:0:0:0:
64,192,44614,128,4,44695:0:0:0:0:
320,192,44614,1,0,0:0:0:0:
192,192,44775,128,4,44855:3:0:0:0:
64,192,44935,128,8,45015:0:0:0:0:
192,192,44935,1,0,0:0:0:0:
320,192,45096,128,4,45176:3:0:0:0:
192,192,45256,128,4,45336:3:0:0:0:
320,192,45417,1,8,0:0:0:0:
448,192,45417,128,0,45497:0:0:0:0:
320,192,45577,128,4,45657:3:0:0:0:
320,192,45737,1,8,0:0:0:0:
448,192,45737,128,0,45818:0:0:0:0:
64,192,45898,128,4,45978:0:0:0:0:
448,192,45898,1,0,0:0:0:0:
320,192,46058,1,8,0:0:0:0:
448,192,46058,128,0,46138:0:0:0:0:
64,192,46219,1,8,0:0:0:0:
192,192,46219,128,0,46299:0:0:0:0:
64,192,46379,128,0,46459:0:0:0:0:
192,192,46540,1,4,3:0:0:0:
320,192,46700,128,8,46780:0:0:0:0:
448,192,46700,1,0,0:0:0:0:
64,192,46860,128,0,46941:0:0:0:0:
192,192,47021,1,4,3:0:0:0:
64,192,47181,1,4,0:0:0:0:
448,192,47181,128,0,47261:0:0:0:0:
192,192,47342,128,4,47422:3:0:0:0:
320,192,47502,1,8,0:0:0:0:
448,192,47502,1,0,0:0:0:0:
64,192,47663,1,0,0:0:0:0:
448,192,47743,1,0,0:0:0:0:
192,192,47823,128,4,47903:3:0:0:0:
320,192,47983,128,8,48064:0:0:0:0:
448,192,47983,1,0,0:0:0:0:
448,192,48144,128,0,48224:0:0:0:0:
64,192,48224,1,0,0:0:0:0:
320,192,48304,1,4,3:0:0:0:
64,192,48465,1,4,0:0:0:0:
448,192,48465,1,0,0:0:0:0:
448,192,48625,128,4,48705:3:0:0:0:
64,192,48786,128,8,49668:0:0:0:0:
192,192,48786,128,0,49026:0:0:0:0:
448,192,48946,1,0,0:0:0:0:
192,192,49106,128,4,49989:3:0:0:0:
320,192,49267,1,8,0:0:0:0:
448,192,49267,1,0,0:0:0:0:
320,192,49427,128,0,49507:0:0:0:0:
320,192,49588,1,4,3:0:0:0:
64,192,49748,128,4,49989:0:0:0:0:
448,192,49748,128,0,49828:0:0:0:0:
320,192,49909,1,4,3:0:0:0:
64,192,50069,128,8,50310:0:0:0:0:
192,192,50069,128,0,50630:0:0:0:0:
448,192,50229,1,4,3:0:0:0:
64,192,50390,128,4,50871:3:0:0:0:
320,192,50550,128,8,50630:0:0:0:0:
448,192,50550,1,0,0:0:0:0:
192,192,50711,128,4,50791:3:0:0:0:
320,192,50871,1,8,0:0:0:0:
448,192,50871,128,0,50951:0:0:0:0:
192,192,50951,1,0,0:0:0:0:
64,192,51032,1,4,0:0:0:0:
320,192,51032,1,0,0:0:0:0:
448,192,51112,1,0,0:0:0:0:
192,192,51192,1,8,0:0:0:0:
64,192,51272,1,0,0:0:0:0:
320,192,51352,1,8,0:0:0:0:
448,192,51352,1,8,3:0:0:0:
192,192,51393,1,0,0:0:0:0:
64,192,51433,1,0,0:0:0:0:
448,192,51513,1,0,0:0:0:0:
192,192,51593,1,0,0:0:0:0:
448,192,51673,1,4,3:0:0:0:
192,192,51753,1,0,0:0:0:0:
320,192,51834,1,8,0:0:0:0:
448,192,51834,1,8,3:0:0:0:
192,192,51874,1,0,0:0:0:0:
64,192,51914,1,0,0:0:0:0:
448,192,51994,1,0,0:0:0:0:
64,192,52074,1,0,0:0:0:0:
448,192,52155,1,4,3:0:0:0:
64,192,52235,1,0,0:0:0:0:
192,192,52315,1,4,0:0:0:0:
448,192,52315,1,8,3:0:0:0:
64,192,52355,1,0,0:0:0:0:
320,192,52395,1,0,0:0:0:0:
192,192,52475,1,4,3:0:0:0:
320,192,52556,1,0,0:0:0:0:
192,192,52636,1,0,0:0:0:0:
320,192,52716,1,0,0:0:0:0:
192,192,52796,1,0,0:0:0:0:
320,192,52876,1,0,0:0:0:0:
64,192,52957,1,8,0:0:0:0:
192,192,52957,1,8,3:0:0:0:
448,192,52997,1,0,0:0:0:0:
320,192,53037,1,0,0:0:0:0:
64,192,53117,1,0,0:0:0:0:
320,192,53197,1,0,0:0:0:0:
64,192,53278,1,4,0:0:0:0:
448,192,53278,1,8,3:0:0:0:
320,192,53318,1,0,0:0:0:0:
192,192,53358,1,0,0:0:0:0:
320,192,53438,1,4,3:0:0:0:
64,192,53518,1,0,0:0:0:0:
192,192,53598,1,0,0:0:0:0:
64,192,53679,1,0,0:0:0:0:
320,192,53759,1,8,0:0:0:0:
448,192,53759,1,8,3:0:0:0:
192,192,53799,1,0,0:0:0:0:
64,192,53839,1,0,0:0:0:0:
320,192,53919,1,8,0:0:0:0:
448,192,53919,1,8,3:0:0:0:
192,192,53959,1,0,0:0:0:0:
64,192,53999,1,0,0:0:0:0:
448,192,54080,1,0,0:0:0:0:
320,192,54160,1,0,0:0:0:0:
448,192,54240,1,4,3:0:0:0:
320,192,54320,1,0,0:0:0:0:
64,192,54401,1,8,0:0:0:0:
192,192,54401,1,8,3:0:0:0:
448,192,54441,1,0,0:0:0:0:
320,192,54481,1,0,0:0:0:0:
192,192,54561,1,0,0:0:0:0:
448,192,54641,1,0,0:0:0:0:
192,192,54721,1,4,3:0:0:0:
448,192,54802,1,0,0:0:0:0:
64,192,54882,1,8,3:0:0:0:
320,192,54882,1,4,0:0:0:0:
192,192,54922,1,0,0:0:0:0:
448,192,54962,1,0,0:0:0:0:
320,192,55042,1,4,3:0:0:0:
64,192,55122,1,0,0:0:0:0:
320,192,55203,1,8,3:0:0:0:
448,192,55203,1,8,0:0:0:0:
192,192,55243,1,0,0:0:0:0:
64,192,55283,1,0,0:0:0:0:
448,192,55363,1,4,3:0:0:0:
64,192,55443,1,0,0:0:0:0:
448,192,55524,1,12,3:0:0:0:
320,192,55564,1,0,0:0:0:0:
192,192,55604,1,0,0:0:0:0:
320,192,55684,1,8,0:0:0:0:
448,192,55684,1,0,0:0:0:0:
192,192,55764,1,0,0:0:0:0:
320,192,55844,1,8,3:0:0:0:
192,192,55884,1,0,0:0:0:0:
64,192,55925,1,0,0:0:0:0:
320,192,56005,1,8,0:0:0:0:
448,192,56005,1,0,0:0:0:0:
64,192,56085,1,0,0:0:0:0:
192,192,56165,1,8,3:0:0:0:
448,192,56165,1,4,0:0:0:0:
320,192,56205,1,0,0:0:0:0:
64,192,56245,1,0,0:0:0:0:
320,192,56326,1,8,0:0:0:0:
448,192,56326,1,0,0:0:0:0:
64,192,56406,1,0,0:0:0:0:
320,192,56486,128,8,56647:0:0:0:0:
448,192,56486,128,0,56566:0:0:0:0:
64,192,56647,1,0,0:0:0:0:
64,192,56807,1,4,3:0:0:0:
320,192,56967,128,8,57048:0:0:0:0:
448,192,56967,128,0,57128:0:0:0:0:
64,192,57128,1,0,0:0:0:0:
64,192,57288,1,4,3:0:0:0:
192,192,57449,128,4,57529:0:0:0:0:
448,192,57449,128,0,57609:0:0:0:0:
64,192,57609,1,4,3:0:0:0:
320,192,57770,1,8,0:0:0:0:
448,192,57770,1,0,0:0:0:0:
192,192,57930,1,0,0:0:0:0:
448,192,58010,128,0,58251:0:0:0:0:
64,192,58090,128,4,58171:3:0:0:0:
64,192,58251,1,8,0:0:0:0:
192,192,58251,1,0,0:0:0:0:
320,192,58411,128,0,58491:0:0:0:0:
64,192,58491,128,0,58652:0:0:0:0:
448,192,58572,128,4,58652:3:0:0:0:
64,192,58732,1,4,0:0:0:0:
320,192,58732,1,0,0:0:0:0:
320,192,58893,128,4,59053:3:0:0:0:
64,192,59053,128,8,59213:0:0:0:0:
192,192,59053,128,0,59294:0:0:0:0:
448,192,59053,128,0,59133:0:0:0:0:
320,192,59213,1,0,0:0:0:0:
64,192,59294,128,0,59454:0:0:0:0:
192,192,59374,128,4,59454:3:0:0:0:
448,192,59454,1,0,0:0:0:0:
64,192,59534,128,8,59935:0:0:0:0:
192,192,59534,128,0,59775:0:0:0:0:
320,192,59695,128,0,59775:0:0:0:0:
192,192,59855,128,4,60096:3:0:0:0:
64,192,60015,128,4,60417:0:0:0:0:
448,192,60015,1,0,0:0:0:0:
192,192,60176,128,4,61058:3:0:0:0:
320,192,60336,1,8,0:0:0:0:
448,192,60336,128,0,60417:0:0:0:0:
64,192,60497,128,4,60898:3:0:0:0:
320,192,60657,1,4,3:0:0:0:
320,192,60818,1,8,0:0:0:0:
448,192,60818,1,0,0:0:0:0:
64,192,60978,128,4,61219:3:0:0:0:
320,192,60978,128,0,61058:0:0:0:0:
192,192,61138,128,8,61620:0:0:0:0:
64,192,61299,128,4,61459:0:0:0:0:
320,192,61299,1,0,0:0:0:0:
448,192,61459,128,8,61540:0:0:0:0:
64,192,61540,128,0,61620:0:0:0:0:
320,192,61620,128,8,61700:0:0:0:0:
448,192,61620,1,0,0:0:0:0:
192,192,61780,1,0,0:0:0:0:
64,192,61860,1,0,0:0:0:0:
192,192,61941,1,0,0:0:0:0:
320,192,62101,1,8,0:0:0:0:
448,192,62101,1,0,0:0:0:0:
64,192,62261,1,0,0:0:0:0:
192,192,62342,1,0,0:0:0:0:
64,192,62422,1,0,0:0:0:0:
64,192,62582,1,4,0:0:0:0:
448,192,62582,1,0,0:0:0:0:
192,192,62743,1,0,0:0:0:0:
448,192,62903,1,8,3:0:0:0:
448,192,63144,1,0,0:0:0:0:
64,192,63224,1,8,0:0:0:0:
192,192,63224,1,0,0:0:0:0:
320,192,63384,1,0,0:0:0:0:
64,192,63545,1,4,0:0:0:0:
448,192,63545,1,0,0:0:0:0:
64,192,63705,1,8,0:0:0:0:
192,192,63705,1,0,0:0:0:0:
320,192,63866,1,0,0:0:0:0:
448,192,63946,1,0,0:0:0:0:
320,192,64026,128,4,64187:3:0:0:0:
64,192,64187,128,8,65069:0:0:0:0:
192,192,64187,128,0,64427:0:0:0:0:
320,192,64347,128,0,64427:0:0:0:0:
192,192,64507,128,4,65229:3:0:0:0:
320,192,64668,1,8,0:0:0:0:
448,192,64668,128,0,64748:0:0:0:0:
320,192,64828,128,0,64909:0:0:0:0:
448,192,64989,128,4,65069:3:0:0:0:
64,192,65149,128,4,65390:0:0:0:0:
320,192,65149,1,0,0:0:0:0:
192,192,65310,128,4,65390:3:0:0:0:
192,192,65470,128,8,65711:0:0:0:0:
320,192,65470,128,0,65550:0:0:0:0:
320,192,65630,128,4,65871:3:0:0:0:
64,192,65711,1,0,0:0:0:0:
192,192,65791,128,4,66673:3:0:0:0:
64,192,65951,128,8,66352:0:0:0:0:
448,192,65951,128,0,66032:0:0:0:0:
320,192,66112,128,4,66192:3:0:0:0:
320,192,66272,1,8,0:0:0:0:
448,192,66272,128,0,66352:0:0:0:0:
64,192,66433,128,4,66673:0:0:0:0:
448,192,66433,1,0,0:0:0:0:
320,192,66593,1,8,0:0:0:0:
448,192,66593,128,0,66673:0:0:0:0:
64,192,66753,1,8,0:0:0:0:
192,192,66753,128,8,66834:3:0:0:0:
320,192,66794,1,0,0:0:0:0:
448,192,66834,1,0,0:0:0:0:
64,192,66914,128,0,66994:0:0:0:0:
192,192,66994,1,0,0:0:0:0:
64,192,67074,1,4,3:0:0:0:
192,192,67155,1,0,0:0:0:0:
320,192,67235,128,8,67315:0:0:0:0:
448,192,67235,1,8,3:0:0:0:
64,192,67275,1,0,0:0:0:0:
192,192,67315,1,0,0:0:0:0:
64,192,67395,128,0,67475:0:0:0:0:
320,192,67475,1,0,0:0:0:0:
64,192,67556,1,4,3:0:0:0:
320,192,67636,1,0,0:0:0:0:
64,192,67716,1,4,0:0:0:0:
448,192,67716,128,8,67796:3:0:0:0:
192,192,67756,1,0,0:0:0:0:
320,192,67796,1,0,0:0:0:0:
192,192,67876,128,4,67957:3:0:0:0:
64,192,68037,1,8,3:0:0:0:
192,192,68037,1,8,0:0:0:0:
320,192,68077,1,0,0:0:0:0:
448,192,68117,1,0,0:0:0:0:
192,192,68197,1,0,0:0:0:0:
448,192,68278,1,0,0:0:0:0:
64,192,68358,128,4,68438:3:0:0:0:
320,192,68358,1,0,0:0:0:0:
64,192,68518,1,8,3:0:0:0:
192,192,68518,128,8,68598:0:0:0:0:
448,192,68558,1,0,0:0:0:0:
320,192,68598,1,0,0:0:0:0:
448,192,68679,128,0,68759:0:0:0:0:
192,192,68759,1,0,0:0:0:0:
448,192,68839,1,4,3:0:0:0:
192,192,68919,1,0,0:0:0:0:
64,192,68999,1,8,3:0:0:0:
448,192,68999,1,4,0:0:0:0:
192,192,69040,1,0,0:0:0:0:
320,192,69080,1,0,0:0:0:0:
448,192,69160,128,4,69240:3:0:0:0:
320,192,69240,1,0,0:0:0:0:
64,192,69320,128,8,70203:0:0:0:0:
192,192,69320,128,0,69561:0:0:0:0:
448,192,69481,1,0,0:0:0:0:
192,192,69641,128,4,70844:3:0:0:0:
320,192,69802,1,8,0:0:0:0:
448,192,69802,1,0,0:0:0:0:
320,192,69962,128,0,70042:0:0:0:0:
448,192,70122,1,4,3:0:0:0:
64,192,70283,128,4,70684:0:0:0:0:
448,192,70283,128,0,70363:0:0:0:0:
448,192,70443,1,4,3:0:0:0:
320,192,70604,128,8,70684:0:0:0:0:
448,192,70604,1,0,0:0:0:0:
64,192,70764,128,4,71486:3:0:0:0:
192,192,70925,128,4,71326:3:0:0:0:
320,192,71085,1,8,0:0:0:0:
448,192,71085,128,0,71165:0:0:0:0:
320,192,71245,128,4,71326:3:0:0:0:
192,192,71406,128,8,71647:0:0:0:0:
320,192,71486,1,0,0:0:0:0:
64,192,71566,128,4,71647:0:0:0:0:
448,192,71566,1,0,0:0:0:0:
320,192,71647,1,0,0:0:0:0:
64,192,71727,1,8,0:0:0:0:
192,192,71727,1,0,0:0:0:0:
448,192,71807,1,0,0:0:0:0:
64,192,71887,1,8,0:0:0:0:
192,192,71887,1,0,0:0:0:0:
320,192,71967,1,0,0:0:0:0:
448,192,72048,1,0,0:0:0:0:
320,192,72128,1,0,0:0:0:0:
192,192,72208,1,4,3:0:0:0:
320,192,72288,1,0,0:0:0:0:
192,192,72368,1,0,0:0:0:0:
64,192,72449,1,0,0:0:0:0:
320,192,72529,1,0,0:0:0:0:
448,192,72609,1,0,0:0:0:0:
192,192,72689,1,0,0:0:0:0:
320,192,72770,1,0,0:0:0:0:
64,192,72850,1,8,0:0:0:0:
192,192,72850,1,0,0:0:0:0:
448,192,72930,1,0,0:0:0:0:
64,192,73010,1,8,0:0:0:0:
192,192,73010,1,0,0:0:0:0:
320,192,73090,1,0,0:0:0:0:
64,192,73171,1,4,0:0:0:0:
448,192,73171,1,0,0:0:0:0:
320,192,73251,1,0,0:0:0:0:
192,192,73331,1,0,0:0:0:0:
320,192,73411,1,0,0:0:0:0:
64,192,73491,1,4,3:0:0:0:
192,192,73572,1,0,0:0:0:0:
320,192,73652,1,8,0:0:0:0:
448,192,73652,1,0,0:0:0:0:
192,192,73732,1,0,0:0:0:0:
64,192,73812,1,0,0:0:0:0:
320,192,73893,1,0,0:0:0:0:
64,192,73973,1,8,0:0:0:0:
192,192,73973,1,0,0:0:0:0:
448,192,74053,1,0,0:0:0:0:
64,192,74133,1,4,0:0:0:0:
320,192,74133,1,0,0:0:0:0:
448,192,74213,1,0,0:0:0:0:
64,192,74294,1,8,0:0:0:0:
192,192,74294,1,0,0:0:0:0:
320,192,74374,1,0,0:0:0:0:
64,192,74454,128,8,74534:0:0:0:0:
192,192,74454,1,0,0:0:0:0:
448,192,74534,1,0,0:0:0:0:
320,192,74614,128,0,74695:0:0:0:0:
64,192,74695,1,0,0:0:0:0:
192,192,74775,128,4,74855:3:0:0:0:
64,192,74855,1,0,0:0:0:0:
320,192,74935,1,8,0:0:0:0:
448,192,74935,128,0,75015:0:0:0:0:
192,192,75015,1,0,0:0:0:0:
320,192,75096,128,0,75176:0:0:0:0:
64,192,75176,1,0,0:0:0:0:
448,192,75256,128,4,75336:3:0:0:0:
192,192,75336,1,0,0:0:0:0:
64,192,75417,128,4,75497:0:0:0:0:
448,192,75417,1,0,0:0:0:0:
320,192,75497,1,0,0:0:0:0:
192,192,75577,128,4,75657:3:0:0:0:
448,192,75657,1,0,0:0:0:0:
64,192,75737,128,8,75898:0:0:0:0:
192,192,75737,128,0,75978:0:0:0:0:
448,192,75818,1,0,0:0:0:0:
320,192,75898,128,4,75978:3:0:0:0:
64,192,75978,128,0,76058:0:0:0:0:
192,192,76058,128,4,76299:3:0:0:0:
64,192,76138,128,0,76219:0:0:0:0:
320,192,76219,1,8,0:0:0:0:
448,192,76219,128,0,76299:0:0:0:0:
64,192,76299,1,0,0:0:0:0:
320,192,76379,128,4,76459:3:0:0:0:
192,192,76459,1,0,0:0:0:0:
320,192,76540,1,8,0:0:0:0:
448,192,76540,128,0,76620:0:0:0:0:
192,192,76620,1,0,0:0:0:0:
64,192,76700,128,4,76780:0:0:0:0:
448,192,76700,1,0,0:0:0:0:
192,192,76780,1,0,0:0:0:0:
320,192,76860,1,8,0:0:0:0:
448,192,76860,128,0,76941:0:0:0:0:
64,192,77021,128,8,77181:0:0:0:0:
192,192,77021,128,0,77101:0:0:0:0:
320,192,77101,1,0,0:0:0:0:
448,192,77181,1,0,0:0:0:0:
64,192,77261,1,0,0:0:0:0:
448,192,77342,1,4,3:0:0:0:
64,192,77422,1,0,0:0:0:0:
192,192,77502,128,8,77582:0:0:0:0:
320,192,77502,128,0,77663:0:0:0:0:
448,192,77582,1,0,0:0:0:0:
64,192,77663,1,0,0:0:0:0:
320,192,77743,1,0,0:0:0:0:
192,192,77823,1,4,3:0:0:0:
320,192,77903,1,0,0:0:0:0:
192,192,77983,128,4,78064:0:0:0:0:
448,192,77983,128,0,78144:0:0:0:0:
64,192,78064,1,0,0:0:0:0:
320,192,78144,1,4,3:0:0:0:
448,192,78224,1,0,0:0:0:0:
64,192,78304,1,8,0:0:0:0:
192,192,78304,1,0,0:0:0:0:
448,192,78384,1,0,0:0:0:0:
320,192,78465,1,0,0:0:0:0:
192,192,78545,1,0,0:0:0:0:
64,192,78625,128,4,78786:3:0:0:0:
320,192,78625,128,0,78705:0:0:0:0:
192,192,78705,1,0,0:0:0:0:
320,192,78786,1,8,0:0:0:0:
448,192,78786,1,0,0:0:0:0:
192,192,78946,128,0,79026:0:0:0:0:
448,192,78946,128,0,79026:0:0:0:0:
320,192,79026,1,0,0:0:0:0:
64,192,79106,128,4,79187:3:0:0:0:
448,192,79106,128,0,79187:0:0:0:0:
192,192,79267,1,4,0:0:0:0:
448,192,79267,1,0,0:0:0:0:
64,192,79427,128,4,79507:3:0:0:0:
192,192,79427,128,0,79507:0:0:0:0:
320,192,79588,128,8,79748:0:0:0:0:
448,192,79588,128,0,79989:0:0:0:0:
192,192,79668,1,0,0:0:0:0:
64,192,79748,1,0,0:0:0:0:
320,192,79828,128,0,79989:0:0:0:0:
64,192,79909,128,4,79989:3:0:0:0:
192,192,79989,1,0,0:0:0:0:
320,192,80069,128,8,80310:0:0:0:0:
448,192,80069,128,0,80229:0:0:0:0:
64,192,80149,1,0,0:0:0:0:
192,192,80229,128,0,80310:0:0:0:0:
448,192,80310,128,0,80550:0:0:0:0:
320,192,80390,128,4,80470:3:0:0:0:
192,192,80470,1,0,0:0:0:0:
64,192,80550,1,4,0:0:0:0:
320,192,80550,128,0,80871:0:0:0:0:
448,192,80630,128,0,80791:0:0:0:0:
192,192,80711,1,4,3:0:0:0:
64,192,80791,1,0,0:0:0:0:
448,192,80871,128,0,80951:0:0:0:0:
192,192,80951,1,0,0:0:0:0:
320,192,81032,1,0,0:0:0:0:
64,192,81112,1,0,0:0:0:0:
448,192,81192,1,0,0:0:0:0:
64,192,81272,1,0,0:0:0:0:
320,192,81352,128,0,81433:0:0:0:0:
192,192,81433,1,0,0:0:0:0:
448,192,81513,1,0,0:0:0:0:
320,192,81593,1,0,0:0:0:0:
192,192,81673,1,0,0:0:0:0:
448,192,81753,1,0,0:0:0:0:
64,192,81834,128,0,81914:0:0:0:0:
320,192,81914,1,0,0:0:0:0:
448,192,81994,1,0,0:0:0:0:
192,192,82074,1,0,0:0:0:0:
64,192,82155,128,8,82315:0:0:0:0:
320,192,82155,128,0,82315:0:0:0:0:
448,192,82155,128,0,82315:0:0:0:0:
192,192,82475,128,4,82556:3:0:0:0:
64,192,82636,128,8,82716:0:0:0:0:
320,192,82636,1,0,0:0:0:0:
448,192,82636,1,0,0:0:0:0:
192,192,82796,128,0,82876:0:0:0:0:
192,192,82957,128,4,83037:3:0:0:0:
64,192,83117,1,4,0:0:0:0:
448,192,83117,1,0,0:0:0:0:
192,192,83278,128,4,83358:3:0:0:0:
64,192,83438,128,0,83518:0:0:0:0:
64,192,83759,128,8,83839:0:0:0:0:
320,192,83759,1,0,0:0:0:0:
448,192,83759,1,0,0:0:0:0:
192,192,83919,128,0,83999:0:0:0:0:
64,192,84080,128,4,84160:0:0:0:0:
448,192,84080,1,0,0:0:0:0:
64,192,84240,128,8,84320:0:0:0:0:
320,192,84240,1,0,0:0:0:0:
448,192,84240,1,0,0:0:0:0:
64,192,84561,128,8,84641:0:0:0:0:
320,192,84561,1,0,0:0:0:0:
448,192,84561,1,0,0:0:0:0:
64,192,84721,128,8,84802:0:0:0:0:
320,192,84721,128,0,84802:0:0:0:0:
448,192,84721,128,0,84962:0:0:0:0:
320,192,84882,128,0,85122:0:0:0:0:
192,192,84962,128,0,85042:0:0:0:0:
448,192,85042,128,4,85122:3:0:0:0:
192,192,85203,128,8,85283:0:0:0:0:
320,192,85203,128,0,85443:0:0:0:0:
448,192,85203,128,0,85283:0:0:0:0:
64,192,85363,128,0,85443:0:0:0:0:
448,192,85363,128,0,85604:0:0:0:0:
192,192,85524,128,4,85604:3:0:0:0:
320,192,85524,128,0,86085:0:0:0:0:
64,192,85684,1,4,0:0:0:0:
448,192,85684,128,0,85764:0:0:0:0:
192,192,85844,128,4,85925:3:0:0:0:
448,192,85844,128,0,85925:0:0:0:0:
192,192,86005,128,0,86326:0:0:0:0:
448,192,86005,128,0,86245:0:0:0:0:
320,192,86165,128,0,86245:0:0:0:0:
64,192,86326,128,8,86406:0:0:0:0:
320,192,86326,128,0,86566:0:0:0:0:
448,192,86326,128,0,86406:0:0:0:0:
192,192,86486,128,0,86566:0:0:0:0:
448,192,86486,128,0,86727:0:0:0:0:
64,192,86647,1,4,0:0:0:0:
320,192,86647,128,0,86727:0:0:0:0:
320,192,86807,128,8,86887:0:0:0:0:
448,192,86807,128,0,86887:0:0:0:0:
64,192,86967,128,8,87048:0:0:0:0:
320,192,86967,128,0,87208:0:0:0:0:
448,192,86967,128,0,87048:0:0:0:0:
192,192,87128,128,4,87208:0:0:0:0:
448,192,87128,128,0,87208:0:0:0:0:
64,192,87288,128,8,87368:0:0:0:0:
320,192,87288,1,0,0:0:0:0:
448,192,87288,1,0,0:0:0:0:
448,192,87449,1,0,0:0:0:0:
192,192,87609,128,4,87689:3:0:0:0:
64,192,87770,128,8,87850:0:0:0:0:
320,192,87770,1,0,0:0:0:0:
448,192,87770,1,0,0:0:0:0:
192,192,87930,128,0,88010:0:0:0:0:
192,192,88090,128,4,88171:3:0:0:0:
64,192,88251,1,4,0:0:0:0:
320,192,88251,128,0,88411:0:0:0:0:
192,192,88411,128,4,88491:3:0:0:0:
448,192,88572,128,0,88812:0:0:0:0:
192,192,88893,128,8,88973:0:0:0:0:
320,192,88893,1,0,0:0:0:0:
448,192,88893,1,0,0:0:0:0:
64,192,89053,128,0,89133:0:0:0:0:
64,192,89213,128,4,89855:0:0:0:0:
448,192,89213,1,0,0:0:0:0:
320,192,89374,1,8,0:0:0:0:
448,192,89374,1,0,0:0:0:0:
320,192,89695,1,8,0:0:0:0:
448,192,89695,1,0,0:0:0:0:
320,192,89855,128,8,90096:0:0:0:0:
448,192,89855,128,0,89935:0:0:0:0:
448,192,90015,128,0,90256:0:0:0:0:
192,192,90096,128,0,90176:0:0:0:0:
320,192,90176,128,4,90256:3:0:0:0:
192,192,90336,128,8,90417:0:0:0:0:
320,192,90336,128,0,90898:0:0:0:0:
448,192,90336,128,0,90737:0:0:0:0:
192,192,90497,128,0,90577:0:0:0:0:
192,192,90657,128,4,90737:3:0:0:0:
192,192,90818,128,4,90898:0:0:0:0:
448,192,90818,128,0,91219:0:0:0:0:
192,192,90978,128,4,91058:3:0:0:0:
320,192,90978,128,0,91058:0:0:0:0:
192,192,91138,128,0,91219:0:0:0:0:
320,192,91138,128,0,91379:0:0:0:0:
64,192,91299,1,4,0:0:0:0:
448,192,91299,128,0,91379:0:0:0:0:
320,192,91459,128,8,91860:0:0:0:0:
448,192,91459,128,0,91700:0:0:0:0:
192,192,91620,128,0,91700:0:0:0:0:
64,192,91780,1,4,0:0:0:0:
448,192,91780,128,0,91860:0:0:0:0:
320,192,91941,128,8,92021:0:0:0:0:
448,192,91941,128,0,92021:0:0:0:0:
192,192,92021,1,0,0:0:0:0:
320,192,92101,128,8,92181:0:0:0:0:
448,192,92101,128,0,92261:0:0:0:0:
64,192,92181,1,0,0:0:0:0:
192,192,92261,1,4,0:0:0:0:
320,192,92261,128,0,92422:0:0:0:0:
448,192,92342,128,0,92422:0:0:0:0:
64,192,92422,1,8,0:0:0:0:
192,192,92422,1,0,0:0:0:0:
64,192,92582,1,0,0:0:0:0:
192,192,92743,1,0,0:0:0:0:
320,192,92903,1,0,0:0:0:0:
448,192,92983,1,0,0:0:0:0:
64,192,93064,1,0,0:0:0:0:
320,192,93144,1,0,0:0:0:0:
192,192,93224,1,0,0:0:0:0:
320,192,93304,1,0,0:0:0:0:
448,192,93384,1,0,0:0:0:0:
64,192,93545,1,0,0:0:0:0:
320,192,93705,1,0,0:0:0:0:
448,192,93866,1,0,0:0:0:0:
192,192,93946,1,0,0:0:0:0:
320,192,94026,1,0,0:0:0:0:
448,192,94106,1,0,0:0:0:0:
192,192,94187,1,0,0:0:0:0:
320,192,94267,1,0,0:0:0:0:
64,192,94347,1,0,0:0:0:0:
192,192,94427,1,0,0:0:0:0:
448,192,94507,1,0,0:0:0:0:
320,192,94588,1,0,0:0:0:0:
192,192,94668,1,0,0:0:0:0:
320,192,94828,1,0,0:0:0:0:
64,192,94989,128,8,95069:0:0:0:0:
192,192,94989,1,0,0:0:0:0:
320,192,95149,128,0,95229:0:0:0:0:
64,192,95229,1,0,0:0:0:0:
192,192,95310,128,0,95390:0:0:0:0:
320,192,95390,1,0,0:0:0:0:
448,192,95470,128,0,95550:0:0:0:0:
64,192,95550,1,0,0:0:0:0:
320,192,95630,128,0,95711:0:0:0:0:
448,192,95791,128,0,95871:0:0:0:0:
64,192,95951,128,0,96032:0:0:0:0:
192,192,96112,128,0,96192:0:0:0:0:
64,192,96272,128,0,96352:0:0:0:0:
448,192,96352,1,0,0:0:0:0:
320,192,96433,128,0,96513:0:0:0:0:
64,192,96513,1,0,0:0:0:0:
192,192,96593,128,0,96673:0:0:0:0:
320,192,96673,1,0,0:0:0:0:
448,192,96753,128,0,96834:0:0:0:0:
192,192,96834,1,0,0:0:0:0:
320,192,96914,128,0,96994:0:0:0:0:
64,192,96994,1,0,0:0:0:0:
448,192,97074,128,0,97155:0:0:0:0:
320,192,97155,1,0,0:0:0:0:
64,192,97235,128,0,97315:0:0:0:0:
192,192,97315,1,0,0:0:0:0:
448,192,97395,128,0,97475:0:0:0:0:
64,192,97475,1,0,0:0:0:0:
320,192,97556,128,8,97636:0:0:0:0:
448,192,97556,128,0,100042:0:0:0:0:
320,192,97716,128,0,97796:0:0:0:0:
192,192,97796,128,0,97876:0:0:0:0:
320,192,97876,128,0,97957:0:0:0:0:
192,192,97957,128,0,98438:0:0:0:0:
320,192,98037,128,0,98117:0:0:0:0:
320,192,98197,128,0,98278:0:0:0:0:
320,192,98358,128,0,98438:0:0:0:0:
192,192,98518,128,0,98759:0:0:0:0:
320,192,98518,128,0,98598:0:0:0:0:
320,192,98679,128,0,98759:0:0:0:0:
192,192,98839,128,0,99080:0:0:0:0:
320,192,98839,128,0,98919:0:0:0:0:
320,192,98999,128,0,99080:0:0:0:0:
192,192,99160,128,4,99882:3:0:0:0:
320,192,99160,128,0,99240:0:0:0:0:
320,192,99320,128,0,99401:0:0:0:0:
320,192,99481,128,0,99561:0:0:0:0:
64,192,99641,128,4,99721:3:0:0:0:
320,192,99641,128,0,99721:0:0:0:0:
64,192,99802,128,0,99882:0:0:0:0:
320,192,99802,128,0,99882:0:0:0:0:
64,192,99962,128,4,100042:3:0:0:0:
192,192,99962,128,0,100122:0:0:0:0:
320,192,99962,128,0,100042:0:0:0:0:
64,192,100122,128,8,100684:0:0:0:0:
320,192,100122,128,0,100684:0:0:0:0:
448,192,100122,128,0,100203:0:0:0:0:
448,192,100283,128,0,100363:0:0:0:0:
192,192,100443,128,4,101165:3:0:0:0:
448,192,100443,128,0,100524:0:0:0:0:
448,192,100604,128,0,100684:0:0:0:0:
64,192,100764,128,0,101326:0:0:0:0:
320,192,100764,128,0,101406:0:0:0:0:
448,192,100764,128,0,100844:0:0:0:0:
448,192,100925,128,4,101005:3:0:0:0:
448,192,101085,128,0,101165:0:0:0:0:
192,192,101245,128,4,101406:3:0:0:0:
448,192,101245,128,0,101326:0:0:0:0:
64,192,101406,128,8,101807:3:0:0:0:
448,192,101406,128,0,101486:0:0:0:0:
320,192,101647,128,0,101727:0:0:0:0:
64,192,101887,128,8,102128:3:0:0:0:
192,192,101887,128,4,101967:3:0:0:0:
320,192,102048,128,0,102128:0:0:0:0:
64,192,102208,128,8,102288:3:0:0:0:
192,192,102208,128,0,102288:0:0:0:0:
64,192,102368,128,8,102529:3:0:0:0:
448,192,102368,128,0,102449:0:0:0:0:
320,192,102529,1,4,3:0:0:0:
448,192,102529,128,8,102609:3:0:0:0:
320,192,102689,1,8,0:0:0:0:
448,192,102689,128,0,102930:0:0:0:0:
192,192,102770,1,0,0:0:0:0:
64,192,102850,1,0,0:0:0:0:
320,192,102930,1,0,0:0:0:0:
64,192,103010,1,4,0:0:0:0:
448,192,103010,128,0,103251:0:0:0:0:
320,192,103090,1,0,0:0:0:0:
64,192,103171,1,0,0:0:0:0:
192,192,103251,1,0,0:0:0:0:
448,192,103331,128,0,103411:0:0:0:0:
64,192,103411,1,0,0:0:0:0:
320,192,103491,1,8,0:0:0:0:
448,192,103491,128,0,103572:0:0:0:0:
64,192,103572,1,0,0:0:0:0:
192,192,103652,1,4,0:0:0:0:
448,192,103652,128,0,103732:0:0:0:0:
64,192,103812,1,0,0:0:0:0:
64,192,103893,1,0,0:0:0:0:
320,192,103973,1,8,0:0:0:0:
448,192,103973,1,0,0:0:0:0:
320,192,104053,1,0,0:0:0:0:
192,192,104133,1,0,0:0:0:0:
192,192,104213,1,0,0:0:0:0:
64,192,104294,1,4,0:0:0:0:
448,192,104294,128,0,104614:0:0:0:0:
320,192,104454,1,0,0:0:0:0:
192,192,104534,1,0,0:0:0:0:
64,192,104614,1,0,0:0:0:0:
64,192,104775,1,8,0:0:0:0:
192,192,104775,1,0,0:0:0:0:
320,192,104855,1,0,0:0:0:0:
64,192,104935,1,4,0:0:0:0:
448,192,104935,128,0,105015:0:0:0:0:
448,192,105096,128,0,105176:0:0:0:0:
64,192,105256,128,8,105336:0:0:0:0:
192,192,105256,128,0,105417:0:0:0:0:
320,192,105417,128,0,105497:0:0:0:0:
192,192,105497,128,8,105818:0:0:0:0:
64,192,105577,128,4,105657:0:0:0:0:
448,192,105577,1,0,0:0:0:0:
320,192,105737,128,0,105818:0:0:0:0:
64,192,105818,1,0,0:0:0:0:
192,192,105898,128,0,105978:0:0:0:0:
64,192,105978,128,8,106219:0:0:0:0:
448,192,106058,128,8,106138:0:0:0:0:
320,192,106138,1,0,0:0:0:0:
192,192,106219,128,4,106299:0:0:0:0:
448,192,106219,1,0,0:0:0:0:
64,192,106299,128,0,106459:0:0:0:0:
320,192,106379,1,8,0:0:0:0:
448,192,106379,128,0,106459:0:0:0:0:
64,192,106540,128,8,106860:0:0:0:0:
192,192,106540,1,0,0:0:0:0:
448,192,106620,1,0,0:0:0:0:
320,192,106700,128,0,106780:0:0:0:0:
448,192,106780,1,0,0:0:0:0:
192,192,106860,128,4,106941:0:0:0:0:
320,192,106860,1,0,0:0:0:0:
64,192,106941,128,0,107021:0:0:0:0:
320,192,107021,1,8,0:0:0:0:
448,192,107021,128,0,107101:0:0:0:0:
64,192,107101,128,0,107261:0:0:0:0:
320,192,107181,128,0,107261:0:0:0:0:
192,192,107261,1,0,0:0:0:0:
64,192,107342,128,4,107422:0:0:0:0:
448,192,107342,128,0,107422:0:0:0:0:
320,192,107422,1,0,0:0:0:0:
64,192,107502,128,8,107663:0:0:0:0:
192,192,107502,1,0,0:0:0:0:
320,192,107582,1,0,0:0:0:0:
448,192,107663,128,4,107743:0:0:0:0:
320,192,107743,1,0,0:0:0:0:
64,192,107823,1,8,3:0:0:0:
192,192,107823,128,8,107903:0:0:0:0:
448,192,107903,1,0,0:0:0:0:
192,192,107983,128,0,108144:0:0:0:0:
320,192,108064,1,0,0:0:0:0:
64,192,108144,1,0,0:0:0:0:
192,192,108224,128,0,108384:0:0:0:0:
320,192,108304,1,8,3:0:0:0:
448,192,108304,1,8,0:0:0:0:
192,192,108465,128,4,108625:0:0:0:0:
448,192,108465,1,0,0:0:0:0:
320,192,108545,1,0,0:0:0:0:
64,192,108625,1,0,0:0:0:0:
192,192,108705,128,0,108786:0:0:0:0:
320,192,108786,1,8,3:0:0:0:
448,192,108786,128,8,108946:0:0:0:0:
64,192,108866,1,0,0:0:0:0:
192,192,108946,1,0,0:0:0:0:
448,192,109026,128,0,109187:0:0:0:0:
64,192,109106,1,0,0:0:0:0:
320,192,109187,1,0,0:0:0:0:
448,192,109267,128,0,109347:0:0:0:0:
64,192,109347,1,0,0:0:0:0:
320,192,109427,1,8,3:0:0:0:
448,192,109427,128,8,109507:0:0:0:0:
192,192,109507,1,0,0:0:0:0:
320,192,109588,1,8,0:0:0:0:
448,192,109588,128,8,109668:3:0:0:0:
192,192,109668,1,0,0:0:0:0:
64,192,109748,1,4,0:0:0:0:
448,192,109748,128,8,109909:3:0:0:0:
192,192,109909,1,0,0:0:0:0:
320,192,109989,1,8,0:0:0:0:
448,192,109989,128,0,110149:0:0:0:0:
192,192,110069,1,0,0:0:0:0:
64,192,110229,1,4,0:0:0:0:
448,192,110229,128,0,110390:0:0:0:0:
64,192,110390,128,8,110470:0:0:0:0:
320,192,110390,128,0,110470:0:0:0:0:
448,192,110630,1,0,0:0:0:0:
192,192,110711,1,0,0:0:0:0:
192,192,110871,128,0,110951:0:0:0:0:
320,192,110871,128,0,110951:0:0:0:0:
192,192,111032,128,4,111593:0:0:0:0:
448,192,111032,1,0,0:0:0:0:
64,192,111192,1,0,0:0:0:0:
320,192,111352,128,0,111433:0:0:0:0:
448,192,111352,128,0,111433:0:0:0:0:
448,192,111513,1,0,0:0:0:0:
320,192,111593,1,0,0:0:0:0:
64,192,111673,1,8,0:0:0:0:
192,192,111673,1,0,0:0:0:0:
192,192,111834,128,0,111914:0:0:0:0:
320,192,111834,128,0,111914:0:0:0:0:
64,192,111994,1,0,0:0:0:0:
192,192,112074,1,0,0:0:0:0:
320,192,112155,1,8,0:0:0:0:
448,192,112155,1,0,0:0:0:0:
192,192,112235,1,0,0:0:0:0:
64,192,112315,128,4,112395:0:0:0:0:
320,192,112315,128,0,112395:0:0:0:0:
448,192,112475,1,0,0:0:0:0:
320,192,112556,1,0,0:0:0:0:
64,192,112636,1,8,0:0:0:0:
192,192,112636,1,0,0:0:0:0:
64,192,112796,128,0,112876:0:0:0:0:
320,192,112796,128,0,112876:0:0:0:0:
64,192,112957,128,8,113117:0:0:0:0:
448,192,112957,128,8,113037:3:0:0:0:
192,192,113197,1,0,0:0:0:0:
64,192,113278,128,8,113438:3:0:0:0:
448,192,113278,1,8,0:0:0:0:
320,192,113438,128,0,113518:0:0:0:0:
64,192,113598,1,8,3:0:0:0:
448,192,113598,128,8,113759:0:0:0:0:
320,192,113759,1,0,0:0:0:0:
192,192,113839,1,0,0:0:0:0:
64,192,113919,128,8,113999:3:0:0:0:
448,192,113919,128,8,114080:0:0:0:0:
192,192,114080,1,0,0:0:0:0:
192,192,114160,1,0,0:0:0:0:
64,192,114240,128,8,114401:3:0:0:0:
448,192,114240,1,8,0:0:0:0:
320,192,114320,1,0,0:0:0:0:
320,192,114401,1,0,0:0:0:0:
192,192,114481,1,0,0:0:0:0:
64,192,114561,128,8,114641:3:0:0:0:
448,192,114561,128,8,114802:0:0:0:0:
320,192,114641,1,0,0:0:0:0:
192,192,114721,1,0,0:0:0:0:
320,192,114802,1,0,0:0:0:0:
64,192,114882,1,8,3:0:0:0:
448,192,114882,128,8,115042:0:0:0:0:
64,192,115042,128,0,115122:0:0:0:0:
192,192,115042,1,0,0:0:0:0:
192,192,115122,1,0,0:0:0:0:
64,192,115203,128,8,115363:3:0:0:0:
448,192,115203,1,8,0:0:0:0:
448,192,115363,128,0,115443:0:0:0:0:
320,192,115524,128,8,115604:0:0:0:0:
448,192,115524,128,0,115764:0:0:0:0:
192,192,115684,128,0,115764:0:0:0:0:
320,192,115764,1,0,0:0:0:0:
64,192,115844,128,4,115925:0:0:0:0:
448,192,115844,128,0,116005:0:0:0:0:
320,192,115925,1,0,0:0:0:0:
192,192,116005,128,0,116085:0:0:0:0:
448,192,116085,128,0,116165:0:0:0:0:
320,192,116165,128,0,116406:0:0:0:0:
64,192,116245,1,8,0:0:0:0:
448,192,116326,128,8,116406:0:0:0:0:
64,192,116406,1,0,0:0:0:0:
192,192,116486,1,4,0:0:0:0:
320,192,116486,128,0,116566:0:0:0:0:
320,192,116647,128,8,116887:0:0:0:0:
448,192,116647,128,0,116727:0:0:0:0:
64,192,116807,128,8,116887:0:0:0:0:
192,192,116807,1,0,0:0:0:0:
448,192,116887,1,0,0:0:0:0:
320,192,116967,128,0,117048:0:0:0:0:
448,192,117048,1,0,0:0:0:0:
192,192,117128,128,4,117208:0:0:0:0:
320,192,117128,128,0,117208:0:0:0:0:
320,192,117288,128,8,117368:0:0:0:0:
448,192,117288,128,0,117368:0:0:0:0:
320,192,117449,128,0,117609:0:0:0:0:
192,192,117609,1,4,0:0:0:0:
448,192,117609,128,0,117689:0:0:0:0:
320,192,117689,128,0,117850:0:0:0:0:
64,192,117770,128,8,117850:0:0:0:0:
192,192,117770,1,0,0:0:0:0:
320,192,117930,128,8,118090:0:0:0:0:
448,192,117930,128,0,118010:0:0:0:0:
64,192,118090,128,8,118572:0:0:0:0:
192,192,118090,128,8,118171:3:0:0:0:
448,192,118171,1,0,0:0:0:0:
320,192,118251,1,0,0:0:0:0:
448,192,118331,1,0,0:0:0:0:
192,192,118411,1,0,0:0:0:0:
448,192,118491,1,0,0:0:0:0:
192,192,118572,128,8,118652:3:0:0:0:
320,192,118572,128,8,118652:0:0:0:0:
64,192,118652,128,0,118732:0:0:0:0:
192,192,118732,1,4,0:0:0:0:
448,192,118732,1,0,0:0:0:0:
64,192,118812,128,0,118893:0:0:0:0:
320,192,118893,1,0,0:0:0:0:
64,192,118973,128,0,119053:0:0:0:0:
320,192,119053,128,8,119133:3:0:0:0:
448,192,119053,128,8,119374:0:0:0:0:
192,192,119133,1,0,0:0:0:0:
64,192,119213,1,0,0:0:0:0:
320,192,119294,1,0,0:0:0:0:
64,192,119374,1,0,0:0:0:0:
448,192,119454,128,0,119614:0:0:0:0:
192,192,119534,128,0,119614:0:0:0:0:
320,192,119534,128,0,119614:0:0:0:0:
64,192,119614,128,0,119695:0:0:0:0:
320,192,119695,1,8,3:0:0:0:
448,192,119695,1,8,0:0:0:0:
64,192,119775,128,0,119935:0:0:0:0:
448,192,119855,1,8,3:0:0:0:
192,192,119935,1,0,0:0:0:0:
64,192,120015,128,4,120256:0:0:0:0:
320,192,120015,128,8,120096:3:0:0:0:
448,192,120096,1,0,0:0:0:0:
192,192,120176,1,8,0:0:0:0:
320,192,120256,1,0,0:0:0:0:
64,192,120336,128,0,120417:0:0:0:0:
448,192,120417,1,0,0:0:0:0:
64,192,120497,128,4,120577:0:0:0:0:
192,192,120497,1,0,0:0:0:0:
320,192,120577,1,0,0:0:0:0:
64,192,120657,128,8,120818:0:0:0:0:
192,192,120657,128,0,120818:0:0:0:0:
320,192,120898,1,0,0:0:0:0:
64,192,120978,1,8,0:0:0:0:
192,192,120978,128,0,121058:0:0:0:0:
448,192,121138,1,0,0:0:0:0:
64,192,121219,1,0,0:0:0:0:
320,192,121299,128,8,121379:0:0:0:0:
448,192,121299,128,0,121540:0:0:0:0:
192,192,121379,1,0,0:0:0:0:
64,192,121459,1,0,0:0:0:0:
192,192,121540,1,0,0:0:0:0:
320,192,121620,1,8,0:0:0:0:
448,192,121620,128,0,121860:0:0:0:0:
64,192,121780,1,0,0:0:0:0:
320,192,121941,128,8,122021:0:0:0:0:
448,192,121941,1,0,0:0:0:0:
448,192,122101,1,0,0:0:0:0:
64,192,122261,1,8,0:0:0:0:
192,192,122261,128,0,122342:0:0:0:0:
320,192,122422,1,0,0:0:0:0:
448,192,122502,128,0,122743:0:0:0:0:
64,192,122582,128,8,122663:0:0:0:0:
192,192,122582,1,0,0:0:0:0:
64,192,122743,1,0,0:0:0:0:
320,192,122823,1,8,0:0:0:0:
448,192,122823,1,0,0:0:0:0:
192,192,122903,128,0,122983:0:0:0:0:
320,192,123064,1,8,0:0:0:0:
448,192,123064,128,0,123144:0:0:0:0:
64,192,123224,128,8,123384:0:0:0:0:
320,192,123224,128,0,123384:0:0:0:0:
448,192,123224,128,0,123384:0:0:0:0:
192,192,123545,128,0,123625:0:0:0:0:
64,192,123705,128,0,123786:0:0:0:0:
192,192,123866,128,0,123946:0:0:0:0:
192,192,124026,128,0,124106:0:0:0:0:
192,192,124187,128,0,124267:0:0:0:0:
192,192,124347,128,0,124427:0:0:0:0:
64,192,124507,128,0,124588:0:0:0:0:
192,192,124828,128,0,124909:0:0:0:0:
64,192,124989,128,0,125630:0:0:0:0:
192,192,125630,128,0,125711:0:0:0:0:
64,192,125791,128,8,125871:0:0:0:0:
320,192,125791,128,0,125951:0:0:0:0:
448,192,125791,128,0,125951:0:0:0:0:
192,192,126032,128,0,126112:0:0:0:0:
320,192,126112,128,4,126192:3:0:0:0:
64,192,126272,128,8,126352:0:0:0:0:
320,192,126272,128,0,126433:0:0:0:0:
448,192,126272,128,0,126433:0:0:0:0:
192,192,126433,128,0,126513:0:0:0:0:
64,192,126593,128,4,126673:3:0:0:0:
192,192,126753,128,4,126834:0:0:0:0:
320,192,126753,128,0,126914:0:0:0:0:
64,192,126914,128,4,126994:3:0:0:0:
192,192,127074,128,0,127155:0:0:0:0:
64,192,127395,128,8,127475:0:0:0:0:
320,192,127395,128,0,127556:0:0:0:0:
448,192,127395,128,0,127556:0:0:0:0:
192,192,127556,128,0,127636:0:0:0:0:
64,192,127716,128,4,127796:0:0:0:0:
448,192,127716,1,0,0:0:0:0:
192,192,127876,128,8,127957:0:0:0:0:
320,192,127876,128,0,127957:0:0:0:0:
448,192,127876,128,0,127957:0:0:0:0:
192,192,128037,128,8,128117:0:0:0:0:
320,192,128037,128,0,128117:0:0:0:0:
448,192,128037,128,0,128117:0:0:0:0:
192,192,128197,128,4,128278:0:0:0:0:
448,192,128197,128,0,128278:0:0:0:0:
192,192,128358,128,8,128438:0:0:0:0:
320,192,128358,128,0,128518:0:0:0:0:
448,192,128358,128,0,128759:0:0:0:0:
64,192,128679,128,4,128759:3:0:0:0:
320,192,128839,128,8,128999:0:0:0:0:
448,192,128839,128,0,128999:0:0:0:0:
192,192,128999,128,0,129080:0:0:0:0:
64,192,129160,128,4,129240:3:0:0:0:
192,192,129320,128,4,129401:0:0:0:0:
448,192,129320,128,0,129481:0:0:0:0:
192,192,129481,128,4,129561:3:0:0:0:
192,192,129641,128,0,129721:0:0:0:0:
448,192,129802,1,0,0:0:0:0:
192,192,129962,128,8,130042:0:0:0:0:
320,192,129962,128,0,130122:0:0:0:0:
448,192,129962,128,0,130122:0:0:0:0:
64,192,130122,128,0,130764:0:0:0:0:
192,192,130283,1,4,0:0:0:0:
448,192,130283,1,0,0:0:0:0:
320,192,130443,128,8,130604:0:0:0:0:
448,192,130443,128,0,130604:0:0:0:0:
320,192,130764,128,8,130844:0:0:0:0:
448,192,130764,128,0,130844:0:0:0:0:
192,192,130925,128,8,131005:0:0:0:0:
320,192,130925,128,0,131165:0:0:0:0:
448,192,130925,128,0,131326:0:0:0:0:
192,192,131165,128,0,131245:0:0:0:0:
320,192,131245,128,4,131326:3:0:0:0:
320,192,131406,128,8,132449:0:0:0:0:
448,192,131406,128,0,131807:0:0:0:0:
64,192,131566,128,0,131647:0:0:0:0:
192,192,131727,128,4,131807:3:0:0:0:
64,192,131887,128,4,131967:0:0:0:0:
448,192,131887,128,0,132288:0:0:0:0:
64,192,132048,128,4,132128:3:0:0:0:
192,192,132208,128,0,132288:0:0:0:0:
64,192,132368,1,4,0:0:0:0:
448,192,132368,128,0,132449:0:0:0:0:
64,192,132529,128,8,132609:0:0:0:0:
320,192,132529,128,0,132930:0:0:0:0:
448,192,132529,128,0,132770:0:0:0:0:
192,192,132689,128,0,132770:0:0:0:0:
64,192,132850,1,4,0:0:0:0:
448,192,132850,128,0,132930:0:0:0:0:
64,192,133010,128,8,133090:0:0:0:0:
320,192,133010,128,0,133090:0:0:0:0:
448,192,133010,128,0,133090:0:0:0:0:
192,192,133171,128,8,133251:0:0:0:0:
320,192,133171,128,0,133411:0:0:0:0:
448,192,133171,128,0,133251:0:0:0:0:
192,192,133331,128,4,133411:0:0:0:0:
448,192,133331,128,0,133411:0:0:0:0:
64,192,133491,128,8,133652:0:0:0:0:
320,192,133491,128,0,133652:0:0:0:0:
448,192,133491,128,0,133652:0:0:0:0:
192,192,133812,128,4,133893:3:0:0:0:
64,192,133973,128,8,134053:0:0:0:0:
320,192,133973,128,0,134133:0:0:0:0:
448,192,133973,128,0,134133:0:0:0:0:
64,192,134133,128,0,134213:0:0:0:0:
192,192,134294,128,4,134374:3:0:0:0:
192,192,134454,128,4,134534:0:0:0:0:
448,192,134454,128,0,135015:0:0:0:0:
192,192,134614,128,4,134695:3:0:0:0:
64,192,134775,128,0,134855:0:0:0:0:
192,192,135096,128,8,135176:0:0:0:0:
320,192,135096,128,0,135256:0:0:0:0:
448,192,135096,128,0,135256:0:0:0:0:
64,192,135256,128,0,135737:0:0:0:0:
192,192,135417,1,4,0:0:0:0:
448,192,135417,1,0,0:0:0:0:
320,192,135577,128,8,135737:0:0:0:0:
448,192,135577,128,0,135737:0:0:0:0:
320,192,135898,128,8,135978:0:0:0:0:
448,192,135898,128,0,135978:0:0:0:0:
320,192,136058,128,8,136219:0:0:0:0:
448,192,136058,128,0,136219:0:0:0:0:
192,192,136299,128,0,136379:0:0:0:0:
320,192,136379,1,4,3:0:0:0:
192,192,136540,128,8,136620:0:0:0:0:
320,192,136540,128,0,136700:0:0:0:0:
448,192,136540,128,0,136700:0:0:0:0:
64,192,136700,128,0,136780:0:0:0:0:
192,192,136860,128,4,136941:3:0:0:0:
192,192,137021,128,4,137101:0:0:0:0:
448,192,137021,128,0,137181:0:0:0:0:
64,192,137181,128,4,137261:3:0:0:0:
320,192,137181,128,0,137342:0:0:0:0:
192,192,137342,128,0,137422:0:0:0:0:
64,192,137663,128,8,137743:0:0:0:0:
320,192,137663,128,0,137823:0:0:0:0:
448,192,137663,128,0,137823:0:0:0:0:
192,192,137823,128,0,137903:0:0:0:0:
64,192,137983,1,4,0:0:0:0:
448,192,137983,1,0,0:0:0:0:
64,192,138144,128,8,138224:0:0:0:0:
320,192,138144,128,0,138224:0:0:0:0:
448,192,138144,128,0,138224:0:0:0:0:
192,192,138304,128,8,138384:0:0:0:0:
320,192,138304,128,0,138384:0:0:0:0:
448,192,138304,128,0,138384:0:0:0:0:
192,192,138465,128,4,138545:0:0:0:0:
448,192,138465,1,0,0:0:0:0:
64,192,138625,128,8,138705:0:0:0:0:
320,192,138625,128,0,138786:0:0:0:0:
448,192,138625,128,0,138786:0:0:0:0:
192,192,138946,128,4,139026:3:0:0:0:
64,192,139106,128,8,139187:0:0:0:0:
320,192,139106,128,0,139267:0:0:0:0:
448,192,139106,128,0,139267:0:0:0:0:
192,192,139267,128,0,139347:0:0:0:0:
192,192,139427,128,4,139507:3:0:0:0:
64,192,139588,128,4,139668:0:0:0:0:
448,192,139588,128,0,139748:0:0:0:0:
192,192,139748,128,4,139828:3:0:0:0:
64,192,139909,128,0,139989:0:0:0:0:
320,192,140069,1,0,0:0:0:0:
192,192,140229,128,8,140310:0:0:0:0:
320,192,140229,128,0,140390:0:0:0:0:
448,192,140229,128,0,140390:0:0:0:0:
192,192,140390,128,0,140470:0:0:0:0:
64,192,140550,128,4,141032:0:0:0:0:
448,192,140550,1,0,0:0:0:0:
320,192,140711,128,8,140871:0:0:0:0:
448,192,140711,128,0,140871:0:0:0:0:
320,192,141032,128,8,141112:0:0:0:0:
448,192,141032,128,0,141112:0:0:0:0:
64,192,141192,128,8,141272:0:0:0:0:
320,192,141192,128,0,141593:0:0:0:0:
448,192,141192,128,0,141272:0:0:0:0:
448,192,141352,128,0,141593:0:0:0:0:
192,192,141433,128,0,141513:0:0:0:0:
64,192,141513,1,4,3:0:0:0:
320,192,141673,128,8,142716:0:0:0:0:
448,192,141673,128,0,142074:0:0:0:0:
64,192,141834,128,0,141914:0:0:0:0:
192,192,141994,128,4,142074:3:0:0:0:
64,192,142155,128,4,142235:0:0:0:0:
448,192,142155,128,0,142556:0:0:0:0:
64,192,142315,128,4,142395:3:0:0:0:
64,192,142475,128,0,142556:0:0:0:0:
192,192,142636,1,4,0:0:0:0:
448,192,142636,128,0,142716:0:0:0:0:
64,192,142796,128,8,142876:0:0:0:0:
320,192,142796,128,0,143197:0:0:0:0:
448,192,142796,128,0,143037:0:0:0:0:
192,192,142957,128,0,143037:0:0:0:0:
64,192,143117,1,4,0:0:0:0:
448,192,143117,128,0,143197:0:0:0:0:
64,192,143278,128,8,143358:0:0:0:0:
320,192,143278,128,0,143679:0:0:0:0:
448,192,143278,128,0,143518:0:0:0:0:
192,192,143438,128,0,143518:0:0:0:0:
448,192,143598,128,0,143679:0:0:0:0:
320,192,143759,1,8,0:0:0:0:
448,192,143759,128,0,143839:0:0:0:0:
64,192,143919,1,0,0:0:0:0:
448,192,144080,128,0,144160:0:0:0:0:
320,192,144240,128,0,144320:0:0:0:0:
320,192,144401,128,0,144481:0:0:0:0:
448,192,144561,128,0,144641:0:0:0:0:
64,192,144721,1,8,0:0:0:0:
192,192,144721,1,0,0:0:0:0:
448,192,144721,128,0,144802:0:0:0:0:
448,192,144882,128,0,144962:0:0:0:0:
320,192,145042,128,0,145122:0:0:0:0:
192,192,145203,1,0,0:0:0:0:
64,192,145363,1,8,0:0:0:0:
192,192,145363,1,0,0:0:0:0:
448,192,145363,128,0,146326:0:0:0:0:
320,192,145524,128,0,146326:0:0:0:0:
64,192,145844,1,8,0:0:0:0:
192,192,145844,1,0,0:0:0:0:
64,192,146165,1,8,0:0:0:0:
192,192,146165,1,0,0:0:0:0:
64,192,146326,128,8,146406:0:0:0:0:
192,192,146326,1,0,0:0:0:0:
448,192,146406,1,0,0:0:0:0:
320,192,146486,128,0,146566:0:0:0:0:
448,192,146566,1,0,0:0:0:0:
192,192,146647,128,0,146727:0:0:0:0:
64,192,146727,1,0,0:0:0:0:
448,192,146807,128,0,146887:0:0:0:0:
64,192,146887,1,0,0:0:0:0:
192,192,146967,1,4,0:0:0:0:
320,192,146967,128,0,147048:0:0:0:0:
448,192,147128,128,0,147208:0:0:0:0:
64,192,147288,128,8,147368:0:0:0:0:
192,192,147288,1,0,0:0:0:0:
192,192,147449,128,4,147529:0:0:0:0:
448,192,147449,1,0,0:0:0:0:
64,192,147609,128,0,147689:0:0:0:0:
320,192,147770,128,4,147850:3:0:0:0:
64,192,147930,1,8,0:0:0:0:
192,192,147930,128,0,148010:0:0:0:0:
320,192,148010,1,0,0:0:0:0:
448,192,148090,128,0,148171:0:0:0:0:
192,192,148171,1,0,0:0:0:0:
64,192,148251,1,4,0:0:0:0:
320,192,148251,128,8,148331:3:0:0:0:
320,192,148411,1,8,0:0:0:0:
448,192,148411,128,0,148491:0:0:0:0:
64,192,148572,128,0,148652:0:0:0:0:
192,192,148652,1,0,0:0:0:0:
320,192,148732,1,8,0:0:0:0:
448,192,148732,128,4,148812:3:0:0:0:
64,192,148893,1,8,0:0:0:0:
192,192,148893,128,0,148973:0:0:0:0:
64,192,149053,128,0,149133:0:0:0:0:
448,192,149213,1,0,0:0:0:0:
320,192,149374,128,0,149454:0:0:0:0:
64,192,149534,128,4,149614:0:0:0:0:
448,192,149534,1,8,3:0:0:0:
320,192,149588,1,0,0:0:0:0:
192,192,149641,1,0,0:0:0:0:
448,192,149695,1,0,0:0:0:0:
64,192,149748,1,0,0:0:0:0:
192,192,149802,1,0,0:0:0:0:
320,192,149855,1,8,0:0:0:0:
448,192,149855,128,0,149935:0:0:0:0:
192,192,150015,128,8,150096:3:0:0:0:
320,192,150015,1,4,0:0:0:0:
448,192,150069,1,0,0:0:0:0:
64,192,150122,1,0,0:0:0:0:
192,192,150176,1,0,0:0:0:0:
64,192,150336,1,8,0:0:0:0:
192,192,150336,1,0,0:0:0:0:
64,192,150497,1,8,0:0:0:0:
192,192,150497,128,0,150577:0:0:0:0:
320,192,150657,128,8,150737:0:0:0:0:
448,192,150657,1,0,0:0:0:0:
64,192,150818,1,4,0:0:0:0:
448,192,150818,128,8,150898:3:0:0:0:
192,192,150871,1,0,0:0:0:0:
320,192,150918,1,0,0:0:0:0:
64,192,150978,1,8,0:0:0:0:
192,192,150978,1,0,0:0:0:0:
64,192,151138,1,8,0:0:0:0:
192,192,151138,1,0,0:0:0:0:
64,192,151299,1,4,0:0:0:0:
448,192,151299,128,8,151379:3:0:0:0:
192,192,151352,1,0,0:0:0:0:
320,192,151399,1,0,0:0:0:0:
64,192,151459,128,8,151620:0:0:0:0:
192,192,151459,1,0,0:0:0:0:
320,192,151540,1,0,0:0:0:0:
448,192,151620,1,0,0:0:0:0:
64,192,151700,128,0,151941:0:0:0:0:
192,192,151780,128,0,151860:0:0:0:0:
448,192,151860,1,0,0:0:0:0:
320,192,151941,1,0,0:0:0:0:
64,192,152021,128,0,152101:0:0:0:0:
192,192,152101,1,4,0:0:0:0:
320,192,152101,128,8,152181:3:0:0:0:
64,192,152181,128,0,152422:0:0:0:0:
320,192,152261,1,0,0:0:0:0:
192,192,152342,1,0,0:0:0:0:
320,192,152422,1,8,0:0:0:0:
448,192,152422,128,0,152502:0:0:0:0:
64,192,152502,128,0,152582:0:0:0:0:
192,192,152582,1,8,3:0:0:0:
448,192,152582,1,4,0:0:0:0:
64,192,152663,128,0,152823:0:0:0:0:
320,192,152743,128,0,152823:0:0:0:0:
448,192,152823,1,0,0:0:0:0:
64,192,152903,128,4,152983:3:0:0:0:
320,192,152983,1,0,0:0:0:0:
64,192,153064,128,8,153304:0:0:0:0:
192,192,153064,128,0,153144:0:0:0:0:
320,192,153144,1,0,0:0:0:0:
448,192,153224,128,0,153304:0:0:0:0:
192,192,153304,1,0,0:0:0:0:
64,192,153384,128,4,153545:0:0:0:0:
448,192,153384,1,0,0:0:0:0:
320,192,153465,1,0,0:0:0:0:
192,192,153545,1,8,0:0:0:0:
64,192,153625,128,0,153946:0:0:0:0:
448,192,153705,128,0,153786:0:0:0:0:
320,192,153786,1,0,0:0:0:0:
192,192,153866,1,12,0:0:0:0:
320,192,153946,1,0,0:0:0:0:
64,192,154026,1,8,0:0:0:0:
192,192,154026,128,0,156834:0:0:0:0:
320,192,154187,1,0,0:0:0:0:
448,192,154347,1,0,0:0:0:0:
64,192,154507,1,0,0:0:0:0:
448,192,154668,1,0,0:0:0:0:
64,192,154828,1,0,0:0:0:0:
320,192,154989,1,0,0:0:0:0:
448,192,155149,1,0,0:0:0:0:
64,192,155310,1,0,0:0:0:0:
448,192,155470,1,0,0:0:0:0:
320,192,155630,1,0,0:0:0:0:
64,192,155791,1,0,0:0:0:0:
448,192,155951,1,0,0:0:0:0:
64,192,156112,1,0,0:0:0:0:
448,192,156272,1,0,0:0:0:0:
320,192,156433,1,0,0:0:0:0:
64,192,156593,128,8,156673:3:0:0:0:
448,192,156673,1,0,0:0:0:0:
320,192,156753,128,0,156834:0:0:0:0:
448,192,156834,1,0,0:0:0:0:
192,192,156914,128,0,157636:0:0:0:0:
64,192,156994,1,0,0:0:0:0:
448,192,157074,128,8,157155:3:0:0:0:
64,192,157155,1,0,0:0:0:0:
320,192,157235,128,0,157315:0:0:0:0:
64,192,157315,1,0,0:0:0:0:
448,192,157395,128,0,157475:0:0:0:0:
320,192,157475,1,0,0:0:0:0:
64,192,157556,128,8,157636:3:0:0:0:
320,192,157636,1,0,0:0:0:0:
192,192,157716,128,0,158117:0:0:0:0:
448,192,157796,1,0,0:0:0:0:
64,192,157876,128,0,157957:0:0:0:0:
448,192,157957,1,0,0:0:0:0:
320,192,158037,128,0,158117:0:0:0:0:
64,192,158117,1,0,0:0:0:0:
192,192,158197,128,0,158518:0:0:0:0:
64,192,158278,1,0,0:0:0:0:
448,192,158358,128,0,158438:0:0:0:0:
64,192,158438,128,0,158759:0:0:0:0:
320,192,158518,128,0,158598:0:0:0:0:
192,192,158598,1,0,0:0:0:0:
448,192,158679,128,0,158759:0:0:0:0:
192,192,158759,1,0,0:0:0:0:
64,192,158839,128,0,159160:0:0:0:0:
320,192,158919,1,0,0:0:0:0:
448,192,158999,128,0,159080:0:0:0:0:
192,192,159080,1,0,0:0:0:0:
320,192,159160,1,8,0:0:0:0:
448,192,159160,128,0,160443:0:0:0:0:
64,192,159320,1,0,0:0:0:0:
64,192,159481,1,0,0:0:0:0:
192,192,159641,1,0,0:0:0:0:
320,192,159721,128,0,159802:0:0:0:0:
64,192,159802,1,0,0:0:0:0:
192,192,159962,1,0,0:0:0:0:
320,192,160122,1,0,0:0:0:0:
64,192,160283,128,0,160363:0:0:0:0:
192,192,160443,128,0,160524:0:0:0:0:
320,192,160604,1,0,0:0:0:0:
64,192,160764,128,0,160844:0:0:0:0:
192,192,160925,128,0,161005:0:0:0:0:
448,192,161085,128,0,161165:0:0:0:0:
64,192,161245,1,0,0:0:0:0:
64,192,161406,1,0,0:0:0:0:
448,192,161566,128,0,161647:0:0:0:0:
192,192,161727,128,0,161807:0:0:0:0:
320,192,161807,1,0,0:0:0:0:
192,192,161887,1,0,0:0:0:0:
320,192,161967,1,0,0:0:0:0:
64,192,162048,1,0,0:0:0:0:
192,192,162128,1,0,0:0:0:0:
448,192,162208,1,0,0:0:0:0:
192,192,162288,1,0,0:0:0:0:
64,192,162368,1,0,0:0:0:0:
320,192,162449,1,0,0:0:0:0:
192,192,162529,1,0,0:0:0:0:
448,192,162609,1,0,0:0:0:0:
192,192,162689,1,0,0:0:0:0:
64,192,162770,1,0,0:0:0:0:
320,192,162850,1,0,0:0:0:0:
192,192,162930,1,0,0:0:0:0:
64,192,163010,128,4,163090:3:0:0:0:
320,192,163090,1,0,0:0:0:0:
192,192,163171,128,4,163251:3:0:0:0:
320,192,163251,1,0,0:0:0:0:
448,192,163331,128,0,163411:0:0:0:0:
192,192,163411,1,0,0:0:0:0:
64,192,163491,128,4,163572:3:0:0:0:
448,192,163572,1,0,0:0:0:0:
192,192,163652,128,4,163732:3:0:0:0:
448,192,163732,1,0,0:0:0:0:
320,192,163812,128,0,163893:0:0:0:0:
192,192,163893,128,0,163973:0:0:0:0:
448,192,163973,1,0,0:0:0:0:
64,192,164053,128,0,164133:0:0:0:0:
192,192,164133,128,0,164213:0:0:0:0:
448,192,164213,128,0,164294:0:0:0:0:
64,192,164294,128,8,164935:0:0:0:0:
192,192,164294,1,0,0:0:0:0:
320,192,164454,1,0,0:0:0:0:
192,192,164614,1,0,0:0:0:0:
448,192,164775,1,8,3:0:0:0:
192,192,164935,128,0,165577:0:0:0:0:
448,192,165256,1,8,3:0:0:0:
320,192,165577,128,0,166219:0:0:0:0:
448,192,165898,1,8,3:0:0:0:
192,192,166058,1,0,0:0:0:0:
448,192,166219,128,0,166860:0:0:0:0:
64,192,166379,1,8,3:0:0:0:
320,192,166540,1,0,0:0:0:0:
64,192,166700,1,8,3:0:0:0:
64,192,166860,128,8,167342:3:0:0:0:
192,192,166860,128,8,167502:0:0:0:0:
448,192,167342,128,8,167743:3:0:0:0:
320,192,167502,128,0,168144:0:0:0:0:
448,192,167823,128,8,168384:3:0:0:0:
64,192,168144,128,0,168786:0:0:0:0:
448,192,168465,128,8,168705:3:0:0:0:
448,192,168786,128,0,169427:0:0:0:0:
64,192,168946,1,8,3:0:0:0:
320,192,168946,1,4,3:0:0:0:
64,192,169106,1,4,3:0:0:0:
320,192,169106,1,0,0:0:0:0:
64,192,169267,1,4,3:0:0:0:
320,192,169267,1,8,3:0:0:0:
64,192,169427,128,8,169828:3:0:0:0:
192,192,169427,128,8,170069:0:0:0:0:
64,192,169909,128,8,170149:3:0:0:0:
448,192,170069,128,0,170711:0:0:0:0:
64,192,170229,128,0,170630:0:0:0:0:
320,192,170390,128,8,170470:3:0:0:0:
64,192,170711,128,0,170951:0:0:0:0:
192,192,170711,128,0,171352:0:0:0:0:
64,192,171032,128,8,171272:3:0:0:0:
64,192,171352,128,0,171593:0:0:0:0:
448,192,171352,128,0,171994:0:0:0:0:
64,192,171673,128,0,171753:0:0:0:0:
64,192,171834,128,8,171914:3:0:0:0:
64,192,171994,1,8,0:0:0:0:
192,192,171994,128,8,172636:3:0:0:0:
320,192,171994,128,0,172235:0:0:0:0:
448,192,172155,1,0,0:0:0:0:
320,192,172315,128,0,172716:0:0:0:0:
64,192,172475,1,8,3:0:0:0:
448,192,172636,128,0,173117:0:0:0:0:
320,192,172796,128,0,173197:0:0:0:0:
64,192,172957,1,8,3:0:0:0:
192,192,173117,128,0,173278:0:0:0:0:
320,192,173278,128,4,173999:3:0:0:0:
448,192,173438,1,0,0:0:0:0:
192,192,173598,1,0,0:0:0:0:
64,192,173759,1,4,3:0:0:0:
448,192,173839,1,0,0:0:0:0:
64,192,173919,128,0,174561:0:0:0:0:
192,192,173999,1,0,0:0:0:0:
320,192,174080,128,0,174401:0:0:0:0:
448,192,174160,1,0,0:0:0:0:
192,192,174240,1,4,3:0:0:0:
448,192,174320,1,0,0:0:0:0:
192,192,174401,1,0,0:0:0:0:
320,192,174481,128,0,174561:0:0:0:0:
448,192,174561,128,8,174641:3:0:0:0:
192,192,174641,1,0,0:0:0:0:
320,192,174721,1,0,0:0:0:0:
64,192,174802,1,0,0:0:0:0:
192,192,174882,1,0,0:0:0:0:
320,192,175042,128,0,175122:0:0:0:0:
448,192,175203,1,0,0:0:0:0:
320,192,175363,1,0,0:0:0:0:
192,192,175524,128,0,175604:0:0:0:0:
448,192,175684,1,0,0:0:0:0:
64,192,175844,1,0,0:0:0:0:
192,192,176005,1,0,0:0:0:0:
320,192,176165,1,0,0:0:0:0:
320,192,176326,1,0,0:0:0:0:
448,192,176486,1,0,0:0:0:0:
320,192,176647,1,0,0:0:0:0:
192,192,176807,1,0,0:0:0:0:
320,192,176967,1,0,0:0:0:0:
64,192,177128,128,0,177208:0:0:0:0:
320,192,177288,128,0,177368:0:0:0:0:
192,192,177449,128,0,177529:0:0:0:0:
448,192,177609,128,0,177689:0:0:0:0:
320,192,177770,128,0,177850:0:0:0:0:
448,192,177930,128,0,178010:0:0:0:0:
64,192,178090,128,0,178171:0:0:0:0:
192,192,178251,128,0,178331:0:0:0:0:
64,192,178411,128,0,178491:0:0:0:0:
320,192,178572,128,0,178652:0:0:0:0:
192,192,178732,128,0,178812:0:0:0:0:
448,192,178893,128,0,178973:0:0:0:0:
320,192,179053,128,0,179133:0:0:0:0:
448,192,179213,128,0,179294:0:0:0:0:
64,192,179374,128,0,179454:0:0:0:0:
448,192,179534,128,0,179614:0:0:0:0:
192,192,179695,1,0,0:0:0:0:
64,192,179855,1,0,0:0:0:0:
192,192,179935,1,0,0:0:0:0:
320,192,180015,1,0,0:0:0:0:
192,192,180176,1,0,0:0:0:0:
448,192,180336,1,0,0:0:0:0:
64,192,180497,1,0,0:0:0:0:
320,192,180657,1,0,0:0:0:0:
320,192,180818,1,0,0:0:0:0:
448,192,180978,1,0,0:0:0:0:
192,192,181138,1,0,0:0:0:0:
320,192,181299,1,0,0:0:0:0:
64,192,181459,1,0,0:0:0:0:
448,192,181620,128,0,181700:0:0:0:0:
448,192,181780,128,0,181860:0:0:0:0:
64,192,181941,1,0,0:0:0:0:
192,192,182101,128,0,182181:0:0:0:0:
64,192,182261,128,0,182342:0:0:0:0:
320,192,182422,1,0,0:0:0:0:
192,192,182582,128,0,182663:0:0:0:0:
448,192,182743,1,0,0:0:0:0:
320,192,182903,128,0,182983:0:0:0:0:
64,192,183064,1,0,0:0:0:0:
448,192,183224,128,0,183304:0:0:0:0:
320,192,183384,1,0,0:0:0:0:
192,192,183545,128,0,183625:0:0:0:0:
64,192,183705,1,0,0:0:0:0:
192,192,183866,128,0,183946:0:0:0:0:
448,192,183866,128,0,183946:0:0:0:0:
64,192,184026,128,0,184106:0:0:0:0:
320,192,184026,128,0,184106:0:0:0:0:
192,192,184187,1,0,0:0:0:0:
320,192,184347,128,0,184427:0:0:0:0:
192,192,184507,128,4,184588:3:0:0:0:
448,192,184507,1,0,0:0:0:0:
448,192,184614,1,4,3:0:0:0:
192,192,184668,128,0,184748:0:0:0:0:
448,192,184721,1,4,3:0:0:0:
64,192,184828,128,4,184909:0:0:0:0:
192,192,184828,1,0,0:0:0:0:
448,192,184989,1,0,0:0:0:0:
448,192,185149,1,0,0:0:0:0:
192,192,185310,128,0,185390:0:0:0:0:
448,192,185470,1,0,0:0:0:0:
64,192,185630,1,0,0:0:0:0:
320,192,185791,128,0,185871:0:0:0:0:
192,192,185951,1,0,0:0:0:0:
320,192,186112,1,0,0:0:0:0:
64,192,186272,1,0,0:0:0:0:
192,192,186433,1,0,0:0:0:0:
448,192,186593,1,0,0:0:0:0:
320,192,186753,1,0,0:0:0:0:
64,192,186914,1,0,0:0:0:0:
192,192,187074,1,0,0:0:0:0:
320,192,187235,1,0,0:0:0:0:
64,192,187395,128,0,187475:0:0:0:0:
320,192,187556,1,0,0:0:0:0:
192,192,187716,128,0,187796:0:0:0:0:
64,192,187876,1,0,0:0:0:0:
320,192,188037,128,0,188117:0:0:0:0:
192,192,188197,1,0,0:0:0:0:
448,192,188358,128,0,188438:0:0:0:0:
320,192,188518,1,0,0:0:0:0:
192,192,188679,128,0,188759:0:0:0:0:
320,192,188839,1,0,0:0:0:0:
448,192,188999,128,0,189080:0:0:0:0:
320,192,189160,128,0,189240:0:0:0:0:
64,192,189320,1,0,0:0:0:0:
320,192,189481,128,0,189561:0:0:0:0:
192,192,189641,128,0,189721:0:0:0:0:
192,192,189802,128,0,189882:0:0:0:0:
64,192,189962,1,0,0:0:0:0:
64,192,190283,1,0,0:0:0:0:
192,192,190443,1,0,0:0:0:0:
320,192,190604,1,0,0:0:0:0:
192,192,190764,1,0,0:0:0:0:
320,192,190925,1,0,0:0:0:0:
64,192,191085,1,0,0:0:0:0:
192,192,191245,1,0,0:0:0:0:
320,192,191406,1,0,0:0:0:0:
448,192,191566,1,0,0:0:0:0:
192,192,191727,1,0,0:0:0:0:
448,192,191887,128,0,191967:0:0:0:0:
192,192,192048,1,0,0:0:0:0:
320,192,192208,1,0,0:0:0:0:
64,192,192368,128,0,192449:0:0:0:0:
192,192,192529,128,0,192609:0:0:0:0:
448,192,192689,1,0,0:0:0:0:
192,192,192850,1,0,0:0:0:0:
320,192,193010,1,0,0:0:0:0:
64,192,193171,1,0,0:0:0:0:
192,192,193331,1,0,0:0:0:0:
320,192,193491,128,0,193572:0:0:0:0:
64,192,193652,1,0,0:0:0:0:
320,192,193812,1,0,0:0:0:0:
192,192,193973,1,0,0:0:0:0:
448,192,194133,128,0,194213:0:0:0:0:
320,192,194294,128,0,194374:0:0:0:0:
64,192,194454,1,4,3:0:0:0:
64,192,194561,1,4,3:0:0:0:
64,192,194668,1,4,3:0:0:0:
192,192,194775,128,0,194855:0:0:0:0:
448,192,194775,1,4,3:0:0:0:
448,192,194882,1,4,3:0:0:0:
64,192,194935,128,0,195015:0:0:0:0:
448,192,194989,1,4,3:0:0:0:
64,192,195096,1,4,0:0:0:0:
192,192,195096,1,8,0:0:0:0:
320,192,195096,1,0,0:0:0:0:
