osu file format v14

[General]
AudioFilename: audio.mp3
AudioLeadIn: 0
PreviewTime: 41506
Countdown: 0
SampleSet: Normal
StackLeniency: 0
Mode: 0
LetterboxInBreaks: 0
WidescreenStoryboard: 1

[Editor]
Bookmarks: 6218,30833,43141,55449,67756,78023,88290,90857,93424,98558,119092,129360,139967,150575,161183,171790,182398,193006,204642,227915,239551,251187,262481,273775,296363,307657,318951
DistanceSpacing: 0.8
BeatDivisor: 8
GridSize: 4
TimelineZoom: 2.1

[Metadata]
Title:Artist tribute: Iglooghost
TitleUnicode:Artist tribute: Iglooghost
Artist:Iglooghost
ArtistUnicode:Iglooghost
Creator:Yoges
Version:Chinchou
Source:
Tags:chinchou bug thief peanut choker solar blade white gum
BeatmapID:1757471
BeatmapSetID:838031

[Difficulty]
HPDrainRate:5
CircleSize:4.3
OverallDifficulty:8
ApproachRate:10
SliderMultiplier:1.8
SliderTickRate:1

[Events]
//Background and Video events
0,0,"12186331_809145042564397_3855659647767295806_o.jpg",0,0
//Break Periods
//Storyboard Layer 0 (Background)
//Storyboard Layer 1 (Fail)
//Storyboard Layer 2 (Pass)
//Storyboard Layer 3 (Foreground)
//Storyboard Sound Samples

[TimingPoints]
4680,384.615384615385,4,1,0,50,1,0
6218,-100,4,1,0,51,0,0
6603,-40,4,1,0,51,0,0
7179,-100,4,1,0,51,0,0
7372,-40,4,1,0,51,0,0
7564,-66.6666666666667,4,1,0,51,0,0
8141,-33.3333333333333,4,1,0,51,0,0
8526,-100,4,1,0,51,0,0
8718,-133.333333333333,4,1,0,51,0,0
8910,-200,4,1,0,51,0,0
9103,-400,4,1,0,51,0,0
9295,-100,4,1,0,51,0,0
9680,-50,4,1,0,51,0,0
10064,-25,4,1,0,51,0,0
10256,-50,4,1,0,51,0,0
10449,-66.6666666666667,4,1,0,51,0,0
10641,-100,4,1,0,51,0,0
11218,-66.6666666666667,4,1,0,51,0,0
11603,-100,4,1,0,51,0,0
12372,-133.333333333333,4,1,0,51,0,0
12564,-66.6666666666667,4,1,0,51,0,0
12853,-200,4,1,0,51,0,0
13141,-100,4,1,0,51,0,0
13333,-40,4,1,0,51,0,0
13526,-100,4,1,0,51,0,0
13718,-40,4,1,0,51,0,0
13910,-50,4,1,0,51,0,0
14103,-100,4,1,0,51,0,0
14295,-400,4,1,0,51,0,0
15641,-100,4,1,0,51,0,0
15833,-50,4,1,0,51,0,0
16987,-100,4,1,0,51,0,0
22949,-200,4,1,0,51,0,0
23141,-133.333333333333,4,1,0,51,0,0
46218,-100,4,1,0,50,0,1
49295,-100,4,1,0,50,0,0
52372,-100,4,1,0,50,0,1
55449,-100,4,1,0,50,0,0
61603,-100,4,1,0,50,0,1
61987,-100,4,1,0,50,0,0
63141,-100,4,1,0,50,0,1
63526,-100,4,1,0,50,0,0
64680,-100,4,1,0,50,0,1
65064,-100,4,1,0,50,0,0
66218,-100,4,1,0,50,0,1
66603,-100,4,1,0,50,0,0
67756,320.855614973262,4,1,0,50,1,0
88290,-100,4,1,0,50,0,1
90857,-100,4,1,0,50,0,0
129360,331.491712707182,4,1,0,50,1,0
172785,-100,4,1,0,50,0,1
182398,-100,4,1,0,50,0,0
185713,-100,4,1,0,50,0,1
193006,363.636363636364,4,1,0,50,1,0
239551,-100,4,1,0,50,0,1
251187,352.941176470588,4,1,0,50,1,0

[Colours]
Combo1 : 70,200,125
Combo2 : 234,189,106
Combo3 : 96,202,186
Combo4 : 227,210,230

[HitObjects]
220,121,6218,6,0,L|272:110,1,45,4|0,3:0|2:0,0:0:0:0:
337,148,6410,1,0,0:0:0:0:
121,82,6603,6,0,L|146:191,1,112.5,8|0,2:0|2:0,0:0:0:0:
88,243,6987,5,0,0:0:0:0:
115,123,7180,6,0,P|141:131|166:146,1,45,4|0,3:0|2:0,0:0:0:0:
223,206,7372,6,0,P|198:155|156:118,1,112.5,0|0,0:0|2:0,0:0:0:0:
9,122,7564,6,0,P|38:106|71:100,1,67.5000025749208,8|0,2:0|2:0,0:0:0:0:
283,122,7756,5,4,3:0:0:0:
283,122,7949,1,0,0:0:0:0:
319,253,8141,6,0,P|349:193|407:161,1,135.000005149842,8|0,2:0|2:0,0:0:0:0:
495,159,8333,5,4,3:0:0:0:
312,338,8526,6,0,L|268:329,1,45,0|0,0:0|2:0,0:0:0:0:
260,171,8718,6,0,L|213:180,1,33.7500012874604,8|0,2:0|2:0,0:0:0:0:
172,308,8910,6,0,L|144:301,1,22.5,4|0,3:0|2:0,0:0:0:0:
121,201,9103,6,0,L|105:204,1,11.25,4|0,3:0|2:0,0:0:0:0:
37,269,9295,6,0,L|33:291,1,22.5,4|0,0:3|2:0,0:0:0:0:
33,291,9391,1,0,0:0:0:0:
33,291,9487,1,0,0:0:0:0:
33,291,9583,1,0,0:0:0:0:
34,178,9680,6,0,L|43:134,1,45,8|0,0:2|2:0,0:0:0:0:
43,134,9776,1,0,0:0:0:0:
43,134,9872,1,0,0:0:0:0:
43,134,9968,1,0,0:0:0:0:
95,41,10064,6,0,P|179:8|267:18,1,180,2|0,0:3|2:0,0:0:0:0:
403,14,10256,6,0,P|352:40|329:75,1,90,0|0,0:0|2:0,0:0:0:0:
193,86,10449,6,0,P|226:87|256:101,1,67.5000025749208,0|0,0:0|2:0,0:0:0:0:
380,284,10641,6,0,L|369:327,1,45,8|0,2:0|2:0,0:0:0:0:
218,204,10833,6,0,L|241:308,1,90,4|0,3:0|0:0,0:0:0:0:
436,217,11218,6,0,P|372:191|307:197,1,135.000005149842,8|4,0:2|0:3,0:0:0:0:
77,257,11603,6,0,L|88:214,1,45,0|0,0:0|2:0,0:0:0:0:
88,214,11795,2,0,L|77:257,1,45,8|0,0:2|2:0,0:0:0:0:
92,352,11987,5,4,3:0:0:0:
152,146,12180,1,4,3:0:0:0:
230,340,12372,6,0,L|263:332,1,33.7500012874604,4|0,3:0|2:0,0:0:0:0:
229,190,12564,6,0,L|244:255,1,67.5000025749208
349,315,12756,5,8,2:0:0:0:
263,332,12853,2,0,L|274:330,1,11.25,0|0,0:0|2:0,0:0:0:0:
433,359,12949,5,0,0:0:0:0:
433,359,13045,1,0,0:0:0:0:
461,178,13141,6,0,L|466:201,1,22.5,0|0,0:0|2:0,0:0:0:0:
471,223,13237,2,0,L|466:201,1,22.5,0|0,0:0|2:0,0:0:0:0:
415,277,13333,6,0,P|374:240|319:243,1,112.5,4|0,3:0|3:0,0:0:0:0:
82,220,13526,6,0,L|104:215,1,22.5,0|0,0:0|2:0,0:0:0:0:
126,210,13622,2,0,L|104:215,1,22.5,0|0,0:0|2:0,0:0:0:0:
201,196,13718,6,0,P|192:250|148:283,1,112.5,8|0,2:0|3:0,0:0:0:0:
222,362,13910,6,0,L|309:341,1,90,0|0,0:0|2:0,0:0:0:0:
297,135,14103,6,0,L|286:91,1,45,0|0,0:0|2:0,0:0:0:0:
202,104,14295,6,0,L|177:110,1,22.5,8|0,2:0|0:0,0:0:0:0:
337,20,14680,5,0,0:0:0:0:
375,181,14872,1,8,2:0:0:0:
116,160,15064,5,4,3:0:0:0:
398,91,15256,1,4,3:0:0:0:
195,339,15449,5,4,3:0:0:0:
225,220,15641,2,0,L|214:264,1,45
267,57,15833,6,0,L|246:144,1,90,8|0,2:0|2:0,0:0:0:0:
403,346,16026,5,0,0:0:0:0:
405,310,16122,1,0,0:0:0:0:
388,278,16218,1,0,0:0:0:0:
357,259,16314,1,0,0:0:0:0:
285,251,16410,5,4,3:0:0:0:
285,251,16506,1,0,0:0:0:0:
214,263,16603,5,0,0:0:0:0:
147,232,16699,1,0,0:0:0:0:
112,169,16795,1,8,2:0:0:0:
131,100,16891,1,0,0:0:0:0:
306,10,16987,6,0,L|316:53,1,45,4|0,3:0|2:0,0:0:0:0:
253,149,17180,2,0,L|296:138,1,45,0|0,0:0|2:0,0:0:0:0:
365,249,17372,2,0,L|354:205,1,45,8|0,2:0|2:0,0:0:0:0:
416,110,17564,2,0,L|372:120,1,45,4|0,3:0|2:0,0:0:0:0:
176,104,17756,5,0,0:0:0:0:
202,223,17949,1,8,2:0:0:0:
503,216,18141,5,4,3:0:0:0:
151,299,18333,1,4,3:0:0:0:
503,216,18526,5,4,3:0:0:0:
151,299,19295,5,0,3:0:0:0:
151,299,19391,1,0,3:0:0:0:
151,299,19487,1,4,3:0:0:0:
151,299,19583,1,0,3:0:0:0:
79,239,19680,6,0,L|122:228,1,45,2|0,3:0|3:0,0:0:0:0:
202,223,19872,2,0,L|190:179,1,45,6|0,3:0|3:0,0:0:0:0:
143,119,20064,5,4,3:0:0:0:
258,142,20833,5,0,3:0:0:0:
258,142,20929,1,0,3:0:0:0:
258,142,21025,1,0,3:0:0:0:
258,142,21121,1,0,3:0:0:0:
337,112,21218,5,4,0:3:0:0:
329,156,21314,1,0,3:0:0:0:
414,90,21410,5,4,0:3:0:0:
398,169,21506,1,0,3:0:0:0:
491,68,22372,5,0,3:0:0:0:
491,68,22468,1,0,3:0:0:0:
491,68,22564,1,4,3:0:0:0:
491,68,22660,1,0,3:0:0:0:
293,100,22756,6,0,L|336:111,1,45,2|0,2:0|2:0,0:0:0:0:
410,51,22949,6,0,L|388:45,1,22.5,2|0,2:0|2:0,0:0:0:0:
469,230,23141,6,0,P|439:189|392:177,1,101.250003862381,4|0,3:0|2:0,0:0:0:0:
364,311,23526,2,0,P|370:278|394:255,1,67.5000025749208,8|4,2:0|3:0,0:0:0:0:
236,366,23910,5,0,3:0:0:0:
247,363,24006,1,0,3:0:0:0:
197,263,24103,5,0,3:0:0:0:
206,257,24199,1,0,3:0:0:0:
113,181,24295,5,0,3:0:0:0:
120,172,24391,1,0,3:0:0:0:
2,134,24487,5,0,3:0:0:0:
6,123,24583,1,0,3:0:0:0:
