osu file format v14

[General]
AudioFilename: audio.mp3
AudioLeadIn: 0
PreviewTime: 109405
Countdown: 0
SampleSet: Soft
StackLeniency: 0.3
Mode: 0
LetterboxInBreaks: 0
WidescreenStoryboard: 1

[Editor]
Bookmarks: 11814,23521,38155,49863,61570,73277,84985,96692,109863,123033,134741,146448,158155,169863,181570,194741,207911
DistanceSpacing: 1.2
BeatDivisor: 8
GridSize: 4
TimelineZoom: 0.8

[Metadata]
Title:Black Widow feat. Rita Ora
TitleUnicode:Black Widow feat. Rita Ora
Artist:Iggy Azalea
ArtistUnicode:Iggy Azalea
Creator:arronchu1207
Version:Hard
Source:
Tags:English Trap Rap Hip Hop Pop Ascended ft. The New Classic
BeatmapID:4167575
BeatmapSetID:1994807

[Difficulty]
HPDrainRate:4
CircleSize:4
OverallDifficulty:6
ApproachRate:7.5
SliderMultiplier:2.69999990463257
SliderTickRate:1

[Events]
//Background and Video events
0,0,"hehe.jpg",0,0
//Break Periods
//Storyboard Layer 0 (Background)
//Storyboard Layer 1 (Fail)
//Storyboard Layer 2 (Pass)
//Storyboard Layer 3 (Foreground)
//Storyboard Layer 4 (Overlay)
//Storyboard Sound Samples

[TimingPoints]
107,731.707317073171,4,2,1,49,1,0
38155,-100,4,2,1,49,0,0
96692,-100,4,2,1,59,0,0
111326,-100,4,2,1,69,0,1
121387,-100,4,2,1,49,0,0
122302,-100,4,2,1,49,0,1
123033,-100,4,2,1,49,0,0
181570,-100,4,2,1,59,0,0
196204,-100,4,2,1,69,0,1
206265,-100,4,2,1,49,0,0
207911,-100,4,2,1,5,0,0

[Colours]
Combo1 : 255,51,199
Combo2 : 200,200,200
Combo3 : 91,91,91
Combo4 : 255,151,255

[HitObjects]
158,317,107,5,8,0:0:0:0:
158,317,289,1,0,0:0:0:0:
158,317,472,2,0,P|97:305|36:355,2,134.999995231628,8|8|8,0:0|0:0|0:0,0:0:0:0:
225,271,1387,1,0,0:0:0:0:
168,213,1570,6,0,P|160:173|172:137,1,67.4999976158142,8|0,0:0|0:0,0:0:0:0:
235,105,1936,2,0,L|96:84,2,134.999995231628,8|8|8,0:0|0:0|0:0,0:0:0:0:
300,57,2850,1,0,0:0:0:0:
355,129,3033,5,8,0:0:0:0:
355,129,3216,1,0,0:0:0:0:
355,129,3399,2,0,P|395:137|477:84,2,134.999995231628,8|8|8,0:0|0:0|0:0,0:0:0:0:
301,190,4314,1,0,0:0:0:0:
301,190,4497,2,0,L|312:265,3,67.4999976158142,8|0|8|0,0:0|0:0|0:0|0:0,0:0:0:0:
372,309,5228,2,0,L|361:384,3,67.4999976158142,8|0|8|0,0:0|0:0|0:0|0:0,0:0:0:0:
244,333,5960,5,8,0:0:0:0:
244,333,6143,1,0,0:0:0:0:
244,333,6326,2,0,P|188:326|115:383,2,134.999995231628,8|8|8,0:0|0:0|0:0,0:0:0:0:
301,274,7241,1,0,0:0:0:0:
301,274,7424,6,0,L|291:199,1,67.4999976158142,8|0,0:0|0:0,0:0:0:0:
350,150,7789,2,0,P|375:105|363:19,2,134.999995231628,8|8|8,0:0|0:0|0:0,0:0:0:0:
289,95,8704,1,0,0:0:0:0:
222,141,8887,5,8,0:0:0:0:
222,141,9070,1,0,0:0:0:0:
222,141,9253,2,0,L|83:163,2,134.999995231628,8|8|8,0:0|0:0|0:0,0:0:0:0:
275,208,10167,1,0,0:0:0:0:
275,208,10350,6,0,P|283:257|272:289,3,67.4999976158142,8|0|8|0,0:0|0:0|0:0|0:0,0:0:0:0:
222,332,11082,2,0,P|173:340|141:329,3,67.4999976158142,8|0|8|0,0:0|0:0|0:0|0:0,0:0:0:0:
91,286,11814,5,8,0:0:0:0:
91,286,11997,1,0,0:0:0:0:
91,286,12180,2,0,L|82:212,1,67.4999976158142,8|0,0:0|0:0,0:0:0:0:
140,161,12546,2,0,P|181:192|279:180,1,134.999995231628,8|8,0:0|0:0,0:0:0:0:
327,142,13094,1,0,0:0:0:0:
327,142,13277,6,0,P|357:130|399:130,1,67.4999976158142,8|0,0:0|0:0,0:0:0:0:
463,167,13643,1,8,0:0:0:0:
463,167,14009,2,0,L|443:315,1,134.999995231628,8|8,0:0|0:0,0:0:0:0:
389,360,14558,1,0,0:0:0:0:
326,307,14741,6,0,P|291:305|252:323,1,67.4999976158142,8|0,0:0|0:0,0:0:0:0:
190,356,15107,2,0,P|155:358|116:340,1,67.4999976158142,8|0,0:0|0:0,0:0:0:0:
67,289,15472,1,8,0:0:0:0:
192,185,15838,1,8,0:0:0:0:
192,185,16021,1,0,0:0:0:0:
192,185,16204,6,0,L|173:38,1,134.999995231628,8|8,0:0|0:0,0:0:0:0:
247,12,16753,1,0,0:0:0:0:
247,12,16936,2,0,L|255:81,1,67.4999976158142,8|0,0:0|0:0,0:0:0:0:
309,139,17302,2,0,P|352:154|385:145,1,67.4999976158142,8|0,0:0|0:0,0:0:0:0:
436,100,17667,5,8,0:0:0:0:
436,100,17850,1,0,0:0:0:0:
436,100,18033,2,0,P|477:92|491:170,2,134.999995231628,8|8|8,0:0|0:0|0:0,0:0:0:0:
372,150,18948,1,0,0:0:0:0:
372,150,19131,6,0,L|380:228,1,67.4999976158142,8|0,0:0|0:0,0:0:0:0:
426,282,19497,2,0,L|418:360,1,67.4999976158142,8|0,0:0|0:0,0:0:0:0:
341,375,19863,1,8,0:0:0:0:
225,262,20228,1,0,0:0:0:0:
225,262,20411,1,0,0:0:0:0:
225,262,20594,6,0,L|85:282,1,134.999995231628,8|8,0:0|0:0,0:0:0:0:
8,140,21326,2,0,L|141:120,1,134.999995231628,8|8,0:0|1:0,0:0:0:0:
198,62,21875,1,0,0:0:0:0:
198,62,22058,2,0,P|233:75|268:73,1,67.4999976158142,8|0,0:0|0:0,0:0:0:0:
333,33,22424,2,0,P|368:20|403:22,1,67.4999976158142,8|0,0:0|0:0,0:0:0:0:
463,68,22789,1,8,0:0:0:0:
344,178,23155,1,8,0:0:0:0:
451,299,23521,5,0,1:0:0:0:
451,299,23704,1,0,0:0:0:0:
451,299,23887,2,0,L|376:312,1,67.4999976158142,0|0,1:0|0:0,0:0:0:0:
310,343,24253,2,0,L|376:331,1,67.4999976158142,0|0,1:0|0:0,0:0:0:0:
313,253,24619,2,0,L|238:266,1,67.4999976158142,0|0,1:0|0:0,0:0:0:0:
176,305,24985,5,0,1:0:0:0:
176,305,25167,1,0,0:0:0:0:
176,305,25350,2,0,P|160:349|159:383,1,67.4999976158142,0|0,1:0|0:0,0:0:0:0:
72,318,25716,2,0,P|67:284|54:253,1,67.4999976158142,0|0,1:0|0:0,0:0:0:0:
60,172,26082,2,0,P|44:216|43:250,1,67.4999976158142,0|0,1:0|0:0,0:0:0:0:
150,187,26448,5,0,1:0:0:0:
150,187,26631,1,0,0:0:0:0:
150,187,26814,2,0,L|130:50,2,134.999995231628,0|0|0,1:0|1:0|1:0,0:0:0:0:
217,231,27728,1,0,0:0:0:0:
274,174,27911,6,0,P|302:162|348:163,1,67.4999976158142,0|0,1:0|0:0,0:0:0:0:
402,110,28277,1,0,1:0:0:0:
402,110,28460,1,0,0:0:0:0:
402,110,28643,2,0,L|380:262,1,134.999995231628,0|0,1:0|1:0,0:0:0:0:
318,293,29192,1,0,0:0:0:0:
257,238,29375,5,0,1:0:0:0:
257,238,29558,1,0,0:0:0:0:
257,238,29741,2,0,P|221:228|184:233,1,67.4999976158142,0|0,1:0|0:0,0:0:0:0:
119,268,30107,2,0,P|109:304|114:341,1,67.4999976158142
177,381,30472,2,0,L|256:366,1,67.4999976158142,0|0,1:0|0:0,0:0:0:0:
328,350,30838,5,0,1:0:0:0:
328,350,31021,1,0,0:0:0:0:
328,350,31204,1,0,1:0:0:0:
486,315,31570,1,0,1:0:0:0:
376,195,31936,1,0,1:0:0:0:
376,195,32119,1,0,0:0:0:0:
376,195,32302,6,0,P|368:147|375:120,1,67.4999976158142,6|0,1:2|0:0,0:0:0:0:
450,111,32667,2,0,P|402:119|375:112,1,67.4999976158142,0|0,1:0|0:0,0:0:0:0:
341,45,33033,2,0,L|267:33,1,67.4999976158142,0|0,1:0|0:0,0:0:0:0:
220,113,33399,2,0,L|286:123,1,67.4999976158142,0|0,1:0|0:0,0:0:0:0:
238,209,33765,6,0,P|193:225|158:219,1,67.4999976158142,6|0,1:2|0:0,0:0:0:0:
109,174,34131,2,0,P|64:158|29:164,1,67.4999976158142,0|0,1:0|0:0,0:0:0:0:
3,229,34497,2,0,L|14:300,1,67.4999976158142,0|0,1:0|0:0,0:0:0:0:
39,372,34863,2,0,L|28:305,1,67.4999976158142,0|0,1:0|0:0,0:0:0:0:
95,259,35228,6,0,P|140:260|173:283,1,67.4999976158142,6|0,1:2|0:0,0:0:0:0:
186,301,35503,1,0,0:0:0:0:
186,301,35594,2,0,P|231:300|264:277,1,67.4999976158142,6|0,1:2|0:0,0:0:0:0:
304,229,35960,1,6,1:2:0:0:
304,229,36143,1,0,0:0:0:0:
304,229,36326,2,0,L|294:158,1,67.4999976158142,6|0,1:2|0:0,0:0:0:0:
342,95,36692,1,2,0:0:0:0:
342,95,38155,6,0,P|372:108|422:104,2,67.4999976158142,2|0|0,1:2|0:0|0:0,0:0:0:0:
